osu file format v14

[General]
AudioFilename: audio.mp3
AudioLeadIn: 0
PreviewTime: 67900
Countdown: 0
SampleSet: Soft
StackLeniency: 0.5
Mode: 0
LetterboxInBreaks: 0
WidescreenStoryboard: 0

[Editor]
DistanceSpacing: 0.5
BeatDivisor: 6
GridSize: 4
TimelineZoom: 2.2

[Metadata]
Title:Black Lotus
TitleUnicode:Black Lotus
Artist:wa.
ArtistUnicode:wa.
Creator:Frostings
Version:Expert
Source:
Tags:bofu2016 of fighters ultimate legendary again BMS instrumental electronic
BeatmapID:1231850
BeatmapSetID:582024

[Difficulty]
HPDrainRate:7
CircleSize:4
OverallDifficulty:9
ApproachRate:9.6
SliderMultiplier:1.7
SliderTickRate:1

[Events]
//Background and Video events
0,0,"bg.png",0,0
//Break Periods
2,3900,5291
//Storyboard Layer 0 (Background)
//Storyboard Layer 1 (Fail)
//Storyboard Layer 2 (Pass)
//Storyboard Layer 3 (Foreground)
//Storyboard Layer 4 (Overlay)
//Storyboard Sound Samples

[TimingPoints]
100,300,4,2,1,30,1,0
1300,-400,4,2,1,80,0,0
3100,-100,4,2,1,80,0,0
6250,-400,4,2,1,80,0,0
7900,-100,4,2,1,80,0,0
9400,-133.333333333333,4,2,1,80,0,0
10750,-80,4,2,1,80,0,0
10900,-111.111111111111,4,2,1,80,0,0
20500,-200,4,2,1,80,0,0
20950,-200,4,2,1,80,0,0
24400,-111.111111111111,4,2,1,80,0,0
27100,-175.438596491228,4,2,1,80,0,0
30550,-250,4,2,1,80,0,0
32200,-111.111111111111,4,2,1,80,0,0
36850,-333.333333333333,4,2,1,80,0,0
40000,-111.111111111111,4,2,1,80,0,0
56650,-80,4,2,1,80,0,0
57400,-111.111111111111,4,2,1,80,0,0
57700,-83.3333333333333,4,2,1,80,0,0
59050,-400,4,2,1,80,0,0
61600,-133.333333333333,4,2,1,80,0,0
63850,-400,4,2,1,80,0,0
65500,-100,4,2,1,80,0,0
68500,-90.9090909090909,4,2,1,80,0,1
80500,-80,4,2,1,80,0,1
82300,-90.9090909090909,4,2,1,80,0,1
87700,-133.333333333333,4,2,1,80,0,0
91525,-66.6666666666667,4,2,1,80,0,0
92500,-100,4,2,1,80,0,0
97750,-200,4,2,1,80,0,0
99700,-100,4,2,1,80,0,0

[Colours]
Combo1 : 100,100,179
Combo2 : 60,0,119
Combo3 : 0,185,0
Combo4 : 75,67,233
Combo5 : 7,122,207
Combo6 : 7,211,222

[HitObjects]
368,224,1000,38,0,L|392:220,6,21.25
144,160,1300,1,0,1:0:0:0:
259,298,1450,2,0,L|252:85,1,212.5,0|0,1:0|0:0,0:0:0:0:
144,192,3100,5,0,1:0:0:0:
169,210,3175,1,0,1:0:0:0:
200,219,3250,1,0,1:0:0:0:
230,211,3325,1,0,1:0:0:0:
255,192,3400,1,0,1:0:0:0:
281,172,3475,1,0,1:0:0:0:
311,164,3550,1,0,1:0:0:0:
341,173,3625,1,0,1:0:0:0:
367,191,3700,1,4,1:1:0:0:
298,286,5800,6,0,L|320:284,6,21.25
260,84,6100,1,0,1:0:0:0:
159,201,6250,2,0,B|262:251|251:132|356:183,1,212.5,0|0,1:0|0:0,0:0:0:0:
252,44,7900,5,0,1:0:0:0:
236,88,7975,1,0,1:0:0:0:
260,120,8050,1,0,1:0:0:0:
236,152,8125,1,0,1:0:0:0:
258,183,8200,1,0,1:0:0:0:
240,216,8275,1,0,1:0:0:0:
256,244,8350,1,0,1:0:0:0:
244,272,8425,1,0,1:0:0:0:
252,304,8500,1,0,1:0:0:0:
256,292,8725,37,0,1:0:0:0:
244,252,8950,5,0,1:0:0:0:
268,184,9175,5,0,1:0:0:0:
236,100,9400,6,0,L|233:36,1,63.7500024318696,4|0,1:0|0:0,0:0:0:0:
276,284,9700,38,0,L|278:347,1,63.7500024318696,2|0,0:0|0:0,0:0:0:0:
352,224,10000,1,0,0:0:0:0:
160,160,10150,1,0,0:0:0:0:
84,227,10300,1,2,0:0:0:0:
139,60,10450,1,0,0:0:0:0:
256,192,10600,1,2,0:0:0:0:
256,192,10675,1,0,0:0:0:0:
256,192,10750,2,0,L|264:132,1,53.125,8|0,0:3|0:0,0:0:0:0:
458,342,10900,6,0,P|378:342|330:298,1,114.749996498108,6|0,0:1|0:0,0:0:0:0:
352,224,11200,1,2,1:1:0:0:
256,352,11350,1,0,0:0:0:0:
121,284,11500,2,0,P|185:272|217:280,1,76.4999976654053,2|0,0:1|0:0,0:0:0:0:
195,273,11725,1,0,0:0:0:0:
195,273,11800,1,2,1:0:0:0:
84,176,11950,1,0,0:0:0:0:
28,344,12100,6,0,L|8:236,1,76.4999976654053,2|0,0:1|0:0,0:0:0:0:
132,376,12400,1,2,1:0:0:0:
200,184,12550,1,0,0:0:0:0:
296,328,12700,5,2,0:1:0:0:
297,308,12775,1,0,3:0:0:0:
298,289,12850,1,0,3:0:0:0:
299,270,12925,1,0,3:0:0:0:
301,251,13000,1,2,1:0:0:0:
302,232,13075,1,0,3:0:0:0:
303,213,13150,1,0,3:0:0:0:
200,308,13300,38,0,P|164:322|126:323,1,76.4999976654053,2|0,0:1|0:0,0:0:0:0:
40,192,13600,2,0,P|75:206|113:207,1,76.4999976654053,2|0,1:0|0:0,0:0:0:0:
176,128,13900,1,2,0:1:0:0:
32,336,14050,1,0,0:0:0:0:
29,317,14125,1,0,0:0:0:0:
27,298,14200,1,2,1:0:0:0:
132,360,14350,1,0,0:0:0:0:
244,192,14500,5,2,0:1:0:0:
304,304,14650,1,0,0:0:0:0:
304,304,14725,1,0,0:0:0:0:
304,304,14800,2,0,L|308:240,2,38.2499988327027,2|0|0,1:0|0:0|0:0,0:0:0:0:
24,176,15100,5,2,0:1:0:0:
46,188,15175,1,0,0:0:0:0:
71,191,15250,1,0,0:0:0:0:
95,185,15325,1,0,0:0:0:0:
116,171,15400,1,0,1:0:0:0:
130,150,15475,1,0,0:0:0:0:
136,125,15550,1,0,1:0:0:0:
128,24,15700,5,0,1:0:0:0:
236,192,15850,1,0,0:0:0:0:
236,192,15925,1,0,0:0:0:0:
236,192,16000,2,0,L|248:92,1,76.4999976654053,0|0,1:0|0:0,0:0:0:0:
356,244,16300,1,0,1:0:0:0:
468,112,16450,37,0,1:0:0:0:
443,126,16525,1,0,0:0:0:0:
415,130,16600,1,0,1:0:0:0:
388,121,16675,1,0,0:0:0:0:
366,102,16750,1,0,0:0:0:0:
312,8,16900,5,0,1:0:0:0:
294,183,17050,1,0,1:0:0:0:
205,30,17200,1,0,1:0:0:0:
196,139,17350,1,0,0:0:0:0:
272,96,17500,5,0,1:0:0:0:
98,52,17650,1,0,0:0:0:0:
98,52,17725,1,0,0:0:0:0:
98,52,17800,1,0,1:0:0:0:
147,225,17950,1,0,0:0:0:0:
40,128,18100,1,0,1:0:0:0:
44,272,18250,5,0,1:0:0:0:
44,272,18325,2,0,L|48:240,2,19.1249994163513,0|0|0,1:0|1:0|1:0,1:0:0:0:
240,180,18550,37,0,1:0:0:0:
240,180,18625,2,0,L|242:198,2,19.1249994163513,0|0|0,1:0|1:0|1:0,1:0:0:0:
392,264,18850,5,0,1:0:0:0:
392,264,18925,2,0,L|396:232,2,19.1249994163513,0|0|0,1:0|1:0|1:0,1:0:0:0:
308,332,19075,5,0,0:0:0:0:
308,332,19150,2,0,L|304:284,1,38.2499988327027
48,176,19300,5,0,1:0:0:0:
77,199,19375,1,0,1:0:0:0:
114,202,19450,1,0,1:0:0:0:
147,182,19525,1,0,1:0:0:0:
162,148,19600,1,0,1:0:0:0:
170,164,19675,1,0,1:0:0:0:
184,177,19750,1,0,1:0:0:0:
201,186,19825,1,0,1:0:0:0:
232,120,19900,37,0,1:0:0:0:
261,143,19975,1,0,1:0:0:0:
298,146,20050,1,0,1:0:0:0:
331,126,20125,1,0,1:0:0:0:
346,92,20200,1,0,1:0:0:0:
354,108,20275,1,0,1:0:0:0:
368,121,20350,1,0,1:0:0:0:
385,130,20425,1,0,1:0:0:0:
412,60,20500,6,0,P|405:131|406:171,1,106.25,2|0,3:0|0:0,0:0:0:0:
204,240,20950,6,0,P|193:164|300:236,1,297.5,4|0,1:0|0:0,0:0:0:0:
184,32,22600,5,0,1:0:0:0:
200,64,22675,1,0,1:0:0:0:
231,85,22750,1,0,1:0:0:0:
267,89,22825,1,0,1:0:0:0:
301,76,22900,1,0,1:0:0:0:
290,94,22975,1,0,1:0:0:0:
274,109,23050,1,0,1:0:0:0:
254,117,23125,1,0,1:0:0:0:
184,148,23200,37,0,1:0:0:0:
200,180,23275,1,0,1:0:0:0:
231,201,23350,1,0,1:0:0:0:
267,205,23425,1,0,1:0:0:0:
301,192,23500,1,0,1:0:0:0:
290,210,23575,1,0,1:0:0:0:
274,225,23650,1,0,1:0:0:0:
254,233,23725,1,0,1:0:0:0:
184,264,23800,5,0,1:0:0:0:
200,296,23875,1,0,1:0:0:0:
231,317,23950,1,0,1:0:0:0:
267,321,24025,1,0,1:0:0:0:
301,308,24100,1,0,1:0:0:0:
290,326,24175,1,0,1:0:0:0:
274,341,24250,1,0,1:0:0:0:
254,349,24325,1,0,1:0:0:0:
184,380,24400,6,0,L|176:344,6,19.1249994163513,0|0|0|0|0|0|0,1:0|1:0|1:0|1:0|1:0|1:0|1:0,1:0:0:0:
100,376,24700,5,4,1:0:0:0:
204,264,24850,1,0,0:0:0:0:
296,360,25000,1,0,0:0:0:0:
380,304,25150,1,0,0:0:0:0:
460,356,25300,37,0,1:0:0:0:
197,187,25450,2,0,L|204:264,1,76.4999976654053,2|0,3:3|0:0,0:0:0:0:
108,124,25750,5,0,1:0:0:0:
328,216,25900,2,0,L|335:139,1,76.4999976654053,2|0,3:3|0:3,0:0:0:0:
392,280,26200,5,0,1:0:0:0:
132,75,26350,2,0,L|140:152,1,76.4999976654053,2|0,3:3|0:3,0:0:0:0:
40,28,26650,5,0,1:0:0:0:
388,116,26800,2,0,L|396:40,1,76.4999976654053,2|0,3:3|0:3,0:0:0:0:
216,20,27100,38,0,B|260:52|300:68|300:68|236:108|236:108|276:156|276:156|252:188|252:188|256:272,1,339.149995859985,4|0,1:0|0:0,0:0:0:0:
256,192,28300,12,0,29800,0:0:0:0:
248,64,30100,5,0,1:0:0:0:
264,320,30250,1,2,0:3:0:0:
360,192,30550,6,0,B|320:192|280:216|280:216|232:168|232:168|192:192|152:192,1,238,4|0,1:0|0:0,0:0:0:0:
388,92,32200,5,0,1:0:0:0:
388,92,32275,1,0,1:0:0:0:
388,92,32350,1,0,1:0:0:0:
388,92,32425,1,0,1:0:0:0:
388,92,32500,2,0,L|324:80,2,50.9999984436036,0|0|0,1:0|1:0|1:0,1:0:0:0:
128,140,32800,38,0,L|192:128,2,50.9999984436036,0|0|0,1:0|1:0|1:0,1:0:0:0:
368,208,33100,6,0,L|304:196,2,50.9999984436036,0|0|0,1:0|1:0|1:0,1:0:0:0:
148,280,33400,6,0,L|212:268,2,50.9999984436036,0|0|0,1:0|1:0|1:0,1:0:0:0:
352,332,33700,6,0,L|288:320,2,50.9999984436036,0|0|0,1:0|1:0|1:0,1:0:0:0:
176,384,34000,38,0,L|240:372,2,50.9999984436036,0|0|0,1:0|1:0|1:0,1:0:0:0:
16,204,34300,6,0,L|96:224,1,76.4999976654053
128,196,34500,2,0,L|136:252,1,50.9999984436036
332,248,34700,2,0,L|314:279,1,25.4999992218018,0|0,1:0|1:0,0:0:0:0:
164,76,34900,5,0,1:0:0:0:
432,12,35050,6,0,L|340:24,1,76.4999976654053,2|0,3:3|0:0,0:0:0:0:
484,92,35350,1,0,1:0:0:0:
96,56,35500,38,0,L|188:68,1,76.4999976654053,2|0,3:0|0:0,0:0:0:0:
44,136,35800,1,0,1:0:0:0:
385,176,35950,6,0,L|293:188,1,76.4999976654053,2|0,3:0|0:0,0:0:0:0:
437,256,36250,1,0,1:0:0:0:
132,232,36400,6,0,L|224:244,1,76.4999976654053,2|0,3:0|0:0,0:0:0:0:
80,312,36700,1,0,1:0:0:0:
372,324,36850,6,0,L|280:336,2,76.4999976654053,4|0|0,1:0|0:0|0:0,0:0:0:0:
36,192,37900,37,0,0:0:0:0:
43,221,37975,1,0,0:0:0:0:
51,252,38050,1,0,0:0:0:0:
152,168,38200,5,0,0:0:0:0:
156,193,38275,1,0,0:0:0:0:
160,218,38350,1,0,0:0:0:0:
272,156,38500,5,0,0:0:0:0:
273,172,38575,1,0,0:0:0:0:
274,189,38650,1,0,0:0:0:0:
396,152,38800,5,0,0:0:0:0:
395,160,38875,1,0,0:0:0:0:
394,168,38950,1,0,0:0:0:0:
394,177,39025,1,0,0:0:0:0:
393,185,39100,1,0,0:0:0:0:
393,185,39700,37,4,1:0:0:0:
240,100,39850,1,0,0:0:0:0:
100,192,40000,2,0,L|84:108,1,76.4999976654053,2|0,1:0|0:0,0:0:0:0:
4,60,40300,1,0,1:0:0:0:
20,264,40450,1,0,1:0:0:0:
20,264,40525,1,0,1:0:0:0:
20,264,40600,1,0,1:0:0:0:
85,116,40750,1,0,0:0:0:0:
192,240,40900,6,0,L|200:192,3,38.2499988327027,0|0|0|0,1:0|0:0|0:0|0:0,0:0:0:0:
276,304,41200,2,0,L|282:341,3,38.2499988327027,0|0|0|0,1:0|0:0|0:0|0:0,0:0:0:0:
464,228,41500,1,2,1:2:0:0:
434,240,41575,1,0,1:0:0:0:
403,239,41650,1,0,1:0:0:0:
377,221,41725,1,0,1:0:0:0:
351,202,41800,1,2,1:2:0:0:
320,199,41875,1,0,1:0:0:0:
291,211,41950,1,0,1:0:0:0:
124,288,42100,6,0,P|107:254|101:216,1,76.4999976654053,2|0,1:2|0:0,0:0:0:0:
257,32,42400,2,0,P|274:66|280:104,1,76.4999976654053,2|0,1:0|1:0,0:0:0:0:
279,103,42625,1,0,1:0:0:0:
279,103,42700,1,0,1:0:0:0:
140,24,42850,1,0,0:0:0:0:
188,176,43000,1,0,1:0:0:0:
32,141,43150,5,0,1:0:0:0:
32,141,43225,1,0,1:0:0:0:
32,141,43300,1,2,1:2:0:0:
196,88,43450,1,0,0:0:0:0:
272,224,43600,1,2,1:0:0:0:
444,146,43750,37,0,1:0:0:0:
419,154,43825,1,0,1:0:0:0:
394,155,43900,1,0,1:0:0:0:
369,148,43975,1,0,1:0:0:0:
348,136,44050,1,0,1:0:0:0:
296,44,44200,1,0,1:0:0:0:
368,316,44350,1,0,1:0:0:0:
272,224,44500,5,0,1:0:0:0:
96,296,44650,2,0,L|72:232,1,38.2499988327027
164,160,44800,2,0,L|180:264,1,76.4999976654053,2|0,1:0|0:0,0:0:0:0:
266,280,45100,1,0,1:0:0:0:
268,266,45175,1,0,1:0:0:0:
269,252,45250,1,0,1:0:0:0:
271,238,45325,1,0,1:0:0:0:
272,224,45400,1,0,1:0:0:0:
340,332,45550,1,0,0:0:0:0:
252,120,45700,5,0,1:0:0:0:
277,132,45775,1,0,1:0:0:0:
305,135,45850,1,0,1:0:0:0:
332,126,45925,1,0,1:0:0:0:
354,107,46000,1,2,1:0:0:0:
368,224,46150,1,0,0:0:0:0:
448,108,46300,2,0,L|440:48,3,38.2499988327027,2|0|0|0,1:2|0:0|0:0|0:0,0:0:0:0:
512,176,46600,1,2,1:2:0:0:
512,176,46675,1,0,1:0:0:0:
512,176,46750,1,0,1:0:0:0:
260,220,46900,6,0,P|236:276|236:324,1,76.4999976654053,0|0,1:0|0:0,0:0:0:0:
468,316,47200,2,0,P|466:277|454:241,1,76.4999976654053,2|0,1:0|0:0,0:0:0:0:
396,380,47500,1,0,1:0:0:0:
344,256,47650,1,0,1:0:0:0:
344,256,47725,1,0,1:0:0:0:
344,256,47800,2,0,L|352:324,1,38.2499988327027,0|0,1:0|0:0,0:0:0:0:
396,176,47950,1,0,0:0:0:0:
139,138,48100,38,0,P|191:154|247:150,1,76.4999976654053,0|2,1:0|0:1,0:0:0:0:
271,102,48325,1,0,0:0:0:0:
271,102,48400,1,0,1:0:0:0:
200,268,48550,2,0,L|192:228,1,38.2499988327027,0|0,1:0|1:0,1:0:0:0:
156,48,48700,1,0,1:0:0:0:
64,208,48850,2,0,L|72:176,4,19.1249994163513,0|0|0|0|0,1:0|1:0|1:0|1:0|1:0,1:0:0:0:
112,304,49150,2,0,L|112:268,2,19.1249994163513,0|0|0,1:0|1:0|1:0,1:0:0:0:
400,216,49300,6,0,P|394:170|356:121,1,76.4999976654053,4|0,1:0|0:0,0:0:0:0:
200,268,49600,2,0,P|205:313|243:362,1,76.4999976654053,2|0,1:0|0:0,0:0:0:0:
264,164,49900,1,0,1:0:0:0:
344,340,50050,1,0,1:0:0:0:
344,340,50125,1,0,1:0:0:0:
344,340,50200,1,0,1:0:0:0:
400,216,50350,1,0,0:0:0:0:
492,308,50500,5,0,1:0:0:0:
493,293,50575,1,0,1:0:0:0:
495,279,50650,1,0,1:0:0:0:
496,265,50725,1,0,1:0:0:0:
498,250,50800,1,2,1:0:0:0:
392,348,50950,1,0,0:0:0:0:
128,212,51100,5,0,1:0:0:0:
154,239,51175,1,0,1:0:0:0:
190,247,51250,1,0,1:0:0:0:
226,235,51325,1,0,1:0:0:0:
268,180,51400,37,0,1:0:0:0:
285,201,51475,1,0,1:0:0:0:
310,212,51550,1,0,1:0:0:0:
339,208,51625,1,0,1:0:0:0:
412,188,51700,6,0,L|409:226,1,38.2499988327027,0|0,1:0|0:0,0:0:0:0:
188,156,51850,1,0,0:0:0:0:
188,156,51925,1,0,0:0:0:0:
188,156,52000,2,0,L|176:68,1,76.4999976654053,2|0,1:0|0:0,0:0:0:0:
284,36,52225,1,0,1:0:0:0:
284,36,52300,2,0,L|280:104,2,38.2499988327027,0|0|0,1:0|1:0|1:0,1:0:0:0:
68,64,52600,1,0,1:0:0:0:
71,82,52675,1,0,1:0:0:0:
74,101,52750,1,0,1:0:0:0:
376,100,52900,6,0,L|360:166,2,38.2499988327027,0|0|2,1:0|1:0|1:0,1:0:0:0:
177,80,53200,1,0,1:0:0:0:
179,98,53275,1,0,1:0:0:0:
181,117,53350,1,0,1:0:0:0:
432,272,53500,5,0,1:0:0:0:
396,284,53575,1,0,1:0:0:0:
358,279,53650,1,0,1:0:0:0:
328,256,53725,1,0,1:0:0:0:
288,312,53800,37,0,1:0:0:0:
269,292,53875,1,0,1:0:0:0:
245,281,53950,1,0,1:0:0:0:
216,285,54025,1,0,1:0:0:0:
152,316,54100,6,0,L|144:272,3,38.2499988327027,0|0|0|0,1:0|0:0|0:0|0:0,0:0:0:0:
268,208,54400,2,0,L|276:164,3,38.2499988327027,2|0|0|0,1:0|0:0|0:0|0:0,0:0:0:0:
144,96,54700,1,0,1:0:0:0:
144,96,54775,1,0,1:0:0:0:
144,96,54850,2,0,L|152:164,1,38.2499988327027,0|0,1:0|1:0,1:0:0:0:
363,133,55000,1,0,1:0:0:0:
363,133,55075,1,0,1:0:0:0:
363,133,55151,2,0,L|368:96,1,38.2499988327027,0|0,1:0|1:0,1:0:0:0:
232,20,55300,5,0,1:0:0:0:
276,68,55375,1,0,1:0:0:0:
244,104,55450,1,2,1:0:0:0:
268,136,55525,1,0,1:0:0:0:
252,168,55600,1,0,1:0:0:0:
264,196,55675,1,0,1:0:0:0:
256,220,55750,1,0,1:0:0:0:
268,236,55825,1,0,1:0:0:0:
260,260,55900,6,0,L|264:320,3,38.2499988327027,0|0|0|0,1:0|1:0|1:0|1:0,1:0:0:0:
260,144,56200,2,0,L|256:204,3,38.2499988327027,0|0|0|0,1:0|1:0|1:0|1:0,1:0:0:0:
180,72,56500,37,0,1:0:0:0:
180,72,56575,1,0,1:0:0:0:
180,72,56650,2,0,L|184:116,4,26.5625,0|0|0|0|0,1:0|1:0|1:0|1:0|1:0,1:0:0:0:
320,24,56950,2,0,L|316:68,4,26.5625,0|0|0|0|0,1:0|1:0|1:0|1:0|1:0,1:0:0:0:
136,192,57250,5,0,1:0:0:0:
174,213,57325,1,0,1:0:0:0:
218,214,57400,1,0,1:0:0:0:
256,191,57475,1,0,1:0:0:0:
294,169,57550,1,0,1:0:0:0:
337,170,57625,1,0,1:0:0:0:
376,192,57700,2,0,L|368:152,1,25.4999992218018,0|0,1:0|1:0,1:0:0:0:
384,200,57775,2,0,L|372:160,1,25.4999992218018,0|0,1:0|1:0,1:0:0:0:
392,192,57850,2,0,L|377:153,1,25.4999992218018,0|0,1:0|1:0,1:0:0:0:
400,196,57925,2,0,L|381:158,1,25.4999992218018,0|0,1:0|1:0,1:0:0:0:
408,192,58000,2,0,L|386:157,1,25.4999992218018,0|0,1:0|1:0,1:0:0:0:
416,196,58075,2,0,L|391:162,1,25.4999992218018,0|0,1:0|1:0,1:0:0:0:
424,192,58150,2,0,L|397:161,1,25.4999992218018,0|0,1:0|1:0,1:0:0:0:
432,196,58225,2,0,L|401:167,1,25.4999992218018,0|0,1:0|1:0,1:0:0:0:
440,192,58300,5,0,1:0:0:0:
424,200,58375,1,0,1:0:0:0:
400,188,58450,1,0,1:0:0:0:
376,200,58525,1,0,1:0:0:0:
344,188,58600,1,0,1:0:0:0:
316,208,58675,1,0,1:0:0:0:
276,188,58750,1,0,1:0:0:0:
244,216,58825,1,0,1:0:0:0:
192,180,58900,1,0,1:0:0:0:
88,244,59050,6,0,L|76:136,2,106.25,4|0|0,1:1|0:0|0:0,0:0:0:0:
303,244,60700,37,0,1:0:0:0:
323,212,60775,1,0,1:0:0:0:
322,174,60850,1,0,1:0:0:0:
302,142,60925,1,0,1:0:0:0:
268,126,61000,1,0,1:0:0:0:
230,130,61075,1,0,1:0:0:0:
201,154,61150,1,0,1:0:0:0:
188,189,61225,1,0,1:0:0:0:
196,226,61300,1,0,1:0:0:0:
368,280,61600,6,0,L|372:236,3,42.5000016212464
160,192,62200,2,0,L|156:148,3,42.5000016212464
344,136,62800,2,0,L|348:96,6,21.2500008106232
216,72,63400,2,0,L|212:36,3,21.2500008106232
248,64,63700,5,0,1:0:0:0:
264,352,63850,2,0,L|256:156,1,191.25,0|0,1:0|0:0,0:0:0:0:
112,192,65500,5,0,1:0:0:0:
144,219,65575,1,0,1:0:0:0:
184,233,65650,1,0,1:0:0:0:
223,220,65725,1,0,1:0:0:0:
255,192,65800,1,0,1:0:0:0:
287,164,65875,1,0,1:0:0:0:
328,151,65950,1,0,1:0:0:0:
368,165,66025,1,0,1:0:0:0:
400,192,66100,1,0,1:0:0:0:
376,192,66325,37,0,1:0:0:0:
360,152,66550,5,0,1:0:0:0:
288,152,66775,5,0,1:0:0:0:
228,56,67000,5,0,1:0:0:0:
272,136,67075,1,0,1:0:0:0:
228,184,67150,1,0,1:0:0:0:
264,220,67225,1,0,1:0:0:0:
248,260,67300,1,0,1:0:0:0:
260,288,67375,1,0,1:0:0:0:
252,308,67450,38,0,L|256:336,4,21.25,0|0|0|0|0,1:0|1:0|1:0|1:0|1:0,1:0:0:0:
259,186,67675,2,0,L|256:208,4,21.25,0|0|0|0|0,1:0|1:0|1:0|1:0|1:0,1:0:0:0:
248,100,67900,5,0,1:0:0:0:
256,60,68500,6,0,L|264:168,1,93.5000028533936,2|0,1:1|0:1,0:1:0:0:
156,24,68800,1,0,1:0:0:0:
356,112,68950,2,0,L|420:100,2,46.7500014266968,2|0|0,0:1|0:0|1:0,0:0:0:0:
184,232,69250,1,0,0:0:0:0:
156,124,69400,2,0,L|110:115,2,46.7500014266968,0|0|0,1:0|0:0|0:0,0:0:0:0:
256,60,69700,5,2,1:0:0:0:
364,296,69850,1,0,0:0:0:0:
364,296,69925,1,0,0:0:0:0:
364,296,70000,2,0,P|295:292|245:254,1,93.5000028533936,0|2,1:0|0:1,0:0:0:0:
72,328,70300,2,0,P|140:331|190:369,1,93.5000028533936,0|0,1:0|0:0,0:0:0:0:
16,224,70600,1,0,1:0:0:0:
184,224,70750,37,0,0:0:0:0:
184,224,70825,1,0,0:0:0:0:
184,224,70900,2,0,L|176:116,2,93.5000028533936,2|0|0,1:1|0:1|1:1,1:0:0:0:
80,80,71350,1,2,0:1:0:0:
312,224,71500,2,0,L|305:317,2,93.5000028533936,0|0|0,1:0|0:0|1:0,0:0:0:0:
107,319,71950,5,0,0:0:0:0:
107,319,72025,1,0,0:0:0:0:
107,319,72100,2,0,P|155:328|205:311,1,93.5000028533936,2|0,1:1|0:1,0:1:0:0:
288,100,72400,1,0,1:0:0:0:
452,240,72550,2,0,P|403:240|356:214,1,93.5000028533936,2|0,0:1|1:0,0:0:0:0:
172,80,72850,1,0,0:0:0:0:
60,216,73000,2,0,P|108:216|155:190,1,93.5000028533936,0|0,1:0|1:0,0:0:0:0:
268,144,73300,6,0,L|257:343,2,187.000005706787,2|0|0,1:0|1:0|1:0,0:0:0:0:
344,76,74050,1,2,0:1:0:0:
160,196,74200,2,0,P|96:200|48:176,1,93.5000028533936,0|0,1:0|0:0,0:0:0:0:
356,244,74500,2,0,P|420:240|468:264,1,93.5000028533936,0|0,1:0|0:0,0:0:0:0:
268,144,74800,1,0,1:0:0:0:
196,40,74950,2,0,P|116:20|68:36,1,93.5000028533936,2|0,0:1|0:1,0:1:0:0:
160,140,75250,1,0,0:0:0:0:
364,128,75400,2,0,P|444:108|492:124,1,93.5000028533936,2|0,1:1|0:1,0:1:0:0:
304,48,75700,5,2,1:1:0:0:
283,236,75850,2,0,L|267:140,1,93.5000028533936,0|0,1:0|1:0,1:0:0:0:
244,176,76075,1,0,1:0:0:0:
220,168,76150,1,0,1:0:0:0:
200,180,76225,1,0,1:0:0:0:
172,152,76300,2,0,L|164:216,1,46.7500014266968,0|0,1:0|0:0,1:0:0:0:
88,80,76450,1,0,1:0:0:0:
76,308,76600,37,0,1:0:0:0:
73,284,76675,1,0,1:0:0:0:
69,261,76750,1,0,1:0:0:0:
62,239,76825,1,0,1:0:0:0:
53,217,76900,1,0,1:0:0:0:
236,308,77050,2,0,P|308:320|340:312,1,93.5000028533936,0|0,0:0|1:0,0:0:0:0:
452,300,77275,1,0,1:0:0:0:
416,304,77350,2,0,L|408:388,1,46.7500014266968,0|0,1:0|1:0,1:0:0:0:
260,208,77500,1,0,1:0:0:0:
368,216,77650,5,0,1:0:0:0:
372,192,77725,1,0,1:0:0:0:
360,164,77800,1,0,1:0:0:0:
384,132,77875,1,0,1:0:0:0:
360,96,77950,2,0,L|364:17,1,46.7500014266968,0|0,1:0|1:0,1:0:0:0:
260,208,78100,5,2,1:0:0:0:
172,104,78250,2,0,L|178:150,2,46.7500014266968,0|0|0,0:0|0:0|1:0,0:0:0:0:
264,20,78550,2,0,L|260:92,1,46.7500014266968,2|0,0:1|0:0,0:0:0:0:
96,212,78700,2,0,L|80:124,1,46.7500014266968,0|0,1:0|0:0,0:0:0:0:
0,56,78850,1,0,0:0:0:0:
0,56,78925,1,0,0:0:0:0:
0,56,79000,2,0,P|88:72|128:52,1,93.5000028533936,0|0,1:0|0:0,0:0:0:0:
172,8,79300,5,2,1:1:0:0:
288,196,79450,2,0,L|300:128,1,46.7500014266968
180,108,79600,2,0,L|192:232,1,93.5000028533936,0|2,1:0|0:1,0:0:0:0:
87,166,79900,1,0,1:0:0:0:
120,304,80050,1,0,1:0:0:0:
120,304,80125,1,0,1:0:0:0:
120,304,80200,2,0,L|108:232,1,46.7500014266968,0|0,1:0|1:0,1:0:0:0:
228,296,80350,2,0,L|220:344,1,46.7500014266968,0|0,1:0|1:0,1:0:0:0:
392,284,80500,6,0,B|331:316|331:316|308:144,1,212.5,2|0,1:0|0:0,0:0:0:0:
16,72,80950,2,0,B|84:152|84:152|130:43,1,212.5,2|0,1:0|0:0,0:0:0:0:
196,156,81400,1,2,1:0:0:0:
300,112,81550,2,0,L|316:232,1,106.25,2|0,1:0|0:0,0:0:0:0:
436,32,81850,2,0,B|368:52|368:52|312:10|312:10|244:32,1,212.5,2|0,1:0|0:0,0:0:0:0:
252,240,82300,6,0,P|264:296|264:352,1,93.5000028533936,2|0,1:0|1:0,0:0:0:0:
112,124,82600,5,0,1:0:0:0:
156,152,82675,1,0,1:0:0:0:
196,128,82750,1,0,1:0:0:0:
216,149,82825,1,0,1:0:0:0:
244,136,82900,2,0,L|292:140,1,46.7500014266968,2|0,1:1|1:0,1:0:0:0:
368,48,83050,1,0,1:0:0:0:
344,328,83200,2,0,L|328:220,1,93.5000028533936,0|0,1:0|1:0,1:0:0:0:
372,256,83425,1,0,1:0:0:0:
400,240,83500,1,0,1:0:0:0:
64,256,83650,5,0,1:0:0:0:
102,281,83725,1,0,1:0:0:0:
131,264,83800,1,0,1:0:0:0:
160,271,83875,1,0,1:0:0:0:
189,254,83950,2,0,L|256:240,1,46.7500014266968,0|0,1:0|1:0,1:0:0:0:
236,344,84100,1,0,1:0:0:0:
80,124,84250,1,0,1:0:0:0:
80,124,84325,1,0,1:0:0:0:
80,124,84400,2,0,L|88:188,2,46.7500014266968,0|0|0,1:0|1:0|1:0,1:0:0:0:
148,48,84700,5,2,1:0:0:0:
324,192,84850,2,0,L|329:169,4,23.3750007133484,0|0|0|0|0,1:0|1:0|1:0|1:0|1:0,1:0:0:0:
236,172,85075,1,0,1:0:0:0:
219,188,85150,1,0,1:0:0:0:
198,199,85225,1,0,1:0:0:0:
176,206,85300,1,2,1:0:0:0:
153,207,85375,1,0,1:0:0:0:
130,203,85450,2,0,L|116:168,4,23.3750007133484,0|0|0|0|0,1:0|1:0|1:0|1:0|1:0,1:0:0:0:
312,296,85750,6,0,L|326:260,4,23.3750007133484,0|0|0|0|0,1:0|1:0|1:0|1:0|1:0,1:0:0:0:
188,76,86050,38,0,L|184:116,4,23.3750007133484,0|0|0|0|0,1:0|1:0|1:0|1:0|1:0,1:0:0:0:
360,168,86350,6,0,L|348:136,2,23.3750007133484,0|0|0,1:0|1:0|1:0,1:0:0:0:
256,192,86500,5,6,1:0:0:0:
256,192,86525,12,0,87075,0:0:0:0:
216,48,87100,5,0,1:0:0:0:
288,108,87175,1,0,1:0:0:0:
236,144,87250,1,0,1:0:0:0:
272,188,87325,1,0,1:0:0:0:
248,220,87400,1,0,1:0:0:0:
264,252,87475,1,0,1:0:0:0:
256,276,87550,1,0,1:0:0:0:
264,296,87625,1,0,0:0:0:0:
260,312,87700,2,0,L|268:396,1,63.7500024318696,0|0,1:0|1:0,1:0:0:0:
240,44,88150,37,4,1:0:0:0:
148,84,89800,5,0,1:0:0:0:
171,87,89875,1,0,1:0:0:0:
194,82,89950,1,0,1:0:0:0:
214,69,90025,1,0,1:0:0:0:
228,100,90100,5,0,1:0:0:0:
267,87,90175,1,0,1:0:0:0:
308,98,90250,1,0,1:0:0:0:
334,131,90325,1,0,1:0:0:0:
356,200,90400,5,0,1:0:0:0:
332,203,90475,1,0,1:0:0:0:
309,198,90550,1,0,1:0:0:0:
289,185,90625,1,0,1:0:0:0:
276,216,90700,37,0,1:0:0:0:
236,203,90775,1,0,1:0:0:0:
195,214,90850,1,0,1:0:0:0:
169,247,90925,1,0,1:0:0:0:
147,315,91000,5,0,1:0:0:0:
171,319,91075,1,0,1:0:0:0:
194,314,91150,1,0,1:0:0:0:
214,301,91225,1,0,1:0:0:0:
227,331,91300,5,0,1:0:0:0:
267,318,91375,1,0,1:0:0:0:
308,329,91450,1,0,1:0:0:0:
334,362,91525,2,0,L|340:328,8,31.8750012159348,0|0|0|0|0|0|0|0|0,1:0|1:0|1:0|1:0|1:0|1:0|1:0|1:0|1:0,1:0:0:0:
424,368,91900,5,0,1:0:0:0:
348,196,92050,1,0,0:0:0:0:
238,348,92200,1,0,0:0:0:0:
168,228,92350,1,0,0:0:0:0:
68,324,92500,38,0,L|63:303,2,21.25,0|0|0,1:0|1:0|1:0,1:0:0:0:
64,120,92650,2,0,L|80:240,1,85,0|0,1:0|1:0,1:0:0:0:
196,136,92950,6,0,L|191:156,2,21.25,0|0|0,1:0|1:0|1:0,1:0:0:0:
192,340,93100,2,0,L|208:220,1,85,0|0,1:0|1:0,1:0:0:0:
320,284,93400,6,0,L|315:263,2,21.25,0|0|0,1:0|1:0|1:0,1:0:0:0:
316,80,93550,2,0,L|332:200,1,85,0|0,1:0|1:0,1:0:0:0:
448,96,93850,6,0,L|443:116,2,21.25,0|0|0,1:0|1:0|1:0,1:0:0:0:
444,300,94000,2,0,L|460:180,1,85,0|0,1:0|1:0,1:0:0:0:
256,192,94300,37,0,1:0:0:0:
256,192,94450,12,0,95800,0:0:0:0:
220,0,96100,5,0,0:0:0:0:
280,48,96175,1,0,0:0:0:0:
232,80,96250,1,0,0:0:0:0:
268,116,96325,1,0,0:0:0:0:
248,148,96400,1,0,0:0:0:0:
260,176,96475,1,0,0:0:0:0:
244,192,96550,1,0,0:0:0:0:
264,208,96625,1,0,0:0:0:0:
236,220,96700,6,0,L|272:228,1,21.25
248,248,96775,2,0,L|268:244,1,21.25
240,264,96850,2,0,L|260:268,1,21.25
244,288,96925,2,0,L|264:284,1,21.25
260,304,97000,1,0,0:0:0:0:
252,320,97075,1,0,0:0:0:0:
260,336,97150,2,0,L|263:378,1,42.5
256,192,97300,5,0,1:0:0:0:
252,96,97450,2,0,L|248:7,1,85,0|0,1:0|0:0,0:0:0:0:
256,192,97750,38,0,L|264:359,2,148.75,4|0|0,1:0|0:0|0:0,0:0:0:0:
112,48,99400,5,0,1:0:0:0:
112,48,99475,1,0,1:0:0:0:
112,48,99550,1,0,1:0:0:0:
112,48,99625,1,0,1:0:0:0:
112,48,99700,2,0,L|176:64,2,56.6666666666667,0|0|0,1:0|1:0|1:0,1:0:0:0:
392,76,100000,6,0,L|328:92,2,56.6666666666667,0|0|0,1:0|1:0|1:0,1:0:0:0:
128,200,100300,6,0,L|192:184,2,56.6666666666667,0|0|0,1:0|1:0|1:0,1:0:0:0:
384,248,100600,38,0,L|320:232,2,56.6666666666667,0|0|0,1:0|1:0|1:0,1:0:0:0:
152,360,100900,6,0,L|212:333,2,56.6666666666667,0|0|0,1:0|1:0|1:0,1:0:0:0:
352,372,101200,6,0,L|291:345,2,56.6666666666667,0|0|0,1:0|1:0|1:0,1:0:0:0:
120,172,101500,6,0,P|169:166|207:144,1,85,4|0,3:0|0:0,0:0:0:0:
356,252,101700,2,0,P|312:244|290:232,1,56.6666666666667,8|0,3:0|0:0,0:0:0:0:
312,104,101900,2,0,L|308:136,1,28.3333333333333,0|2,0:0|0:3,0:0:0:0:
208,244,102100,37,0,1:0:0:0:
64,48,102250,2,0,L|172:68,1,85,2|0,3:3|0:0,0:0:0:0:
112,292,102550,5,0,1:0:0:0:
424,124,102700,2,0,L|304:148,1,85,2|0,3:3|0:0,0:0:0:0:
68,192,103000,5,0,1:0:0:0:
424,344,103150,2,0,L|304:320,1,85,2|0,3:3|0:0,0:0:0:0:
492,240,103450,5,0,1:0:0:0:
104,60,103600,2,0,L|224:36,1,85,2|0,3:3|0:0,0:0:0:0:
256,316,103900,37,0,1:0:0:0:
256,192,104050,1,2,3:3:0:0:
256,192,104200,12,0,104950,0:0:0:0:
96,220,105100,5,0,1:0:0:0:
66,190,105175,1,0,0:0:0:0:
59,149,105250,1,0,1:0:0:0:
77,111,105325,1,0,0:0:0:0:
113,90,105400,1,0,1:0:0:0:
154,93,105475,1,0,0:0:0:0:
186,120,105550,1,0,1:0:0:0:
197,161,105625,1,0,1:0:0:0:
183,200,105700,1,0,1:0:0:0:
224,168,105775,5,0,1:0:0:0:
256,188,105850,1,0,1:0:0:0:
288,168,105925,1,0,1:0:0:0:
312,184,106000,1,0,1:0:0:0:
352,184,106075,1,0,1:0:0:0:
360,204,106150,1,0,1:0:0:0:
388,228,106225,1,0,1:0:0:0:
