osu file format v14

[General]
AudioFilename: audio.mp3
AudioLeadIn: 0
PreviewTime: 67900
Countdown: 0
SampleSet: Soft
StackLeniency: 0.5
Mode: 0
LetterboxInBreaks: 0
WidescreenStoryboard: 0

[Editor]
DistanceSpacing: 1.4
BeatDivisor: 4
GridSize: 4
TimelineZoom: 2.2

[Metadata]
Title:Black Lotus
TitleUnicode:Black Lotus
Artist:wa.
ArtistUnicode:wa.
Creator:Frostings
Version:Advanced
Source:
Tags:bofu2016 of fighters ultimate legendary again BMS instrumental electronic
BeatmapID:1240494
BeatmapSetID:582024

[Difficulty]
HPDrainRate:4
CircleSize:3
OverallDifficulty:6
ApproachRate:7
SliderMultiplier:1.2
SliderTickRate:1

[Events]
//Background and Video events
0,0,"bg.png",0,0
//Break Periods
2,3899,5050
2,61499,62650
//Storyboard Layer 0 (Background)
//Storyboard Layer 1 (Fail)
//Storyboard Layer 2 (Pass)
//Storyboard Layer 3 (Foreground)
//Storyboard Layer 4 (Overlay)
//Storyboard Sound Samples

[TimingPoints]
100,300,4,2,1,80,1,0
1450,-200,4,2,1,80,0,0
3100,-133.333333333333,4,2,1,80,0,0
6100,-200,4,2,1,80,0,0
7900,-133.333333333333,4,2,1,80,0,0
57700,-153.846153846154,4,2,1,80,0,0
60700,-133.333333333333,4,2,1,80,0,0
63850,-200,4,2,1,80,0,0
65500,-133.333333333333,4,2,1,80,0,0
68500,-133.333333333333,4,2,1,80,0,1
87700,-133.333333333333,4,2,1,80,0,0
97750,-153.846153846154,4,2,1,80,0,0
99400,-133.333333333333,4,2,1,80,0,0
106300,-133.333333333333,4,2,1,30,0,0

[Colours]
Combo1 : 100,100,179
Combo2 : 60,0,119
Combo3 : 0,185,0
Combo4 : 75,67,233
Combo5 : 7,122,207
Combo6 : 7,211,222

[HitObjects]
130,202,1300,37,0,1:0:0:0:
130,202,1450,2,0,B|262:266|249:117|381:181,1,270,2|0,1:3|0:0,0:0:0:0:
328,288,3100,2,0,L|332:316,8,22.5000008583069,0|0|0|0|0|0|0|0|4,1:0|1:0|1:0|1:0|1:0|1:0|1:0|1:0|1:0,1:0:0:0:
252,56,6100,5,0,1:0:0:0:
252,56,6250,2,0,L|260:328,1,270,2|0,1:3|0:0,0:0:0:0:
144,212,7900,2,0,L|146:171,8,22.5000008583069,0|0|0|0|0|0|0|0|0,1:0|1:0|1:0|1:0|1:0|1:0|1:0|1:0|1:0,1:0:0:0:
44,232,8725,2,0,L|36:148,2,67.5000025749207,0|0|0,1:0|1:0|1:0,1:0:0:0:
100,316,9400,1,4,1:0:0:0:
296,255,9700,6,0,B|163:314|175:172|43:232,1,270.000010299683
96,56,10900,6,0,P|160:72|200:64,1,90.0000034332277,2|2,1:0|1:0,0:0:0:0:
416,128,11500,2,0,P|350:138|311:126,1,90.0000034332277,2|2,1:0|1:0,0:0:0:0:
92,260,12100,2,0,P|157:253|192:231,1,90.0000034332277,2|2,1:0|1:0,0:0:0:0:
404,332,12700,2,0,P|340:313|309:286,1,90.0000034332277,2|2,1:0|1:0,0:0:0:0:
256,192,13300,37,2,1:0:0:0:
315,81,13600,1,2,1:0:0:0:
130,195,13900,1,2,1:0:0:0:
322,299,14200,1,2,1:0:0:0:
256,192,14500,6,0,L|248:96,1,90.0000034332277,2|2,1:0|1:0,0:0:0:0:
368,176,15100,2,0,L|364:216,8,22.5000008583069,2|0|0|0|0|0|0|0|0,1:0|0:0|0:0|0:0|0:0|0:0|0:0|0:0|1:0,0:0:0:0:
456,260,16000,5,0,1:0:0:0:
432,44,16300,2,0,P|381:64|341:63,1,90.0000034332277,0|0,1:0|1:0,0:0:0:0:
84,120,16900,2,0,P|129:121|170:140,1,90.0000034332277,0|0,1:0|1:0,0:0:0:0:
436,252,17500,2,0,P|395:234|351:233,1,90.0000034332277,0|0,1:0|1:0,0:0:0:0:
256,360,18100,6,0,B|284:296|284:296|244:248|244:248|272:192|272:192|256:116,1,270.000010299683,0|0,1:0|1:0,0:0:0:0:
256,192,19300,12,0,20500,1:0:0:0:
256,192,20950,37,4,1:0:0:0:
132,40,22600,6,0,L|140:132,1,90.0000034332277,0|0,1:0|1:0,0:0:0:0:
236,144,23200,2,0,L|244:236,1,90.0000034332277,0|0,1:0|1:0,0:0:0:0:
76,232,23800,2,0,L|84:324,1,90.0000034332277,0|0,1:0|1:0,0:0:0:0:
340,252,24400,2,0,L|348:344,1,90.0000034332277,0|0,1:0|1:0,0:0:0:0:
364,84,25300,6,0,L|312:92,1,45.0000017166138,0|2,1:0|3:3,0:0:0:0:
132,144,25750,2,0,L|184:152,1,45.0000017166138,0|2,1:0|3:3,0:0:0:0:
376,236,26200,2,0,L|324:244,1,45.0000017166138,0|2,1:0|3:3,0:0:0:0:
152,320,26650,2,0,L|196:326,1,45.0000017166138,0|2,1:0|3:3,0:0:0:0:
256,192,27100,5,4,1:0:0:0:
256,192,27400,12,0,30100,1:0:0:0:
256,192,30550,37,4,1:0:0:0:
344,40,32200,6,0,B|335:84|335:84|352:139,1,90.0000034332277,0|0,1:0|1:0,0:0:0:0:
288,316,32800,2,0,B|296:271|296:271|283:228,1,90.0000034332277,0|0,1:0|1:0,0:0:0:0:
176,48,33400,2,0,B|167:92|167:92|184:147,1,90.0000034332277,0|0,1:0|1:0,0:0:0:0:
120,327,34001,2,0,B|129:282|129:282|116:240,1,90.0000034332277,0|0,1:0|1:0,0:0:0:0:
376,96,34900,6,0,L|316:108,1,45.0000017166138,0|2,1:0|3:3,0:0:0:0:
136,96,35350,2,0,L|196:108,1,45.0000017166138,0|2,1:0|3:3,0:0:0:0:
372,284,35800,2,0,L|312:270,1,45.0000017166138,0|2,1:0|3:3,0:0:0:0:
140,284,36250,2,0,L|199:270,1,45.0000017166138,0|2,1:0|3:3,0:0:0:0:
256,192,36700,5,4,1:0:0:0:
256,192,37000,12,0,39100,0:0:0:0:
420,144,39700,38,0,P|428:189|416:248,1,90.0000034332277,4|2,1:0|1:0,0:0:0:0:
192,172,40300,2,0,P|183:126|196:68,1,90.0000034332277,0|0,1:0|1:0,0:0:0:0:
304,136,40900,2,0,P|312:200|292:324,1,180.000006866455,0|2,1:0|1:2,0:0:0:0:
192,352,41800,1,2,1:2:0:0:
80,248,42100,6,0,P|144:248|180:232,1,90.0000034332277,0|2,1:0|1:0,0:0:0:0:
252,168,42700,1,0,1:0:0:0:
192,352,43000,1,0,1:0:0:0:
368,268,43300,2,0,P|304:268|268:284,1,90.0000034332277,0|2,1:0|1:0,0:0:0:0:
108,96,43900,2,0,P|150:108|195:104,1,90.0000034332277,0|0,1:0|1:0,0:0:0:0:
280,28,44500,5,0,1:0:0:0:
212,208,44800,1,2,1:0:0:0:
384,172,45100,2,0,L|376:76,1,90.0000034332277,0|0,1:0|1:0,0:0:0:0:
264,172,45700,2,0,L|256:368,1,180.000006866455,0|2,1:0|1:2,0:0:0:0:
360,372,46600,1,2,1:2:0:0:
160,272,46900,6,0,P|100:300|60:300,1,90.0000034332277,0|2,1:0|1:0,0:0:0:0:
64,68,47500,2,0,P|129:73|164:93,1,90.0000034332277,0|0,1:0|1:0,0:0:0:0:
236,196,48100,2,0,P|320:212|392:156,1,180.000006866455,0|0,1:0|1:0,0:0:0:0:
504,68,49000,2,0,L|507:157,1,90.0000034332277,0|4,1:0|1:1,0:0:0:0:
324,292,49600,38,0,L|320:184,2,90.0000034332277,2|0|0,1:0|1:0|1:0,0:0:0:0:
224,344,50500,2,0,P|190:312|58:313,1,180.000006866455,0|2,1:0|1:2,0:0:0:0:
152,88,51400,1,2,1:2:0:0:
24,176,51700,6,0,P|80:188|132:180,1,90.0000034332277,0|2,1:0|1:0,0:0:0:0:
284,264,52300,2,0,P|228:252|176:260,1,90.0000034332277,0|0,1:0|1:0,0:0:0:0:
84,64,52900,2,0,P|140:76|192:68,1,90.0000034332277,0|2,1:0|1:0,0:0:0:0:
344,152,53500,2,0,P|288:140|236:148,1,90.0000034332277,0|0,1:0|1:0,0:0:0:0:
128,300,54100,6,0,P|193:255|294:278,1,180.000006866455,0|0,1:0|1:0,0:0:0:0:
372,344,55000,1,0,1:0:0:0:
464,288,55300,2,0,L|472:192,1,90.0000034332277,0|2,1:0|1:0,0:0:0:0:
224,136,55900,2,0,L|231:225,1,90.0000034332277,2|2,1:2|1:2,0:0:0:0:
356,144,56500,5,0,1:0:0:0:
356,144,56650,2,0,L|363:15,2,90.0000034332277,0|0|0,1:0|1:0|1:0,1:0:0:0:
480,272,57700,38,0,B|328:355|344:163|194:245,1,311.999985717774,0|0,1:0|1:0,0:0:0:0:
194,246,59050,1,4,1:0:0:0:
256,176,60700,6,0,L|256:212,8,22.5000008583069,0|0|0|0|0|0|0|0|4,1:0|1:0|1:0|1:0|1:0|1:0|1:0|1:0|1:0,1:0:0:0:
136,180,63700,5,0,1:0:0:0:
136,180,63850,2,0,B|183:205|183:205|231:180|231:180|279:205|279:205|327:180|327:180|375:205|375:205,1,270,2|0,0:3|0:0,0:0:0:0:
480,260,65500,6,0,L|484:220,8,22.5000008583069,0|0|0|0|0|0|0|0|0,1:0|1:0|1:0|1:0|1:0|1:0|1:0|1:0|1:0,1:0:0:0:
379,271,66325,2,0,L|373:204,2,67.5000025749207,0|0|0,1:0|1:0|1:0,0:0:0:0:
272,312,67000,2,0,L|231:39,1,270.000010299683,0|0,1:0|1:0,0:0:0:0:
71,284,68500,38,0,P|139:282|172:264,1,90.0000034332277,6|0,1:0|1:0,0:0:0:0:
224,336,68950,2,0,P|266:321|311:325,1,90.0000034332277,2|0,0:1|0:0,0:0:0:0:
388,372,69400,1,0,1:0:0:0:
416,104,69700,5,2,1:0:0:0:
224,200,70000,1,0,1:0:0:0:
224,200,70150,2,0,L|216:100,1,90.0000034332277,2|0,0:1|0:0,0:0:0:0:
284,48,70600,1,0,1:0:0:0:
48,260,70900,6,0,P|106:234|150:238,1,90.0000034332277,2|0,1:0|1:0,0:0:0:0:
192,304,71350,2,0,P|255:300|295:319,1,90.0000034332277,2|0,0:1|0:0,0:0:0:0:
356,360,71800,1,0,1:0:0:0:
432,140,72100,5,2,1:0:0:0:
432,140,72250,2,0,L|448:248,2,90.0000034332277,0|2|0,0:0|0:1|0:0,0:0:0:0:
488,68,73000,1,0,1:0:0:0:
288,156,73300,38,0,P|216:172|124:120,1,180.000006866455,2|0,1:0|1:0,0:0:0:0:
32,108,74050,2,0,P|36:136|37:167,1,45.0000017166138,2|0,0:1|1:0,0:0:0:0:
104,332,74500,6,0,P|175:318|203:300,1,90.0000034332277,0|0,1:0|1:0,0:0:0:0:
274,349,74950,2,0,P|315:331|360:328,1,90.0000034332277,2|0,0:1|0:0,0:0:0:0:
440,372,75400,1,2,1:0:0:0:
464,128,75700,5,2,1:0:0:0:
464,128,75850,2,0,L|460:192,2,45.0000017166138,0|0|0,1:0|1:0|1:0,0:0:0:0:
388,72,76300,1,0,1:0:0:0:
388,72,76450,2,0,L|236:96,1,135.000005149841,0|0,1:0|1:0,0:0:0:0:
88,24,77200,2,0,L|148:32,1,45.0000017166138,0|0,1:0|1:0,0:0:0:0:
176,260,77650,2,0,P|172:176|152:108,1,135.000005149841,0|2,1:0|1:0,0:0:0:0:
284,248,78400,5,0,1:0:0:0:
284,248,78550,2,0,P|352:268|380:264,1,90.0000034332277,2|0,0:1|0:0,0:0:0:0:
448,212,79000,1,0,1:0:0:0:
228,136,79300,38,0,P|160:116|132:120,1,90.0000034332277,2|0,1:0|1:0,0:0:0:0:
168,216,79750,2,0,P|97:220|72:233,1,90.0000034332277,2|0,0:1|0:0,0:0:0:0:
64,320,80200,1,0,1:0:0:0:
320,292,80500,54,0,P|390:302|413:318,1,90.0000034332277,2|0,1:0|0:0,0:0:0:0:
472,372,80950,1,2,1:0:0:0:
188,232,81400,2,0,P|117:242|94:258,1,90.0000034332277,2|0,1:0|0:0,0:0:0:0:
36,312,81850,1,2,1:0:0:0:
256,132,82300,6,0,L|252:68,1,45.0000017166138,2|0,1:0|1:0,0:0:0:0:
336,44,82600,6,0,L|340:8,4,22.5000008583069,0|0|0|0|2,1:0|1:0|1:0|1:0|1:0,1:0:0:0:
440,144,83200,6,0,L|432:244,1,90.0000034332277,0|0,1:0|1:0,0:0:0:0:
344,264,83650,2,0,L|340:224,2,22.5000008583069,0|0|0,1:0|1:0|1:0,1:0:0:0:
184,316,84100,2,0,L|180:372,2,45.0000017166138,0|0|0,1:0|1:0|1:0,0:0:0:0:
36,208,84700,2,0,L|140:228,1,90.0000034332277,2|0,1:0|1:0,0:0:0:0:
392,92,85300,6,0,B|348:80|348:80|304:96,1,90.0000034332277,2|0,1:0|1:0,0:0:0:0:
120,292,85900,2,0,B|164:304|164:304|208:288,1,90.0000034332277,0|0,1:0|1:0,0:0:0:0:
256,192,86500,1,2,1:0:0:0:
252,102,87100,6,0,L|259:281,1,180.000006866455,0|2,1:0|1:3,0:0:0:0:
344,60,88150,1,4,1:0:0:0:
256,192,89800,12,0,91900,1:0:0:0:
325,105,92500,37,0,1:0:0:0:
325,105,92650,1,2,3:3:0:0:
185,277,92950,1,0,1:0:0:0:
185,277,93100,1,2,3:3:0:0:
169,121,93400,1,0,1:0:0:0:
169,121,93550,1,2,3:3:0:0:
341,261,93850,1,0,1:0:0:0:
341,261,94000,1,2,3:3:0:0:
256,192,94300,5,4,1:0:0:0:
256,192,94600,12,2,97300,1:3:0:0:
127,203,97750,6,0,B|262:264|248:118|383:179,1,272.999987503052,4|0,1:0|0:0,0:0:0:0:
408,40,99400,6,0,L|304:52,1,90.0000034332277,0|0,1:0|1:0,0:0:0:0:
210,250,100000,2,0,L|300:240,1,90.0000034332277,0|0,1:0|1:0,0:0:0:0:
172,132,100600,2,0,L|68:144,1,90.0000034332277,0|0,1:0|1:0,0:0:0:0:
190,358,101200,2,0,L|280:348,2,90.0000034332277,0|0|0,1:0|1:0|1:0,0:0:0:0:
128,264,102100,38,0,L|192:252,1,45.0000017166138,0|2,1:0|3:3,0:0:0:0:
384,76,102550,2,0,L|320:88,1,45.0000017166138,0|2,1:0|3:3,0:0:0:0:
128,76,103000,2,0,L|192:88,1,45.0000017166138,0|2,1:0|3:3,0:0:0:0:
384,264,103450,2,0,L|320:252,1,45.0000017166138,0|2,1:0|3:3,0:0:0:0:
256,192,103900,5,4,1:0:0:0:
256,192,104200,12,2,106300,0:0:0:0:
