osu file format v14

[General]
AudioFilename: audio.mp3
AudioLeadIn: 0
PreviewTime: -1
Countdown: 1
SampleSet: Normal
StackLeniency: 0.7
Mode: 3
LetterboxInBreaks: 0
SpecialStyle: 0
WidescreenStoryboard: 1

[Editor]
DistanceSpacing: 1
BeatDivisor: 4
GridSize: 32
TimelineZoom: 2.4

[Metadata]
Title:Prophesy One
TitleUnicode:Prophesy One
Artist:vox2(Ono Hideyuki)
ArtistUnicode:vox2(小野秀幸)
Creator:My Angel Hibiki
Version:Master Lv.13
Source:maimai
Tags:pink plus boss
BeatmapID:1562320
BeatmapSetID:740543

[Difficulty]
HPDrainRate:9
CircleSize:4
OverallDifficulty:9
ApproachRate:5
SliderMultiplier:1.4
SliderTickRate:1

[Events]
//Background and Video events
0,0,"prophesy one.jpg",0,0
//Break Periods
//Storyboard Layer 0 (Background)
//Storyboard Layer 1 (Fail)
//Storyboard Layer 2 (Pass)
//Storyboard Layer 3 (Foreground)
//Storyboard Sound Samples

[TimingPoints]
468,250,4,1,0,30,1,0
468,-90.9090909090909,4,1,0,30,0,0
36468,227.272727272727,5,1,0,30,1,0
42149,227.272727272727,4,1,0,30,1,0
43967,227.272727272727,5,1,0,30,1,0
48512,227.272727272727,4,1,0,30,1,0
64875,-100,4,1,0,30,0,1
77602,227.272727272727,3,1,0,30,1,1
78283,227.272727272727,4,1,0,30,1,0
79192,227.272727272727,3,1,0,30,1,0
79874,227.272727272727,4,1,0,30,1,0
102601,-100,4,1,0,30,0,1
108055,227.272727272727,3,1,0,30,1,1
108736,227.272727272727,4,1,0,30,1,0
109645,227.272727272727,3,1,0,30,1,0
110327,227.272727272727,4,1,0,30,1,0
120326,227.272727272727,7,1,0,30,1,0

[HitObjects]
64,192,468,128,0,968:0:0:0:0:
320,192,718,128,0,1218:0:0:0:0:
192,192,968,128,0,1468:0:0:0:0:
448,192,1218,128,0,1718:0:0:0:0:
320,192,1468,128,0,2218:0:0:0:0:
64,192,1718,128,0,2218:0:0:0:0:
192,192,1968,128,0,2218:0:0:0:0:
448,192,2218,128,0,2468:0:0:0:0:
64,192,2468,1,0,0:0:0:0:
192,192,2468,1,0,0:0:0:0:
320,192,2468,128,0,4468:0:0:0:0:
448,192,2968,1,0,0:0:0:0:
192,192,3468,1,0,0:0:0:0:
64,192,3468,1,0,0:0:0:0:
64,192,4468,128,0,6218:0:0:0:0:
448,192,4468,1,0,0:0:0:0:
320,192,4968,1,0,0:0:0:0:
192,192,5468,1,0,0:0:0:0:
448,192,5468,1,0,0:0:0:0:
320,192,5968,1,0,0:0:0:0:
448,192,6218,128,0,6343:0:0:0:0:
192,192,6343,128,0,6468:0:0:0:0:
320,192,6468,128,0,7468:0:0:0:0:
64,192,6468,1,0,0:0:0:0:
448,192,6968,1,0,0:0:0:0:
64,192,7468,128,0,8468:0:0:0:0:
192,192,7468,1,0,0:0:0:0:
448,192,7718,1,0,0:0:0:0:
192,192,7968,1,0,0:0:0:0:
448,192,8468,128,0,8968:0:0:0:0:
320,192,8468,1,0,0:0:0:0:
192,192,8718,128,0,9218:0:0:0:0:
320,192,8968,128,0,9468:0:0:0:0:
64,192,9218,128,0,9718:0:0:0:0:
192,192,9468,128,0,10218:0:0:0:0:
448,192,9718,128,0,10218:0:0:0:0:
320,192,9968,128,0,10218:0:0:0:0:
64,192,10218,128,0,10468:0:0:0:0:
448,192,10468,1,0,0:0:0:0:
320,192,10468,1,0,0:0:0:0:
192,192,10468,128,0,12468:0:0:0:0:
64,192,10968,1,0,0:0:0:0:
320,192,11468,1,0,0:0:0:0:
448,192,11468,1,0,0:0:0:0:
64,192,11968,1,0,0:0:0:0:
448,192,12468,128,0,13968:0:0:0:0:
320,192,12468,1,0,0:0:0:0:
192,192,12968,1,0,0:0:0:0:
320,192,13468,1,0,0:0:0:0:
64,192,13468,128,0,14468:0:0:0:0:
320,192,13968,128,0,14968:0:0:0:0:
192,192,14468,128,0,15468:0:0:0:0:
448,192,14468,1,0,0:0:0:0:
64,192,14968,1,0,0:0:0:0:
448,192,15468,128,0,16468:0:0:0:0:
64,192,15468,1,0,0:0:0:0:
320,192,15593,1,0,0:0:0:0:
192,192,15718,1,0,0:0:0:0:
64,192,15843,1,0,0:0:0:0:
320,192,15968,1,0,0:0:0:0:
192,192,16093,1,0,0:0:0:0:
64,192,16218,1,0,0:0:0:0:
192,192,16343,1,0,0:0:0:0:
320,192,16468,1,0,0:0:0:0:
320,192,16593,1,0,0:0:0:0:
320,192,16718,1,0,0:0:0:0:
64,192,16718,1,0,0:0:0:0:
64,192,16968,1,0,0:0:0:0:
448,192,16968,1,0,0:0:0:0:
192,192,17218,1,0,0:0:0:0:
448,192,17218,1,0,0:0:0:0:
64,192,17468,1,0,0:0:0:0:
320,192,17468,1,0,0:0:0:0:
448,192,17468,1,0,0:0:0:0:
64,192,17593,1,0,0:0:0:0:
64,192,17718,1,0,0:0:0:0:
192,192,17718,1,0,0:0:0:0:
192,192,17968,1,0,0:0:0:0:
320,192,17968,1,0,0:0:0:0:
320,192,18218,1,0,0:0:0:0:
448,192,18218,1,0,0:0:0:0:
64,192,18468,1,0,0:0:0:0:
192,192,18468,1,0,0:0:0:0:
448,192,18468,1,0,0:0:0:0:
64,192,18593,1,0,0:0:0:0:
64,192,18718,1,0,0:0:0:0:
320,192,18718,1,0,0:0:0:0:
192,192,18968,1,0,0:0:0:0:
448,192,18968,1,0,0:0:0:0:
320,192,19218,1,0,0:0:0:0:
64,192,19218,1,0,0:0:0:0:
64,192,19468,1,0,0:0:0:0:
192,192,19468,1,0,0:0:0:0:
320,192,19468,1,0,0:0:0:0:
320,192,19593,1,0,0:0:0:0:
320,192,19718,1,0,0:0:0:0:
448,192,19718,1,0,0:0:0:0:
192,192,19968,1,0,0:0:0:0:
320,192,19968,1,0,0:0:0:0:
192,192,20218,1,0,0:0:0:0:
64,192,20218,1,0,0:0:0:0:
448,192,20468,1,0,0:0:0:0:
320,192,20509,1,0,0:0:0:0:
64,192,20551,1,0,0:0:0:0:
192,192,20593,1,0,0:0:0:0:
320,192,20634,1,0,0:0:0:0:
448,192,20676,1,0,0:0:0:0:
64,192,20718,1,0,0:0:0:0:
192,192,20759,1,0,0:0:0:0:
448,192,20801,1,0,0:0:0:0:
320,192,20843,1,0,0:0:0:0:
192,192,20884,1,0,0:0:0:0:
64,192,20926,1,0,0:0:0:0:
320,192,20968,1,0,0:0:0:0:
448,192,21009,1,0,0:0:0:0:
64,192,21051,1,0,0:0:0:0:
320,192,21093,1,0,0:0:0:0:
192,192,21134,1,0,0:0:0:0:
448,192,21176,1,0,0:0:0:0:
64,192,21218,1,0,0:0:0:0:
192,192,21259,1,0,0:0:0:0:
320,192,21301,1,0,0:0:0:0:
448,192,21343,1,0,0:0:0:0:
192,192,21384,1,0,0:0:0:0:
64,192,21426,1,0,0:0:0:0:
320,192,21468,1,0,0:0:0:0:
192,192,21509,1,0,0:0:0:0:
448,192,21551,1,0,0:0:0:0:
320,192,21593,1,0,0:0:0:0:
64,192,21634,1,0,0:0:0:0:
192,192,21676,1,0,0:0:0:0:
320,192,21718,1,0,0:0:0:0:
448,192,21759,1,0,0:0:0:0:
192,192,21801,1,0,0:0:0:0:
320,192,21843,1,0,0:0:0:0:
64,192,21884,1,0,0:0:0:0:
192,192,21926,1,0,0:0:0:0:
448,192,21968,1,0,0:0:0:0:
320,192,22009,1,0,0:0:0:0:
64,192,22051,1,0,0:0:0:0:
192,192,22093,1,0,0:0:0:0:
320,192,22134,1,0,0:0:0:0:
448,192,22176,1,0,0:0:0:0:
64,192,22218,1,0,0:0:0:0:
192,192,22259,1,0,0:0:0:0:
448,192,22301,1,0,0:0:0:0:
320,192,22343,1,0,0:0:0:0:
192,192,22384,1,0,0:0:0:0:
64,192,22426,1,0,0:0:0:0:
448,192,22468,1,0,0:0:0:0:
192,192,22509,1,0,0:0:0:0:
320,192,22551,1,0,0:0:0:0:
64,192,22593,1,0,0:0:0:0:
192,192,22634,1,0,0:0:0:0:
448,192,22676,1,0,0:0:0:0:
320,192,22718,1,0,0:0:0:0:
192,192,22759,1,0,0:0:0:0:
320,192,22801,1,0,0:0:0:0:
64,192,22843,1,0,0:0:0:0:
192,192,22884,1,0,0:0:0:0:
320,192,22926,1,0,0:0:0:0:
448,192,22968,1,0,0:0:0:0:
192,192,23009,1,0,0:0:0:0:
64,192,23051,1,0,0:0:0:0:
320,192,23093,1,0,0:0:0:0:
192,192,23134,1,0,0:0:0:0:
448,192,23176,1,0,0:0:0:0:
320,192,23218,1,0,0:0:0:0:
192,192,23259,1,0,0:0:0:0:
64,192,23301,1,0,0:0:0:0:
320,192,23343,1,0,0:0:0:0:
192,192,23384,1,0,0:0:0:0:
448,192,23426,1,0,0:0:0:0:
320,192,23468,1,0,0:0:0:0:
192,192,23509,1,0,0:0:0:0:
64,192,23551,1,0,0:0:0:0:
320,192,23593,1,0,0:0:0:0:
192,192,23634,1,0,0:0:0:0:
448,192,23676,1,0,0:0:0:0:
64,192,23718,1,0,0:0:0:0:
320,192,23759,1,0,0:0:0:0:
192,192,23801,1,0,0:0:0:0:
448,192,23843,1,0,0:0:0:0:
320,192,23884,1,0,0:0:0:0:
192,192,23926,1,0,0:0:0:0:
64,192,23968,1,0,0:0:0:0:
192,192,24009,1,0,0:0:0:0:
320,192,24051,1,0,0:0:0:0:
448,192,24093,1,0,0:0:0:0:
192,192,24134,1,0,0:0:0:0:
320,192,24176,1,0,0:0:0:0:
64,192,24218,1,0,0:0:0:0:
192,192,24280,1,0,0:0:0:0:
320,192,24343,1,0,0:0:0:0:
448,192,24405,1,0,0:0:0:0:
192,192,24468,1,0,0:0:0:0:
64,192,24468,128,0,25218:0:0:0:0:
320,192,24968,1,0,0:0:0:0:
448,192,25218,128,0,25468:0:0:0:0:
192,192,25468,128,0,26218:0:0:0:0:
64,192,25468,1,0,0:0:0:0:
448,192,25718,1,0,0:0:0:0:
320,192,25843,128,0,26468:0:0:0:0:
64,192,25968,1,0,0:0:0:0:
64,192,26218,128,0,26468:0:0:0:0:
192,192,26468,1,0,0:0:0:0:
448,192,26468,128,0,27218:0:0:0:0:
192,192,26718,1,0,0:0:0:0:
64,192,26843,128,0,27468:0:0:0:0:
320,192,26968,1,0,0:0:0:0:
192,192,27218,128,0,27468:0:0:0:0:
320,192,27468,128,0,28468:0:0:0:0:
448,192,27468,1,0,0:0:0:0:
64,192,27718,1,0,0:0:0:0:
192,192,27968,1,0,0:0:0:0:
448,192,28218,1,0,0:0:0:0:
192,192,28468,128,0,29218:0:0:0:0:
64,192,28468,1,0,0:0:0:0:
448,192,28718,1,0,0:0:0:0:
64,192,28968,1,0,0:0:0:0:
448,192,29218,1,0,0:0:0:0:
320,192,29259,1,0,0:0:0:0:
64,192,29301,1,0,0:0:0:0:
192,192,29343,1,0,0:0:0:0:
448,192,29384,1,0,0:0:0:0:
320,192,29426,1,0,0:0:0:0:
192,192,29468,1,0,0:0:0:0:
64,192,29468,128,0,29593:0:0:0:0:
320,192,29718,1,0,0:0:0:0:
448,192,29843,128,0,29968:0:0:0:0:
192,192,29968,1,0,0:0:0:0:
64,192,30218,128,0,30343:0:0:0:0:
320,192,30218,1,0,0:0:0:0:
192,192,30343,128,0,30468:0:0:0:0:
448,192,30468,128,0,30968:0:0:0:0:
320,192,30468,1,0,0:0:0:0:
192,192,30718,1,0,0:0:0:0:
64,192,30968,128,0,31468:0:0:0:0:
320,192,30968,1,0,0:0:0:0:
448,192,31218,1,0,0:0:0:0:
192,192,31468,128,0,31968:0:0:0:0:
320,192,31468,1,0,0:0:0:0:
448,192,31718,1,0,0:0:0:0:
320,192,31968,128,0,32468:0:0:0:0:
64,192,31968,1,0,0:0:0:0:
192,192,32218,1,0,0:0:0:0:
448,192,32468,128,0,34218:0:0:0:0:
64,192,32468,1,0,0:0:0:0:
320,192,32968,1,0,0:0:0:0:
64,192,33468,1,0,0:0:0:0:
192,192,33468,1,0,0:0:0:0:
320,192,33968,1,0,0:0:0:0:
64,192,34218,128,0,34343:0:0:0:0:
192,192,34343,128,0,34468:0:0:0:0:
320,192,34468,128,0,36468:0:0:0:0:
448,192,34468,1,0,0:0:0:0:
64,192,36468,1,0,0:0:0:0:
192,192,36468,1,0,0:0:0:0:
448,192,36468,1,0,0:0:0:0:
320,192,36695,1,0,0:0:0:0:
448,192,36695,1,0,0:0:0:0:
192,192,36771,1,0,0:0:0:0:
64,192,36771,1,0,0:0:0:0:
448,192,36846,1,0,0:0:0:0:
320,192,36846,1,0,0:0:0:0:
64,192,36922,1,0,0:0:0:0:
192,192,36922,1,0,0:0:0:0:
320,192,37036,1,0,0:0:0:0:
192,192,37036,1,0,0:0:0:0:
320,192,37149,1,0,0:0:0:0:
448,192,37149,1,0,0:0:0:0:
64,192,37377,1,0,0:0:0:0:
192,192,37377,1,0,0:0:0:0:
448,192,37377,1,0,0:0:0:0:
64,192,37604,1,0,0:0:0:0:
320,192,37604,1,0,0:0:0:0:
448,192,37604,1,0,0:0:0:0:
64,192,37831,1,0,0:0:0:0:
192,192,37831,1,0,0:0:0:0:
192,192,37945,1,0,0:0:0:0:
320,192,37945,1,0,0:0:0:0:
448,192,38286,1,0,0:0:0:0:
320,192,38286,1,0,0:0:0:0:
320,192,38513,1,0,0:0:0:0:
192,192,38513,1,0,0:0:0:0:
64,192,38740,1,0,0:0:0:0:
320,192,38740,1,0,0:0:0:0:
448,192,38740,1,0,0:0:0:0:
320,192,38968,1,0,0:0:0:0:
448,192,38968,1,0,0:0:0:0:
320,192,39081,1,0,0:0:0:0:
192,192,39081,1,0,0:0:0:0:
64,192,39422,1,0,0:0:0:0:
192,192,39422,1,0,0:0:0:0:
320,192,39649,1,0,0:0:0:0:
448,192,39649,1,0,0:0:0:0:
64,192,39877,1,0,0:0:0:0:
320,192,39877,1,0,0:0:0:0:
448,192,39877,1,0,0:0:0:0:
64,192,40104,1,0,0:0:0:0:
192,192,40104,1,0,0:0:0:0:
192,192,40217,1,0,0:0:0:0:
320,192,40217,1,0,0:0:0:0:
448,192,40558,1,0,0:0:0:0:
320,192,40558,1,0,0:0:0:0:
320,192,40786,1,0,0:0:0:0:
192,192,40786,1,0,0:0:0:0:
64,192,41013,1,0,0:0:0:0:
320,192,41013,1,0,0:0:0:0:
448,192,41013,1,0,0:0:0:0:
320,192,41240,1,0,0:0:0:0:
448,192,41240,1,0,0:0:0:0:
320,192,41354,1,0,0:0:0:0:
192,192,41354,1,0,0:0:0:0:
64,192,41695,1,0,0:0:0:0:
192,192,41695,1,0,0:0:0:0:
320,192,41922,1,0,0:0:0:0:
448,192,41922,1,0,0:0:0:0:
64,192,42149,128,0,43967:0:0:0:0:
192,192,42149,1,0,0:0:0:0:
192,192,42262,1,0,0:0:0:0:
320,192,42376,1,0,0:0:0:0:
320,192,42489,1,0,0:0:0:0:
192,192,42603,1,0,0:0:0:0:
192,192,42717,1,0,0:0:0:0:
448,192,42830,1,0,0:0:0:0:
448,192,42944,1,0,0:0:0:0:
192,192,43058,1,0,0:0:0:0:
192,192,43171,1,0,0:0:0:0:
320,192,43285,1,0,0:0:0:0:
320,192,43399,1,0,0:0:0:0:
192,192,43512,1,0,0:0:0:0:
192,192,43626,1,0,0:0:0:0:
448,192,43739,1,0,0:0:0:0:
448,192,43853,1,0,0:0:0:0:
192,192,43967,1,0,0:0:0:0:
320,192,43967,1,0,0:0:0:0:
64,192,44194,1,0,0:0:0:0:
192,192,44194,1,0,0:0:0:0:
320,192,44307,1,0,0:0:0:0:
192,192,44307,1,0,0:0:0:0:
320,192,44648,1,0,0:0:0:0:
448,192,44648,1,0,0:0:0:0:
64,192,44876,1,0,0:0:0:0:
192,192,44876,1,0,0:0:0:0:
64,192,45103,1,0,0:0:0:0:
192,192,45103,1,0,0:0:0:0:
448,192,45103,1,0,0:0:0:0:
320,192,45330,1,0,0:0:0:0:
448,192,45330,1,0,0:0:0:0:
192,192,45444,1,0,0:0:0:0:
320,192,45444,1,0,0:0:0:0:
192,192,45785,1,0,0:0:0:0:
64,192,45785,1,0,0:0:0:0:
320,192,46012,1,0,0:0:0:0:
192,192,46012,1,0,0:0:0:0:
64,192,46239,1,0,0:0:0:0:
192,192,46239,1,0,0:0:0:0:
448,192,46239,1,0,0:0:0:0:
64,192,46467,1,0,0:0:0:0:
192,192,46467,1,0,0:0:0:0:
320,192,46580,1,0,0:0:0:0:
192,192,46580,1,0,0:0:0:0:
320,192,46921,1,0,0:0:0:0:
448,192,46921,1,0,0:0:0:0:
64,192,47148,1,0,0:0:0:0:
192,192,47148,1,0,0:0:0:0:
448,192,47376,1,0,0:0:0:0:
320,192,47376,1,0,0:0:0:0:
64,192,47376,1,0,0:0:0:0:
192,192,47603,1,0,0:0:0:0:
64,192,47603,1,0,0:0:0:0:
320,192,47716,1,0,0:0:0:0:
192,192,47716,1,0,0:0:0:0:
320,192,48057,1,0,0:0:0:0:
448,192,48057,1,0,0:0:0:0:
192,192,48285,1,0,0:0:0:0:
320,192,48285,1,0,0:0:0:0:
448,192,48512,1,0,0:0:0:0:
320,192,48512,1,0,0:0:0:0:
64,192,48512,1,0,0:0:0:0:
64,192,48625,1,0,0:0:0:0:
320,192,48739,1,0,0:0:0:0:
320,192,48852,1,0,0:0:0:0:
192,192,48966,1,0,0:0:0:0:
192,192,49080,1,0,0:0:0:0:
448,192,49193,1,0,0:0:0:0:
448,192,49307,1,0,0:0:0:0:
64,192,49421,1,0,0:0:0:0:
64,192,49534,1,0,0:0:0:0:
448,192,49648,1,0,0:0:0:0:
448,192,49762,1,0,0:0:0:0:
192,192,49875,1,0,0:0:0:0:
192,192,49989,1,0,0:0:0:0:
320,192,50102,1,0,0:0:0:0:
320,192,50216,1,0,0:0:0:0:
64,192,50330,1,0,0:0:0:0:
192,192,50330,1,0,0:0:0:0:
64,192,50443,1,0,0:0:0:0:
320,192,50557,1,0,0:0:0:0:
448,192,50557,1,0,0:0:0:0:
448,192,50671,1,0,0:0:0:0:
64,192,50784,1,0,0:0:0:0:
192,192,50784,1,0,0:0:0:0:
192,192,50898,1,0,0:0:0:0:
320,192,51012,1,0,0:0:0:0:
448,192,51012,1,0,0:0:0:0:
320,192,51125,1,0,0:0:0:0:
64,192,51239,1,0,0:0:0:0:
192,192,51239,1,0,0:0:0:0:
64,192,51352,1,0,0:0:0:0:
320,192,51466,1,0,0:0:0:0:
448,192,51466,1,0,0:0:0:0:
448,192,51580,1,0,0:0:0:0:
64,192,51693,1,0,0:0:0:0:
192,192,51693,1,0,0:0:0:0:
192,192,51807,1,0,0:0:0:0:
320,192,51921,1,0,0:0:0:0:
448,192,51921,1,0,0:0:0:0:
320,192,52034,1,0,0:0:0:0:
192,192,52148,1,0,0:0:0:0:
64,192,52148,1,0,0:0:0:0:
64,192,52261,1,0,0:0:0:0:
448,192,52375,1,0,0:0:0:0:
320,192,52375,1,0,0:0:0:0:
448,192,52489,1,0,0:0:0:0:
192,192,52602,1,0,0:0:0:0:
64,192,52602,1,0,0:0:0:0:
192,192,52716,1,0,0:0:0:0:
448,192,52830,1,0,0:0:0:0:
320,192,52830,1,0,0:0:0:0:
320,192,52943,1,0,0:0:0:0:
64,192,53057,1,0,0:0:0:0:
192,192,53057,1,0,0:0:0:0:
448,192,53171,1,0,0:0:0:0:
320,192,53284,1,0,0:0:0:0:
192,192,53284,1,0,0:0:0:0:
64,192,53398,1,0,0:0:0:0:
320,192,53511,1,0,0:0:0:0:
448,192,53511,1,0,0:0:0:0:
64,192,53625,1,0,0:0:0:0:
192,192,53739,1,0,0:0:0:0:
320,192,53739,1,0,0:0:0:0:
448,192,53852,1,0,0:0:0:0:
64,192,53966,1,0,0:0:0:0:
192,192,53966,1,0,0:0:0:0:
192,192,54080,1,0,0:0:0:0:
320,192,54193,1,0,0:0:0:0:
448,192,54193,1,0,0:0:0:0:
320,192,54307,1,0,0:0:0:0:
64,192,54421,1,0,0:0:0:0:
192,192,54421,1,0,0:0:0:0:
64,192,54534,1,0,0:0:0:0:
320,192,54648,1,0,0:0:0:0:
448,192,54648,1,0,0:0:0:0:
448,192,54761,1,0,0:0:0:0:
64,192,54875,1,0,0:0:0:0:
192,192,54875,1,0,0:0:0:0:
192,192,54989,1,0,0:0:0:0:
320,192,55102,1,0,0:0:0:0:
448,192,55102,1,0,0:0:0:0:
320,192,55216,1,0,0:0:0:0:
64,192,55330,1,0,0:0:0:0:
192,192,55330,1,0,0:0:0:0:
64,192,55443,1,0,0:0:0:0:
320,192,55557,1,0,0:0:0:0:
448,192,55557,1,0,0:0:0:0:
448,192,55671,1,0,0:0:0:0:
192,192,55784,1,0,0:0:0:0:
64,192,55784,1,0,0:0:0:0:
192,192,55898,1,0,0:0:0:0:
448,192,56011,1,0,0:0:0:0:
320,192,56011,1,0,0:0:0:0:
320,192,56125,1,0,0:0:0:0:
192,192,56239,1,0,0:0:0:0:
64,192,56239,1,0,0:0:0:0:
64,192,56352,1,0,0:0:0:0:
448,192,56466,1,0,0:0:0:0:
320,192,56466,1,0,0:0:0:0:
448,192,56580,1,0,0:0:0:0:
64,192,56693,1,0,0:0:0:0:
192,192,56693,1,0,0:0:0:0:
448,192,56807,1,0,0:0:0:0:
320,192,56921,1,0,0:0:0:0:
192,192,56921,1,0,0:0:0:0:
64,192,57034,1,0,0:0:0:0:
320,192,57148,1,0,0:0:0:0:
448,192,57148,1,0,0:0:0:0:
64,192,57261,1,0,0:0:0:0:
192,192,57375,1,0,0:0:0:0:
320,192,57375,1,0,0:0:0:0:
448,192,57489,1,0,0:0:0:0:
64,192,57602,1,0,0:0:0:0:
192,192,57602,1,0,0:0:0:0:
64,192,57716,1,0,0:0:0:0:
192,192,57716,1,0,0:0:0:0:
320,192,57830,1,0,0:0:0:0:
448,192,57830,1,0,0:0:0:0:
320,192,57943,1,0,0:0:0:0:
448,192,57943,1,0,0:0:0:0:
64,192,58057,1,0,0:0:0:0:
192,192,58057,1,0,0:0:0:0:
192,192,58171,1,0,0:0:0:0:
320,192,58171,1,0,0:0:0:0:
320,192,58284,1,0,0:0:0:0:
448,192,58284,1,0,0:0:0:0:
192,192,58398,1,0,0:0:0:0:
320,192,58398,1,0,0:0:0:0:
192,192,58511,1,0,0:0:0:0:
64,192,58511,1,0,0:0:0:0:
64,192,58625,1,0,0:0:0:0:
192,192,58625,1,0,0:0:0:0:
448,192,58739,1,0,0:0:0:0:
320,192,58739,1,0,0:0:0:0:
320,192,58852,1,0,0:0:0:0:
448,192,58852,1,0,0:0:0:0:
192,192,58966,1,0,0:0:0:0:
64,192,58966,1,0,0:0:0:0:
192,192,59080,1,0,0:0:0:0:
320,192,59080,1,0,0:0:0:0:
448,192,59193,1,0,0:0:0:0:
320,192,59193,1,0,0:0:0:0:
192,192,59307,1,0,0:0:0:0:
320,192,59307,1,0,0:0:0:0:
64,192,59421,1,0,0:0:0:0:
192,192,59421,1,0,0:0:0:0:
192,192,59534,1,0,0:0:0:0:
64,192,59534,1,0,0:0:0:0:
320,192,59648,1,0,0:0:0:0:
448,192,59648,1,0,0:0:0:0:
448,192,59761,1,0,0:0:0:0:
320,192,59761,1,0,0:0:0:0:
64,192,59875,1,0,0:0:0:0:
192,192,59875,1,0,0:0:0:0:
320,192,59989,1,0,0:0:0:0:
192,192,59989,1,0,0:0:0:0:
320,192,60102,1,0,0:0:0:0:
448,192,60102,1,0,0:0:0:0:
320,192,60216,1,0,0:0:0:0:
192,192,60216,1,0,0:0:0:0:
64,192,60330,1,0,0:0:0:0:
192,192,60330,1,0,0:0:0:0:
64,192,60443,1,0,0:0:0:0:
192,192,60443,1,0,0:0:0:0:
320,192,60557,1,0,0:0:0:0:
448,192,60557,1,0,0:0:0:0:
320,192,60671,1,0,0:0:0:0:
448,192,60671,1,0,0:0:0:0:
192,192,60784,1,0,0:0:0:0:
320,192,60784,1,0,0:0:0:0:
64,192,60898,1,0,0:0:0:0:
192,192,60898,1,0,0:0:0:0:
320,192,61011,1,0,0:0:0:0:
448,192,61011,1,0,0:0:0:0:
320,192,61125,1,0,0:0:0:0:
192,192,61125,1,0,0:0:0:0:
192,192,61239,1,0,0:0:0:0:
64,192,61239,1,0,0:0:0:0:
64,192,61352,1,0,0:0:0:0:
192,192,61352,1,0,0:0:0:0:
448,192,61466,1,0,0:0:0:0:
320,192,61466,1,0,0:0:0:0:
320,192,61580,1,0,0:0:0:0:
448,192,61580,1,0,0:0:0:0:
192,192,61693,1,0,0:0:0:0:
64,192,61693,1,0,0:0:0:0:
192,192,61807,1,0,0:0:0:0:
320,192,61807,1,0,0:0:0:0:
448,192,61921,1,0,0:0:0:0:
320,192,61921,1,0,0:0:0:0:
192,192,62034,1,0,0:0:0:0:
320,192,62034,1,0,0:0:0:0:
64,192,62148,1,0,0:0:0:0:
192,192,62148,1,0,0:0:0:0:
192,192,62261,1,0,0:0:0:0:
64,192,62261,1,0,0:0:0:0:
320,192,62375,1,0,0:0:0:0:
448,192,62375,1,0,0:0:0:0:
448,192,62489,1,0,0:0:0:0:
320,192,62489,1,0,0:0:0:0:
64,192,62602,1,0,0:0:0:0:
192,192,62602,1,0,0:0:0:0:
320,192,62716,1,0,0:0:0:0:
192,192,62716,1,0,0:0:0:0:
320,192,62830,1,0,0:0:0:0:
448,192,62830,1,0,0:0:0:0:
320,192,62943,1,0,0:0:0:0:
192,192,62943,1,0,0:0:0:0:
192,192,63057,1,0,0:0:0:0:
64,192,63057,1,0,0:0:0:0:
64,192,63171,1,0,0:0:0:0:
192,192,63171,1,0,0:0:0:0:
448,192,63284,1,0,0:0:0:0:
320,192,63284,1,0,0:0:0:0:
320,192,63398,1,0,0:0:0:0:
448,192,63398,1,0,0:0:0:0:
192,192,63511,1,0,0:0:0:0:
64,192,63511,1,0,0:0:0:0:
192,192,63625,1,0,0:0:0:0:
320,192,63625,1,0,0:0:0:0:
448,192,63739,1,0,0:0:0:0:
320,192,63739,1,0,0:0:0:0:
192,192,63852,1,0,0:0:0:0:
320,192,63852,1,0,0:0:0:0:
64,192,63966,1,0,0:0:0:0:
192,192,63966,1,0,0:0:0:0:
64,192,64080,1,0,0:0:0:0:
192,192,64080,1,0,0:0:0:0:
320,192,64193,1,0,0:0:0:0:
448,192,64193,1,0,0:0:0:0:
320,192,64307,1,0,0:0:0:0:
448,192,64307,1,0,0:0:0:0:
320,192,64421,1,0,0:0:0:0:
192,192,64421,1,0,0:0:0:0:
192,192,64534,1,0,0:0:0:0:
64,192,64534,1,0,0:0:0:0:
320,192,64648,1,0,0:0:0:0:
448,192,64648,1,0,0:0:0:0:
320,192,64761,1,0,0:0:0:0:
192,192,64761,1,0,0:0:0:0:
192,192,64875,1,0,0:0:0:0:
64,192,64875,128,0,65557:0:0:0:0:
448,192,65102,1,0,0:0:0:0:
320,192,65102,1,0,0:0:0:0:
192,192,65330,1,0,0:0:0:0:
448,192,65557,128,0,65671:0:0:0:0:
320,192,65557,1,0,0:0:0:0:
192,192,65671,128,0,65784:0:0:0:0:
320,192,65784,128,0,66125:0:0:0:0:
64,192,66011,1,0,0:0:0:0:
448,192,66011,1,0,0:0:0:0:
192,192,66125,128,0,66466:0:0:0:0:
448,192,66239,1,0,0:0:0:0:
64,192,66466,128,0,66693:0:0:0:0:
320,192,66466,1,0,0:0:0:0:
448,192,66693,1,0,0:0:0:0:
320,192,66921,1,0,0:0:0:0:
192,192,66921,1,0,0:0:0:0:
448,192,66949,1,0,0:0:0:0:
448,192,67148,1,0,0:0:0:0:
64,192,67261,1,0,0:0:0:0:
320,192,67290,1,0,0:0:0:0:
192,192,67375,1,0,0:0:0:0:
448,192,67375,1,0,0:0:0:0:
192,192,67602,1,0,0:0:0:0:
448,192,67631,1,0,0:0:0:0:
64,192,67830,1,0,0:0:0:0:
192,192,67830,1,0,0:0:0:0:
320,192,67943,1,0,0:0:0:0:
192,192,67972,1,0,0:0:0:0:
448,192,68057,1,0,0:0:0:0:
64,192,68171,1,0,0:0:0:0:
320,192,68284,1,0,0:0:0:0:
192,192,68284,1,0,0:0:0:0:
320,192,68511,1,0,0:0:0:0:
448,192,68511,128,0,69193:0:0:0:0:
64,192,68739,1,0,0:0:0:0:
192,192,68739,1,0,0:0:0:0:
320,192,68852,1,0,0:0:0:0:
320,192,68966,1,0,0:0:0:0:
64,192,69193,128,0,69307:0:0:0:0:
192,192,69193,1,0,0:0:0:0:
320,192,69307,128,0,69421:0:0:0:0:
192,192,69421,128,0,69761:0:0:0:0:
448,192,69648,1,0,0:0:0:0:
64,192,69648,1,0,0:0:0:0:
320,192,69761,128,0,70102:0:0:0:0:
64,192,69875,1,0,0:0:0:0:
448,192,70102,128,0,70330:0:0:0:0:
192,192,70102,1,0,0:0:0:0:
64,192,70330,1,0,0:0:0:0:
192,192,70443,1,0,0:0:0:0:
320,192,70557,1,0,0:0:0:0:
448,192,70557,1,0,0:0:0:0:
64,192,70671,1,0,0:0:0:0:
192,192,70784,1,0,0:0:0:0:
320,192,70898,1,0,0:0:0:0:
64,192,71011,1,0,0:0:0:0:
192,192,71011,1,0,0:0:0:0:
320,192,71125,1,0,0:0:0:0:
448,192,71239,1,0,0:0:0:0:
64,192,71267,1,0,0:0:0:0:
64,192,71466,1,0,0:0:0:0:
320,192,71466,1,0,0:0:0:0:
192,192,71580,1,0,0:0:0:0:
448,192,71580,1,0,0:0:0:0:
320,192,71608,1,0,0:0:0:0:
192,192,71693,1,0,0:0:0:0:
64,192,71921,1,0,0:0:0:0:
448,192,71921,1,0,0:0:0:0:
192,192,72034,1,0,0:0:0:0:
320,192,72148,1,0,0:0:0:0:
448,192,72148,128,0,72830:0:0:0:0:
64,192,72375,1,0,0:0:0:0:
192,192,72375,1,0,0:0:0:0:
320,192,72602,1,0,0:0:0:0:
64,192,72830,128,0,72943:0:0:0:0:
192,192,72830,1,0,0:0:0:0:
320,192,72943,128,0,73057:0:0:0:0:
192,192,73057,128,0,73398:0:0:0:0:
448,192,73284,1,0,0:0:0:0:
64,192,73284,1,0,0:0:0:0:
320,192,73398,128,0,73739:0:0:0:0:
64,192,73511,1,0,0:0:0:0:
448,192,73739,128,0,73966:0:0:0:0:
192,192,73739,1,0,0:0:0:0:
64,192,73966,1,0,0:0:0:0:
192,192,74193,1,0,0:0:0:0:
320,192,74193,1,0,0:0:0:0:
64,192,74222,1,0,0:0:0:0:
64,192,74421,1,0,0:0:0:0:
448,192,74534,1,0,0:0:0:0:
192,192,74563,1,0,0:0:0:0:
320,192,74648,1,0,0:0:0:0:
64,192,74648,1,0,0:0:0:0:
448,192,74875,1,0,0:0:0:0:
320,192,74989,1,0,0:0:0:0:
192,192,75102,1,0,0:0:0:0:
64,192,75102,1,0,0:0:0:0:
448,192,75216,1,0,0:0:0:0:
320,192,75330,1,0,0:0:0:0:
192,192,75443,1,0,0:0:0:0:
64,192,75557,1,0,0:0:0:0:
448,192,75557,1,0,0:0:0:0:
320,192,75671,1,0,0:0:0:0:
192,192,75784,1,0,0:0:0:0:
64,192,75784,128,0,76466:0:0:0:0:
448,192,76011,1,0,0:0:0:0:
320,192,76011,1,0,0:0:0:0:
192,192,76125,1,0,0:0:0:0:
192,192,76239,1,0,0:0:0:0:
448,192,76466,128,0,76580:0:0:0:0:
320,192,76466,1,0,0:0:0:0:
192,192,76580,128,0,76693:0:0:0:0:
320,192,76693,128,0,77034:0:0:0:0:
64,192,76921,1,0,0:0:0:0:
448,192,76921,1,0,0:0:0:0:
192,192,77034,128,0,77375:0:0:0:0:
448,192,77148,1,0,0:0:0:0:
64,192,77375,128,0,77602:0:0:0:0:
320,192,77375,1,0,0:0:0:0:
192,192,77602,1,0,0:0:0:0:
448,192,77602,1,0,0:0:0:0:
320,192,77602,1,0,0:0:0:0:
320,192,77715,1,0,0:0:0:0:
448,192,77715,1,0,0:0:0:0:
64,192,77942,1,0,0:0:0:0:
192,192,77942,1,0,0:0:0:0:
320,192,77942,1,0,0:0:0:0:
448,192,78283,1,0,0:0:0:0:
64,192,78283,1,0,0:0:0:0:
192,192,78283,1,0,0:0:0:0:
320,192,78396,1,0,0:0:0:0:
448,192,78396,1,0,0:0:0:0:
64,192,78623,1,0,0:0:0:0:
192,192,78623,1,0,0:0:0:0:
320,192,78851,128,0,78964:0:0:0:0:
448,192,78851,128,0,79078:0:0:0:0:
64,192,79192,1,0,0:0:0:0:
192,192,79192,1,0,0:0:0:0:
320,192,79192,1,0,0:0:0:0:
192,192,79532,1,0,0:0:0:0:
320,192,79532,1,0,0:0:0:0:
448,192,79532,1,0,0:0:0:0:
64,192,79873,1,0,0:0:0:0:
192,192,79873,1,0,0:0:0:0:
320,192,79873,1,0,0:0:0:0:
448,192,79987,1,0,0:0:0:0:
192,192,80101,1,0,0:0:0:0:
320,192,80214,1,0,0:0:0:0:
64,192,80328,1,0,0:0:0:0:
192,192,80442,1,0,0:0:0:0:
448,192,80555,1,0,0:0:0:0:
320,192,80669,1,0,0:0:0:0:
64,192,80783,128,0,81464:0:0:0:0:
448,192,81010,1,0,0:0:0:0:
192,192,81010,1,0,0:0:0:0:
320,192,81237,1,0,0:0:0:0:
320,192,81351,1,0,0:0:0:0:
192,192,81464,128,0,81578:0:0:0:0:
448,192,81464,1,0,0:0:0:0:
320,192,81578,128,0,81692:0:0:0:0:
448,192,81692,128,0,82374:0:0:0:0:
64,192,81919,1,0,0:0:0:0:
320,192,81919,1,0,0:0:0:0:
192,192,82146,1,0,0:0:0:0:
192,192,82260,1,0,0:0:0:0:
64,192,82374,1,0,0:0:0:0:
320,192,82374,1,0,0:0:0:0:
192,192,82601,1,0,0:0:0:0:
64,192,82601,1,0,0:0:0:0:
448,192,82828,1,0,0:0:0:0:
320,192,82828,1,0,0:0:0:0:
192,192,82866,1,0,0:0:0:0:
64,192,82904,1,0,0:0:0:0:
320,192,82942,1,0,0:0:0:0:
448,192,82980,1,0,0:0:0:0:
192,192,83017,1,0,0:0:0:0:
64,192,83055,1,0,0:0:0:0:
320,192,83084,1,0,0:0:0:0:
448,192,83112,1,0,0:0:0:0:
192,192,83141,1,0,0:0:0:0:
64,192,83169,1,0,0:0:0:0:
320,192,83197,1,0,0:0:0:0:
448,192,83226,1,0,0:0:0:0:
192,192,83254,1,0,0:0:0:0:
64,192,83283,1,0,0:0:0:0:
320,192,83320,1,0,0:0:0:0:
448,192,83358,1,0,0:0:0:0:
192,192,83396,1,0,0:0:0:0:
320,192,83434,1,0,0:0:0:0:
448,192,83472,1,0,0:0:0:0:
64,192,83510,1,0,0:0:0:0:
192,192,83548,1,0,0:0:0:0:
448,192,83586,1,0,0:0:0:0:
320,192,83624,1,0,0:0:0:0:
192,192,83661,1,0,0:0:0:0:
64,192,83699,1,0,0:0:0:0:
320,192,83737,1,0,0:0:0:0:
192,192,83775,1,0,0:0:0:0:
448,192,83813,1,0,0:0:0:0:
320,192,83851,1,0,0:0:0:0:
192,192,83889,1,0,0:0:0:0:
64,192,83927,1,0,0:0:0:0:
320,192,83964,1,0,0:0:0:0:
448,192,84002,1,0,0:0:0:0:
192,192,84040,1,0,0:0:0:0:
64,192,84078,1,0,0:0:0:0:
448,192,84116,1,0,0:0:0:0:
320,192,84154,1,0,0:0:0:0:
192,192,84192,1,0,0:0:0:0:
64,192,84230,1,0,0:0:0:0:
320,192,84267,1,0,0:0:0:0:
448,192,84305,1,0,0:0:0:0:
192,192,84343,1,0,0:0:0:0:
64,192,84381,1,0,0:0:0:0:
320,192,84419,1,0,0:0:0:0:
448,192,84419,128,0,85101:0:0:0:0:
320,192,84533,1,0,0:0:0:0:
192,192,84646,1,0,0:0:0:0:
64,192,84646,1,0,0:0:0:0:
320,192,84760,1,0,0:0:0:0:
320,192,84874,1,0,0:0:0:0:
192,192,84987,1,0,0:0:0:0:
64,192,85101,128,0,85214:0:0:0:0:
320,192,85101,1,0,0:0:0:0:
192,192,85214,128,0,85328:0:0:0:0:
448,192,85328,128,0,85442:0:0:0:0:
320,192,85442,128,0,85555:0:0:0:0:
64,192,85555,1,0,0:0:0:0:
192,192,85555,1,0,0:0:0:0:
448,192,85669,1,0,0:0:0:0:
64,192,85783,128,0,85896:0:0:0:0:
448,192,85896,128,0,86010:0:0:0:0:
192,192,86010,1,0,0:0:0:0:
320,192,86010,1,0,0:0:0:0:
64,192,86124,1,0,0:0:0:0:
448,192,86237,128,0,86578:0:0:0:0:
320,192,86237,1,0,0:0:0:0:
64,192,86351,1,0,0:0:0:0:
192,192,86464,1,0,0:0:0:0:
320,192,86464,1,0,0:0:0:0:
64,192,86578,128,0,87146:0:0:0:0:
192,192,86692,1,0,0:0:0:0:
320,192,86805,1,0,0:0:0:0:
192,192,86919,128,0,87146:0:0:0:0:
448,192,86919,1,0,0:0:0:0:
320,192,87033,1,0,0:0:0:0:
448,192,87146,128,0,88055:0:0:0:0:
320,192,87260,1,0,0:0:0:0:
192,192,87373,1,0,0:0:0:0:
64,192,87373,1,0,0:0:0:0:
320,192,87487,1,0,0:0:0:0:
320,192,87601,1,0,0:0:0:0:
320,192,87714,1,0,0:0:0:0:
64,192,87828,1,0,0:0:0:0:
192,192,87828,1,0,0:0:0:0:
320,192,87942,1,0,0:0:0:0:
64,192,88055,1,0,0:0:0:0:
192,192,88055,1,0,0:0:0:0:
64,192,88169,1,0,0:0:0:0:
192,192,88283,1,0,0:0:0:0:
320,192,88283,1,0,0:0:0:0:
448,192,88283,1,0,0:0:0:0:
320,192,88396,1,0,0:0:0:0:
64,192,88510,1,0,0:0:0:0:
192,192,88510,1,0,0:0:0:0:
448,192,88510,1,0,0:0:0:0:
192,192,88623,1,0,0:0:0:0:
64,192,88737,1,0,0:0:0:0:
320,192,88737,1,0,0:0:0:0:
448,192,88737,1,0,0:0:0:0:
448,192,88851,1,0,0:0:0:0:
192,192,88964,1,0,0:0:0:0:
64,192,88964,1,0,0:0:0:0:
192,192,89078,1,0,0:0:0:0:
64,192,89192,1,0,0:0:0:0:
320,192,89192,1,0,0:0:0:0:
448,192,89192,1,0,0:0:0:0:
448,192,89305,1,0,0:0:0:0:
64,192,89419,1,0,0:0:0:0:
192,192,89419,1,0,0:0:0:0:
320,192,89419,1,0,0:0:0:0:
64,192,89533,1,0,0:0:0:0:
192,192,89646,1,0,0:0:0:0:
448,192,89646,1,0,0:0:0:0:
320,192,89646,1,0,0:0:0:0:
320,192,89760,1,0,0:0:0:0:
64,192,89873,1,0,0:0:0:0:
448,192,89873,1,0,0:0:0:0:
320,192,89987,1,0,0:0:0:0:
320,192,90101,1,0,0:0:0:0:
192,192,90101,1,0,0:0:0:0:
448,192,90101,1,0,0:0:0:0:
64,192,90214,1,0,0:0:0:0:
64,192,90328,1,0,0:0:0:0:
320,192,90328,1,0,0:0:0:0:
192,192,90328,1,0,0:0:0:0:
448,192,90442,1,0,0:0:0:0:
64,192,90555,1,0,0:0:0:0:
320,192,90555,1,0,0:0:0:0:
448,192,90555,1,0,0:0:0:0:
192,192,90669,1,0,0:0:0:0:
192,192,90783,1,0,0:0:0:0:
448,192,90783,1,0,0:0:0:0:
320,192,90896,1,0,0:0:0:0:
320,192,91010,1,0,0:0:0:0:
448,192,91010,1,0,0:0:0:0:
192,192,91010,1,0,0:0:0:0:
64,192,91123,1,0,0:0:0:0:
64,192,91237,1,0,0:0:0:0:
192,192,91237,1,0,0:0:0:0:
320,192,91237,1,0,0:0:0:0:
448,192,91351,1,0,0:0:0:0:
64,192,91464,1,0,0:0:0:0:
320,192,91464,1,0,0:0:0:0:
448,192,91464,1,0,0:0:0:0:
192,192,91578,1,0,0:0:0:0:
64,192,91692,1,0,0:0:0:0:
192,192,91692,1,0,0:0:0:0:
320,192,91748,1,0,0:0:0:0:
448,192,91805,1,0,0:0:0:0:
192,192,91862,1,0,0:0:0:0:
64,192,91919,1,0,0:0:0:0:
320,192,91919,1,0,0:0:0:0:
448,192,91976,1,0,0:0:0:0:
192,192,92033,1,0,0:0:0:0:
64,192,92089,1,0,0:0:0:0:
320,192,92146,1,0,0:0:0:0:
448,192,92146,1,0,0:0:0:0:
192,192,92203,1,0,0:0:0:0:
64,192,92260,1,0,0:0:0:0:
320,192,92317,1,0,0:0:0:0:
448,192,92373,1,0,0:0:0:0:
192,192,92373,1,0,0:0:0:0:
64,192,92430,1,0,0:0:0:0:
320,192,92487,1,0,0:0:0:0:
448,192,92544,1,0,0:0:0:0:
192,192,92601,1,0,0:0:0:0:
64,192,92601,1,0,0:0:0:0:
320,192,92639,1,0,0:0:0:0:
448,192,92677,1,0,0:0:0:0:
192,192,92714,1,0,0:0:0:0:
64,192,92752,1,0,0:0:0:0:
320,192,92790,1,0,0:0:0:0:
448,192,92828,1,0,0:0:0:0:
192,192,92828,1,0,0:0:0:0:
64,192,92866,1,0,0:0:0:0:
320,192,92904,1,0,0:0:0:0:
448,192,92942,1,0,0:0:0:0:
192,192,92980,1,0,0:0:0:0:
64,192,93017,1,0,0:0:0:0:
320,192,93055,1,0,0:0:0:0:
448,192,93055,1,0,0:0:0:0:
192,192,93093,1,0,0:0:0:0:
64,192,93131,1,0,0:0:0:0:
320,192,93169,1,0,0:0:0:0:
448,192,93207,1,0,0:0:0:0:
192,192,93245,1,0,0:0:0:0:
64,192,93283,1,0,0:0:0:0:
320,192,93283,1,0,0:0:0:0:
448,192,93320,1,0,0:0:0:0:
192,192,93358,1,0,0:0:0:0:
64,192,93396,1,0,0:0:0:0:
320,192,93434,1,0,0:0:0:0:
448,192,93472,1,0,0:0:0:0:
192,192,93510,1,0,0:0:0:0:
64,192,93510,1,0,0:0:0:0:
320,192,93538,1,0,0:0:0:0:
448,192,93567,1,0,0:0:0:0:
192,192,93595,1,0,0:0:0:0:
64,192,93623,1,0,0:0:0:0:
320,192,93652,1,0,0:0:0:0:
448,192,93680,1,0,0:0:0:0:
192,192,93709,1,0,0:0:0:0:
64,192,93737,1,0,0:0:0:0:
320,192,93737,1,0,0:0:0:0:
448,192,93766,1,0,0:0:0:0:
192,192,93794,1,0,0:0:0:0:
64,192,93822,1,0,0:0:0:0:
320,192,93851,1,0,0:0:0:0:
448,192,93879,1,0,0:0:0:0:
192,192,93908,1,0,0:0:0:0:
64,192,93936,1,0,0:0:0:0:
320,192,93964,1,0,0:0:0:0:
448,192,93964,1,0,0:0:0:0:
192,192,93993,1,0,0:0:0:0:
64,192,94021,1,0,0:0:0:0:
320,192,94050,1,0,0:0:0:0:
448,192,94078,1,0,0:0:0:0:
192,192,94106,1,0,0:0:0:0:
64,192,94135,1,0,0:0:0:0:
320,192,94163,1,0,0:0:0:0:
192,192,94192,1,0,0:0:0:0:
448,192,94192,1,0,0:0:0:0:
64,192,94220,1,0,0:0:0:0:
320,192,94248,1,0,0:0:0:0:
448,192,94277,1,0,0:0:0:0:
192,192,94305,1,0,0:0:0:0:
64,192,94334,1,0,0:0:0:0:
320,192,94362,1,0,0:0:0:0:
448,192,94391,1,0,0:0:0:0:
192,192,94419,1,0,0:0:0:0:
64,192,94419,128,0,95328:0:0:0:0:
320,192,94533,1,0,0:0:0:0:
320,192,94646,1,0,0:0:0:0:
448,192,94646,1,0,0:0:0:0:
320,192,94760,1,0,0:0:0:0:
448,192,94873,128,0,95328:0:0:0:0:
320,192,95101,128,0,95328:0:0:0:0:
192,192,95328,1,0,0:0:0:0:
64,192,95555,1,0,0:0:0:0:
320,192,95783,1,0,0:0:0:0:
448,192,96010,1,0,0:0:0:0:
320,192,96123,1,0,0:0:0:0:
192,192,96237,1,0,0:0:0:0:
64,192,96237,1,0,0:0:0:0:
192,192,96464,1,0,0:0:0:0:
320,192,96578,1,0,0:0:0:0:
448,192,96578,1,0,0:0:0:0:
64,192,96805,1,0,0:0:0:0:
192,192,96919,1,0,0:0:0:0:
320,192,96919,1,0,0:0:0:0:
448,192,97146,1,0,0:0:0:0:
320,192,97146,1,0,0:0:0:0:
192,192,97373,1,0,0:0:0:0:
64,192,97601,1,0,0:0:0:0:
320,192,97828,1,0,0:0:0:0:
448,192,97885,1,0,0:0:0:0:
192,192,97942,1,0,0:0:0:0:
64,192,97998,1,0,0:0:0:0:
320,192,98055,1,0,0:0:0:0:
448,192,98055,1,0,0:0:0:0:
192,192,98169,1,0,0:0:0:0:
64,192,98283,1,0,0:0:0:0:
448,192,98396,1,0,0:0:0:0:
320,192,98510,1,0,0:0:0:0:
192,192,98510,1,0,0:0:0:0:
64,192,98737,1,0,0:0:0:0:
320,192,98964,1,0,0:0:0:0:
448,192,98964,1,0,0:0:0:0:
192,192,99192,1,0,0:0:0:0:
64,192,99419,1,0,0:0:0:0:
448,192,99646,1,0,0:0:0:0:
320,192,99760,1,0,0:0:0:0:
192,192,99873,1,0,0:0:0:0:
64,192,99873,1,0,0:0:0:0:
320,192,100101,1,0,0:0:0:0:
192,192,100214,1,0,0:0:0:0:
64,192,100214,1,0,0:0:0:0:
320,192,100328,1,0,0:0:0:0:
192,192,100442,1,0,0:0:0:0:
64,192,100555,1,0,0:0:0:0:
448,192,100555,1,0,0:0:0:0:
192,192,100783,1,0,0:0:0:0:
320,192,100783,1,0,0:0:0:0:
64,192,100896,1,0,0:0:0:0:
192,192,101010,1,0,0:0:0:0:
448,192,101010,1,0,0:0:0:0:
64,192,101237,1,0,0:0:0:0:
320,192,101237,1,0,0:0:0:0:
192,192,101351,1,0,0:0:0:0:
448,192,101464,1,0,0:0:0:0:
64,192,101692,1,0,0:0:0:0:
192,192,101692,1,0,0:0:0:0:
320,192,101805,1,0,0:0:0:0:
448,192,101805,1,0,0:0:0:0:
192,192,102033,1,0,0:0:0:0:
64,192,102146,1,0,0:0:0:0:
192,192,102165,1,0,0:0:0:0:
320,192,102184,1,0,0:0:0:0:
448,192,102203,1,0,0:0:0:0:
64,192,102222,1,0,0:0:0:0:
192,192,102241,1,0,0:0:0:0:
320,192,102260,1,0,0:0:0:0:
448,192,102279,1,0,0:0:0:0:
64,192,102298,1,0,0:0:0:0:
192,192,102317,1,0,0:0:0:0:
320,192,102336,1,0,0:0:0:0:
448,192,102355,1,0,0:0:0:0:
64,192,102373,1,0,0:0:0:0:
192,192,102392,1,0,0:0:0:0:
320,192,102411,1,0,0:0:0:0:
448,192,102430,1,0,0:0:0:0:
64,192,102449,1,0,0:0:0:0:
192,192,102468,1,0,0:0:0:0:
320,192,102487,1,0,0:0:0:0:
448,192,102506,1,0,0:0:0:0:
64,192,102525,1,0,0:0:0:0:
192,192,102544,1,0,0:0:0:0:
320,192,102563,1,0,0:0:0:0:
448,192,102582,1,0,0:0:0:0:
192,192,102601,1,0,0:0:0:0:
64,192,102601,128,0,103283:0:0:0:0:
192,192,102714,1,0,0:0:0:0:
448,192,102828,1,0,0:0:0:0:
320,192,102828,1,0,0:0:0:0:
192,192,102942,1,0,0:0:0:0:
448,192,103055,1,0,0:0:0:0:
192,192,103169,1,0,0:0:0:0:
448,192,103283,128,0,103396:0:0:0:0:
320,192,103283,1,0,0:0:0:0:
192,192,103396,128,0,103510:0:0:0:0:
320,192,103510,128,0,103851:0:0:0:0:
192,192,103623,1,0,0:0:0:0:
64,192,103737,1,0,0:0:0:0:
448,192,103737,1,0,0:0:0:0:
192,192,103851,128,0,104192:0:0:0:0:
64,192,103964,1,0,0:0:0:0:
320,192,104078,1,0,0:0:0:0:
64,192,104192,128,0,104419:0:0:0:0:
448,192,104192,1,0,0:0:0:0:
320,192,104305,1,0,0:0:0:0:
192,192,104419,1,0,0:0:0:0:
448,192,104419,1,0,0:0:0:0:
320,192,104533,1,0,0:0:0:0:
192,192,104646,1,0,0:0:0:0:
448,192,104646,1,0,0:0:0:0:
64,192,104760,1,0,0:0:0:0:
448,192,104873,1,0,0:0:0:0:
320,192,104987,1,0,0:0:0:0:
192,192,105101,1,0,0:0:0:0:
448,192,105101,1,0,0:0:0:0:
64,192,105214,1,0,0:0:0:0:
448,192,105328,1,0,0:0:0:0:
320,192,105385,1,0,0:0:0:0:
64,192,105442,1,0,0:0:0:0:
192,192,105498,1,0,0:0:0:0:
320,192,105555,1,0,0:0:0:0:
448,192,105555,1,0,0:0:0:0:
64,192,105612,1,0,0:0:0:0:
192,192,105669,1,0,0:0:0:0:
448,192,105726,1,0,0:0:0:0:
320,192,105783,1,0,0:0:0:0:
64,192,105839,1,0,0:0:0:0:
192,192,105896,1,0,0:0:0:0:
320,192,105953,1,0,0:0:0:0:
64,192,106010,1,0,0:0:0:0:
448,192,106010,1,0,0:0:0:0:
192,192,106123,1,0,0:0:0:0:
320,192,106237,1,0,0:0:0:0:
448,192,106237,128,0,106919:0:0:0:0:
192,192,106351,1,0,0:0:0:0:
64,192,106464,1,0,0:0:0:0:
320,192,106464,1,0,0:0:0:0:
192,192,106578,1,0,0:0:0:0:
192,192,106692,1,0,0:0:0:0:
320,192,106805,1,0,0:0:0:0:
64,192,106919,128,0,107033:0:0:0:0:
192,192,106919,1,0,0:0:0:0:
320,192,107033,128,0,107146:0:0:0:0:
192,192,107146,128,0,107487:0:0:0:0:
320,192,107260,1,0,0:0:0:0:
448,192,107373,1,0,0:0:0:0:
64,192,107373,1,0,0:0:0:0:
320,192,107487,128,0,107828:0:0:0:0:
64,192,107601,1,0,0:0:0:0:
192,192,107714,1,0,0:0:0:0:
448,192,107828,128,0,108055:0:0:0:0:
64,192,107828,1,0,0:0:0:0:
320,192,108055,1,0,0:0:0:0:
64,192,108055,1,0,0:0:0:0:
192,192,108055,1,0,0:0:0:0:
192,192,108168,1,0,0:0:0:0:
64,192,108168,1,0,0:0:0:0:
448,192,108395,1,0,0:0:0:0:
320,192,108395,1,0,0:0:0:0:
192,192,108395,1,0,0:0:0:0:
64,192,108736,1,0,0:0:0:0:
448,192,108736,1,0,0:0:0:0:
320,192,108736,1,0,0:0:0:0:
192,192,108849,1,0,0:0:0:0:
64,192,108849,1,0,0:0:0:0:
448,192,109076,1,0,0:0:0:0:
320,192,109076,1,0,0:0:0:0:
192,192,109304,128,0,109417:0:0:0:0:
64,192,109304,128,0,109531:0:0:0:0:
448,192,109645,1,0,0:0:0:0:
320,192,109645,1,0,0:0:0:0:
192,192,109645,1,0,0:0:0:0:
320,192,109985,1,0,0:0:0:0:
192,192,109985,1,0,0:0:0:0:
64,192,109985,1,0,0:0:0:0:
448,192,110326,1,0,0:0:0:0:
320,192,110326,1,0,0:0:0:0:
192,192,110326,1,0,0:0:0:0:
64,192,110554,1,0,0:0:0:0:
192,192,110554,1,0,0:0:0:0:
320,192,110667,1,0,0:0:0:0:
448,192,110667,1,0,0:0:0:0:
192,192,110781,1,0,0:0:0:0:
64,192,110781,1,0,0:0:0:0:
64,192,110895,1,0,0:0:0:0:
448,192,111008,1,0,0:0:0:0:
320,192,111008,1,0,0:0:0:0:
448,192,111122,1,0,0:0:0:0:
64,192,111236,128,0,112145:0:0:0:0:
448,192,111236,1,0,0:0:0:0:
320,192,111236,1,0,0:0:0:0:
192,192,111349,1,0,0:0:0:0:
448,192,111463,1,0,0:0:0:0:
320,192,111463,1,0,0:0:0:0:
320,192,111577,1,0,0:0:0:0:
192,192,111577,1,0,0:0:0:0:
448,192,111690,1,0,0:0:0:0:
320,192,111804,1,0,0:0:0:0:
448,192,111917,1,0,0:0:0:0:
192,192,111917,1,0,0:0:0:0:
320,192,112031,1,0,0:0:0:0:
192,192,112145,1,0,0:0:0:0:
320,192,112258,1,0,0:0:0:0:
448,192,112372,128,0,113281:0:0:0:0:
192,192,112372,1,0,0:0:0:0:
64,192,112372,1,0,0:0:0:0:
320,192,112486,1,0,0:0:0:0:
192,192,112599,1,0,0:0:0:0:
64,192,112599,1,0,0:0:0:0:
192,192,112713,1,0,0:0:0:0:
320,192,112713,1,0,0:0:0:0:
64,192,112827,1,0,0:0:0:0:
192,192,112940,1,0,0:0:0:0:
320,192,113054,1,0,0:0:0:0:
64,192,113054,1,0,0:0:0:0:
192,192,113167,1,0,0:0:0:0:
320,192,113281,1,0,0:0:0:0:
64,192,113281,1,0,0:0:0:0:
192,192,113395,1,0,0:0:0:0:
64,192,113508,1,0,0:0:0:0:
320,192,113508,128,0,114417:0:0:0:0:
448,192,113508,1,0,0:0:0:0:
192,192,113622,1,0,0:0:0:0:
64,192,113736,1,0,0:0:0:0:
448,192,113736,1,0,0:0:0:0:
64,192,113849,1,0,0:0:0:0:
192,192,113849,1,0,0:0:0:0:
448,192,113963,1,0,0:0:0:0:
64,192,114077,1,0,0:0:0:0:
448,192,114190,1,0,0:0:0:0:
192,192,114190,1,0,0:0:0:0:
64,192,114304,1,0,0:0:0:0:
192,192,114417,1,0,0:0:0:0:
448,192,114531,1,0,0:0:0:0:
64,192,114645,1,0,0:0:0:0:
320,192,114645,1,0,0:0:0:0:
192,192,114645,128,0,115554:0:0:0:0:
448,192,114758,1,0,0:0:0:0:
320,192,114872,1,0,0:0:0:0:
64,192,114872,1,0,0:0:0:0:
320,192,114986,1,0,0:0:0:0:
448,192,114986,1,0,0:0:0:0:
64,192,115099,1,0,0:0:0:0:
320,192,115213,1,0,0:0:0:0:
448,192,115327,1,0,0:0:0:0:
64,192,115327,1,0,0:0:0:0:
320,192,115440,1,0,0:0:0:0:
64,192,115554,1,0,0:0:0:0:
448,192,115554,1,0,0:0:0:0:
320,192,115667,1,0,0:0:0:0:
192,192,115781,1,0,0:0:0:0:
320,192,115781,1,0,0:0:0:0:
448,192,115781,1,0,0:0:0:0:
64,192,115781,1,0,0:0:0:0:
64,192,115895,1,0,0:0:0:0:
448,192,116008,1,0,0:0:0:0:
320,192,116008,1,0,0:0:0:0:
192,192,116008,1,0,0:0:0:0:
192,192,116122,1,0,0:0:0:0:
320,192,116122,1,0,0:0:0:0:
64,192,116122,1,0,0:0:0:0:
448,192,116236,1,0,0:0:0:0:
320,192,116349,1,0,0:0:0:0:
192,192,116463,1,0,0:0:0:0:
64,192,116463,1,0,0:0:0:0:
448,192,116463,1,0,0:0:0:0:
192,192,116577,1,0,0:0:0:0:
448,192,116690,1,0,0:0:0:0:
320,192,116690,1,0,0:0:0:0:
192,192,116690,1,0,0:0:0:0:
64,192,116804,1,0,0:0:0:0:
448,192,116917,1,0,0:0:0:0:
320,192,116917,1,0,0:0:0:0:
64,192,116917,1,0,0:0:0:0:
192,192,116917,1,0,0:0:0:0:
448,192,117031,1,0,0:0:0:0:
192,192,117145,1,0,0:0:0:0:
64,192,117145,1,0,0:0:0:0:
320,192,117145,1,0,0:0:0:0:
320,192,117258,1,0,0:0:0:0:
192,192,117258,1,0,0:0:0:0:
448,192,117258,1,0,0:0:0:0:
64,192,117372,1,0,0:0:0:0:
192,192,117486,1,0,0:0:0:0:
320,192,117599,1,0,0:0:0:0:
448,192,117599,1,0,0:0:0:0:
64,192,117599,1,0,0:0:0:0:
320,192,117713,1,0,0:0:0:0:
192,192,117826,1,0,0:0:0:0:
320,192,117826,1,0,0:0:0:0:
64,192,117826,1,0,0:0:0:0:
64,192,117940,1,0,0:0:0:0:
448,192,118054,1,0,0:0:0:0:
320,192,118054,1,0,0:0:0:0:
64,192,118054,1,0,0:0:0:0:
192,192,118054,1,0,0:0:0:0:
448,192,118167,1,0,0:0:0:0:
192,192,118281,1,0,0:0:0:0:
320,192,118281,1,0,0:0:0:0:
64,192,118281,1,0,0:0:0:0:
448,192,118395,1,0,0:0:0:0:
192,192,118395,1,0,0:0:0:0:
64,192,118395,1,0,0:0:0:0:
448,192,118508,1,0,0:0:0:0:
320,192,118508,1,0,0:0:0:0:
192,192,118622,1,0,0:0:0:0:
320,192,118622,1,0,0:0:0:0:
192,192,118736,1,0,0:0:0:0:
64,192,118736,1,0,0:0:0:0:
448,192,118736,1,0,0:0:0:0:
192,192,118849,1,0,0:0:0:0:
320,192,118849,1,0,0:0:0:0:
448,192,118963,1,0,0:0:0:0:
320,192,118963,1,0,0:0:0:0:
64,192,118963,1,0,0:0:0:0:
192,192,119076,1,0,0:0:0:0:
320,192,119076,1,0,0:0:0:0:
64,192,119190,1,0,0:0:0:0:
192,192,119190,1,0,0:0:0:0:
448,192,119190,1,0,0:0:0:0:
320,192,119190,1,0,0:0:0:0:
64,192,119304,1,0,0:0:0:0:
192,192,119304,1,0,0:0:0:0:
320,192,119417,1,0,0:0:0:0:
448,192,119417,1,0,0:0:0:0:
64,192,119417,1,0,0:0:0:0:
192,192,119531,1,0,0:0:0:0:
320,192,119531,1,0,0:0:0:0:
448,192,119531,1,0,0:0:0:0:
64,192,119645,1,0,0:0:0:0:
192,192,119645,1,0,0:0:0:0:
192,192,119758,1,0,0:0:0:0:
320,192,119758,1,0,0:0:0:0:
192,192,119872,1,0,0:0:0:0:
64,192,119872,1,0,0:0:0:0:
448,192,119872,1,0,0:0:0:0:
192,192,119986,1,0,0:0:0:0:
320,192,119986,1,0,0:0:0:0:
320,192,120099,1,0,0:0:0:0:
192,192,120099,1,0,0:0:0:0:
64,192,120099,1,0,0:0:0:0:
320,192,120213,1,0,0:0:0:0:
448,192,120213,1,0,0:0:0:0:
64,192,120326,1,0,0:0:0:0:
192,192,120326,1,0,0:0:0:0:
448,192,120326,1,0,0:0:0:0:
320,192,120326,1,0,0:0:0:0:
64,192,120439,1,0,0:0:0:0:
192,192,120439,1,0,0:0:0:0:
320,192,120439,1,0,0:0:0:0:
448,192,120439,1,0,0:0:0:0:
64,192,120666,1,0,0:0:0:0:
192,192,120666,1,0,0:0:0:0:
320,192,120666,1,0,0:0:0:0:
448,192,120666,1,0,0:0:0:0:
192,192,121007,1,0,0:0:0:0:
64,192,121007,1,0,0:0:0:0:
320,192,121007,1,0,0:0:0:0:
448,192,121007,1,0,0:0:0:0:
448,192,121121,1,0,0:0:0:0:
320,192,121121,1,0,0:0:0:0:
192,192,121121,1,0,0:0:0:0:
64,192,121121,1,0,0:0:0:0:
64,192,121348,1,0,0:0:0:0:
192,192,121348,1,0,0:0:0:0:
320,192,121348,1,0,0:0:0:0:
448,192,121348,1,0,0:0:0:0:
64,192,121576,1,0,0:0:0:0:
448,192,121576,1,0,0:0:0:0:
192,192,121576,128,0,121803:0:0:0:0:
320,192,121576,128,0,121689:0:0:0:0:
64,192,121916,1,0,0:0:0:0:
192,192,121916,1,0,0:0:0:0:
320,192,121916,1,0,0:0:0:0:
448,192,121916,1,0,0:0:0:0:
64,192,122030,1,0,0:0:0:0:
192,192,122030,1,0,0:0:0:0:
320,192,122030,1,0,0:0:0:0:
448,192,122030,1,0,0:0:0:0:
64,192,122257,1,0,0:0:0:0:
192,192,122257,1,0,0:0:0:0:
320,192,122257,1,0,0:0:0:0:
448,192,122257,1,0,0:0:0:0:
64,192,122598,1,0,0:0:0:0:
192,192,122598,1,0,0:0:0:0:
320,192,122598,1,0,0:0:0:0:
448,192,122598,1,0,0:0:0:0:
448,192,122712,1,0,0:0:0:0:
320,192,122712,1,0,0:0:0:0:
192,192,122712,1,0,0:0:0:0:
64,192,122712,1,0,0:0:0:0:
64,192,122939,1,0,0:0:0:0:
192,192,122939,1,0,0:0:0:0:
448,192,122939,1,0,0:0:0:0:
320,192,122939,1,0,0:0:0:0:
64,192,123166,128,0,123394:0:0:0:0:
192,192,123166,128,0,123280:0:0:0:0:
320,192,123166,128,0,123223:0:0:0:0:
448,192,123166,1,0,0:0:0:0:
64,192,123507,1,0,0:0:0:0:
448,192,123507,1,0,0:0:0:0:
320,192,123507,1,0,0:0:0:0:
192,192,123507,1,0,0:0:0:0:
64,192,123621,1,0,0:0:0:0:
320,192,123621,1,0,0:0:0:0:
192,192,123621,1,0,0:0:0:0:
448,192,123621,1,0,0:0:0:0:
64,192,123848,1,0,0:0:0:0:
192,192,123848,1,0,0:0:0:0:
320,192,123848,1,0,0:0:0:0:
448,192,123848,1,0,0:0:0:0:
448,192,124189,1,0,0:0:0:0:
320,192,124189,1,0,0:0:0:0:
64,192,124189,1,0,0:0:0:0:
192,192,124189,1,0,0:0:0:0:
448,192,124303,1,0,0:0:0:0:
192,192,124303,1,0,0:0:0:0:
320,192,124303,1,0,0:0:0:0:
64,192,124303,1,0,0:0:0:0:
192,192,124530,1,0,0:0:0:0:
64,192,124530,1,0,0:0:0:0:
448,192,124530,1,0,0:0:0:0:
320,192,124530,1,0,0:0:0:0:
320,192,124757,128,0,124814:0:0:0:0:
448,192,124757,128,0,124985:0:0:0:0:
192,192,124757,128,0,124871:0:0:0:0:
64,192,124757,1,0,0:0:0:0:
64,192,125098,1,0,0:0:0:0:
192,192,125127,1,0,0:0:0:0:
448,192,125155,1,0,0:0:0:0:
320,192,125183,1,0,0:0:0:0:
64,192,125212,1,0,0:0:0:0:
192,192,125240,1,0,0:0:0:0:
320,192,125269,1,0,0:0:0:0:
448,192,125269,1,0,0:0:0:0:
448,192,125439,1,0,0:0:0:0:
320,192,125468,1,0,0:0:0:0:
64,192,125496,1,0,0:0:0:0:
192,192,125524,1,0,0:0:0:0:
448,192,125553,1,0,0:0:0:0:
320,192,125581,1,0,0:0:0:0:
64,192,125610,1,0,0:0:0:0:
192,192,125610,1,0,0:0:0:0:
64,192,125780,128,0,126519:0:0:0:0:
192,192,125780,128,0,126121:0:0:0:0:
320,192,125780,128,0,125951:0:0:0:0:
448,192,125780,128,0,125837:0:0:0:0:
192,192,126462,128,0,126576:0:0:0:0:
320,192,126519,128,0,126632:0:0:0:0:
448,192,126576,128,0,126689:0:0:0:0:
