osu file format v14

[General]
AudioFilename: audio.mp3
AudioLeadIn: 0
PreviewTime: 28561
Countdown: 0
SampleSet: Normal
StackLeniency: 0.7
Mode: 3
LetterboxInBreaks: 0
SpecialStyle: 0
WidescreenStoryboard: 1

[Editor]
DistanceSpacing: 0.5
BeatDivisor: 16
GridSize: 4
TimelineZoom: 1

[Metadata]
Title:beyond the clouds
TitleUnicode:beyond the clouds
Artist:volthi
ArtistUnicode:volthi
Creator:Hydria
Version:beginner
Source:
Tags:boom bap lofi lo-fi chill beat instrumental amore mio aiutami main theme maestro piero piccioni
BeatmapID:1410529
BeatmapSetID:665131

[Difficulty]
HPDrainRate:7
CircleSize:4
OverallDifficulty:7
ApproachRate:5
SliderMultiplier:1.4
SliderTickRate:1

[Events]
//Background and Video events
0,0,"artworks-000193730687-9i2ztm-t500x500.jpg",0,0
//Break Periods
//Storyboard Layer 0 (Background)
//Storyboard Layer 1 (Fail)
//Storyboard Layer 2 (Pass)
//Storyboard Layer 3 (Foreground)
//Storyboard Sound Samples

[TimingPoints]
1762,895.522388059701,4,1,1,40,1,0
2769,895.522388059701,4,1,1,40,1,0
3203,895.522388059701,4,1,1,40,1,0
3655,895.522388059701,4,1,1,40,1,0
5352,895.522388059701,4,1,1,40,1,0
7179,895.522388059701,4,1,1,40,1,0
9014,895.522388059701,4,1,1,40,1,0
14348,895.522388059701,4,1,1,40,1,0
14719,895.522388059701,4,1,1,40,1,0
15578,895.522388059701,4,1,1,40,1,0
16089,895.522388059701,4,1,1,40,1,0
17880,895.522388059701,4,1,1,40,1,0
43385,895.522388059701,4,1,1,40,1,0
43825,895.522388059701,4,1,1,40,1,0
44224,895.522388059701,4,1,1,40,1,0
44745,895.522388059701,4,1,1,40,1,0
45742,895.522388059701,4,1,1,40,1,0
46990,895.522388059701,4,1,1,40,1,0
50124,895.522388059701,4,1,1,40,1,0
72030,895.522388059701,4,1,1,40,1,0
72897,895.522388059701,4,1,1,40,1,0
73407,895.522388059701,4,1,1,40,1,0
74429,895.522388059701,4,1,1,40,1,0
74864,895.522388059701,4,1,1,40,1,0
75275,895.522388059701,4,1,1,40,1,0
75708,895.522388059701,4,1,1,40,1,0
77008,895.522388059701,4,1,1,40,1,0
78830,895.522388059701,4,1,1,40,1,0
79276,895.522388059701,4,1,1,40,1,0
79739,895.522388059701,4,1,1,40,1,0
80590,895.522388059701,4,1,1,40,1,0
81553,895.522388059701,4,1,1,40,1,0
85981,895.522388059701,4,1,1,16,1,0
86361,895.522388059701,4,1,1,16,1,0
87206,895.522388059701,4,1,1,16,1,0
87772,895.522388059701,4,1,1,16,1,0
89627,895.522388059701,4,1,1,16,1,0
91342,895.522388059701,4,1,1,16,1,0

[HitObjects]
64,192,1762,128,0,2209:0:0:0:0:
320,192,2209,128,0,2769:0:0:0:0:
192,192,2769,128,0,3203:0:0:0:0:
320,192,3203,128,0,3655:0:0:0:0:
448,192,3655,128,0,5352:0:0:0:0:
192,192,5352,128,0,7179:0:0:0:0:
64,192,7179,128,0,9014:0:0:0:0:
320,192,9014,128,0,9461:0:0:0:0:
64,192,9461,128,0,9909:0:0:0:0:
448,192,9909,128,0,10357:0:0:0:0:
192,192,10357,128,0,10805:0:0:0:0:
320,192,10805,128,0,12652:0:0:0:0:
192,192,12652,128,0,14348:0:0:0:0:
448,192,14348,128,0,16089:0:0:0:0:
64,192,16089,128,0,16536:0:0:0:0:
192,192,16536,128,0,16984:0:0:0:0:
320,192,16984,128,8,17432:0:0:0:0:
448,192,17880,128,2,19671:0:0:0:0:
192,192,19671,128,2,21462:0:0:0:0:
320,192,21462,128,2,23253:0:0:0:0:
192,192,23253,128,2,23700:0:0:0:0:
64,192,23700,128,0,24148:0:0:0:0:
320,192,24148,128,8,24596:0:0:0:0:
192,192,24596,128,0,25044:0:0:0:0:
448,192,25044,128,2,26835:0:0:0:0:
192,192,26835,128,2,28178:0:0:0:0:
320,192,28626,128,2,30417:0:0:0:0:
64,192,30417,128,2,30865:0:0:0:0:
320,192,30865,128,0,31312:0:0:0:0:
192,192,31312,128,8,31760:0:0:0:0:
320,192,31760,128,0,32208:0:0:0:0:
448,192,32208,128,2,33999:0:0:0:0:
192,192,33999,128,2,35790:0:0:0:0:
64,192,35790,128,2,37581:0:0:0:0:
320,192,37581,128,2,38029:0:0:0:0:
192,192,38029,128,0,38477:0:0:0:0:
448,192,38477,128,8,38924:0:0:0:0:
192,192,38924,128,0,39372:0:0:0:0:
320,192,39372,128,2,41163:0:0:0:0:
64,192,41163,128,2,42506:0:0:0:0:
448,192,42954,128,0,44745:0:0:0:0:
320,192,44745,128,0,45192:0:0:0:0:
64,192,45192,128,0,45742:0:0:0:0:
448,192,45742,128,0,46189:0:0:0:0:
192,192,46189,128,0,46637:0:0:0:0:
448,192,46637,128,0,47885:0:0:0:0:
192,192,48333,128,2,50124:0:0:0:0:
64,192,50124,128,2,51915:0:0:0:0:
320,192,51915,128,2,52362:0:0:0:0:
192,192,52362,128,0,52810:0:0:0:0:
448,192,52810,128,8,53258:0:0:0:0:
192,192,53258,128,0,53706:0:0:0:0:
320,192,53706,128,2,55049:0:0:0:0:
192,192,55497,128,2,56840:0:0:0:0:
448,192,57288,128,2,59079:0:0:0:0:
64,192,59079,128,2,59526:0:0:0:0:
320,192,59526,128,0,59974:0:0:0:0:
192,192,59974,128,8,60422:0:0:0:0:
320,192,60422,128,0,60870:0:0:0:0:
448,192,60870,128,2,62213:0:0:0:0:
192,192,62661,128,2,64452:0:0:0:0:
64,192,64452,128,2,66243:0:0:0:0:
320,192,66243,128,2,66691:0:0:0:0:
192,192,66691,128,0,67138:0:0:0:0:
448,192,67138,128,8,67586:0:0:0:0:
192,192,67586,128,0,68034:0:0:0:0:
320,192,68034,128,2,69377:0:0:0:0:
192,192,69825,128,0,71616:0:0:0:0:
448,192,71616,128,0,73407:0:0:0:0:
64,192,73407,128,0,73854:0:0:0:0:
320,192,73854,128,0,74429:0:0:0:0:
192,192,74429,128,0,74864:0:0:0:0:
320,192,74864,128,0,75275:0:0:0:0:
448,192,75275,128,0,77008:0:0:0:0:
192,192,77008,128,0,78830:0:0:0:0:
64,192,78830,128,0,80590:0:0:0:0:
320,192,80590,128,0,81037:0:0:0:0:
64,192,81037,128,0,81553:0:0:0:0:
448,192,81553,128,0,82000:0:0:0:0:
192,192,82000,128,0,82448:0:0:0:0:
320,192,82448,128,0,84407:0:0:0:0:
192,192,84407,128,0,85981:0:0:0:0:
448,192,85981,128,0,87772:0:0:0:0:
64,192,87772,128,0,88219:0:0:0:0:
320,192,88219,128,0,88667:0:0:0:0:
192,192,88667,128,0,89115:0:0:0:0:
320,192,89115,128,0,89627:0:0:0:0:
448,192,89627,128,0,91342:0:0:0:0:
192,192,91342,128,0,93133:0:0:0:0:
