osu file format v14

[General]
AudioFilename: song.mp3
AudioLeadIn: 0
PreviewTime: 185408
Countdown: 1
SampleSet: Soft
StackLeniency: 0.3
Mode: 0
LetterboxInBreaks: 0
WidescreenStoryboard: 1

[Editor]
Bookmarks: 58761,67454,69670,70181,93533,135550,137766,200579
DistanceSpacing: 1.4
BeatDivisor: 4
GridSize: 4
TimelineZoom: 2.999999

[Metadata]
Title:Akatsuki no Tsuki
TitleUnicode:Akatsuki no Tsuki
Artist:void feat. Komatsuna
ArtistUnicode:void feat. Komatsuna
Creator:Kui
Version:Pinnacle
Source:
Tags:
BeatmapID:970420
BeatmapSetID:452420

[Difficulty]
HPDrainRate:5
CircleSize:4
OverallDifficulty:8
ApproachRate:9
SliderMultiplier:1.5
SliderTickRate:2

[Events]
//Background and Video events
0,0,"bg.jpg",0,0
//Break Periods
2,77199,85945
2,142654,151399
//Storyboard Layer 0 (Background)
//Storyboard Layer 1 (Fail)
//Storyboard Layer 2 (Pass)
//Storyboard Layer 3 (Foreground)
//Storyboard Sound Samples

[TimingPoints]
636,340.909090909091,4,2,0,65,1,0
11545,-86.9565217391304,4,2,0,65,0,0
21090,-100,4,2,0,65,0,0
22454,-200,4,2,0,65,0,0
23136,-100,4,2,0,65,0,0
24499,-80,4,2,0,65,0,0
24840,-100,4,2,0,65,0,0
25181,-133.333333333333,4,2,0,65,0,0
25863,-100,4,2,0,65,0,0
27056,-100,4,2,0,65,0,0
27908,-133.333333333333,4,2,0,65,0,0
29613,-100,4,2,0,65,0,0
30295,-80,4,2,0,65,0,0
30636,-100,4,2,0,65,0,0
32170,-200,4,2,0,65,0,0
33022,-100,4,2,0,65,0,0
33363,-133.333333333333,4,2,0,65,0,0
33874,-66.6666666666667,4,2,0,65,0,0
34726,-100,4,2,0,65,0,0
36090,-200,4,2,0,65,0,0
37795,-100,4,2,0,65,0,0
38817,-133.333333333333,4,2,0,65,0,0
40863,-100,4,2,0,65,0,0
41545,-133.333333333333,4,2,0,65,0,0
42738,-100,4,2,0,65,0,0
44101,-100,4,2,0,5,0,0
44272,-80,4,2,0,65,0,0
49726,-100,4,2,0,65,0,0
50067,-74.0740740740741,4,2,0,65,0,0
52454,-100,4,2,0,65,0,0
53817,-66.6666666666667,4,2,0,65,0,0
54499,-200,4,2,0,85,0,1
55181,-80,4,2,0,85,0,1
57397,-133.333333333333,4,2,0,85,0,1
57908,-100,4,2,0,85,0,1
60636,-80,4,2,0,85,0,1
65749,-66.6666666666667,4,2,0,85,0,1
66090,-80,4,2,0,85,0,1
67283,-80,4,2,0,85,0,1
67965,-100,4,2,0,85,0,1
68476,-80,4,2,0,85,0,1
68817,-100,4,2,0,85,0,1
69499,-100,4,2,0,85,0,1
70011,-133.333333333333,4,2,0,85,0,1
70692,-80,4,2,0,85,0,1
72908,-66.6666666666667,4,2,0,85,0,1
74954,-100,4,2,0,85,0,1
75295,-80,4,2,0,85,0,1
76999,-80,4,2,0,85,0,0
87397,-80,4,2,0,5,0,0
87567,-100,4,2,0,65,0,0
89783,-100,4,2,0,65,0,0
89954,-80,4,2,0,65,0,0
90636,-133.333333333333,4,2,0,65,0,0
91658,-80,4,2,0,65,0,0
92511,-100,4,2,0,65,0,0
93363,-200,4,2,0,65,0,0
93874,-100,4,2,0,65,0,0
97965,-200,4,2,0,65,0,0
98476,-100,4,2,0,65,0,0
99840,-133.333333333333,4,2,0,65,0,0
103249,-100,4,2,0,65,0,0
104272,-133.333333333333,4,2,0,65,0,0
106317,-80,4,2,0,65,0,0
107851,-66.6666666666667,4,2,0,65,0,0
108874,-200,4,2,0,65,0,0
109726,-80,4,2,0,65,0,0
115181,-74.0740740740741,4,2,0,65,0,0
119272,-66.6666666666667,4,2,0,65,0,0
119954,-200,4,2,0,85,0,1
120465,-66.6666666666667,4,2,0,85,0,1
123363,-100,4,2,0,85,0,1
126090,-66.6666666666667,4,2,0,85,0,1
131204,-57.1428571428571,4,2,0,85,0,1
131545,-80,4,2,0,85,0,1
142454,-80,4,2,0,5,0,0
152681,-66.6666666666667,4,2,0,65,0,0
153363,-80,4,2,0,65,0,0
156090,-50,4,2,0,65,0,0
158136,-100,4,2,0,65,0,0
159499,-80,4,2,0,65,0,0
161886,-50,4,2,0,65,0,0
164613,-133.333333333333,4,2,0,65,0,0
168022,-200,4,2,0,65,0,0
168874,-100,4,2,0,65,0,0
170749,-80,4,2,0,65,0,0
174329,-66.6666666666667,4,2,0,65,0,0
174414,-66.6666666666667,4,2,0,65,0,0
179101,-133.333333333333,4,2,0,65,0,0
179783,-80,4,2,0,65,0,0
185408,-100,4,2,0,85,0,1
186090,-66.6666666666667,4,2,0,85,0,1
186431,-57.1428571428571,4,2,0,85,0,1
189499,-80,4,2,0,85,0,1
190351,-66.6666666666667,4,2,0,85,0,1
191545,-57.1428571428571,4,2,0,85,0,1
196658,-200,4,2,0,85,0,1
197511,-66.6666666666667,4,2,0,85,0,1
199726,-66.6666666666667,4,2,0,85,0,1
200920,-100,4,2,0,85,0,1
202454,-57.1428571428571,4,2,0,85,0,1
207312,-57.1428571428571,4,2,0,5,0,1
207567,-50,4,2,0,85,0,1
213363,-80,4,2,0,65,0,0
235181,-66.6666666666667,4,2,0,65,0,0
237567,-66.6666666666667,4,2,0,65,0,0
241914,-100,4,2,0,5,0,0

[HitObjects]
276,88,636,6,0,P|328:56|416:72,1,150
192,180,1147,2,0,P|127:214|55:198,1,150
412,69,1658,1,0,0:0:0:0:
400,300,1999,6,0,P|340:264|300:256,1,75
264,240,2340,1,0,0:0:0:0:
188,240,2511,1,0,0:0:0:0:
116,264,2681,1,0,0:0:0:0:
64,208,2851,1,0,0:0:0:0:
68,132,3022,1,0,0:0:0:0:
100,64,3192,1,0,0:0:0:0:
160,16,3363,6,0,P|228:56|272:120,1,150
64,208,3874,2,0,P|108:148|172:111,1,150
348,48,4386,1,0,0:0:0:0:
368,332,4726,6,0,P|388:296|416:272,1,75
400,148,5067,2,0,P|382:180|354:206,1,75
100,52,5579,1,0,0:0:0:0:
100,52,5749,2,0,P|160:72|192:104,1,75
212,140,6090,6,0,P|284:160|368:148,1,150
500,276,6601,2,0,P|428:256|354:264,1,150
504,96,7113,1,0,0:0:0:0:
192,48,7454,6,0,P|147:102|134:140,1,75
132,180,7795,1,0,0:0:0:0:
140,256,7965,1,0,0:0:0:0:
180,320,8136,2,0,P|209:343|243:359,1,75
388,324,8476,1,0,0:0:0:0:
132,80,8817,6,0,B|147:132|147:132|193:160|193:160|164:218|208:326|376:291|355:156|315:113|227:121,1,450
256,192,10181,12,0,11204,0:0:0:0:
440,60,11545,6,0,P|384:72|352:116,1,86.2500016450882
315,223,11886,1,0,0:0:0:0:
278,144,12056,1,0,0:0:0:0:
168,40,12226,2,0,B|120:88|104:136,1,86.2500016450882
229,218,12567,2,0,B|295:230|344:217,1,86.2500016450882
488,344,12908,6,0,L|364:344,1,86.2500016450882
252,300,13249,1,0,0:0:0:0:
356,240,13420,1,0,0:0:0:0:
344,124,13590,2,0,P|320:80|256:56,1,86.2500016450882
184,120,13931,2,0,P|143:90|75:95,1,86.2500016450882
104,232,14272,6,0,P|122:270|157:294,1,86.2500016450882
276,280,14613,1,0,0:0:0:0:
392,236,14783,1,0,0:0:0:0:
452,128,14954,2,0,P|408:92|344:92,1,86.2500016450882
176,128,15295,2,0,P|205:97|217:56,1,86.2500016450882
380,168,15636,6,0,P|339:180|308:209,1,86.2500016450882
232,292,15976,1,0,0:0:0:0:
120,344,16147,1,0,0:0:0:0:
52,160,16317,2,0,L|-20:256,1,86.2500016450882
184,148,16658,2,0,L|132:79,1,86.2500016450882
368,72,16999,6,0,L|248:72,1,86.2500016450882
444,172,17340,1,0,0:0:0:0:
412,292,17511,1,0,0:0:0:0:
288,272,17681,2,0,P|264:228|200:204,1,86.2500016450882
270,113,18022,2,0,P|304:137|323:175,1,86.2500016450882
152,36,18363,6,0,P|117:60|98:98,1,86.2500016450882
252,184,18704,2,0,P|228:140|164:116,1,86.2500016450882
157,209,19045,2,0,P|122:233|104:272,1,86.2500016450882
244,360,19386,2,0,P|268:316|332:292,1,86.2500016450882
284,64,19726,5,0,0:0:0:0:
160,144,19897,1,0,0:0:0:0:
333,69,20067,1,0,0:0:0:0:
174,106,20238,1,0,0:0:0:0:
379,94,20408,1,0,0:0:0:0:
204,73,20579,1,0,0:0:0:0:
417,140,20749,1,0,0:0:0:0:
246,51,20920,1,0,0:0:0:0:
444,344,21090,5,0,0:0:0:0:
409,328,21175,1,0,0:0:0:0:
373,319,21260,1,0,0:0:0:0:
336,316,21345,1,0,0:0:0:0:
298,317,21430,1,0,0:0:0:0:
261,322,21516,1,0,0:0:0:0:
225,331,21601,1,0,0:0:0:0:
189,342,21686,1,0,0:0:0:0:
161,321,21771,1,0,0:0:0:0:
138,291,21857,1,0,0:0:0:0:
122,257,21942,1,0,0:0:0:0:
115,221,22027,1,0,0:0:0:0:
119,184,22112,1,0,0:0:0:0:
132,149,22197,1,0,0:0:0:0:
153,117,22283,1,0,0:0:0:0:
177,89,22368,1,0,0:0:0:0:
208,68,22454,6,0,P|248:52|296:48,1,75
444,240,22965,1,0,0:0:0:0:
444,240,23136,2,0,P|402:248|370:276,1,75
264,216,23476,2,0,P|208:252|128:248,1,150
100,128,23988,1,0,0:0:0:0:
204,64,24158,1,0,0:0:0:0:
324,56,24329,1,0,0:0:0:0:
400,136,24499,2,0,P|431:191|438:241,1,93.75
328,272,24840,2,0,P|331:234|356:206,1,75
192,224,25181,6,0,B|176:280|116:324,1,112.500004291535
60,192,25692,1,0,0:0:0:0:
136,84,25863,2,0,P|184:64|240:72,1,75
440,148,26204,2,0,P|384:184|304:180,1,150
204,292,26715,1,0,0:0:0:0:
100,184,26886,1,0,0:0:0:0:
212,84,27056,1,0,0:0:0:0:
100,184,27226,2,0,P|96:244|116:284,1,75
212,232,27567,2,0,P|248:224|285:231,1,75
368,136,27908,6,0,P|385:96|450:68,1,112.500004291535
235,148,28420,2,0,P|234:105|282:51,1,112.500004291535
276,53,28931,1,0,0:0:0:0:
444,140,29101,2,0,P|422:190|372:214,1,112.500004291535
196,280,29613,5,0,0:0:0:0:
104,80,29783,1,0,0:0:0:0:
104,80,29954,2,0,L|44:36,1,75
88,176,30295,2,0,P|152:168|180:132,1,93.75
300,72,30636,2,0,P|384:76|448:120,1,150
392,288,31147,2,0,P|352:224|348:192,1,75
284,356,31488,2,0,P|301:282|321:257,1,75
160,328,31829,2,0,P|223:288|256:284,1,75
164,236,32170,2,0,P|129:222|91:220,1,75
336,124,32851,5,0,0:0:0:0:
336,124,33022,2,0,P|300:144|244:148,1,75
356,40,33363,2,0,P|412:91|417:142,1,112.500004291535
268,92,33874,2,0,P|207:138|128:120,1,112.500004291535
88,80,34215,1,0,0:0:0:0:
418,124,34386,2,0,P|416:68|384:23,1,112.500004291535
332,192,34726,5,0,0:0:0:0:
280,294,34897,1,0,0:0:0:0:
384,347,35067,1,0,0:0:0:0:
436,243,35238,1,0,0:0:0:0:
164,284,35408,2,0,P|108:248|84:216,1,75
140,176,35749,2,0,P|125:110|131:71,1,75
241,22,36090,6,0,P|217:50|200:84,1,75
292,76,36601,2,0,P|328:64|365:62,1,75
425,177,37113,2,0,P|397:153|363:135,1,75
363,135,37624,1,0,0:0:0:0:
240,272,37795,5,0,0:0:0:0:
352,207,37966,1,0,0:0:0:0:
160,176,38136,2,0,P|212:152|260:152,1,75
104,48,38476,2,0,P|140:55|173:74,1,75
420,264,38817,6,0,P|388:312|320:324,1,112.500004291535
264,140,39329,2,0,L|345:248,1,112.500004291535
346,69,39840,1,0,0:0:0:0:
346,69,40011,2,0,P|301:123|244:142,1,112.500004291535
263,139,40522,5,0,0:0:0:0:
112,300,40692,1,0,0:0:0:0:
112,300,40863,2,0,P|88:236|96:200,1,75
134,167,41204,2,0,P|157:137|167:102,1,75
231,69,41545,6,0,P|285:56|340:68,1,112.500004291535
396,220,42056,2,0,P|361:176|309:156,1,112.500004291535
309,156,42567,1,0,0:0:0:0:
184,336,42738,2,0,L|308:244,1,150
480,132,43249,1,0,0:0:0:0:
480,132,43420,1,0,0:0:0:0:
256,192,43505,12,0,44187,0:0:0:0:
336,72,44272,6,0,P|384:104|416:152,1,93.75
416,248,44613,1,0,0:0:0:0:
164,104,44783,6,0,P|221:107|273:133,1,93.75
291,304,45124,2,0,L|323:208,1,93.75
372,48,45465,1,0,0:0:0:0:
176,71,45636,6,0,P|136:96|106:132,1,93.75
96,248,45977,1,0,0:0:0:0:
348,104,46147,6,0,P|301:105|257:121,1,93.75
221,304,46488,2,0,L|191:215,1,93.75
140,48,46829,1,0,0:0:0:0:
424,144,46999,6,0,P|393:108|354:83,1,93.75
271,183,47340,1,0,0:0:0:0:
352,48,47511,6,0,P|305:43|260:54,1,93.75
271,183,47852,1,0,0:0:0:0:
73,305,48022,2,0,L|140:240,1,93.75
88,144,48363,6,0,P|118:108|157:83,1,93.75
241,183,48704,1,0,0:0:0:0:
160,48,48875,6,0,P|206:43|251:54,1,93.75
241,183,49216,1,0,0:0:0:0:
439,305,49386,2,0,L|371:240,1,93.75
73,305,49726,5,0,0:0:0:0:
204,252,49897,1,0,0:0:0:0:
228,108,50067,2,0,P|304:140|320:172,1,101.250000386238
280,312,50408,1,0,0:0:0:0:
352,92,50579,2,0,P|383:168|371:202,1,101.250000386238
280,312,50920,1,0,0:0:0:0:
439,305,51090,5,0,0:0:0:0:
308,252,51261,1,0,0:0:0:0:
284,108,51431,2,0,P|208:140|192:172,1,101.250000386238
232,312,51772,1,0,0:0:0:0:
160,92,51943,2,0,P|128:168|140:202,1,101.250000386238
232,312,52284,1,0,0:0:0:0:
428,296,52454,5,0,0:0:0:0:
324,184,52624,1,0,0:0:0:0:
224,76,52795,1,0,0:0:0:0:
103,164,52965,1,0,0:0:0:0:
376,128,53136,2,0,L|504:104,2,112.5
120,104,53817,1,0,0:0:0:0:
110,159,53902,1,0,0:0:0:0:
117,214,53987,1,0,0:0:0:0:
140,265,54072,1,0,0:0:0:0:
178,307,54157,1,0,0:0:0:0:
227,335,54243,1,0,0:0:0:0:
281,347,54328,1,0,0:0:0:0:
337,342,54413,1,0,0:0:0:0:
384,312,54499,6,0,P|402:279|411:243,1,75
488,148,55011,1,0,0:0:0:0:
192,80,55181,6,0,P|140:100|104:140,1,93.75
116,288,55522,1,0,0:0:0:0:
340,192,55692,1,0,0:0:0:0:
340,192,55778,1,0,0:0:0:0:
340,192,55863,2,0,P|344:248|316:280,1,93.75
172,192,56204,1,0,0:0:0:0:
432,124,56374,6,0,P|397:93|353:78,1,93.75
322,275,56715,2,0,L|366:179,1,93.75
176,304,57056,2,0,L|220:208,1,93.75
408,280,57397,2,0,L|452:324,2,56.2500021457673
508,4,57908,6,0,P|452:56|392:80,1,112.5
361,189,58249,1,0,0:0:0:0:
224,108,58420,1,0,0:0:0:0:
76,48,58590,2,0,P|36:84|56:176,1,150
176,132,59101,2,0,L|75:112,1,75
196,56,59442,1,0,0:0:0:0:
296,108,59613,1,0,0:0:0:0:
460,52,59783,5,0,0:0:0:0:
460,52,59868,1,0,0:0:0:0:
460,52,59954,1,0,0:0:0:0:
434,161,60124,1,0,0:0:0:0:
316,256,60295,1,0,0:0:0:0:
132,288,60465,1,0,0:0:0:0:
0,384,60636,6,0,L|11:291,1,93.75
140,180,60976,1,0,0:0:0:0:
316,48,61147,2,0,L|304:140,1,93.75
260,244,61488,1,0,0:0:0:0:
452,196,61658,1,0,0:0:0:0:
304,141,61829,1,0,0:0:0:0:
140,180,61999,6,0,P|92:156|48:104,1,93.75
252,84,62340,1,0,0:0:0:0:
296,292,62511,2,0,P|277:241|280:173,1,93.75
384,240,62852,1,0,0:0:0:0:
112,288,63022,2,0,P|161:268|210:220,1,93.75
300,176,63363,6,0,P|253:170|211:150,1,93.75
344,88,63704,2,0,P|393:107|442:155,1,93.75
424,276,64045,1,0,0:0:0:0:
264,324,64215,1,0,0:0:0:0:
112,248,64386,1,0,0:0:0:0:
128,80,64556,1,0,0:0:0:0:
240,184,64726,6,0,P|252:144|284:100,1,93.75
328,180,65067,2,0,P|355:217|369:262,1,93.75
280,256,65408,2,0,P|252:293|238:338,1,93.75
332,332,65664,1,0,0:0:0:0:
332,332,65749,2,0,L|448:332,1,112.500004291535
348,68,66090,5,0,0:0:0:0:
448,176,66261,1,0,0:0:0:0:
217,94,66431,2,0,P|221:140|240:183,1,93.75
177,329,66772,2,0,P|149:292|136:248,1,93.75
292,328,67113,1,0,0:0:0:0:
184,48,67283,2,0,P|264:36|304:40,1,93.75
460,208,67624,2,0,P|380:220|340:216,1,93.75
134,246,67965,2,0,P|200:213|246:155,1,150
368,128,68476,1,0,0:0:0:0:
460,208,68647,1,0,0:0:0:0:
185,338,68817,6,0,P|289:346|356:312,1,150
246,154,69329,1,0,0:0:0:0:
8,116,69499,2,0,L|112:64,1,112.500004291535
346,204,69840,1,0,0:0:0:0:
346,204,70011,2,0,L|245:153,1,112.500004291535
186,256,70522,1,0,0:0:0:0:
72,48,70692,5,0,0:0:0:0:
72,48,70778,1,0,0:0:0:0:
72,48,70863,2,0,P|80:92|108:140,1,93.75
280,256,71204,2,0,L|186:256,1,93.75
416,320,71545,6,0,P|456:272|500:252,1,93.75
420,206,71886,2,0,P|416:160|431:116,1,93.75
301,39,72226,2,0,P|319:82|352:116,1,93.75
154,65,72567,2,0,P|195:87|242:92,1,93.75
420,177,72908,6,0,P|406:123|369:82,1,112.500004291535
339,167,73249,2,0,P|303:125|252:103,1,112.500004291535
153,169,73590,2,0,P|209:168|260:192,1,112.500004291535
94,272,73931,2,0,P|144:247|200:248,1,112.500004291535
372,316,74272,1,0,0:0:0:0:
372,316,74442,1,0,0:0:0:0:
372,316,74954,5,0,0:0:0:0:
336,180,75124,1,0,0:0:0:0:
224,52,75295,2,0,L|165:124,1,93.75
256,192,75636,12,0,76999,0:0:0:0:
256,192,86545,12,0,87482,0:0:0:0:
136,100,87567,6,0,P|168:64|216:44,1,75
436,72,87908,2,0,P|396:136|400:208,1,150
428,304,88420,1,0,0:0:0:0:
268,300,88590,2,0,P|244:272|196:252,1,75
72,176,88931,2,0,P|132:108|196:80,1,150
324,108,89442,1,0,0:0:0:0:
319,269,89613,1,0,0:0:0:0:
384,208,89783,5,0,0:0:0:0:
384,208,89868,1,0,0:0:0:0:
384,208,89954,2,0,P|360:248|304:272,1,93.75
152,236,90295,2,0,P|128:196|72:172,1,93.75
367,103,90636,2,0,P|389:143|381:212,1,112.500004291535
128,207,91147,2,0,P|120:152|145:103,1,112.500004291535
268,328,91658,2,0,P|380:316|424:256,1,187.5
380,140,92170,1,0,0:0:0:0:
264,100,92340,1,0,0:0:0:0:
380,140,92511,1,0,0:0:0:0:
128,56,92681,6,0,L|96:156,1,75
176,188,93022,2,0,L|144:288,1,75
357,211,93363,6,0,L|379:139,1,75
200,56,93874,2,0,P|248:80|280:176,1,150
281,165,94386,1,0,0:0:0:0:
276,328,94556,2,0,P|295:257|357:218,1,150
357,218,95067,1,0,0:0:0:0:
281,165,95238,1,0,0:0:0:0:
281,165,95408,2,0,P|320:104|291:39,1,150
104,312,96090,6,0,L|176:260,1,75
296,244,96431,1,0,0:0:0:0:
360,128,96601,2,0,L|268:112,1,75
60,156,96942,2,0,L|140:88,2,75
76,288,97454,2,0,P|144:260|216:292,1,150
396,232,97965,2,0,L|432:156,1,75
212,32,98476,5,0,0:0:0:0:
212,32,98647,2,0,L|189:103,1,75
276,224,98988,2,0,L|324:156,1,75
88,256,99329,2,0,L|128:276,2,37.5
292,332,99670,1,0,0:0:0:0:
319,162,99840,2,0,P|369:212|431:238,1,112.500004291535
472,100,100351,1,0,0:0:0:0:
308,56,100522,1,0,0:0:0:0:
132,76,100692,1,0,0:0:0:0:
132,76,100863,2,0,P|126:147|145:210,1,112.500004291535
392,308,101374,5,0,0:0:0:0:
392,308,101545,2,0,P|364:259|323:221,1,112.500004291535
96,200,102056,2,0,P|128:136|132:128,1,56.2500021457673
272,64,102397,1,0,0:0:0:0:
500,16,102567,2,0,P|463:73|415:98,1,112.500004291535
248,192,103079,5,0,0:0:0:0:
88,312,103249,2,0,P|152:324|184:348,1,75
396,380,103590,2,0,P|360:352|340:308,1,75
360,180,103931,2,0,P|339:148|309:127,1,75
156,96,104272,2,0,P|84:96|44:116,1,112.500004291535
144,216,104783,2,0,P|188:256|212:308,1,112.500004291535
264,208,105295,1,0,0:0:0:0:
439,76,105465,2,0,P|383:77|331:99,1,112.500004291535
212,136,105976,5,0,0:0:0:0:
100,84,106147,1,0,0:0:0:0:
331,99,106317,2,0,P|376:152|384:212,1,93.75
296,180,106658,2,0,P|290:249|253:297,1,93.75
140,263,106999,2,0,P|183:245|216:212,1,93.75
44,160,107340,1,0,0:0:0:0:
163,151,107511,2,0,P|130:118|112:76,1,93.75
414,174,107851,6,0,P|378:216|328:240,1,112.500004291535
208,264,108192,2,0,P|231:314|273:350,1,112.500004291535
183,144,108533,2,0,P|133:167|97:209,1,112.500004291535
238,33,108874,2,0,P|280:69|303:119,1,112.500004291535
260,201,109726,6,0,P|292:153|308:81,1,93.75
132,220,110067,1,0,0:0:0:0:
164,300,110238,6,0,P|220:288|282:249,1,93.75
60,222,110579,1,0,0:0:0:0:
188,145,110749,1,0,0:0:0:0:
132,220,110920,1,0,0:0:0:0:
252,201,111090,6,0,P|220:153|204:81,1,93.75
380,220,111431,1,0,0:0:0:0:
348,300,111602,6,0,P|291:288|229:249,1,93.75
452,222,111943,1,0,0:0:0:0:
324,145,112113,2,0,L|384:225,1,93.75
160,52,112454,6,0,P|176:132|184:140,1,93.75
124,248,112795,1,0,0:0:0:0:
272,8,112965,6,0,P|226:75|226:87,1,93.75
104,120,113306,1,0,0:0:0:0:
384,56,113476,6,0,P|304:71|296:79,1,93.75
352,332,113817,6,0,P|336:252|328:244,1,93.75
388,136,114158,1,0,0:0:0:0:
240,376,114328,6,0,P|285:308|285:296,1,93.75
408,264,114669,1,0,0:0:0:0:
128,328,114840,6,0,P|208:312|216:304,1,93.75
73,79,115181,5,0,0:0:0:0:
204,132,115352,1,0,0:0:0:0:
228,276,115522,2,0,P|304:244|320:212,1,101.250000386238
280,72,115863,1,0,0:0:0:0:
352,292,116034,2,0,P|383:216|371:182,1,101.250000386238
280,72,116375,1,0,0:0:0:0:
439,79,116545,5,0,0:0:0:0:
308,132,116716,1,0,0:0:0:0:
284,276,116886,2,0,P|208:244|192:212,1,101.250000386238
232,72,117227,1,0,0:0:0:0:
160,292,117398,2,0,P|128:216|140:182,1,101.250000386238
232,72,117739,1,0,0:0:0:0:
428,88,117909,5,0,0:0:0:0:
324,200,118079,1,0,0:0:0:0:
224,308,118250,1,0,0:0:0:0:
103,220,118420,1,0,0:0:0:0:
364,252,118591,2,0,L|512:288,2,151.875000579357
104,144,119272,5,0,0:0:0:0:
127,93,119357,1,0,0:0:0:0:
169,56,119442,1,0,0:0:0:0:
222,39,119527,1,0,0:0:0:0:
278,45,119612,1,0,0:0:0:0:
327,72,119698,1,0,0:0:0:0:
360,117,119783,1,0,0:0:0:0:
374,171,119868,1,0,0:0:0:0:
380,228,119954,6,0,P|381:265|361:306,1,75
280,348,120465,1,0,0:0:0:0:
76,280,120636,2,0,P|104:224|148:184,1,112.500004291535
236,52,120976,2,0,P|275:91|326:115,1,112.500004291535
436,264,121317,2,0,P|411:314|372:354,1,112.500004291535
232,296,121658,1,0,0:0:0:0:
224,88,121829,6,0,P|263:127|287:178,1,112.500004291535
364,136,122170,2,0,P|363:191|345:244,1,112.500004291535
341,331,122511,2,0,P|392:307|432:268,1,112.500004291535
80,268,122851,2,0,P|119:307|170:331,1,112.500004291535
184,188,123192,1,0,0:0:0:0:
440,64,123363,6,0,P|408:128|344:168,1,112.5
400,236,123704,1,0,0:0:0:0:
252,128,123874,1,0,0:0:0:0:
144,280,124045,2,0,P|96:248|80:200,1,75
236,232,124386,1,0,0:0:0:0:
456,344,124556,2,0,P|352:344|348:344,1,75
276,340,124897,1,0,0:0:0:0:
172,340,125067,1,0,0:0:0:0:
9,206,125238,5,0,0:0:0:0:
9,206,125323,1,0,0:0:0:0:
9,206,125409,1,0,0:0:0:0:
87,126,125579,1,0,0:0:0:0:
237,106,125750,1,0,0:0:0:0:
411,173,125920,1,0,0:0:0:0:
512,312,126091,6,0,L|412:396,1,112.500004291535
112,312,126431,1,0,0:0:0:0:
112,312,126601,2,0,L|198:239,1,112.500004291535
264,180,126942,1,0,0:0:0:0:
248,56,127113,1,0,0:0:0:0:
264,180,127283,1,0,0:0:0:0:
347,253,127454,6,0,P|300:221|263:179,1,112.500004291535
377,151,127795,1,0,0:0:0:0:
488,144,127965,2,0,P|433:155|377:151,1,112.500004291535
304,88,128306,1,0,0:0:0:0:
124,112,128476,2,0,P|120:208|136:240,1,112.500004291535
184,168,128817,2,0,P|249:238|282:250,1,112.500004291535
268,164,129158,2,0,P|363:167|395:152,1,112.500004291535
400,25,129499,2,0,P|370:73|324:104,1,112.500004291535
187,103,129840,2,0,P|141:73|111:25,1,112.500004291535
264,176,130181,6,0,P|304:188|360:236,1,112.500004291535
268,264,130522,2,0,P|234:289|163:306,1,112.500004291535
357,232,130863,2,0,P|389:186|401:131,1,112.500004291535
304,156,131119,1,0,0:0:0:0:
304,156,131204,2,0,L|168:156,1,131.250001251698
88,328,131545,5,0,0:0:0:0:
196,344,131715,1,0,0:0:0:0:
301,304,131886,2,0,P|345:260|361:200,1,93.75
196,136,132226,2,0,P|216:177|251:208,1,93.75
339,119,132567,1,0,0:0:0:0:
339,119,132738,2,0,P|318:76|283:46,1,93.75
263,121,133079,2,0,P|218:106|172:109,1,93.75
208,176,133420,6,0,P|166:196|135:231,1,93.75
376,231,133761,2,0,P|345:196|304:176,1,93.75
208,176,134101,1,0,0:0:0:0:
380,312,134272,2,0,P|421:291|452:256,1,93.75
432,112,134613,1,0,0:0:0:0:
276,84,134783,1,0,0:0:0:0:
144,124,134954,2,0,L|184:224,1,93.75
303,175,135295,1,0,0:0:0:0:
504,56,135465,2,0,P|473:91|376:128,1,140.625
272,60,135806,5,0,0:0:0:0:
184,156,135976,1,0,0:0:0:0:
88,244,136147,1,0,0:0:0:0:
88,244,136232,1,0,0:0:0:0:
88,244,136317,2,0,P|129:264|160:299,1,93.75
344,256,136658,2,0,P|302:235|271:200,1,93.75
402,145,136999,6,0,P|403:191|426:233,1,93.75
109,238,137340,2,0,P|108:192|85:150,1,93.75
226,11,137681,2,0,P|196:46|181:91,1,93.75
284,371,138022,2,0,P|313:335|328:290,1,93.75
389,221,138363,6,0,P|421:256|462:279,1,93.75
129,223,138704,2,0,P|98:189|57:166,1,93.75
320,47,139045,2,0,P|307:91|310:138,1,93.75
190,336,139386,2,0,P|202:291|199:244,1,93.75
310,138,139726,2,0,P|338:187|385:218,1,93.75
132,180,140408,6,0,L|56:240,2,93.75
310,138,140920,1,0,0:0:0:0:
256,192,141090,12,0,142454,0:0:0:0:
256,192,151999,12,0,152596,0:0:0:0:
186,151,152681,6,0,L|249:162,1,56.2500021457673
328,241,152851,2,0,L|265:230,1,56.2500021457673
143,109,153022,2,0,L|249:140,1,56.2500021457673
369,288,153192,2,0,L|265:258,1,56.2500021457673
128,308,153363,5,0,0:0:0:0:
124,280,153448,1,0,0:0:0:0:
125,252,153533,1,0,0:0:0:0:
130,224,153618,1,0,0:0:0:0:
141,198,153704,2,0,L|185:168,1,46.875
296,120,153874,2,0,L|252:90,1,46.875
352,232,154045,5,0,0:0:0:0:
340,257,154130,1,0,0:0:0:0:
324,280,154215,1,0,0:0:0:0:
304,300,154300,1,0,0:0:0:0:
281,315,154385,1,0,0:0:0:0:
256,328,154470,1,0,0:0:0:0:
228,335,154556,1,0,0:0:0:0:
201,337,154641,1,0,0:0:0:0:
172,334,154726,6,0,L|133:293,1,46.875
60,240,154897,2,0,L|100:216,1,46.875
228,252,155066,1,0,0:0:0:0:
250,235,155152,1,0,0:0:0:0:
270,216,155237,1,0,0:0:0:0:
290,196,155322,1,0,0:0:0:0:
307,172,155408,1,0,0:0:0:0:
320,146,155493,1,0,0:0:0:0:
332,120,155579,1,0,0:0:0:0:
340,93,155664,1,0,0:0:0:0:
352,68,155749,2,0,L|308:48,1,46.875
200,24,155920,2,0,L|157:43,1,46.875
75,114,156090,6,0,P|107:150|183:190,1,75
155,230,156261,2,0,P|203:232|285:207,1,75
139,86,156431,2,0,P|183:109|269:115,1,75
260,174,156602,2,0,P|304:151|368:79,1,75
300,68,156772,2,0,P|337:64|374:69,1,75
447,38,156943,2,0,P|471:66|489:99,1,75
324,136,157113,2,0,P|360:148|392:169,1,75
472,171,157284,2,0,P|482:207|485:245,1,75
408,244,157454,6,0,P|372:256|341:276,1,75
259,278,157625,2,0,P|248:314|245:351,1,75
296,208,157795,2,0,P|258:204|221:209,1,75
146,175,157966,2,0,P|121:203|103:235,1,75
141,104,158136,6,0,P|172:84|208:72,1,75
44,178,158476,2,0,P|47:141|58:105,1,75
284,304,158817,5,0,0:0:0:0:
307,288,158902,1,0,0:0:0:0:
327,268,158987,1,0,0:0:0:0:
343,245,159072,1,0,0:0:0:0:
355,219,159157,1,0,0:0:0:0:
362,192,159243,1,0,0:0:0:0:
364,164,159328,1,0,0:0:0:0:
361,136,159413,1,0,0:0:0:0:
356,108,159499,2,0,L|296:144,1,46.875
156,276,159670,2,0,L|216:240,1,46.875
204,88,159840,5,0,0:0:0:0:
176,90,159925,1,0,0:0:0:0:
149,100,160010,1,0,0:0:0:0:
127,117,160095,1,0,0:0:0:0:
108,140,160181,2,0,L|132:180,1,46.875
114,259,160351,2,0,L|159:271,1,46.875
204,340,160522,2,0,L|243:316,1,46.875
308,44,160692,2,0,L|268:68,1,46.875
188,50,160863,2,0,L|176:95,1,46.875
108,139,161033,2,0,L|132:180,1,46.875
368,8,161204,1,0,0:0:0:0:
229,155,161374,1,0,0:0:0:0:
48,64,161545,5,0,0:0:0:0:
27,106,161630,1,0,0:0:0:0:
23,152,161715,1,0,0:0:0:0:
34,197,161800,1,0,0:0:0:0:
75,269,161886,6,0,P|99:241|128:217,1,75
155,153,162057,2,0,P|192:151|229:155,1,75
138,298,162227,2,0,P|171:279|207:268,1,75
259,209,162398,2,0,P|293:226|323:248,1,75
299,315,162568,2,0,P|337:319|374:314,1,75
446,346,162739,2,0,P|471:317|489:284,1,75
324,247,162909,2,0,P|359:236|390:215,1,75
472,212,163080,2,0,P|482:176|485:139,1,75
464,108,163249,5,0,0:0:0:0:
432,88,163334,1,0,0:0:0:0:
398,72,163419,1,0,0:0:0:0:
362,62,163504,1,0,0:0:0:0:
324,57,163589,1,0,0:0:0:0:
287,57,163675,1,0,0:0:0:0:
250,63,163760,1,0,0:0:0:0:
214,74,163845,1,0,0:0:0:0:
180,89,163930,1,0,0:0:0:0:
149,110,164016,1,0,0:0:0:0:
121,135,164101,1,0,0:0:0:0:
96,163,164186,1,0,0:0:0:0:
76,195,164271,1,0,0:0:0:0:
404,136,164613,6,0,P|356:104|292:96,1,112.500004291535
156,140,165295,1,0,0:0:0:0:
337,296,165465,6,0,P|282:287|236:256,1,112.500004291535
320,108,166146,1,0,0:0:0:0:
440,64,166488,1,0,0:0:0:0:
160,228,166999,6,0,L|249:159,1,112.500004291535
440,180,167511,6,0,L|380:228,1,56.2500021457673
172,144,168022,5,0,0:0:0:0:
172,144,168192,2,0,P|216:92|268:84,1,112.5
456,232,168874,5,0,0:0:0:0:
456,232,168959,1,0,0:0:0:0:
456,232,169045,1,0,0:0:0:0:
348,304,169215,1,0,0:0:0:0:
208,248,169386,2,0,P|170:222|153:189,1,75
48,44,169726,1,0,0:0:0:0:
292,128,170067,6,0,L|228:174,1,75
272,48,170579,1,0,0:0:0:0:
272,48,170749,2,0,P|349:67|382:112,1,93.75
180,288,171090,6,0,B|164:172|164:172|180:96,1,187.5
352,248,171601,1,0,0:0:0:0:
352,248,171942,1,0,0:0:0:0:
352,248,172113,2,0,P|292:284|232:276,1,93.75
172,92,172454,6,0,L|88:152,1,93.75
352,248,172795,6,0,L|275:193,1,93.75
452,52,173136,6,0,L|375:106,2,93.75
468,240,173647,5,0,0:0:0:0:
360,328,173817,1,0,0:0:0:0:
347,282,173902,1,0,0:0:0:0:
327,240,173987,1,0,0:0:0:0:
301,201,174072,1,0,0:0:0:0:
268,168,174157,1,0,0:0:0:0:
230,140,174243,1,0,0:0:0:0:
188,119,174329,2,0,P|160:116|104:136,1,56.2500021457673
8,228,174499,5,0,0:0:0:0:
53,241,174584,1,0,0:0:0:0:
99,241,174669,1,0,0:0:0:0:
146,234,174754,1,0,0:0:0:0:
190,219,174839,1,0,0:0:0:0:
231,197,174924,1,0,0:0:0:0:
268,168,175010,1,0,0:0:0:0:
300,134,175095,1,0,0:0:0:0:
326,94,175181,6,0,P|380:124|408:184,1,112.500004291535
328,300,175522,1,0,0:0:0:0:
320,176,175692,2,0,P|336:235|314:297,1,112.500004291535
175,323,176033,1,0,0:0:0:0:
260,240,176204,2,0,P|212:210|187:161,1,112.500004291535
326,290,176545,6,0,P|380:260|408:200,1,112.500004291535
328,84,176886,1,0,0:0:0:0:
320,208,177056,2,0,P|336:148|314:86,1,112.500004291535
175,61,177397,1,0,0:0:0:0:
260,144,177568,2,0,P|212:173|187:222,1,112.500004291535
348,304,177908,6,0,P|300:274|275:225,1,112.500004291535
430,147,178249,2,0,P|381:172|352:220,1,112.500004291535
187,221,178590,2,0,P|139:191|114:142,1,112.500004291535
228,60,178931,1,0,0:0:0:0:
352,219,179101,6,0,P|400:189|440:88,1,168.750006437302
12,64,179783,5,0,0:0:0:0:
12,64,179868,1,0,0:0:0:0:
12,64,179954,1,0,0:0:0:0:
80,176,180124,1,0,0:0:0:0:
248,200,180295,1,0,0:0:0:0:
400,308,180465,6,0,P|432:288|472:220,1,93.75
387,132,180806,1,0,0:0:0:0:
248,36,180976,2,0,P|209:62|183:100,1,93.75
176,256,181317,1,0,0:0:0:0:
100,112,181488,2,0,P|126:150|164:176,1,93.75
320,183,181829,1,0,0:0:0:0:
112,76,181999,6,0,P|80:96|40:164,1,93.75
124,251,182340,1,0,0:0:0:0:
264,348,182510,2,0,P|302:321|328:283,1,93.75
336,128,182851,1,0,0:0:0:0:
412,272,183022,2,0,P|385:233|347:207,1,93.75
192,201,183363,1,0,0:0:0:0:
95,82,183533,6,0,P|163:54|219:66,1,93.75
115,210,183874,6,0,P|143:142|191:111,1,93.75
192,201,184215,6,0,P|221:236|234:281,1,93.75
367,330,184556,6,0,P|337:294|324:249,1,93.75
356,101,184897,1,0,0:0:0:0:
456,208,185067,1,0,0:0:0:0:
456,208,185153,1,0,0:0:0:0:
456,208,185238,1,0,0:0:0:0:
456,208,185323,1,0,0:0:0:0:
456,208,185408,6,0,P|424:152|332:92,1,150
176,160,185920,1,0,0:0:0:0:
112,336,186090,6,0,P|192:260|216:216,1,112.500004291535
373,330,186431,2,0,P|308:337|244:328,1,131.250001251698
114,241,186772,2,0,P|121:176|112:112,1,131.250001251698
328,168,187113,1,0,0:0:0:0:
485,20,187283,6,0,P|436:64|396:116,1,131.250001251698
192,96,187624,2,0,P|160:168|96:196,1,131.250001251698
344,204,187965,2,0,P|270:232|205:206,1,131.250001251698
236,308,188306,2,0,P|271:361|332:383,1,131.250001251698
432,308,188647,1,0,0:0:0:0:
396,80,188817,6,0,P|320:56|196:72,1,196.875001877546
136,260,189158,1,0,0:0:0:0:
284,344,189329,1,0,0:0:0:0:
292,183,189499,2,0,P|268:107|276:56,1,93.75
392,160,189840,1,0,0:0:0:0:
408,300,190011,2,0,P|368:274|323:263,1,93.75
189,224,190351,6,0,P|261:188|345:184,1,112.500004291535
448,212,190692,1,0,0:0:0:0:
448,212,190777,1,0,0:0:0:0:
448,212,190863,1,0,0:0:0:0:
336,64,191033,1,0,0:0:0:0:
172,112,191204,1,0,0:0:0:0:
48,76,191374,1,0,0:0:0:0:
192,352,191545,6,0,P|256:341|313:310,1,131.250001251698
180,196,191886,1,0,0:0:0:0:
240,268,192056,6,0,P|278:215|296:152,1,131.250001251698
132,92,192397,1,0,0:0:0:0:
295,152,192567,1,0,0:0:0:0:
376,72,192738,1,0,0:0:0:0:
416,266,192908,6,0,P|413:201|444:144,1,131.250001251698
296,296,193249,1,0,0:0:0:0:
180,184,193420,6,0,P|148:116|156:52,1,131.250001251698
32,32,193761,1,0,0:0:0:0:
72,232,193931,1,0,0:0:0:0:
176,300,194101,1,0,0:0:0:0:
264,200,194272,6,0,P|272:96|304:56,1,131.250001251698
336,144,194613,6,0,P|415:76|466:70,1,131.250001251698
512,232,194954,1,0,0:0:0:0:
408,352,195124,1,0,0:0:0:0:
252,308,195295,1,0,0:0:0:0:
200,148,195465,1,0,0:0:0:0:
160,276,195636,6,0,P|80:208|29:202,1,131.250001251698
108,132,195976,2,0,P|187:64|238:58,1,131.250001251698
302,220,196317,2,0,P|222:152|171:146,1,131.250001251698
200,252,196573,1,0,0:0:0:0:
200,252,196658,2,0,L|310:362,1,150
432,188,197511,5,0,0:0:0:0:
368,92,197681,2,0,P|304:68|248:24,1,112.500004291535
304,164,198022,1,0,0:0:0:0:
148,224,198192,2,0,P|104:152|112:76,1,112.500004291535
240,204,198533,2,0,P|227:258|193:302,1,112.500004291535
188,144,198874,2,0,P|222:100|234:45,1,112.500004291535
350,262,199215,2,0,P|337:207|303:163,1,112.500004291535
352,72,199556,1,0,0:0:0:0:
188,144,199726,6,0,P|200:196|260:276,1,112.500004291535
400,228,200067,1,0,0:0:0:0:
352,72,200238,1,0,0:0:0:0:
168,61,200408,2,0,P|126:98|88:212,1,168.750006437302
316,264,200749,1,0,0:0:0:0:
316,264,200920,2,0,P|328:224|408:136,1,150
256,56,201431,5,0,0:0:0:0:
36,172,201601,1,0,0:0:0:0:
36,172,201687,1,0,0:0:0:0:
36,172,201772,1,0,0:0:0:0:
120,272,201942,1,0,0:0:0:0:
256,208,202113,1,0,0:0:0:0:
436,256,202283,1,0,0:0:0:0:
264,88,202454,6,0,P|189:71|136:20,1,131.250001251698
49,193,202795,2,0,P|114:184|168:148,1,131.250001251698
160,252,203136,2,0,P|143:326|92:379,1,131.250001251698
218,205,203476,2,0,P|258:140|260:67,1,131.250001251698
363,346,203817,6,0,P|312:307|248:296,1,131.250001251698
344,236,204158,2,0,P|408:195|481:193,1,131.250001251698
352,132,204499,2,0,P|368:57|419:4,1,131.250001251698
294,179,204840,2,0,P|253:243|251:316,1,131.250001251698
188,80,205181,1,0,0:0:0:0:
188,80,205522,1,0,0:0:0:0:
208,208,205692,1,0,0:0:0:0:
328,256,205863,2,0,L|424:364,2,131.250001251698
188,80,206374,1,0,0:0:0:0:
256,192,206545,12,0,207397,0:0:0:0:
460,92,207567,5,0,0:0:0:0:
300,208,207738,1,0,0:0:0:0:
136,124,207908,1,0,0:0:0:0:
136,124,207993,1,0,0:0:0:0:
136,124,208079,2,0,L|116:248,1,75
240,312,208249,1,0,0:0:0:0:
240,312,208334,1,0,0:0:0:0:
240,312,208420,2,0,L|220:188,1,75
312,132,208590,1,0,0:0:0:0:
312,132,208675,1,0,0:0:0:0:
312,132,208761,2,0,L|332:8,1,75
100,52,208931,1,0,0:0:0:0:
100,52,209016,1,0,0:0:0:0:
100,52,209102,2,0,L|120:176,1,75
324,232,209272,6,0,L|240:232,1,75
188,152,209442,2,0,L|272:152,1,75
360,281,209613,2,0,L|216:256,1,75
150,101,209783,2,0,L|295:126,1,75
408,340,209954,2,0,L|277:293,1,75
100,44,210124,2,0,L|236:94,1,75
126,195,210295,2,0,L|232:120,1,75
384,187,210465,2,0,L|283:261,1,75
66,177,210636,5,0,0:0:0:0:
174,281,210806,1,0,0:0:0:0:
131,51,210976,1,0,0:0:0:0:
134,201,211146,1,0,0:0:0:0:
266,9,211317,1,0,0:0:0:0:
162,116,211487,1,0,0:0:0:0:
391,74,211658,1,0,0:0:0:0:
241,77,211828,1,0,0:0:0:0:
392,268,211999,6,0,P|340:200|256:176,1,150
184,276,212340,1,0,0:0:0:0:
224,44,212511,6,0,P|172:112|88:136,1,150
16,36,212852,1,0,0:0:0:0:
47,235,213022,6,0,P|121:277|208:266,1,150
256,192,213363,12,0,216090,0:0:0:0:
423,115,216261,6,0,P|376:117|337:141,1,93.75
288,232,216601,1,0,0:0:0:0:
64,176,216772,2,0,P|104:176|164:132,1,93.75
12,56,217113,2,0,P|40:84|113:95,1,93.75
360,237,217454,6,0,P|371:282|403:316,1,93.75
276,272,217795,1,0,0:0:0:0:
148,312,217965,1,0,0:0:0:0:
150,150,218136,2,0,P|189:126|236:124,1,93.75
320,80,218476,2,0,P|348:108|421:119,1,93.75
414,294,218817,6,0,P|403:249|372:216,1,93.75
276,272,219158,1,0,0:0:0:0:
97,89,219329,2,0,P|108:134|140:168,1,93.75
329,294,219670,2,0,P|340:248|371:215,1,93.75
208,236,220011,5,0,0:0:0:0:
208,236,220181,2,0,P|196:281|165:314,1,93.75
36,352,220522,1,0,0:0:0:0:
64,176,220692,2,0,P|75:130|106:97,1,93.75
416,144,221033,2,0,P|404:189|373:222,1,93.75
253,177,221374,5,0,0:0:0:0:
253,177,221545,2,0,P|300:175|340:152,1,93.75
228,96,221886,1,0,0:0:0:0:
180,256,222056,2,0,P|133:257|93:281,1,93.75
332,128,222397,2,0,P|378:126|418:102,1,93.75
336,284,222738,5,0,0:0:0:0:
336,284,222908,2,0,P|367:250|378:205,1,93.75
240,232,223249,1,0,0:0:0:0:
104,139,223420,2,0,P|72:105|61:60,1,93.75
304,120,223846,5,0,0:0:0:0:
312,112,223931,1,0,0:0:0:0:
256,244,224101,6,0,L|224:277,1,46.875
212,292,224272,2,0,P|200:216|168:172,1,93.75
108,124,224613,1,0,0:0:0:0:
279,200,224783,2,0,P|267:124|235:80,1,93.75
383,32,225124,2,0,P|380:78|363:121,1,93.75
279,200,225465,1,0,0:0:0:0:
108,124,225636,6,0,L|40:56,2,93.75
200,184,226147,1,0,0:0:0:0:
304,328,226317,2,0,P|240:356|180:336,1,93.75
152,276,226658,1,0,0:0:0:0:
200,184,226829,1,0,0:0:0:0:
408,64,226999,6,0,L|308:144,2,93.75
432,204,227511,1,0,0:0:0:0:
320,288,227681,2,0,P|248:272|192:272,1,93.75
176,160,228022,1,0,0:0:0:0:
268,80,228192,1,0,0:0:0:0:
432,204,228363,6,0,P|392:141|352:102,1,93.75
268,80,228704,1,0,0:0:0:0:
80,180,228874,2,0,P|120:243|160:282,1,93.75
220,292,229215,1,0,0:0:0:0:
312,264,229386,1,0,0:0:0:0:
376,196,229556,1,0,0:0:0:0:
376,100,229726,6,0,P|312:88|272:96,1,93.75
320,168,230067,2,0,P|266:204|243:238,2,93.75
360,340,230579,1,0,0:0:0:0:
360,340,230749,2,0,P|296:352|256:344,1,93.75
136,252,231090,6,0,P|99:198|65:175,1,93.75
76,80,231431,1,0,0:0:0:0:
190,191,231601,2,0,P|202:126|194:86,1,93.75
269,27,231942,1,0,0:0:0:0:
404,132,232113,2,0,P|392:177|396:223,1,93.75
172,328,232454,6,0,P|225:291|248:257,1,93.75
240,148,232795,1,0,0:0:0:0:
340,48,232965,1,0,0:0:0:0:
148,40,233136,2,0,P|117:75|77:99,2,93.75
152,164,233647,1,0,0:0:0:0:
172,328,233817,6,0,P|225:291|248:257,1,93.75
364,288,234158,2,0,P|394:323|434:347,1,93.75
376,160,234499,2,0,P|345:124|305:100,1,93.75
152,108,234840,2,0,P|111:84|81:48,1,93.75
168,248,235181,6,0,P|198:212|264:176,1,112.500004291535
432,264,235522,1,0,0:0:0:0:
432,264,235692,1,0,0:0:0:0:
65,176,236033,2,0,P|113:148|151:107,1,112.500004291535
368,96,236374,5,0,0:0:0:0:
368,96,236459,1,0,0:0:0:0:
367,95,236545,2,0,P|318:122|281:164,1,112.500004291535
366,183,236886,2,0,P|422:180|476:196,1,112.500004291535
408,256,237226,2,0,P|380:304|339:342,1,112.500004291535
256,168,237567,2,0,P|283:216|324:254,1,112.500004291535
256,192,237908,12,0,241999,0:0:0:0:
