osu file format v14

[General]
AudioFilename: audio.mp3
AudioLeadIn: 0
PreviewTime: 77373
Countdown: 0
SampleSet: Normal
StackLeniency: 0.7
Mode: 3
LetterboxInBreaks: 0
SpecialStyle: 0
WidescreenStoryboard: 0

[Editor]
Bookmarks: 58039,80039,90706,122706
DistanceSpacing: 0.9
BeatDivisor: 16
GridSize: 16
TimelineZoom: 1.7

[Metadata]
Title:Never Escape
TitleUnicode:Never Escape
Artist:void feat. Gt. HAKKYOU-KUN
ArtistUnicode:void feat. Gt. HAKKYOU-KUN
Creator:AlexDunk
Version:Wonderland
Source:BMS
Tags:G2R2018 Climax -GO BACK 2 YOUR ROOTS 2018 climax- BMSから逃げるな ALTERNATIVE METALCORE RENAISSANCE bms
BeatmapID:1991612
BeatmapSetID:953903

[Difficulty]
HPDrainRate:8.5
CircleSize:4
OverallDifficulty:8.3
ApproachRate:5
SliderMultiplier:1.4
SliderTickRate:1

[Events]
//Background and Video events
0,0,"NeverEscape.jpg",0,0
Video,30,"NeverEscape.avi"
//Break Periods
//Storyboard Layer 0 (Background)
//Storyboard Layer 1 (Fail)
//Storyboard Layer 2 (Pass)
//Storyboard Layer 3 (Foreground)
//Storyboard Sound Samples

[TimingPoints]
40,333.333333333333,4,1,0,40,1,0
58039,-10,4,1,0,40,0,0
58070,-1000,4,1,0,40,0,0
58123,-14.2857142857143,4,1,0,40,0,0
58128,-1000,4,1,0,40,0,0
58164,-14.2857142857143,4,1,0,40,0,0
58169,-1000,4,1,0,40,0,0
58206,-14.2857142857143,4,1,0,40,0,0
58209,-1000,4,1,0,40,0,0
58248,-14.2857142857143,4,1,0,40,0,0
58251,-1000,4,1,0,40,0,0
58289,-14.2857142857143,4,1,0,40,0,0
58292,-1000,4,1,0,40,0,0
58331,-14.2857142857143,4,1,0,40,0,0
58334,-1000,4,1,0,40,0,0
58373,-14.2857142857143,4,1,0,40,0,0
58375,-1000,4,1,0,40,0,0
58414,-14.2857142857143,4,1,0,40,0,0
58416,-1000,4,1,0,40,0,0
58456,-14.2857142857143,4,1,0,40,0,0
58458,-1000,4,1,0,40,0,0
58498,-14.2857142857143,4,1,0,40,0,0
58500,-1000,4,1,0,40,0,0
58539,-14.2857142857143,4,1,0,40,0,0
58541,-1000,4,1,0,40,0,0
58581,-14.2857142857143,4,1,0,40,0,0
58582,-1000,4,1,0,40,0,0
58623,-14.2857142857143,4,1,0,40,0,0
58624,-1000,4,1,0,40,0,0
58664,-14.2857142857143,4,1,0,40,0,0
58665,-1000,4,1,0,40,0,0
58706,-100,4,1,0,40,0,0
79372,-33.3333333333333,4,1,0,40,0,0
79414,-76.9230769230769,4,1,0,40,0,0
79456,-125,4,1,0,40,0,0
79497,-181.818181818182,4,1,0,40,0,0
79539,-250,4,1,0,40,0,0
79581,-333.333333333333,4,1,0,40,0,0
79622,-500,4,1,0,40,0,0
79664,-666.666666666667,4,1,0,40,0,0
79706,-1000,4,1,0,40,0,0
79748,-666.666666666667,4,1,0,40,0,0
79789,-400,4,1,0,40,0,0
79831,-181.818181818182,4,1,0,40,0,0
79873,-105.263157894737,4,1,0,40,0,0
79914,-83.3333333333333,4,1,0,40,0,0
79956,-76.9230769230769,4,1,0,40,0,0
79998,-66.6666666666667,4,1,0,40,0,0
80039,-66.6666666666667,4,1,0,40,0,0
80095,-142.857142857143,4,1,0,40,0,0
80289,-71.4285714285714,4,1,0,40,0,0
80345,-142.857142857143,4,1,0,40,0,0
80539,-71.4285714285714,4,1,0,40,0,0
80595,-142.857142857143,4,1,0,40,0,0
80789,-71.4285714285714,4,1,0,40,0,0
80845,-142.857142857143,4,1,0,40,0,0
81039,-71.4285714285714,4,1,0,40,0,0
81095,-142.857142857143,4,1,0,40,0,0
81289,-71.4285714285714,4,1,0,40,0,0
81345,-142.857142857143,4,1,0,40,0,0
81539,-71.4285714285714,4,1,0,40,0,0
81595,-142.857142857143,4,1,0,40,0,0
81789,-71.4285714285714,4,1,0,40,0,0
81845,-142.857142857143,4,1,0,40,0,0
82039,-105.263157894737,4,1,0,40,0,0
82706,-58.8235294117647,4,1,0,40,0,0
82762,-200,4,1,0,40,0,0
82956,-58.8235294117647,4,1,0,40,0,0
83012,-200,4,1,0,40,0,0
83206,-58.8235294117647,4,1,0,40,0,0
83262,-200,4,1,0,40,0,0
83456,-58.8235294117647,4,1,0,40,0,0
83512,-200,4,1,0,40,0,0
83706,-58.8235294117647,4,1,0,40,0,0
83762,-200,4,1,0,40,0,0
83956,-58.8235294117647,4,1,0,40,0,0
84012,-200,4,1,0,40,0,0
84206,-58.8235294117647,4,1,0,40,0,0
84262,-200,4,1,0,40,0,0
84456,-105.263157894737,4,1,0,40,0,0
84539,-111.111111111111,4,1,0,40,0,0
84706,-117.647058823529,4,1,0,40,0,0
85373,-58.8235294117647,4,1,0,40,0,0
85428,-142.857142857143,4,1,0,40,0,0
85484,-166.666666666667,4,1,0,40,0,0
85539,-200,4,1,0,40,0,0
85623,-52.6315789473684,4,1,0,40,0,0
85678,-142.857142857143,4,1,0,40,0,0
85734,-166.666666666667,4,1,0,40,0,0
85789,-200,4,1,0,40,0,0
85873,-50,4,1,0,40,0,0
85928,-142.857142857143,4,1,0,40,0,0
85984,-166.666666666667,4,1,0,40,0,0
86039,-200,4,1,0,40,0,0
86123,-50,4,1,0,40,0,0
86178,-142.857142857143,4,1,0,40,0,0
86234,-166.666666666667,4,1,0,40,0,0
86289,-200,4,1,0,40,0,0
86373,-50,4,1,0,40,0,0
86428,-142.857,4,1,0,40,0,0
86484,-166.667,4,1,0,40,0,0
86539,-200,4,1,0,40,0,0
86623,-50,4,1,0,40,0,0
86678,-142.857,4,1,0,40,0,0
86734,-166.667,4,1,0,40,0,0
86789,-200,4,1,0,40,0,0
86873,-50,4,1,0,40,0,0
86928,-142.857,4,1,0,40,0,0
86984,-166.667,4,1,0,40,0,0
87039,-200,4,1,0,40,0,0
87123,-50,4,1,0,40,0,0
87178,-142.857,4,1,0,40,0,0
87234,-166.667,4,1,0,40,0,0
87289,-200,4,1,0,40,0,0
87373,-100,4,1,0,40,0,0
87748,-52.6315789473684,4,1,0,40,0,0
87789,-250,4,1,0,40,0,0
87928,-100,4,1,0,40,0,0
89706,-52.6315789473684,4,1,0,40,0,0
89727,-1000,4,1,0,40,0,0
89748,-52.6315789473684,4,1,0,40,0,0
89769,-1000,4,1,0,40,0,0
89789,-50,4,1,0,40,0,0
89817,-142.857142857143,4,1,0,40,0,0
89928,-125,4,1,0,40,0,0
89984,-111.111111111111,4,1,0,40,0,0
90039,-100,4,1,0,40,0,0
101373,-100,4,1,0,40,0,1
111373,-100,4,1,0,40,0,0
112039,-100,4,1,0,40,0,1
126706,-100,4,1,0,40,0,1
127039,-102.040816326531,4,1,0,40,0,1
127373,-104.166666666667,4,1,0,40,0,1
127706,-106.382978723404,4,1,0,40,0,1
128039,-108.695652173913,4,1,0,40,0,0
128706,-111.111111111111,4,1,0,40,0,0
129039,-112.359550561798,4,1,0,40,0,0
129123,-113.636363636364,4,1,0,40,0,0
129206,-114.942528735632,4,1,0,40,0,0
129289,-116.279069767442,4,1,0,40,0,0
129373,-117.647058823529,4,1,0,40,0,0
129706,-119.047619047619,4,1,0,40,0,0
129789,-120.481927710843,4,1,0,40,0,0
129873,-121.951219512195,4,1,0,40,0,0
129956,-123.456790123457,4,1,0,40,0,0
130039,-125,4,1,0,40,0,0
130123,-126.582278481013,4,1,0,40,0,0
130206,-129.87012987013,4,1,0,40,0,0
130289,-133.333333333333,4,1,0,40,0,0
130373,-135.135135135135,4,1,0,40,0,0
130456,-136.986301369863,4,1,0,40,0,0
130539,-138.888888888889,4,1,0,40,0,0
130623,-140.845070422535,4,1,0,40,0,0
130706,-142.857142857143,4,1,0,40,0,0
130748,-153.846153846154,4,1,0,40,0,0
130789,-166.666666666667,4,1,0,40,0,0
130831,-200,4,1,0,40,0,0
134706,-125,4,1,0,40,0,0

[HitObjects]
64,192,40,5,0,0:0:0:0:
320,192,40,1,0,0:0:0:0:
192,192,206,1,0,0:0:0:0:
320,192,289,1,0,0:0:0:0:
448,192,289,1,0,0:0:0:0:
192,192,373,1,0,0:0:0:0:
64,192,539,1,0,0:0:0:0:
448,192,539,1,0,0:0:0:0:
192,192,706,1,0,0:0:0:0:
320,192,706,1,0,0:0:0:0:
64,192,873,1,0,0:0:0:0:
320,192,1039,1,0,0:0:0:0:
448,192,1039,1,0,0:0:0:0:
192,192,1206,1,0,0:0:0:0:
448,192,1206,1,0,0:0:0:0:
64,192,1539,1,0,0:0:0:0:
320,192,1539,1,0,0:0:0:0:
192,192,1706,1,0,0:0:0:0:
448,192,1706,1,0,0:0:0:0:
320,192,2039,1,0,0:0:0:0:
64,192,2039,1,0,0:0:0:0:
192,192,2206,1,0,0:0:0:0:
448,192,2373,1,0,0:0:0:0:
320,192,2373,1,0,0:0:0:0:
64,192,2539,1,0,0:0:0:0:
448,192,2706,1,0,0:0:0:0:
192,192,2706,1,0,0:0:0:0:
320,192,2873,1,0,0:0:0:0:
192,192,2956,1,0,0:0:0:0:
64,192,2956,1,0,0:0:0:0:
320,192,3039,1,0,0:0:0:0:
64,192,3206,1,0,0:0:0:0:
448,192,3206,1,0,0:0:0:0:
192,192,3373,1,0,0:0:0:0:
320,192,3373,1,0,0:0:0:0:
448,192,3539,1,0,0:0:0:0:
64,192,3706,1,0,0:0:0:0:
192,192,3706,1,0,0:0:0:0:
448,192,3873,1,0,0:0:0:0:
320,192,3873,1,0,0:0:0:0:
192,192,4206,1,0,0:0:0:0:
448,192,4373,1,0,0:0:0:0:
64,192,4373,1,0,0:0:0:0:
320,192,4539,1,0,0:0:0:0:
192,192,4706,1,0,0:0:0:0:
64,192,4706,1,0,0:0:0:0:
320,192,4789,1,0,0:0:0:0:
448,192,4873,1,0,0:0:0:0:
320,192,4956,1,0,0:0:0:0:
192,192,5039,1,0,0:0:0:0:
64,192,5123,1,0,0:0:0:0:
448,192,5206,1,0,0:0:0:0:
192,192,5289,1,0,0:0:0:0:
320,192,5289,1,0,0:0:0:0:
64,192,5623,1,0,0:0:0:0:
192,192,5623,1,0,0:0:0:0:
320,192,5706,1,0,0:0:0:0:
192,192,5873,1,0,0:0:0:0:
448,192,6039,1,0,0:0:0:0:
320,192,6039,1,0,0:0:0:0:
64,192,6206,1,0,0:0:0:0:
192,192,6373,1,0,0:0:0:0:
320,192,6373,1,0,0:0:0:0:
64,192,6539,1,0,0:0:0:0:
448,192,6539,1,0,0:0:0:0:
320,192,6873,1,0,0:0:0:0:
192,192,7039,1,0,0:0:0:0:
64,192,7039,1,0,0:0:0:0:
448,192,7206,1,0,0:0:0:0:
192,192,7373,1,0,0:0:0:0:
320,192,7373,1,0,0:0:0:0:
64,192,7539,1,0,0:0:0:0:
320,192,7706,1,0,0:0:0:0:
448,192,7706,1,0,0:0:0:0:
192,192,7873,1,0,0:0:0:0:
320,192,8039,1,0,0:0:0:0:
64,192,8039,1,0,0:0:0:0:
192,192,8206,1,0,0:0:0:0:
448,192,8289,1,0,0:0:0:0:
320,192,8289,1,0,0:0:0:0:
64,192,8373,1,0,0:0:0:0:
320,192,8539,1,0,0:0:0:0:
192,192,8539,1,0,0:0:0:0:
448,192,8706,1,0,0:0:0:0:
64,192,8706,1,0,0:0:0:0:
192,192,8873,1,0,0:0:0:0:
320,192,9039,1,0,0:0:0:0:
448,192,9039,1,0,0:0:0:0:
192,192,9206,1,0,0:0:0:0:
64,192,9206,1,0,0:0:0:0:
448,192,9539,1,0,0:0:0:0:
64,192,9706,1,0,0:0:0:0:
320,192,9706,1,0,0:0:0:0:
192,192,9873,1,0,0:0:0:0:
448,192,10039,1,0,0:0:0:0:
320,192,10039,1,0,0:0:0:0:
192,192,10123,1,0,0:0:0:0:
64,192,10206,1,0,0:0:0:0:
448,192,10206,1,0,0:0:0:0:
320,192,10289,1,0,0:0:0:0:
192,192,10373,1,0,0:0:0:0:
64,192,10373,1,0,0:0:0:0:
448,192,10456,1,0,0:0:0:0:
64,192,10539,1,0,0:0:0:0:
320,192,10539,1,0,0:0:0:0:
448,192,10623,1,0,0:0:0:0:
320,192,10706,1,0,0:0:0:0:
192,192,10706,1,0,0:0:0:0:
64,192,11039,1,0,0:0:0:0:
320,192,11039,1,0,0:0:0:0:
192,192,11373,1,0,0:0:0:0:
448,192,11373,1,0,0:0:0:0:
448,192,11706,1,0,0:0:0:0:
64,192,11706,1,0,0:0:0:0:
320,192,12039,1,0,0:0:0:0:
192,192,12039,1,0,0:0:0:0:
64,192,12373,1,0,0:0:0:0:
320,192,12373,1,0,0:0:0:0:
448,192,12539,1,0,0:0:0:0:
192,192,12706,1,0,0:0:0:0:
320,192,12706,1,0,0:0:0:0:
64,192,12762,1,0,0:0:0:0:
320,192,12817,1,0,0:0:0:0:
192,192,12873,1,0,0:0:0:0:
320,192,12956,1,0,0:0:0:0:
64,192,13039,1,0,0:0:0:0:
192,192,13039,1,0,0:0:0:0:
448,192,13039,1,0,0:0:0:0:
320,192,13151,1,0,0:0:0:0:
448,192,13206,1,0,0:0:0:0:
192,192,13262,1,0,0:0:0:0:
64,192,13373,1,0,0:0:0:0:
320,192,13373,1,0,0:0:0:0:
192,192,13706,1,0,0:0:0:0:
448,192,13706,1,0,0:0:0:0:
320,192,14039,1,0,0:0:0:0:
192,192,14039,1,0,0:0:0:0:
64,192,14206,1,0,0:0:0:0:
448,192,14373,1,0,0:0:0:0:
192,192,14373,1,0,0:0:0:0:
320,192,14539,1,0,0:0:0:0:
64,192,14706,1,0,0:0:0:0:
192,192,14706,1,0,0:0:0:0:
64,192,15039,1,0,0:0:0:0:
320,192,15039,1,0,0:0:0:0:
448,192,15373,1,0,0:0:0:0:
64,192,15373,1,0,0:0:0:0:
320,192,15456,1,0,0:0:0:0:
192,192,15539,1,0,0:0:0:0:
192,192,15623,1,0,0:0:0:0:
64,192,15706,1,0,0:0:0:0:
448,192,15706,1,0,0:0:0:0:
320,192,15706,1,0,0:0:0:0:
192,192,15789,1,0,0:0:0:0:
448,192,15873,1,0,0:0:0:0:
320,192,15956,1,0,0:0:0:0:
64,192,16039,1,0,0:0:0:0:
192,192,16039,1,0,0:0:0:0:
448,192,16039,1,0,0:0:0:0:
320,192,16206,1,0,0:0:0:0:
320,192,16373,1,0,0:0:0:0:
192,192,16539,1,0,0:0:0:0:
448,192,16539,1,0,0:0:0:0:
64,192,16539,1,0,0:0:0:0:
320,192,16706,1,0,0:0:0:0:
192,192,16873,1,0,0:0:0:0:
64,192,17039,1,0,0:0:0:0:
320,192,17039,1,0,0:0:0:0:
448,192,17039,1,0,0:0:0:0:
192,192,17206,1,0,0:0:0:0:
320,192,17262,1,0,0:0:0:0:
448,192,17317,1,0,0:0:0:0:
64,192,17373,1,0,0:0:0:0:
320,192,17373,1,0,0:0:0:0:
192,192,17373,1,0,0:0:0:0:
448,192,17539,1,0,0:0:0:0:
192,192,17623,1,0,0:0:0:0:
320,192,17706,1,0,0:0:0:0:
192,192,17789,1,0,0:0:0:0:
64,192,17873,1,0,0:0:0:0:
320,192,17873,1,0,0:0:0:0:
448,192,17873,1,0,0:0:0:0:
192,192,18039,1,0,0:0:0:0:
320,192,18095,1,0,0:0:0:0:
64,192,18151,1,0,0:0:0:0:
448,192,18206,1,0,0:0:0:0:
192,192,18262,1,0,0:0:0:0:
320,192,18317,1,0,0:0:0:0:
64,192,18373,1,0,0:0:0:0:
192,192,18373,1,0,0:0:0:0:
448,192,18373,1,0,0:0:0:0:
320,192,18484,1,0,0:0:0:0:
192,192,18595,1,0,0:0:0:0:
64,192,18706,1,0,0:0:0:0:
448,192,18706,1,0,0:0:0:0:
320,192,18706,1,0,0:0:0:0:
192,192,18873,1,0,0:0:0:0:
448,192,18956,1,0,0:0:0:0:
192,192,19039,1,0,0:0:0:0:
320,192,19123,1,0,0:0:0:0:
64,192,19206,1,0,0:0:0:0:
192,192,19206,1,0,0:0:0:0:
448,192,19206,1,0,0:0:0:0:
320,192,19373,1,0,0:0:0:0:
64,192,19539,1,0,0:0:0:0:
192,192,19539,1,0,0:0:0:0:
320,192,19595,1,0,0:0:0:0:
448,192,19595,1,0,0:0:0:0:
64,192,19651,1,0,0:0:0:0:
192,192,19651,1,0,0:0:0:0:
320,192,19706,1,0,0:0:0:0:
448,192,19706,1,0,0:0:0:0:
192,192,19789,1,0,0:0:0:0:
64,192,19873,1,0,0:0:0:0:
320,192,19873,1,0,0:0:0:0:
448,192,19873,1,0,0:0:0:0:
192,192,19956,1,0,0:0:0:0:
448,192,20039,1,0,0:0:0:0:
64,192,20039,1,0,0:0:0:0:
320,192,20123,1,0,0:0:0:0:
192,192,20206,1,0,0:0:0:0:
448,192,20206,1,0,0:0:0:0:
320,192,20289,1,0,0:0:0:0:
64,192,20373,1,0,0:0:0:0:
192,192,20373,1,0,0:0:0:0:
320,192,20456,1,0,0:0:0:0:
192,192,20539,1,0,0:0:0:0:
448,192,20539,1,0,0:0:0:0:
64,192,20623,1,0,0:0:0:0:
448,192,20706,1,0,0:0:0:0:
320,192,20706,128,0,20789:0:0:0:0:
192,192,20789,128,0,20873:0:0:0:0:
320,192,20873,128,0,20956:0:0:0:0:
448,192,20956,128,0,21039:0:0:0:0:
64,192,21039,128,0,21123:0:0:0:0:
192,192,21123,128,0,21206:0:0:0:0:
448,192,21206,128,0,21289:0:0:0:0:
64,192,21289,128,0,21373:0:0:0:0:
192,192,21373,1,0,0:0:0:0:
320,192,21373,1,0,0:0:0:0:
448,192,21373,1,0,0:0:0:0:
64,192,21456,1,0,0:0:0:0:
320,192,21539,1,0,0:0:0:0:
192,192,21623,1,0,0:0:0:0:
64,192,21623,1,0,0:0:0:0:
448,192,21706,1,0,0:0:0:0:
192,192,21789,1,0,0:0:0:0:
320,192,21873,1,0,0:0:0:0:
448,192,21873,1,0,0:0:0:0:
64,192,22039,1,0,0:0:0:0:
448,192,22039,1,0,0:0:0:0:
192,192,22039,1,0,0:0:0:0:
320,192,22123,1,0,0:0:0:0:
448,192,22206,1,0,0:0:0:0:
192,192,22289,1,0,0:0:0:0:
64,192,22289,1,0,0:0:0:0:
320,192,22373,1,0,0:0:0:0:
64,192,22456,1,0,0:0:0:0:
192,192,22539,1,0,0:0:0:0:
320,192,22539,1,0,0:0:0:0:
320,192,22706,1,0,0:0:0:0:
448,192,22706,1,0,0:0:0:0:
64,192,22706,1,0,0:0:0:0:
192,192,22789,1,0,0:0:0:0:
64,192,22873,1,0,0:0:0:0:
320,192,22956,1,0,0:0:0:0:
448,192,22956,1,0,0:0:0:0:
192,192,23039,1,0,0:0:0:0:
320,192,23123,1,0,0:0:0:0:
448,192,23206,1,0,0:0:0:0:
64,192,23206,1,0,0:0:0:0:
64,192,23373,1,0,0:0:0:0:
192,192,23373,1,0,0:0:0:0:
320,192,23373,1,0,0:0:0:0:
448,192,23456,1,0,0:0:0:0:
192,192,23539,1,0,0:0:0:0:
320,192,23623,1,0,0:0:0:0:
448,192,23623,1,0,0:0:0:0:
192,192,23706,1,0,0:0:0:0:
64,192,23706,1,0,0:0:0:0:
320,192,23789,1,0,0:0:0:0:
448,192,23873,1,0,0:0:0:0:
64,192,23873,1,0,0:0:0:0:
192,192,23956,1,0,0:0:0:0:
64,192,24039,1,0,0:0:0:0:
448,192,24039,1,0,0:0:0:0:
320,192,24039,1,0,0:0:0:0:
192,192,24123,1,0,0:0:0:0:
448,192,24206,1,0,0:0:0:0:
64,192,24289,1,0,0:0:0:0:
320,192,24289,1,0,0:0:0:0:
192,192,24373,1,0,0:0:0:0:
320,192,24456,1,0,0:0:0:0:
448,192,24539,1,0,0:0:0:0:
64,192,24539,1,0,0:0:0:0:
64,192,24706,1,0,0:0:0:0:
448,192,24706,1,0,0:0:0:0:
192,192,24706,1,0,0:0:0:0:
320,192,24789,1,0,0:0:0:0:
448,192,24873,1,0,0:0:0:0:
192,192,24956,1,0,0:0:0:0:
64,192,24956,1,0,0:0:0:0:
320,192,25039,1,0,0:0:0:0:
192,192,25123,1,0,0:0:0:0:
320,192,25206,1,0,0:0:0:0:
448,192,25206,1,0,0:0:0:0:
64,192,25373,1,0,0:0:0:0:
448,192,25373,1,0,0:0:0:0:
192,192,25373,1,0,0:0:0:0:
320,192,25539,1,0,0:0:0:0:
448,192,25623,1,0,0:0:0:0:
320,192,25706,1,0,0:0:0:0:
64,192,25706,1,0,0:0:0:0:
192,192,25873,1,0,0:0:0:0:
320,192,25956,1,0,0:0:0:0:
64,192,26039,1,0,0:0:0:0:
448,192,26039,1,0,0:0:0:0:
192,192,26039,1,0,0:0:0:0:
320,192,26123,1,0,0:0:0:0:
64,192,26206,1,0,0:0:0:0:
192,192,26206,1,0,0:0:0:0:
448,192,26289,1,0,0:0:0:0:
192,192,26373,1,0,0:0:0:0:
320,192,26373,1,0,0:0:0:0:
448,192,26456,1,0,0:0:0:0:
64,192,26539,1,0,0:0:0:0:
192,192,26539,1,0,0:0:0:0:
448,192,26623,1,0,0:0:0:0:
192,192,26706,1,0,0:0:0:0:
320,192,26706,1,0,0:0:0:0:
64,192,26706,1,0,0:0:0:0:
448,192,26789,1,0,0:0:0:0:
64,192,26873,1,0,0:0:0:0:
192,192,26956,1,0,0:0:0:0:
320,192,26956,1,0,0:0:0:0:
64,192,27039,1,0,0:0:0:0:
448,192,27039,1,0,0:0:0:0:
320,192,27123,1,0,0:0:0:0:
64,192,27206,1,0,0:0:0:0:
192,192,27206,1,0,0:0:0:0:
64,192,27373,1,0,0:0:0:0:
448,192,27373,1,0,0:0:0:0:
320,192,27373,1,0,0:0:0:0:
192,192,27456,1,0,0:0:0:0:
320,192,27539,1,0,0:0:0:0:
64,192,27623,1,0,0:0:0:0:
192,192,27623,1,0,0:0:0:0:
320,192,27706,1,0,0:0:0:0:
448,192,27706,1,0,0:0:0:0:
64,192,27789,1,0,0:0:0:0:
448,192,27873,1,0,0:0:0:0:
192,192,27873,1,0,0:0:0:0:
320,192,28039,1,0,0:0:0:0:
64,192,28039,1,0,0:0:0:0:
448,192,28039,1,0,0:0:0:0:
192,192,28123,1,0,0:0:0:0:
64,192,28206,1,0,0:0:0:0:
448,192,28289,1,0,0:0:0:0:
320,192,28289,1,0,0:0:0:0:
64,192,28373,1,0,0:0:0:0:
192,192,28373,1,0,0:0:0:0:
320,192,28456,1,0,0:0:0:0:
448,192,28539,1,0,0:0:0:0:
64,192,28539,1,0,0:0:0:0:
64,192,28706,1,0,0:0:0:0:
320,192,28706,1,0,0:0:0:0:
448,192,28706,1,0,0:0:0:0:
192,192,28873,1,0,0:0:0:0:
64,192,29039,1,0,0:0:0:0:
320,192,29039,1,0,0:0:0:0:
192,192,29123,1,0,0:0:0:0:
448,192,29123,1,0,0:0:0:0:
320,192,29206,1,0,0:0:0:0:
448,192,29206,1,0,0:0:0:0:
64,192,29289,1,0,0:0:0:0:
192,192,29289,1,0,0:0:0:0:
320,192,29373,1,0,0:0:0:0:
448,192,29373,1,0,0:0:0:0:
320,192,29539,1,0,0:0:0:0:
192,192,29623,1,0,0:0:0:0:
64,192,29706,1,0,0:0:0:0:
192,192,29789,1,0,0:0:0:0:
448,192,29873,1,0,0:0:0:0:
320,192,29873,1,0,0:0:0:0:
64,192,30039,1,0,0:0:0:0:
320,192,30039,1,0,0:0:0:0:
192,192,30206,1,0,0:0:0:0:
448,192,30206,1,0,0:0:0:0:
320,192,30289,1,0,0:0:0:0:
64,192,30373,1,0,0:0:0:0:
192,192,30456,1,0,0:0:0:0:
448,192,30539,1,0,0:0:0:0:
320,192,30623,1,0,0:0:0:0:
64,192,30706,1,0,0:0:0:0:
192,192,30706,1,0,0:0:0:0:
320,192,30873,1,0,0:0:0:0:
448,192,30956,1,0,0:0:0:0:
64,192,31039,1,0,0:0:0:0:
320,192,31039,1,0,0:0:0:0:
192,192,31206,1,0,0:0:0:0:
320,192,31289,1,0,0:0:0:0:
64,192,31373,1,0,0:0:0:0:
448,192,31373,1,0,0:0:0:0:
192,192,31456,1,0,0:0:0:0:
320,192,31539,1,0,0:0:0:0:
192,192,31623,1,0,0:0:0:0:
448,192,31706,1,0,0:0:0:0:
64,192,31706,1,0,0:0:0:0:
320,192,31762,1,0,0:0:0:0:
192,192,31817,1,0,0:0:0:0:
64,192,31873,1,0,0:0:0:0:
320,192,31928,1,0,0:0:0:0:
192,192,31984,1,0,0:0:0:0:
320,192,32039,1,0,0:0:0:0:
448,192,32039,1,0,0:0:0:0:
64,192,32039,1,0,0:0:0:0:
320,192,32206,1,0,0:0:0:0:
64,192,32206,1,0,0:0:0:0:
448,192,32289,1,0,0:0:0:0:
192,192,32289,1,0,0:0:0:0:
64,192,32373,1,0,0:0:0:0:
320,192,32373,1,0,0:0:0:0:
448,192,32456,1,0,0:0:0:0:
192,192,32539,1,0,0:0:0:0:
320,192,32539,1,0,0:0:0:0:
64,192,32706,1,0,0:0:0:0:
192,192,32706,1,0,0:0:0:0:
448,192,32706,1,0,0:0:0:0:
448,192,32873,1,0,0:0:0:0:
320,192,32873,1,0,0:0:0:0:
64,192,32956,1,0,0:0:0:0:
192,192,32956,1,0,0:0:0:0:
448,192,33039,1,0,0:0:0:0:
320,192,33039,1,0,0:0:0:0:
64,192,33123,1,0,0:0:0:0:
320,192,33206,1,0,0:0:0:0:
192,192,33206,1,0,0:0:0:0:
64,192,33373,1,0,0:0:0:0:
192,192,33373,1,0,0:0:0:0:
448,192,33373,1,0,0:0:0:0:
320,192,33539,1,0,0:0:0:0:
192,192,33539,1,0,0:0:0:0:
448,192,33623,1,0,0:0:0:0:
64,192,33623,1,0,0:0:0:0:
192,192,33706,1,0,0:0:0:0:
320,192,33706,1,0,0:0:0:0:
448,192,33789,1,0,0:0:0:0:
64,192,33873,1,0,0:0:0:0:
192,192,33873,1,0,0:0:0:0:
448,192,34039,1,0,0:0:0:0:
192,192,34039,1,0,0:0:0:0:
320,192,34039,1,0,0:0:0:0:
320,192,34206,1,0,0:0:0:0:
448,192,34206,1,0,0:0:0:0:
192,192,34289,1,0,0:0:0:0:
64,192,34289,1,0,0:0:0:0:
320,192,34373,1,0,0:0:0:0:
448,192,34373,1,0,0:0:0:0:
64,192,34456,1,0,0:0:0:0:
192,192,34539,1,0,0:0:0:0:
448,192,34539,1,0,0:0:0:0:
320,192,34623,1,0,0:0:0:0:
448,192,34706,1,0,0:0:0:0:
64,192,34706,1,0,0:0:0:0:
192,192,34706,1,0,0:0:0:0:
320,192,34873,1,0,0:0:0:0:
448,192,34873,1,0,0:0:0:0:
64,192,34956,1,0,0:0:0:0:
192,192,34956,1,0,0:0:0:0:
320,192,35039,1,0,0:0:0:0:
448,192,35039,1,0,0:0:0:0:
64,192,35123,1,0,0:0:0:0:
192,192,35206,1,0,0:0:0:0:
448,192,35206,1,0,0:0:0:0:
192,192,35373,1,0,0:0:0:0:
320,192,35373,1,0,0:0:0:0:
64,192,35373,1,0,0:0:0:0:
64,192,35539,1,0,0:0:0:0:
448,192,35539,1,0,0:0:0:0:
192,192,35623,1,0,0:0:0:0:
320,192,35623,1,0,0:0:0:0:
64,192,35706,1,0,0:0:0:0:
448,192,35706,1,0,0:0:0:0:
192,192,35789,1,0,0:0:0:0:
320,192,35873,1,0,0:0:0:0:
64,192,35873,1,0,0:0:0:0:
320,192,36039,1,0,0:0:0:0:
448,192,36039,1,0,0:0:0:0:
192,192,36039,1,0,0:0:0:0:
448,192,36206,1,0,0:0:0:0:
64,192,36206,1,0,0:0:0:0:
192,192,36289,1,0,0:0:0:0:
64,192,36373,1,0,0:0:0:0:
320,192,36373,1,0,0:0:0:0:
320,192,36539,1,0,0:0:0:0:
448,192,36539,1,0,0:0:0:0:
192,192,36623,1,0,0:0:0:0:
64,192,36706,1,0,0:0:0:0:
320,192,36706,1,0,0:0:0:0:
448,192,36706,1,0,0:0:0:0:
192,192,36789,1,0,0:0:0:0:
448,192,36873,1,0,0:0:0:0:
64,192,36873,1,0,0:0:0:0:
320,192,36956,1,0,0:0:0:0:
192,192,37039,1,0,0:0:0:0:
448,192,37039,1,0,0:0:0:0:
64,192,37123,1,0,0:0:0:0:
448,192,37206,1,0,0:0:0:0:
320,192,37206,1,0,0:0:0:0:
192,192,37289,1,0,0:0:0:0:
64,192,37373,1,0,0:0:0:0:
448,192,37373,1,0,0:0:0:0:
320,192,37373,1,0,0:0:0:0:
192,192,37456,1,0,0:0:0:0:
320,192,37539,1,0,0:0:0:0:
448,192,37623,1,0,0:0:0:0:
64,192,37706,1,0,0:0:0:0:
192,192,37706,1,0,0:0:0:0:
320,192,37706,1,0,0:0:0:0:
448,192,37789,1,0,0:0:0:0:
192,192,37873,1,0,0:0:0:0:
64,192,37956,1,0,0:0:0:0:
320,192,38039,1,0,0:0:0:0:
192,192,38039,1,0,0:0:0:0:
448,192,38039,1,0,0:0:0:0:
64,192,38123,1,0,0:0:0:0:
320,192,38206,1,0,0:0:0:0:
448,192,38289,1,0,0:0:0:0:
64,192,38373,1,0,0:0:0:0:
192,192,38373,1,0,0:0:0:0:
320,192,38373,1,0,0:0:0:0:
448,192,38456,1,0,0:0:0:0:
320,192,38539,1,0,0:0:0:0:
192,192,38623,1,0,0:0:0:0:
64,192,38706,1,0,0:0:0:0:
320,192,38706,1,0,0:0:0:0:
448,192,38706,1,0,0:0:0:0:
192,192,38789,1,0,0:0:0:0:
320,192,38873,1,0,0:0:0:0:
64,192,38956,1,0,0:0:0:0:
192,192,39039,1,0,0:0:0:0:
320,192,39039,1,0,0:0:0:0:
448,192,39039,1,0,0:0:0:0:
64,192,39123,1,0,0:0:0:0:
448,192,39206,1,0,0:0:0:0:
192,192,39289,1,0,0:0:0:0:
64,192,39373,1,0,0:0:0:0:
448,192,39373,1,0,0:0:0:0:
320,192,39373,1,0,0:0:0:0:
192,192,39456,1,0,0:0:0:0:
320,192,39539,1,0,0:0:0:0:
448,192,39623,1,0,0:0:0:0:
192,192,39706,1,0,0:0:0:0:
320,192,39706,1,0,0:0:0:0:
64,192,39706,1,0,0:0:0:0:
448,192,39789,1,0,0:0:0:0:
192,192,39873,1,0,0:0:0:0:
64,192,39956,1,0,0:0:0:0:
320,192,40039,1,0,0:0:0:0:
448,192,40039,1,0,0:0:0:0:
64,192,40123,1,0,0:0:0:0:
192,192,40206,1,0,0:0:0:0:
448,192,40206,1,0,0:0:0:0:
320,192,40289,1,0,0:0:0:0:
64,192,40373,1,0,0:0:0:0:
192,192,40373,1,0,0:0:0:0:
448,192,40373,1,0,0:0:0:0:
320,192,40456,1,0,0:0:0:0:
64,192,40539,1,0,0:0:0:0:
448,192,40539,1,0,0:0:0:0:
192,192,40623,1,0,0:0:0:0:
64,192,40706,1,0,0:0:0:0:
320,192,40706,1,0,0:0:0:0:
448,192,40789,1,0,0:0:0:0:
320,192,40873,1,0,0:0:0:0:
192,192,40873,1,0,0:0:0:0:
64,192,40956,1,0,0:0:0:0:
320,192,41039,1,0,0:0:0:0:
192,192,41039,1,0,0:0:0:0:
448,192,41039,1,0,0:0:0:0:
64,192,41123,1,0,0:0:0:0:
320,192,41206,1,0,0:0:0:0:
192,192,41206,1,0,0:0:0:0:
448,192,41289,1,0,0:0:0:0:
64,192,41373,1,0,0:0:0:0:
192,192,41373,1,0,0:0:0:0:
320,192,41428,1,0,0:0:0:0:
448,192,41428,1,0,0:0:0:0:
64,192,41484,1,0,0:0:0:0:
192,192,41484,1,0,0:0:0:0:
320,192,41539,1,0,0:0:0:0:
448,192,41539,1,0,0:0:0:0:
64,192,41595,1,0,0:0:0:0:
192,192,41595,1,0,0:0:0:0:
320,192,41651,1,0,0:0:0:0:
448,192,41651,1,0,0:0:0:0:
64,192,41706,1,0,0:0:0:0:
192,192,41706,1,0,0:0:0:0:
320,192,41789,1,0,0:0:0:0:
448,192,41789,1,0,0:0:0:0:
192,192,41873,1,0,0:0:0:0:
64,192,41873,1,0,0:0:0:0:
320,192,41956,1,0,0:0:0:0:
448,192,41956,1,0,0:0:0:0:
64,192,42039,1,0,0:0:0:0:
192,192,42039,1,0,0:0:0:0:
192,192,42151,1,0,0:0:0:0:
64,192,42151,1,0,0:0:0:0:
448,192,42262,1,0,0:0:0:0:
320,192,42262,1,0,0:0:0:0:
192,192,42373,1,0,0:0:0:0:
64,192,42373,1,0,0:0:0:0:
448,192,42539,1,0,0:0:0:0:
320,192,42539,1,0,0:0:0:0:
320,192,42706,1,0,0:0:0:0:
64,192,42706,128,0,45373:0:0:0:0:
448,192,42706,128,0,43039:0:0:0:0:
448,192,43206,128,0,43539:0:0:0:0:
448,192,43706,128,0,44039:0:0:0:0:
192,192,44039,1,0,0:0:0:0:
448,192,44206,128,0,44539:0:0:0:0:
192,192,44373,1,0,0:0:0:0:
448,192,44706,128,0,45039:0:0:0:0:
192,192,44706,1,0,0:0:0:0:
320,192,45039,128,0,45373:0:0:0:0:
192,192,45039,1,0,0:0:0:0:
192,192,45373,1,0,0:0:0:0:
448,192,45373,1,0,0:0:0:0:
320,192,45539,1,0,0:0:0:0:
64,192,45706,1,0,0:0:0:0:
192,192,45706,1,0,0:0:0:0:
320,192,45873,1,0,0:0:0:0:
448,192,46039,1,0,0:0:0:0:
192,192,46039,1,0,0:0:0:0:
320,192,46206,1,0,0:0:0:0:
64,192,46373,1,0,0:0:0:0:
192,192,46373,1,0,0:0:0:0:
448,192,46539,1,0,0:0:0:0:
64,192,46706,1,0,0:0:0:0:
192,192,46706,1,0,0:0:0:0:
320,192,46789,1,0,0:0:0:0:
448,192,46789,1,0,0:0:0:0:
192,192,46873,1,0,0:0:0:0:
64,192,46873,1,0,0:0:0:0:
320,192,46956,1,0,0:0:0:0:
448,192,46956,1,0,0:0:0:0:
64,192,47039,1,0,0:0:0:0:
192,192,47039,1,0,0:0:0:0:
192,192,47206,1,0,0:0:0:0:
320,192,47206,1,0,0:0:0:0:
448,192,47373,1,0,0:0:0:0:
64,192,47373,128,0,47706:0:0:0:0:
448,192,47484,1,0,0:0:0:0:
448,192,47595,1,0,0:0:0:0:
192,192,47706,128,0,48039:0:0:0:0:
448,192,47706,128,0,48039:0:0:0:0:
64,192,48039,1,0,0:0:0:0:
320,192,48039,1,0,0:0:0:0:
192,192,48373,1,0,0:0:0:0:
320,192,48373,1,0,0:0:0:0:
64,192,48706,1,0,0:0:0:0:
448,192,48706,1,0,0:0:0:0:
192,192,48789,1,0,0:0:0:0:
320,192,48789,1,0,0:0:0:0:
64,192,48873,1,0,0:0:0:0:
448,192,48873,1,0,0:0:0:0:
192,192,48928,1,0,0:0:0:0:
320,192,48984,1,0,0:0:0:0:
64,192,49039,1,0,0:0:0:0:
448,192,49039,1,0,0:0:0:0:
192,192,49123,1,0,0:0:0:0:
320,192,49206,1,0,0:0:0:0:
64,192,49206,1,0,0:0:0:0:
448,192,49289,1,0,0:0:0:0:
192,192,49373,1,0,0:0:0:0:
320,192,49373,1,0,0:0:0:0:
64,192,49456,1,0,0:0:0:0:
448,192,49456,1,0,0:0:0:0:
192,192,49539,1,0,0:0:0:0:
320,192,49539,1,0,0:0:0:0:
448,192,49623,1,0,0:0:0:0:
64,192,49623,1,0,0:0:0:0:
192,192,49706,1,0,0:0:0:0:
320,192,49706,1,0,0:0:0:0:
320,192,49817,1,0,0:0:0:0:
448,192,49817,1,0,0:0:0:0:
64,192,49928,1,0,0:0:0:0:
192,192,49928,1,0,0:0:0:0:
64,192,50039,1,0,0:0:0:0:
320,192,50039,1,0,0:0:0:0:
448,192,50039,1,0,0:0:0:0:
192,192,50123,1,0,0:0:0:0:
320,192,50206,1,0,0:0:0:0:
448,192,50206,1,0,0:0:0:0:
192,192,50289,1,0,0:0:0:0:
64,192,50373,1,0,0:0:0:0:
320,192,50373,1,0,0:0:0:0:
448,192,50539,1,0,0:0:0:0:
64,192,50539,1,0,0:0:0:0:
192,192,50706,1,0,0:0:0:0:
320,192,50706,1,0,0:0:0:0:
448,192,50706,1,0,0:0:0:0:
192,192,51039,1,0,0:0:0:0:
320,192,51039,1,0,0:0:0:0:
64,192,51373,1,0,0:0:0:0:
448,192,51373,1,0,0:0:0:0:
320,192,51373,1,0,0:0:0:0:
192,192,51456,1,0,0:0:0:0:
64,192,51539,1,0,0:0:0:0:
448,192,51539,1,0,0:0:0:0:
320,192,51623,1,0,0:0:0:0:
64,192,51706,1,0,0:0:0:0:
448,192,51706,1,0,0:0:0:0:
192,192,51873,1,0,0:0:0:0:
448,192,51873,1,0,0:0:0:0:
64,192,52039,1,0,0:0:0:0:
320,192,52039,1,0,0:0:0:0:
192,192,52151,1,0,0:0:0:0:
448,192,52151,1,0,0:0:0:0:
192,192,52262,1,0,0:0:0:0:
320,192,52262,1,0,0:0:0:0:
64,192,52373,1,0,0:0:0:0:
448,192,52373,1,0,0:0:0:0:
320,192,52484,1,0,0:0:0:0:
448,192,52484,1,0,0:0:0:0:
192,192,52595,1,0,0:0:0:0:
64,192,52595,1,0,0:0:0:0:
64,192,52706,1,0,0:0:0:0:
320,192,52706,1,0,0:0:0:0:
448,192,52706,1,0,0:0:0:0:
192,192,52873,1,0,0:0:0:0:
448,192,52956,1,0,0:0:0:0:
320,192,52998,1,0,0:0:0:0:
192,192,53039,1,0,0:0:0:0:
64,192,53039,1,0,0:0:0:0:
448,192,53123,1,0,0:0:0:0:
320,192,53206,1,0,0:0:0:0:
192,192,53206,1,0,0:0:0:0:
448,192,53289,1,0,0:0:0:0:
64,192,53373,1,0,0:0:0:0:
192,192,53373,1,0,0:0:0:0:
320,192,53373,1,0,0:0:0:0:
64,192,53706,1,0,0:0:0:0:
448,192,53706,1,0,0:0:0:0:
192,192,54039,1,0,0:0:0:0:
320,192,54039,1,0,0:0:0:0:
448,192,54039,1,0,0:0:0:0:
64,192,54123,1,0,0:0:0:0:
320,192,54206,1,0,0:0:0:0:
448,192,54206,1,0,0:0:0:0:
192,192,54289,1,0,0:0:0:0:
64,192,54289,1,0,0:0:0:0:
320,192,54373,1,0,0:0:0:0:
448,192,54373,1,0,0:0:0:0:
192,192,54456,1,0,0:0:0:0:
448,192,54539,1,0,0:0:0:0:
64,192,54539,1,0,0:0:0:0:
192,192,54623,1,0,0:0:0:0:
320,192,54706,1,0,0:0:0:0:
448,192,54706,1,0,0:0:0:0:
64,192,54706,1,0,0:0:0:0:
64,192,54817,1,0,0:0:0:0:
192,192,54817,1,0,0:0:0:0:
320,192,54928,1,0,0:0:0:0:
448,192,54928,1,0,0:0:0:0:
64,192,55039,1,0,0:0:0:0:
448,192,55039,1,0,0:0:0:0:
64,192,55151,1,0,0:0:0:0:
192,192,55151,1,0,0:0:0:0:
192,192,55262,1,0,0:0:0:0:
320,192,55262,1,0,0:0:0:0:
320,192,55373,1,0,0:0:0:0:
448,192,55373,1,0,0:0:0:0:
64,192,55373,1,0,0:0:0:0:
192,192,55539,1,0,0:0:0:0:
448,192,55539,1,0,0:0:0:0:
320,192,55623,1,0,0:0:0:0:
64,192,55623,1,0,0:0:0:0:
192,192,55706,1,0,0:0:0:0:
448,192,55706,1,0,0:0:0:0:
192,192,55873,1,0,0:0:0:0:
320,192,55873,1,0,0:0:0:0:
192,192,56039,1,0,0:0:0:0:
448,192,56039,1,0,0:0:0:0:
64,192,56039,1,0,0:0:0:0:
64,192,56373,1,0,0:0:0:0:
320,192,56373,1,0,0:0:0:0:
64,192,56706,1,0,0:0:0:0:
192,192,56706,1,0,0:0:0:0:
448,192,56706,1,0,0:0:0:0:
320,192,56789,1,0,0:0:0:0:
64,192,56873,1,0,0:0:0:0:
192,192,56873,1,0,0:0:0:0:
320,192,57039,1,0,0:0:0:0:
448,192,57039,1,0,0:0:0:0:
192,192,57206,1,0,0:0:0:0:
320,192,57206,1,0,0:0:0:0:
64,192,57373,1,0,0:0:0:0:
320,192,57373,1,0,0:0:0:0:
448,192,57373,1,0,0:0:0:0:
64,192,57484,1,0,0:0:0:0:
192,192,57484,1,0,0:0:0:0:
320,192,57595,1,0,0:0:0:0:
448,192,57595,1,0,0:0:0:0:
64,192,57706,1,0,0:0:0:0:
448,192,57706,1,0,0:0:0:0:
192,192,57817,1,0,0:0:0:0:
320,192,57817,1,0,0:0:0:0:
64,192,57928,1,0,0:0:0:0:
320,192,57928,1,0,0:0:0:0:
192,192,58039,128,0,58706:0:0:0:0:
448,192,58039,1,0,0:0:0:0:
64,192,58706,1,0,0:0:0:0:
448,192,58706,1,0,0:0:0:0:
320,192,58706,1,0,0:0:0:0:
192,192,59039,1,0,0:0:0:0:
320,192,59039,1,0,0:0:0:0:
64,192,59373,1,0,0:0:0:0:
448,192,59373,1,0,0:0:0:0:
320,192,59373,1,0,0:0:0:0:
192,192,59428,1,0,0:0:0:0:
320,192,59484,1,0,0:0:0:0:
448,192,59484,1,0,0:0:0:0:
192,192,59539,1,0,0:0:0:0:
64,192,59539,1,0,0:0:0:0:
320,192,59623,1,0,0:0:0:0:
448,192,59706,1,0,0:0:0:0:
64,192,59706,1,0,0:0:0:0:
192,192,59873,1,0,0:0:0:0:
320,192,59873,1,0,0:0:0:0:
448,192,60039,1,0,0:0:0:0:
320,192,60039,1,0,0:0:0:0:
64,192,60039,1,0,0:0:0:0:
192,192,60123,1,0,0:0:0:0:
448,192,60206,1,0,0:0:0:0:
320,192,60206,1,0,0:0:0:0:
64,192,60289,1,0,0:0:0:0:
192,192,60289,1,0,0:0:0:0:
448,192,60373,1,0,0:0:0:0:
320,192,60373,1,0,0:0:0:0:
64,192,60456,1,0,0:0:0:0:
192,192,60456,1,0,0:0:0:0:
448,192,60539,1,0,0:0:0:0:
320,192,60539,1,0,0:0:0:0:
192,192,60623,1,0,0:0:0:0:
448,192,60706,1,0,0:0:0:0:
320,192,60706,1,0,0:0:0:0:
64,192,60706,1,0,0:0:0:0:
192,192,60789,1,0,0:0:0:0:
320,192,60873,1,0,0:0:0:0:
192,192,60956,1,0,0:0:0:0:
448,192,61039,1,0,0:0:0:0:
64,192,61039,1,0,0:0:0:0:
320,192,61206,1,0,0:0:0:0:
64,192,61206,128,0,61289:0:0:0:0:
192,192,61373,1,0,0:0:0:0:
448,192,61373,1,0,0:0:0:0:
64,192,61373,128,0,61706:0:0:0:0:
320,192,61706,1,0,0:0:0:0:
448,192,61873,1,0,0:0:0:0:
64,192,62039,1,0,0:0:0:0:
320,192,62039,1,0,0:0:0:0:
192,192,62123,1,0,0:0:0:0:
448,192,62123,1,0,0:0:0:0:
320,192,62206,1,0,0:0:0:0:
64,192,62206,1,0,0:0:0:0:
192,192,62289,1,0,0:0:0:0:
448,192,62289,1,0,0:0:0:0:
320,192,62373,1,0,0:0:0:0:
64,192,62373,1,0,0:0:0:0:
448,192,62539,1,0,0:0:0:0:
64,192,62539,1,0,0:0:0:0:
192,192,62706,1,0,0:0:0:0:
320,192,62706,128,0,62956:0:0:0:0:
64,192,62873,1,0,0:0:0:0:
192,192,62956,1,0,0:0:0:0:
320,192,63039,1,0,0:0:0:0:
192,192,63123,1,0,0:0:0:0:
448,192,63123,1,0,0:0:0:0:
64,192,63206,1,0,0:0:0:0:
320,192,63206,1,0,0:0:0:0:
448,192,63289,1,0,0:0:0:0:
192,192,63373,1,0,0:0:0:0:
320,192,63373,1,0,0:0:0:0:
64,192,63373,128,0,63539:0:0:0:0:
64,192,63623,128,0,63789:0:0:0:0:
448,192,63706,1,0,0:0:0:0:
64,192,63873,128,0,63956:0:0:0:0:
448,192,63873,1,0,0:0:0:0:
320,192,64039,1,0,0:0:0:0:
448,192,64039,1,0,0:0:0:0:
64,192,64039,128,0,64373:0:0:0:0:
320,192,64373,1,0,0:0:0:0:
192,192,64373,1,0,0:0:0:0:
64,192,64706,1,0,0:0:0:0:
192,192,64706,1,0,0:0:0:0:
448,192,64706,1,0,0:0:0:0:
320,192,64789,1,0,0:0:0:0:
448,192,64873,1,0,0:0:0:0:
192,192,64873,1,0,0:0:0:0:
64,192,64956,1,0,0:0:0:0:
320,192,65039,1,0,0:0:0:0:
448,192,65039,1,0,0:0:0:0:
64,192,65123,1,0,0:0:0:0:
192,192,65123,1,0,0:0:0:0:
192,192,65206,1,0,0:0:0:0:
320,192,65206,1,0,0:0:0:0:
320,192,65289,1,0,0:0:0:0:
448,192,65289,1,0,0:0:0:0:
64,192,65373,128,0,65456:0:0:0:0:
192,192,65373,128,0,65456:0:0:0:0:
320,192,65456,128,0,65539:0:0:0:0:
448,192,65456,128,0,65539:0:0:0:0:
192,192,65539,128,0,65623:0:0:0:0:
64,192,65539,128,0,65623:0:0:0:0:
320,192,65623,128,0,65706:0:0:0:0:
448,192,65623,128,0,65706:0:0:0:0:
64,192,65706,1,0,0:0:0:0:
192,192,65706,1,0,0:0:0:0:
320,192,65789,1,0,0:0:0:0:
192,192,65873,1,0,0:0:0:0:
64,192,65956,1,0,0:0:0:0:
320,192,66039,1,0,0:0:0:0:
448,192,66039,1,0,0:0:0:0:
192,192,66039,1,0,0:0:0:0:
64,192,66123,1,0,0:0:0:0:
192,192,66206,1,0,0:0:0:0:
320,192,66289,1,0,0:0:0:0:
64,192,66373,1,0,0:0:0:0:
192,192,66373,1,0,0:0:0:0:
448,192,66373,1,0,0:0:0:0:
320,192,66456,1,0,0:0:0:0:
192,192,66539,1,0,0:0:0:0:
192,192,66623,1,0,0:0:0:0:
64,192,66706,1,0,0:0:0:0:
448,192,66706,1,0,0:0:0:0:
320,192,66706,1,0,0:0:0:0:
192,192,66873,1,0,0:0:0:0:
320,192,66873,1,0,0:0:0:0:
192,192,67039,1,0,0:0:0:0:
320,192,67039,1,0,0:0:0:0:
192,192,67206,1,0,0:0:0:0:
320,192,67206,1,0,0:0:0:0:
64,192,67373,1,0,0:0:0:0:
192,192,67373,1,0,0:0:0:0:
448,192,67373,1,0,0:0:0:0:
320,192,67539,1,0,0:0:0:0:
64,192,67539,1,0,0:0:0:0:
192,192,67706,1,0,0:0:0:0:
320,192,67706,1,0,0:0:0:0:
448,192,67706,1,0,0:0:0:0:
64,192,67873,1,0,0:0:0:0:
320,192,67873,1,0,0:0:0:0:
64,192,68039,1,0,0:0:0:0:
448,192,68039,1,0,0:0:0:0:
320,192,68123,1,0,0:0:0:0:
192,192,68123,1,0,0:0:0:0:
448,192,68206,1,0,0:0:0:0:
64,192,68206,1,0,0:0:0:0:
192,192,68289,1,0,0:0:0:0:
448,192,68373,1,0,0:0:0:0:
320,192,68414,1,0,0:0:0:0:
64,192,68456,1,0,0:0:0:0:
192,192,68498,1,0,0:0:0:0:
448,192,68539,1,0,0:0:0:0:
320,192,68581,1,0,0:0:0:0:
64,192,68623,1,0,0:0:0:0:
192,192,68664,1,0,0:0:0:0:
448,192,68706,128,0,69373:0:0:0:0:
64,192,69039,1,0,0:0:0:0:
192,192,69039,1,0,0:0:0:0:
320,192,69039,1,0,0:0:0:0:
64,192,69373,1,0,0:0:0:0:
320,192,69373,1,0,0:0:0:0:
192,192,69456,1,0,0:0:0:0:
320,192,69539,1,0,0:0:0:0:
448,192,69623,1,0,0:0:0:0:
64,192,69706,1,0,0:0:0:0:
192,192,69706,1,0,0:0:0:0:
448,192,69789,1,0,0:0:0:0:
320,192,69873,1,0,0:0:0:0:
64,192,69956,1,0,0:0:0:0:
192,192,70039,1,0,0:0:0:0:
448,192,70039,1,0,0:0:0:0:
320,192,70123,1,0,0:0:0:0:
192,192,70206,1,0,0:0:0:0:
64,192,70289,1,0,0:0:0:0:
320,192,70373,1,0,0:0:0:0:
448,192,70373,1,0,0:0:0:0:
64,192,70456,1,0,0:0:0:0:
192,192,70539,1,0,0:0:0:0:
448,192,70623,1,0,0:0:0:0:
320,192,70706,1,0,0:0:0:0:
64,192,70706,1,0,0:0:0:0:
192,192,70789,1,0,0:0:0:0:
320,192,70873,1,0,0:0:0:0:
448,192,70956,1,0,0:0:0:0:
64,192,71039,1,0,0:0:0:0:
192,192,71039,1,0,0:0:0:0:
320,192,71123,1,0,0:0:0:0:
448,192,71206,1,0,0:0:0:0:
192,192,71289,1,0,0:0:0:0:
64,192,71373,1,0,0:0:0:0:
320,192,71373,1,0,0:0:0:0:
192,192,71484,1,0,0:0:0:0:
448,192,71484,1,0,0:0:0:0:
192,192,71595,1,0,0:0:0:0:
448,192,71595,1,0,0:0:0:0:
64,192,71706,1,0,0:0:0:0:
448,192,71706,1,0,0:0:0:0:
320,192,71873,1,0,0:0:0:0:
192,192,71873,1,0,0:0:0:0:
320,192,72039,1,0,0:0:0:0:
64,192,72039,1,0,0:0:0:0:
448,192,72123,1,0,0:0:0:0:
192,192,72206,1,0,0:0:0:0:
320,192,72289,1,0,0:0:0:0:
64,192,72373,1,0,0:0:0:0:
448,192,72373,1,0,0:0:0:0:
192,192,72456,1,0,0:0:0:0:
320,192,72539,1,0,0:0:0:0:
448,192,72623,1,0,0:0:0:0:
64,192,72706,1,0,0:0:0:0:
192,192,72706,1,0,0:0:0:0:
320,192,72789,1,0,0:0:0:0:
448,192,72873,1,0,0:0:0:0:
192,192,72956,1,0,0:0:0:0:
320,192,73039,1,0,0:0:0:0:
448,192,73039,1,0,0:0:0:0:
64,192,73123,1,0,0:0:0:0:
192,192,73206,1,0,0:0:0:0:
320,192,73289,1,0,0:0:0:0:
192,192,73373,1,0,0:0:0:0:
448,192,73373,1,0,0:0:0:0:
64,192,73456,1,0,0:0:0:0:
320,192,73539,1,0,0:0:0:0:
192,192,73623,1,0,0:0:0:0:
64,192,73706,1,0,0:0:0:0:
320,192,73706,1,0,0:0:0:0:
192,192,73789,1,0,0:0:0:0:
320,192,73873,1,0,0:0:0:0:
448,192,73956,1,0,0:0:0:0:
64,192,74039,1,0,0:0:0:0:
192,192,74039,1,0,0:0:0:0:
320,192,74123,1,0,0:0:0:0:
448,192,74123,1,0,0:0:0:0:
64,192,74206,1,0,0:0:0:0:
192,192,74206,1,0,0:0:0:0:
320,192,74289,1,0,0:0:0:0:
448,192,74289,1,0,0:0:0:0:
64,192,74373,1,0,0:0:0:0:
192,192,74373,1,0,0:0:0:0:
192,192,74484,1,0,0:0:0:0:
320,192,74484,1,0,0:0:0:0:
320,192,74595,1,0,0:0:0:0:
448,192,74595,1,0,0:0:0:0:
64,192,74706,1,0,0:0:0:0:
448,192,74706,1,0,0:0:0:0:
192,192,74789,1,0,0:0:0:0:
320,192,74873,1,0,0:0:0:0:
448,192,74956,1,0,0:0:0:0:
64,192,75039,1,0,0:0:0:0:
320,192,75039,1,0,0:0:0:0:
448,192,75123,1,0,0:0:0:0:
320,192,75206,1,0,0:0:0:0:
64,192,75289,1,0,0:0:0:0:
192,192,75373,1,0,0:0:0:0:
448,192,75373,1,0,0:0:0:0:
320,192,75456,1,0,0:0:0:0:
192,192,75539,1,0,0:0:0:0:
64,192,75623,1,0,0:0:0:0:
320,192,75706,1,0,0:0:0:0:
448,192,75706,1,0,0:0:0:0:
192,192,75789,1,0,0:0:0:0:
448,192,75873,1,0,0:0:0:0:
320,192,75956,1,0,0:0:0:0:
64,192,76039,1,0,0:0:0:0:
192,192,76039,1,0,0:0:0:0:
448,192,76123,1,0,0:0:0:0:
320,192,76206,1,0,0:0:0:0:
192,192,76289,1,0,0:0:0:0:
64,192,76373,1,0,0:0:0:0:
448,192,76373,1,0,0:0:0:0:
192,192,76456,1,0,0:0:0:0:
320,192,76539,1,0,0:0:0:0:
64,192,76623,1,0,0:0:0:0:
320,192,76706,1,0,0:0:0:0:
448,192,76706,1,0,0:0:0:0:
64,192,76762,1,0,0:0:0:0:
192,192,76762,1,0,0:0:0:0:
320,192,76817,1,0,0:0:0:0:
448,192,76817,1,0,0:0:0:0:
192,192,76873,1,0,0:0:0:0:
64,192,76873,1,0,0:0:0:0:
320,192,76928,1,0,0:0:0:0:
448,192,76928,1,0,0:0:0:0:
192,192,76984,1,0,0:0:0:0:
64,192,76984,1,0,0:0:0:0:
320,192,77039,1,0,0:0:0:0:
448,192,77039,1,0,0:0:0:0:
64,192,77123,1,0,0:0:0:0:
192,192,77123,1,0,0:0:0:0:
320,192,77206,1,0,0:0:0:0:
448,192,77206,1,0,0:0:0:0:
192,192,77289,1,0,0:0:0:0:
64,192,77289,1,0,0:0:0:0:
320,192,77373,1,0,0:0:0:0:
448,192,77373,1,0,0:0:0:0:
192,192,77456,1,0,0:0:0:0:
64,192,77539,1,0,0:0:0:0:
320,192,77623,1,0,0:0:0:0:
448,192,77706,1,0,0:0:0:0:
192,192,77706,1,0,0:0:0:0:
320,192,77789,1,0,0:0:0:0:
64,192,77873,1,0,0:0:0:0:
448,192,77956,1,0,0:0:0:0:
192,192,78039,1,0,0:0:0:0:
320,192,78039,1,0,0:0:0:0:
64,192,78123,1,0,0:0:0:0:
448,192,78206,1,0,0:0:0:0:
320,192,78289,1,0,0:0:0:0:
64,192,78373,1,0,0:0:0:0:
192,192,78373,1,0,0:0:0:0:
448,192,78456,1,0,0:0:0:0:
320,192,78539,1,0,0:0:0:0:
64,192,78623,1,0,0:0:0:0:
192,192,78706,1,0,0:0:0:0:
448,192,78706,1,0,0:0:0:0:
320,192,78789,1,0,0:0:0:0:
64,192,78873,1,0,0:0:0:0:
192,192,78956,1,0,0:0:0:0:
320,192,79039,1,0,0:0:0:0:
448,192,79039,1,0,0:0:0:0:
192,192,79123,1,0,0:0:0:0:
448,192,79206,1,0,0:0:0:0:
320,192,79289,1,0,0:0:0:0:
64,192,79373,128,0,79956:0:0:0:0:
448,192,79373,128,0,79956:0:0:0:0:
192,192,79956,1,0,0:0:0:0:
320,192,80039,1,0,0:0:0:0:
448,192,80039,1,0,0:0:0:0:
64,192,80039,1,0,0:0:0:0:
192,192,80289,1,0,0:0:0:0:
320,192,80289,1,0,0:0:0:0:
448,192,80289,1,0,0:0:0:0:
192,192,80539,1,0,0:0:0:0:
448,192,80539,1,0,0:0:0:0:
64,192,80539,1,0,0:0:0:0:
320,192,80789,1,0,0:0:0:0:
448,192,80789,1,0,0:0:0:0:
64,192,80789,1,0,0:0:0:0:
320,192,81039,1,0,0:0:0:0:
192,192,81039,1,0,0:0:0:0:
64,192,81039,1,0,0:0:0:0:
320,192,81289,1,0,0:0:0:0:
448,192,81289,1,0,0:0:0:0:
64,192,81289,1,0,0:0:0:0:
192,192,81539,1,0,0:0:0:0:
320,192,81539,1,0,0:0:0:0:
448,192,81539,1,0,0:0:0:0:
448,192,81789,1,0,0:0:0:0:
192,192,81789,1,0,0:0:0:0:
64,192,81789,1,0,0:0:0:0:
64,192,82039,1,0,0:0:0:0:
192,192,82039,1,0,0:0:0:0:
448,192,82039,1,0,0:0:0:0:
320,192,82123,1,0,0:0:0:0:
64,192,82206,1,0,0:0:0:0:
192,192,82206,1,0,0:0:0:0:
320,192,82289,1,0,0:0:0:0:
448,192,82289,1,0,0:0:0:0:
64,192,82373,1,0,0:0:0:0:
192,192,82373,1,0,0:0:0:0:
320,192,82484,1,0,0:0:0:0:
448,192,82484,1,0,0:0:0:0:
320,192,82595,1,0,0:0:0:0:
192,192,82595,1,0,0:0:0:0:
64,192,82706,1,0,0:0:0:0:
448,192,82706,1,0,0:0:0:0:
192,192,82706,1,0,0:0:0:0:
64,192,82956,1,0,0:0:0:0:
320,192,82956,1,0,0:0:0:0:
448,192,82956,1,0,0:0:0:0:
192,192,83206,1,0,0:0:0:0:
448,192,83206,1,0,0:0:0:0:
320,192,83206,1,0,0:0:0:0:
192,192,83456,1,0,0:0:0:0:
320,192,83456,1,0,0:0:0:0:
64,192,83456,1,0,0:0:0:0:
64,192,83706,1,0,0:0:0:0:
192,192,83706,1,0,0:0:0:0:
448,192,83706,1,0,0:0:0:0:
64,192,83956,1,0,0:0:0:0:
320,192,83956,1,0,0:0:0:0:
448,192,83956,1,0,0:0:0:0:
192,192,84206,1,0,0:0:0:0:
448,192,84206,1,0,0:0:0:0:
320,192,84206,1,0,0:0:0:0:
64,192,84456,1,0,0:0:0:0:
192,192,84456,1,0,0:0:0:0:
448,192,84456,1,0,0:0:0:0:
320,192,84539,1,0,0:0:0:0:
448,192,84595,1,0,0:0:0:0:
64,192,84651,1,0,0:0:0:0:
192,192,84706,1,0,0:0:0:0:
320,192,84873,1,0,0:0:0:0:
192,192,85039,1,0,0:0:0:0:
64,192,85206,1,0,0:0:0:0:
192,192,85373,1,0,0:0:0:0:
320,192,85373,1,0,0:0:0:0:
448,192,85373,1,0,0:0:0:0:
64,192,85623,1,0,0:0:0:0:
320,192,85623,1,0,0:0:0:0:
448,192,85623,1,0,0:0:0:0:
320,192,85873,1,0,0:0:0:0:
448,192,85873,1,0,0:0:0:0:
192,192,85873,1,0,0:0:0:0:
64,192,86123,1,0,0:0:0:0:
192,192,86123,1,0,0:0:0:0:
448,192,86123,1,0,0:0:0:0:
320,192,86373,1,0,0:0:0:0:
192,192,86373,1,0,0:0:0:0:
64,192,86373,1,0,0:0:0:0:
64,192,86623,1,0,0:0:0:0:
192,192,86623,1,0,0:0:0:0:
448,192,86623,1,0,0:0:0:0:
64,192,86873,1,0,0:0:0:0:
320,192,86873,1,0,0:0:0:0:
448,192,86873,1,0,0:0:0:0:
192,192,87123,1,0,0:0:0:0:
320,192,87123,1,0,0:0:0:0:
448,192,87123,1,0,0:0:0:0:
64,192,87373,1,0,0:0:0:0:
192,192,87373,1,0,0:0:0:0:
320,192,87428,1,0,0:0:0:0:
448,192,87428,1,0,0:0:0:0:
64,192,87484,1,0,0:0:0:0:
192,192,87484,1,0,0:0:0:0:
320,192,87539,1,0,0:0:0:0:
448,192,87539,1,0,0:0:0:0:
64,192,87595,1,0,0:0:0:0:
192,192,87595,1,0,0:0:0:0:
320,192,87651,1,0,0:0:0:0:
448,192,87651,1,0,0:0:0:0:
64,192,87706,1,0,0:0:0:0:
192,192,87706,1,0,0:0:0:0:
448,192,87748,128,0,87956:0:0:0:0:
64,192,88039,1,0,0:0:0:0:
320,192,88039,1,0,0:0:0:0:
448,192,88039,1,0,0:0:0:0:
64,192,88206,1,0,0:0:0:0:
448,192,88206,1,0,0:0:0:0:
320,192,88289,1,0,0:0:0:0:
192,192,88289,1,0,0:0:0:0:
320,192,88456,1,0,0:0:0:0:
448,192,88456,1,0,0:0:0:0:
64,192,88539,1,0,0:0:0:0:
192,192,88539,1,0,0:0:0:0:
64,192,88706,1,0,0:0:0:0:
192,192,88706,1,0,0:0:0:0:
320,192,88789,1,0,0:0:0:0:
448,192,88789,1,0,0:0:0:0:
320,192,88956,1,0,0:0:0:0:
448,192,88956,1,0,0:0:0:0:
64,192,89039,1,0,0:0:0:0:
192,192,89039,1,0,0:0:0:0:
320,192,89095,1,0,0:0:0:0:
448,192,89095,1,0,0:0:0:0:
64,192,89151,1,0,0:0:0:0:
192,192,89151,1,0,0:0:0:0:
320,192,89206,1,0,0:0:0:0:
448,192,89206,1,0,0:0:0:0:
64,192,89262,1,0,0:0:0:0:
192,192,89262,1,0,0:0:0:0:
320,192,89317,1,0,0:0:0:0:
448,192,89317,1,0,0:0:0:0:
64,192,89373,1,0,0:0:0:0:
192,192,89373,1,0,0:0:0:0:
320,192,89456,1,0,0:0:0:0:
448,192,89456,1,0,0:0:0:0:
64,192,89539,1,0,0:0:0:0:
192,192,89539,1,0,0:0:0:0:
448,192,89623,1,0,0:0:0:0:
320,192,89623,1,0,0:0:0:0:
64,192,89706,1,0,0:0:0:0:
192,192,89706,1,0,0:0:0:0:
320,192,89748,128,0,90039:0:0:0:0:
448,192,89789,128,0,90039:0:0:0:0:
64,192,90039,128,0,90206:0:0:0:0:
192,192,90123,128,0,90289:0:0:0:0:
320,192,90206,128,0,90373:0:0:0:0:
448,192,90289,128,0,90456:0:0:0:0:
64,192,90373,128,0,90623:0:0:0:0:
192,192,90456,128,0,90623:0:0:0:0:
320,192,90539,128,0,90623:0:0:0:0:
448,192,90623,128,0,90706:0:0:0:0:
64,192,90706,1,0,0:0:0:0:
192,192,90706,1,0,0:0:0:0:
320,192,90706,1,0,0:0:0:0:
448,192,90789,1,0,0:0:0:0:
64,192,90873,1,0,0:0:0:0:
192,192,90873,1,0,0:0:0:0:
320,192,90956,1,0,0:0:0:0:
448,192,90956,1,0,0:0:0:0:
64,192,91039,1,0,0:0:0:0:
192,192,91039,1,0,0:0:0:0:
320,192,91123,1,0,0:0:0:0:
64,192,91206,1,0,0:0:0:0:
448,192,91206,1,0,0:0:0:0:
64,192,91373,1,0,0:0:0:0:
320,192,91373,1,0,0:0:0:0:
448,192,91373,1,0,0:0:0:0:
192,192,91456,1,0,0:0:0:0:
320,192,91539,1,0,0:0:0:0:
448,192,91539,1,0,0:0:0:0:
192,192,91623,1,0,0:0:0:0:
64,192,91623,1,0,0:0:0:0:
320,192,91706,1,0,0:0:0:0:
448,192,91706,1,0,0:0:0:0:
192,192,91789,1,0,0:0:0:0:
64,192,91873,1,0,0:0:0:0:
448,192,91873,1,0,0:0:0:0:
64,192,92039,1,0,0:0:0:0:
192,192,92039,1,0,0:0:0:0:
320,192,92039,1,0,0:0:0:0:
448,192,92123,1,0,0:0:0:0:
64,192,92206,1,0,0:0:0:0:
320,192,92206,1,0,0:0:0:0:
448,192,92289,1,0,0:0:0:0:
192,192,92289,1,0,0:0:0:0:
320,192,92373,1,0,0:0:0:0:
64,192,92373,1,0,0:0:0:0:
192,192,92456,1,0,0:0:0:0:
64,192,92539,1,0,0:0:0:0:
448,192,92539,1,0,0:0:0:0:
192,192,92706,1,0,0:0:0:0:
320,192,92706,1,0,0:0:0:0:
448,192,92706,1,0,0:0:0:0:
64,192,92789,1,0,0:0:0:0:
192,192,92873,1,0,0:0:0:0:
320,192,92873,1,0,0:0:0:0:
64,192,92956,1,0,0:0:0:0:
320,192,93039,1,0,0:0:0:0:
448,192,93039,1,0,0:0:0:0:
64,192,93123,1,0,0:0:0:0:
192,192,93123,1,0,0:0:0:0:
320,192,93206,1,0,0:0:0:0:
448,192,93206,1,0,0:0:0:0:
192,192,93289,1,0,0:0:0:0:
64,192,93373,1,0,0:0:0:0:
448,192,93373,1,0,0:0:0:0:
320,192,93373,1,0,0:0:0:0:
192,192,93456,1,0,0:0:0:0:
320,192,93539,1,0,0:0:0:0:
64,192,93539,1,0,0:0:0:0:
192,192,93623,1,0,0:0:0:0:
448,192,93623,1,0,0:0:0:0:
320,192,93706,1,0,0:0:0:0:
64,192,93706,1,0,0:0:0:0:
192,192,93789,1,0,0:0:0:0:
320,192,93873,1,0,0:0:0:0:
448,192,93873,1,0,0:0:0:0:
64,192,94039,1,0,0:0:0:0:
192,192,94039,1,0,0:0:0:0:
448,192,94039,1,0,0:0:0:0:
320,192,94123,1,0,0:0:0:0:
64,192,94206,1,0,0:0:0:0:
448,192,94206,1,0,0:0:0:0:
192,192,94289,1,0,0:0:0:0:
320,192,94289,1,0,0:0:0:0:
64,192,94373,1,0,0:0:0:0:
448,192,94373,1,0,0:0:0:0:
192,192,94456,1,0,0:0:0:0:
320,192,94539,1,0,0:0:0:0:
448,192,94539,1,0,0:0:0:0:
64,192,94706,1,0,0:0:0:0:
448,192,94706,1,0,0:0:0:0:
320,192,94706,1,0,0:0:0:0:
192,192,94789,1,0,0:0:0:0:
64,192,94873,1,0,0:0:0:0:
320,192,94873,1,0,0:0:0:0:
192,192,94956,1,0,0:0:0:0:
320,192,95039,1,0,0:0:0:0:
448,192,95039,1,0,0:0:0:0:
64,192,95123,1,0,0:0:0:0:
192,192,95206,1,0,0:0:0:0:
448,192,95206,1,0,0:0:0:0:
320,192,95289,1,0,0:0:0:0:
64,192,95373,1,0,0:0:0:0:
192,192,95373,1,0,0:0:0:0:
448,192,95373,1,0,0:0:0:0:
320,192,95456,1,0,0:0:0:0:
64,192,95539,1,0,0:0:0:0:
448,192,95539,1,0,0:0:0:0:
192,192,95623,1,0,0:0:0:0:
320,192,95623,1,0,0:0:0:0:
64,192,95706,1,0,0:0:0:0:
448,192,95706,1,0,0:0:0:0:
192,192,95789,1,0,0:0:0:0:
320,192,95789,1,0,0:0:0:0:
448,192,95873,1,0,0:0:0:0:
64,192,95873,1,0,0:0:0:0:
192,192,95956,1,0,0:0:0:0:
64,192,96039,1,0,0:0:0:0:
448,192,96039,1,0,0:0:0:0:
320,192,96039,1,0,0:0:0:0:
192,192,96123,1,0,0:0:0:0:
320,192,96206,1,0,0:0:0:0:
448,192,96206,1,0,0:0:0:0:
192,192,96289,1,0,0:0:0:0:
64,192,96289,1,0,0:0:0:0:
448,192,96373,1,0,0:0:0:0:
320,192,96373,1,0,0:0:0:0:
192,192,96456,1,0,0:0:0:0:
64,192,96539,1,0,0:0:0:0:
448,192,96539,1,0,0:0:0:0:
192,192,96706,1,0,0:0:0:0:
320,192,96706,1,0,0:0:0:0:
64,192,96706,1,0,0:0:0:0:
448,192,96789,1,0,0:0:0:0:
64,192,96873,1,0,0:0:0:0:
320,192,96873,1,0,0:0:0:0:
192,192,96956,1,0,0:0:0:0:
448,192,96956,1,0,0:0:0:0:
320,192,97039,1,0,0:0:0:0:
64,192,97039,1,0,0:0:0:0:
192,192,97123,1,0,0:0:0:0:
64,192,97206,1,0,0:0:0:0:
448,192,97206,1,0,0:0:0:0:
192,192,97373,1,0,0:0:0:0:
320,192,97373,1,0,0:0:0:0:
448,192,97373,1,0,0:0:0:0:
64,192,97456,1,0,0:0:0:0:
192,192,97539,1,0,0:0:0:0:
320,192,97539,1,0,0:0:0:0:
448,192,97623,1,0,0:0:0:0:
64,192,97623,1,0,0:0:0:0:
320,192,97706,1,0,0:0:0:0:
192,192,97706,1,0,0:0:0:0:
448,192,97789,1,0,0:0:0:0:
64,192,97873,1,0,0:0:0:0:
192,192,97873,1,0,0:0:0:0:
64,192,98039,1,0,0:0:0:0:
320,192,98039,1,0,0:0:0:0:
448,192,98039,1,0,0:0:0:0:
192,192,98123,1,0,0:0:0:0:
320,192,98206,1,0,0:0:0:0:
448,192,98206,1,0,0:0:0:0:
64,192,98289,1,0,0:0:0:0:
448,192,98373,1,0,0:0:0:0:
192,192,98373,1,0,0:0:0:0:
64,192,98456,1,0,0:0:0:0:
192,192,98539,1,0,0:0:0:0:
320,192,98539,1,0,0:0:0:0:
448,192,98623,1,0,0:0:0:0:
64,192,98706,1,0,0:0:0:0:
320,192,98706,1,0,0:0:0:0:
192,192,98789,1,0,0:0:0:0:
64,192,98873,1,0,0:0:0:0:
448,192,98956,1,0,0:0:0:0:
320,192,99039,1,0,0:0:0:0:
64,192,99123,1,0,0:0:0:0:
192,192,99206,1,0,0:0:0:0:
448,192,99206,1,0,0:0:0:0:
320,192,99289,1,0,0:0:0:0:
64,192,99373,1,0,0:0:0:0:
448,192,99373,1,0,0:0:0:0:
192,192,99456,1,0,0:0:0:0:
320,192,99539,1,0,0:0:0:0:
448,192,99539,1,0,0:0:0:0:
192,192,99623,1,0,0:0:0:0:
64,192,99706,1,0,0:0:0:0:
320,192,99706,1,0,0:0:0:0:
448,192,99789,1,0,0:0:0:0:
192,192,99873,1,0,0:0:0:0:
320,192,99873,1,0,0:0:0:0:
64,192,99956,1,0,0:0:0:0:
320,192,100039,1,0,0:0:0:0:
448,192,100039,1,0,0:0:0:0:
192,192,100123,1,0,0:0:0:0:
448,192,100206,128,0,100289:0:0:0:0:
320,192,100289,128,0,100373:0:0:0:0:
192,192,100373,128,0,100456:0:0:0:0:
64,192,100373,128,0,100539:0:0:0:0:
320,192,100539,128,0,100623:0:0:0:0:
64,192,100623,128,0,100706:0:0:0:0:
192,192,100706,128,0,100789:0:0:0:0:
448,192,100706,128,0,100873:0:0:0:0:
320,192,100789,128,0,100956:0:0:0:0:
64,192,100873,128,0,101039:0:0:0:0:
192,192,100956,128,0,101039:0:0:0:0:
320,192,101039,128,0,101151:0:0:0:0:
448,192,101039,128,0,101095:0:0:0:0:
192,192,101095,128,0,101206:0:0:0:0:
64,192,101151,128,0,101262:0:0:0:0:
448,192,101206,128,0,101262:0:0:0:0:
320,192,101262,128,0,101317:0:0:0:0:
192,192,101317,128,0,101373:0:0:0:0:
64,192,101373,1,0,0:0:0:0:
448,192,101373,1,0,0:0:0:0:
320,192,101373,1,0,0:0:0:0:
192,192,101456,1,0,0:0:0:0:
448,192,101539,1,0,0:0:0:0:
320,192,101539,1,0,0:0:0:0:
192,192,101623,1,0,0:0:0:0:
64,192,101623,1,0,0:0:0:0:
320,192,101706,1,0,0:0:0:0:
448,192,101706,1,0,0:0:0:0:
192,192,101789,1,0,0:0:0:0:
448,192,101873,1,0,0:0:0:0:
64,192,101873,1,0,0:0:0:0:
192,192,101956,1,0,0:0:0:0:
320,192,102039,1,0,0:0:0:0:
448,192,102039,1,0,0:0:0:0:
64,192,102039,1,0,0:0:0:0:
192,192,102123,1,0,0:0:0:0:
448,192,102206,1,0,0:0:0:0:
64,192,102206,1,0,0:0:0:0:
320,192,102289,1,0,0:0:0:0:
192,192,102289,1,0,0:0:0:0:
64,192,102373,1,0,0:0:0:0:
448,192,102373,1,0,0:0:0:0:
320,192,102456,1,0,0:0:0:0:
448,192,102539,1,0,0:0:0:0:
192,192,102539,1,0,0:0:0:0:
64,192,102623,1,0,0:0:0:0:
192,192,102706,1,0,0:0:0:0:
448,192,102706,1,0,0:0:0:0:
320,192,102706,1,0,0:0:0:0:
64,192,102789,1,0,0:0:0:0:
448,192,102873,1,0,0:0:0:0:
320,192,102873,1,0,0:0:0:0:
192,192,102956,1,0,0:0:0:0:
64,192,102956,1,0,0:0:0:0:
448,192,103039,1,0,0:0:0:0:
320,192,103039,1,0,0:0:0:0:
192,192,103123,1,0,0:0:0:0:
64,192,103206,1,0,0:0:0:0:
320,192,103206,1,0,0:0:0:0:
448,192,103289,1,0,0:0:0:0:
64,192,103373,1,0,0:0:0:0:
192,192,103373,1,0,0:0:0:0:
320,192,103373,1,0,0:0:0:0:
448,192,103456,1,0,0:0:0:0:
64,192,103539,1,0,0:0:0:0:
320,192,103539,1,0,0:0:0:0:
192,192,103623,1,0,0:0:0:0:
320,192,103706,1,0,0:0:0:0:
448,192,103706,1,0,0:0:0:0:
64,192,103789,1,0,0:0:0:0:
192,192,103789,1,0,0:0:0:0:
320,192,103873,1,0,0:0:0:0:
448,192,103873,1,0,0:0:0:0:
192,192,103956,1,0,0:0:0:0:
64,192,104039,1,0,0:0:0:0:
320,192,104039,1,0,0:0:0:0:
448,192,104039,1,0,0:0:0:0:
192,192,104123,1,0,0:0:0:0:
320,192,104206,1,0,0:0:0:0:
448,192,104206,1,0,0:0:0:0:
64,192,104289,1,0,0:0:0:0:
192,192,104289,1,0,0:0:0:0:
320,192,104373,1,0,0:0:0:0:
448,192,104373,1,0,0:0:0:0:
64,192,104456,1,0,0:0:0:0:
192,192,104539,1,0,0:0:0:0:
448,192,104539,1,0,0:0:0:0:
320,192,104623,1,0,0:0:0:0:
64,192,104706,1,0,0:0:0:0:
192,192,104706,1,0,0:0:0:0:
448,192,104706,1,0,0:0:0:0:
320,192,104789,1,0,0:0:0:0:
64,192,104873,1,0,0:0:0:0:
448,192,104873,1,0,0:0:0:0:
192,192,104956,1,0,0:0:0:0:
320,192,104956,1,0,0:0:0:0:
64,192,105039,1,0,0:0:0:0:
448,192,105039,1,0,0:0:0:0:
192,192,105123,1,0,0:0:0:0:
320,192,105206,1,0,0:0:0:0:
448,192,105206,1,0,0:0:0:0:
64,192,105289,1,0,0:0:0:0:
192,192,105373,1,0,0:0:0:0:
320,192,105373,1,0,0:0:0:0:
448,192,105373,1,0,0:0:0:0:
64,192,105456,1,0,0:0:0:0:
192,192,105539,1,0,0:0:0:0:
448,192,105539,1,0,0:0:0:0:
320,192,105623,1,0,0:0:0:0:
64,192,105623,1,0,0:0:0:0:
192,192,105706,1,0,0:0:0:0:
448,192,105706,1,0,0:0:0:0:
320,192,105789,1,0,0:0:0:0:
64,192,105873,1,0,0:0:0:0:
192,192,105873,1,0,0:0:0:0:
448,192,105956,1,0,0:0:0:0:
64,192,106039,1,0,0:0:0:0:
192,192,106039,1,0,0:0:0:0:
320,192,106039,1,0,0:0:0:0:
448,192,106123,1,0,0:0:0:0:
64,192,106206,1,0,0:0:0:0:
320,192,106206,1,0,0:0:0:0:
192,192,106289,1,0,0:0:0:0:
64,192,106373,1,0,0:0:0:0:
448,192,106373,1,0,0:0:0:0:
320,192,106456,1,0,0:0:0:0:
192,192,106539,1,0,0:0:0:0:
448,192,106539,1,0,0:0:0:0:
64,192,106623,1,0,0:0:0:0:
192,192,106706,1,0,0:0:0:0:
320,192,106706,1,0,0:0:0:0:
448,192,106706,1,0,0:0:0:0:
64,192,106789,1,0,0:0:0:0:
192,192,106873,1,0,0:0:0:0:
448,192,106873,1,0,0:0:0:0:
320,192,106956,1,0,0:0:0:0:
64,192,107039,1,0,0:0:0:0:
192,192,107039,1,0,0:0:0:0:
448,192,107039,1,0,0:0:0:0:
320,192,107123,1,0,0:0:0:0:
64,192,107206,1,0,0:0:0:0:
448,192,107206,1,0,0:0:0:0:
192,192,107289,1,0,0:0:0:0:
64,192,107373,1,0,0:0:0:0:
320,192,107373,1,0,0:0:0:0:
448,192,107373,1,0,0:0:0:0:
192,192,107456,1,0,0:0:0:0:
320,192,107539,1,0,0:0:0:0:
448,192,107539,1,0,0:0:0:0:
64,192,107623,1,0,0:0:0:0:
192,192,107706,1,0,0:0:0:0:
320,192,107706,1,0,0:0:0:0:
448,192,107706,1,0,0:0:0:0:
64,192,107789,1,0,0:0:0:0:
192,192,107873,1,0,0:0:0:0:
448,192,107873,1,0,0:0:0:0:
320,192,107956,1,0,0:0:0:0:
64,192,108039,1,0,0:0:0:0:
448,192,108039,1,0,0:0:0:0:
192,192,108039,1,0,0:0:0:0:
320,192,108123,1,0,0:0:0:0:
64,192,108206,1,0,0:0:0:0:
192,192,108206,1,0,0:0:0:0:
448,192,108289,1,0,0:0:0:0:
64,192,108373,1,0,0:0:0:0:
192,192,108373,1,0,0:0:0:0:
320,192,108373,1,0,0:0:0:0:
448,192,108456,1,0,0:0:0:0:
64,192,108539,1,0,0:0:0:0:
320,192,108539,1,0,0:0:0:0:
192,192,108623,1,0,0:0:0:0:
64,192,108706,1,0,0:0:0:0:
320,192,108706,1,0,0:0:0:0:
448,192,108706,1,0,0:0:0:0:
192,192,108789,1,0,0:0:0:0:
320,192,108873,1,0,0:0:0:0:
448,192,108873,1,0,0:0:0:0:
64,192,108956,1,0,0:0:0:0:
192,192,109039,1,0,0:0:0:0:
320,192,109039,1,0,0:0:0:0:
448,192,109039,1,0,0:0:0:0:
64,192,109123,1,0,0:0:0:0:
192,192,109206,1,0,0:0:0:0:
320,192,109206,1,0,0:0:0:0:
448,192,109289,1,0,0:0:0:0:
64,192,109373,1,0,0:0:0:0:
192,192,109373,1,0,0:0:0:0:
320,192,109373,1,0,0:0:0:0:
64,192,109539,1,0,0:0:0:0:
192,192,109539,1,0,0:0:0:0:
64,192,109706,1,0,0:0:0:0:
320,192,109706,1,0,0:0:0:0:
448,192,109706,1,0,0:0:0:0:
192,192,109706,1,0,0:0:0:0:
192,192,109873,1,0,0:0:0:0:
320,192,109873,1,0,0:0:0:0:
64,192,110039,1,0,0:0:0:0:
448,192,110039,1,0,0:0:0:0:
192,192,110206,1,0,0:0:0:0:
448,192,110206,1,0,0:0:0:0:
64,192,110373,1,0,0:0:0:0:
320,192,110373,1,0,0:0:0:0:
448,192,110373,1,0,0:0:0:0:
192,192,110373,1,0,0:0:0:0:
64,192,110539,1,0,0:0:0:0:
320,192,110539,1,0,0:0:0:0:
64,192,110706,1,0,0:0:0:0:
192,192,110706,1,0,0:0:0:0:
320,192,110762,1,0,0:0:0:0:
448,192,110762,1,0,0:0:0:0:
192,192,110817,1,0,0:0:0:0:
64,192,110817,1,0,0:0:0:0:
320,192,110873,1,0,0:0:0:0:
448,192,110873,1,0,0:0:0:0:
64,192,110928,1,0,0:0:0:0:
192,192,110928,1,0,0:0:0:0:
320,192,110984,1,0,0:0:0:0:
448,192,110984,1,0,0:0:0:0:
192,192,111039,1,0,0:0:0:0:
64,192,111039,1,0,0:0:0:0:
320,192,111123,1,0,0:0:0:0:
448,192,111123,1,0,0:0:0:0:
64,192,111206,1,0,0:0:0:0:
192,192,111206,1,0,0:0:0:0:
320,192,111289,1,0,0:0:0:0:
448,192,111289,1,0,0:0:0:0:
64,192,111373,1,0,0:0:0:0:
192,192,111373,1,0,0:0:0:0:
448,192,111373,128,0,111456:0:0:0:0:
320,192,111456,128,0,111539:0:0:0:0:
192,192,111539,128,0,111623:0:0:0:0:
448,192,111623,128,0,111706:0:0:0:0:
192,192,111706,128,0,111789:0:0:0:0:
64,192,111789,128,0,111873:0:0:0:0:
448,192,111873,128,0,111956:0:0:0:0:
192,192,111956,128,0,112039:0:0:0:0:
448,192,112039,1,0,0:0:0:0:
320,192,112039,1,0,0:0:0:0:
64,192,112039,128,0,112706:0:0:0:0:
192,192,112123,1,0,0:0:0:0:
448,192,112206,1,0,0:0:0:0:
192,192,112289,1,0,0:0:0:0:
320,192,112373,1,0,0:0:0:0:
448,192,112373,1,0,0:0:0:0:
192,192,112456,1,0,0:0:0:0:
320,192,112539,1,0,0:0:0:0:
448,192,112539,1,0,0:0:0:0:
192,192,112623,1,0,0:0:0:0:
448,192,112706,1,0,0:0:0:0:
320,192,112706,1,0,0:0:0:0:
192,192,112789,1,0,0:0:0:0:
64,192,112873,1,0,0:0:0:0:
320,192,112873,1,0,0:0:0:0:
448,192,112956,1,0,0:0:0:0:
320,192,113039,128,0,113873:0:0:0:0:
192,192,113039,1,0,0:0:0:0:
448,192,113123,1,0,0:0:0:0:
64,192,113206,1,0,0:0:0:0:
192,192,113206,1,0,0:0:0:0:
448,192,113289,1,0,0:0:0:0:
64,192,113373,1,0,0:0:0:0:
192,192,113373,1,0,0:0:0:0:
448,192,113456,1,0,0:0:0:0:
64,192,113539,1,0,0:0:0:0:
192,192,113623,1,0,0:0:0:0:
64,192,113706,1,0,0:0:0:0:
448,192,113706,1,0,0:0:0:0:
192,192,113789,1,0,0:0:0:0:
64,192,113873,1,0,0:0:0:0:
448,192,113873,1,0,0:0:0:0:
192,192,113956,1,0,0:0:0:0:
320,192,114039,128,0,114539:0:0:0:0:
64,192,114039,1,0,0:0:0:0:
448,192,114039,1,0,0:0:0:0:
192,192,114123,1,0,0:0:0:0:
448,192,114206,1,0,0:0:0:0:
64,192,114289,1,0,0:0:0:0:
192,192,114373,1,0,0:0:0:0:
448,192,114373,1,0,0:0:0:0:
64,192,114456,1,0,0:0:0:0:
192,192,114539,1,0,0:0:0:0:
448,192,114539,1,0,0:0:0:0:
320,192,114623,1,0,0:0:0:0:
64,192,114623,1,0,0:0:0:0:
192,192,114706,1,0,0:0:0:0:
448,192,114706,128,0,114873:0:0:0:0:
320,192,114789,1,0,0:0:0:0:
64,192,114873,1,0,0:0:0:0:
192,192,114956,128,0,115123:0:0:0:0:
320,192,114956,1,0,0:0:0:0:
448,192,115039,1,0,0:0:0:0:
64,192,115039,1,0,0:0:0:0:
320,192,115123,1,0,0:0:0:0:
64,192,115206,128,0,115373:0:0:0:0:
448,192,115206,1,0,0:0:0:0:
192,192,115289,1,0,0:0:0:0:
320,192,115373,128,0,115539:0:0:0:0:
448,192,115373,1,0,0:0:0:0:
192,192,115456,1,0,0:0:0:0:
64,192,115539,1,0,0:0:0:0:
448,192,115623,128,0,115789:0:0:0:0:
320,192,115623,1,0,0:0:0:0:
64,192,115706,1,0,0:0:0:0:
192,192,115706,1,0,0:0:0:0:
320,192,115789,1,0,0:0:0:0:
192,192,115873,128,0,116039:0:0:0:0:
448,192,115873,1,0,0:0:0:0:
64,192,115956,1,0,0:0:0:0:
448,192,116039,1,0,0:0:0:0:
320,192,116039,128,0,116206:0:0:0:0:
64,192,116123,1,0,0:0:0:0:
448,192,116206,1,0,0:0:0:0:
64,192,116289,128,0,116456:0:0:0:0:
192,192,116289,1,0,0:0:0:0:
320,192,116373,1,0,0:0:0:0:
448,192,116373,1,0,0:0:0:0:
192,192,116456,1,0,0:0:0:0:
64,192,116539,128,0,116706:0:0:0:0:
320,192,116539,1,0,0:0:0:0:
192,192,116623,1,0,0:0:0:0:
448,192,116706,128,0,116956:0:0:0:0:
320,192,116706,1,0,0:0:0:0:
64,192,116789,1,0,0:0:0:0:
320,192,116873,1,0,0:0:0:0:
192,192,116956,1,0,0:0:0:0:
64,192,116956,128,0,117206:0:0:0:0:
320,192,117039,1,0,0:0:0:0:
448,192,117039,1,0,0:0:0:0:
192,192,117123,1,0,0:0:0:0:
320,192,117206,128,0,117373:0:0:0:0:
448,192,117206,1,0,0:0:0:0:
64,192,117289,1,0,0:0:0:0:
192,192,117373,128,0,117539:0:0:0:0:
448,192,117373,1,0,0:0:0:0:
64,192,117456,1,0,0:0:0:0:
448,192,117539,128,0,118206:0:0:0:0:
320,192,117539,1,0,0:0:0:0:
192,192,117623,1,0,0:0:0:0:
64,192,117706,1,0,0:0:0:0:
320,192,117706,1,0,0:0:0:0:
192,192,117789,1,0,0:0:0:0:
64,192,117873,1,0,0:0:0:0:
320,192,117873,1,0,0:0:0:0:
192,192,117956,1,0,0:0:0:0:
64,192,118039,1,0,0:0:0:0:
320,192,118039,1,0,0:0:0:0:
192,192,118123,1,0,0:0:0:0:
320,192,118206,1,0,0:0:0:0:
64,192,118289,1,0,0:0:0:0:
448,192,118373,1,0,0:0:0:0:
192,192,118373,128,0,118456:0:0:0:0:
320,192,118456,1,0,0:0:0:0:
448,192,118539,128,0,118623:0:0:0:0:
64,192,118539,1,0,0:0:0:0:
192,192,118623,1,0,0:0:0:0:
320,192,118706,1,0,0:0:0:0:
448,192,118706,1,0,0:0:0:0:
64,192,118706,128,0,119706:0:0:0:0:
192,192,118789,1,0,0:0:0:0:
448,192,118873,1,0,0:0:0:0:
192,192,118956,1,0,0:0:0:0:
320,192,119039,1,0,0:0:0:0:
448,192,119039,1,0,0:0:0:0:
192,192,119123,1,0,0:0:0:0:
320,192,119206,1,0,0:0:0:0:
448,192,119206,1,0,0:0:0:0:
192,192,119289,1,0,0:0:0:0:
320,192,119373,1,0,0:0:0:0:
448,192,119373,1,0,0:0:0:0:
192,192,119456,1,0,0:0:0:0:
448,192,119539,1,0,0:0:0:0:
320,192,119623,1,0,0:0:0:0:
192,192,119706,1,0,0:0:0:0:
448,192,119706,1,0,0:0:0:0:
320,192,119789,1,0,0:0:0:0:
64,192,119789,1,0,0:0:0:0:
192,192,119873,1,0,0:0:0:0:
448,192,119873,1,0,0:0:0:0:
320,192,119956,1,0,0:0:0:0:
192,192,120039,1,0,0:0:0:0:
448,192,120039,128,0,120123:0:0:0:0:
320,192,120123,128,0,120206:0:0:0:0:
64,192,120123,1,0,0:0:0:0:
192,192,120206,128,0,120289:0:0:0:0:
448,192,120206,1,0,0:0:0:0:
64,192,120289,128,0,120373:0:0:0:0:
448,192,120373,128,0,120456:0:0:0:0:
192,192,120373,1,0,0:0:0:0:
320,192,120456,128,0,120539:0:0:0:0:
64,192,120456,1,0,0:0:0:0:
192,192,120539,128,0,120623:0:0:0:0:
448,192,120539,1,0,0:0:0:0:
64,192,120623,128,0,120706:0:0:0:0:
320,192,120706,128,0,120789:0:0:0:0:
192,192,120706,1,0,0:0:0:0:
448,192,120789,128,0,120873:0:0:0:0:
64,192,120789,1,0,0:0:0:0:
192,192,120873,128,0,120956:0:0:0:0:
320,192,120873,1,0,0:0:0:0:
64,192,120956,128,0,121039:0:0:0:0:
320,192,121039,128,0,121123:0:0:0:0:
448,192,121039,1,0,0:0:0:0:
192,192,121123,128,0,121206:0:0:0:0:
64,192,121123,1,0,0:0:0:0:
448,192,121206,128,0,121289:0:0:0:0:
320,192,121206,1,0,0:0:0:0:
64,192,121289,128,0,121373:0:0:0:0:
448,192,121373,128,0,121456:0:0:0:0:
192,192,121373,1,0,0:0:0:0:
320,192,121456,128,0,121539:0:0:0:0:
64,192,121456,1,0,0:0:0:0:
192,192,121539,128,0,121623:0:0:0:0:
448,192,121539,1,0,0:0:0:0:
64,192,121623,128,0,121706:0:0:0:0:
448,192,121706,128,0,121789:0:0:0:0:
320,192,121706,1,0,0:0:0:0:
192,192,121789,128,0,121873:0:0:0:0:
64,192,121789,1,0,0:0:0:0:
320,192,121873,128,0,121956:0:0:0:0:
448,192,121873,1,0,0:0:0:0:
64,192,121956,128,0,122039:0:0:0:0:
448,192,122039,128,0,122123:0:0:0:0:
192,192,122039,1,0,0:0:0:0:
320,192,122123,128,0,122206:0:0:0:0:
64,192,122123,1,0,0:0:0:0:
192,192,122206,128,0,122289:0:0:0:0:
448,192,122206,1,0,0:0:0:0:
320,192,122289,128,0,122373:0:0:0:0:
64,192,122373,128,0,122456:0:0:0:0:
448,192,122373,1,0,0:0:0:0:
320,192,122456,128,0,122539:0:0:0:0:
192,192,122456,1,0,0:0:0:0:
64,192,122539,128,0,122623:0:0:0:0:
448,192,122539,1,0,0:0:0:0:
192,192,122623,128,0,122706:0:0:0:0:
320,192,122706,1,0,0:0:0:0:
448,192,122706,1,0,0:0:0:0:
64,192,122706,1,0,0:0:0:0:
64,192,122873,1,0,0:0:0:0:
192,192,122873,1,0,0:0:0:0:
320,192,122956,1,0,0:0:0:0:
448,192,122956,1,0,0:0:0:0:
64,192,123039,1,0,0:0:0:0:
192,192,123039,1,0,0:0:0:0:
320,192,123123,1,0,0:0:0:0:
448,192,123206,1,0,0:0:0:0:
64,192,123206,1,0,0:0:0:0:
192,192,123289,1,0,0:0:0:0:
64,192,123373,1,0,0:0:0:0:
320,192,123373,1,0,0:0:0:0:
448,192,123373,1,0,0:0:0:0:
192,192,123539,1,0,0:0:0:0:
448,192,123539,1,0,0:0:0:0:
320,192,123623,1,0,0:0:0:0:
64,192,123623,1,0,0:0:0:0:
448,192,123706,1,0,0:0:0:0:
192,192,123706,1,0,0:0:0:0:
320,192,123789,1,0,0:0:0:0:
64,192,123873,1,0,0:0:0:0:
192,192,123873,1,0,0:0:0:0:
320,192,123956,1,0,0:0:0:0:
64,192,124039,1,0,0:0:0:0:
192,192,124039,1,0,0:0:0:0:
448,192,124039,1,0,0:0:0:0:
320,192,124206,1,0,0:0:0:0:
448,192,124206,1,0,0:0:0:0:
64,192,124289,1,0,0:0:0:0:
192,192,124289,1,0,0:0:0:0:
320,192,124373,1,0,0:0:0:0:
448,192,124373,1,0,0:0:0:0:
64,192,124456,1,0,0:0:0:0:
192,192,124539,1,0,0:0:0:0:
448,192,124539,1,0,0:0:0:0:
320,192,124623,1,0,0:0:0:0:
64,192,124706,1,0,0:0:0:0:
192,192,124706,1,0,0:0:0:0:
448,192,124706,1,0,0:0:0:0:
320,192,124873,1,0,0:0:0:0:
64,192,124873,1,0,0:0:0:0:
192,192,124956,1,0,0:0:0:0:
448,192,124956,1,0,0:0:0:0:
320,192,125039,1,0,0:0:0:0:
64,192,125039,1,0,0:0:0:0:
448,192,125123,1,0,0:0:0:0:
64,192,125206,1,0,0:0:0:0:
192,192,125206,1,0,0:0:0:0:
320,192,125289,1,0,0:0:0:0:
64,192,125373,1,0,0:0:0:0:
192,192,125373,1,0,0:0:0:0:
448,192,125373,1,0,0:0:0:0:
320,192,125539,1,0,0:0:0:0:
448,192,125539,1,0,0:0:0:0:
64,192,125623,1,0,0:0:0:0:
192,192,125706,1,0,0:0:0:0:
448,192,125706,1,0,0:0:0:0:
320,192,125789,1,0,0:0:0:0:
64,192,125873,1,0,0:0:0:0:
192,192,125873,1,0,0:0:0:0:
64,192,126039,1,0,0:0:0:0:
320,192,126039,1,0,0:0:0:0:
448,192,126039,1,0,0:0:0:0:
192,192,126206,1,0,0:0:0:0:
320,192,126289,1,0,0:0:0:0:
64,192,126373,1,0,0:0:0:0:
448,192,126373,1,0,0:0:0:0:
192,192,126456,1,0,0:0:0:0:
320,192,126539,1,0,0:0:0:0:
64,192,126706,1,0,0:0:0:0:
192,192,126706,1,0,0:0:0:0:
448,192,126706,1,0,0:0:0:0:
320,192,126873,1,0,0:0:0:0:
448,192,126873,1,0,0:0:0:0:
192,192,126956,1,0,0:0:0:0:
64,192,127039,1,0,0:0:0:0:
320,192,127039,1,0,0:0:0:0:
192,192,127123,1,0,0:0:0:0:
64,192,127206,1,0,0:0:0:0:
448,192,127206,1,0,0:0:0:0:
320,192,127289,1,0,0:0:0:0:
64,192,127373,1,0,0:0:0:0:
192,192,127373,1,0,0:0:0:0:
448,192,127373,1,0,0:0:0:0:
320,192,127539,1,0,0:0:0:0:
192,192,127539,1,0,0:0:0:0:
64,192,127623,1,0,0:0:0:0:
448,192,127623,1,0,0:0:0:0:
192,192,127706,1,0,0:0:0:0:
320,192,127789,1,0,0:0:0:0:
448,192,127873,1,0,0:0:0:0:
192,192,127873,1,0,0:0:0:0:
320,192,127956,1,0,0:0:0:0:
448,192,128039,1,0,0:0:0:0:
64,192,128039,128,0,129373:0:0:0:0:
320,192,128289,1,0,0:0:0:0:
192,192,128539,1,0,0:0:0:0:
448,192,128706,1,0,0:0:0:0:
320,192,128706,1,0,0:0:0:0:
192,192,129039,1,0,0:0:0:0:
320,192,129206,1,0,0:0:0:0:
448,192,129373,1,0,0:0:0:0:
192,192,129373,128,0,130039:0:0:0:0:
320,192,129873,1,0,0:0:0:0:
64,192,130039,1,0,0:0:0:0:
448,192,130039,128,0,130289:0:0:0:0:
320,192,130289,128,0,130539:0:0:0:0:
192,192,130373,1,0,0:0:0:0:
64,192,130539,128,0,133456:0:0:0:0:
448,192,130706,128,0,136067:0:0:0:0:
192,192,130706,1,0,0:0:0:0:
320,192,136039,128,0,136414:0:0:0:0:
192,192,136144,1,0,0:0:0:0:
64,192,136248,1,0,0:0:0:0:
448,192,136331,1,0,0:0:0:0:
192,192,136414,1,0,0:0:0:0:
