osu file format v14

[General]
AudioFilename: audio.mp3
AudioLeadIn: 0
PreviewTime: 783
Countdown: 0
SampleSet: Soft
StackLeniency: 0.7
Mode: 0
LetterboxInBreaks: 0
WidescreenStoryboard: 1

[Editor]
Bookmarks: 20547,40312,50194,57606,60077,79841,99606,119371,139135,158900,178665,198430,218194,228077,237959
DistanceSpacing: 1.4
BeatDivisor: 4
GridSize: 8
TimelineZoom: 2.1

[Metadata]
Title:Dedication
TitleUnicode:Dedication
Artist:void
ArtistUnicode:void
Creator:Rockyy
Version:yaspo's Insane
Source:Deemo
Tags:artcore drum and bass dnb ad:piano3 shanipika yaspo mir nao tomori undeadphoneguy
BeatmapID:2027991
BeatmapSetID:969312

[Difficulty]
HPDrainRate:6
CircleSize:4
OverallDifficulty:7
ApproachRate:9
SliderMultiplier:1.45
SliderTickRate:1

[Events]
//Background and Video events
0,0,"background.jpg",0,0
//Break Periods
2,99806,118771
//Storyboard Layer 0 (Background)
//Storyboard Layer 1 (Fail)
//Storyboard Layer 2 (Pass)
//Storyboard Layer 3 (Foreground)
//Storyboard Layer 4 (Overlay)
//Storyboard Sound Samples

[TimingPoints]
783,352.941176470588,7,2,5,40,1,0
783,-133.333333333333,7,2,5,40,0,0
20547,-100,7,2,5,45,0,0
29724,-133.333333333333,7,2,5,45,0,0
30430,-100,7,2,5,45,0,0
38900,-133.333333333333,7,2,5,45,0,0
39518,-133.333333333333,7,2,5,5,0,0
39606,-100,7,2,5,45,0,0
40312,-100,7,2,5,50,0,0
50194,-100,7,2,5,60,0,0
57606,-83.3333333333333,7,2,5,60,0,0
59194,-100,7,2,5,60,0,0
60077,-76.9230769230769,7,2,5,70,0,0
69606,-76.9230769230769,7,2,5,70,0,0
79841,-76.9230769230769,7,2,5,60,0,0
99606,-76.9230769230769,7,2,5,50,0,0
119371,-133.333333333333,7,2,5,40,0,0
139135,-100,7,2,5,45,0,0
158900,-76.9230769230769,7,2,5,70,0,0
168341,-76.9230769230769,7,2,5,5,0,0
168430,-76.9230769230769,7,2,5,70,0,0
178665,-76.9230769230769,7,2,5,55,0,0
195959,-76.9230769230769,7,2,5,30,0,0
196665,-76.9230769230769,7,2,5,40,0,0
197371,-76.9230769230769,7,2,5,50,0,0
198782,-55.5555555555556,7,2,5,55,0,0
199312,-62.5,7,2,5,55,0,0
200900,-55.5555555555556,7,2,5,55,0,0
201959,-62.5,7,2,5,55,0,0
202665,-71.4285714285714,7,2,5,55,0,0
203371,-55.5555555555556,7,2,5,55,0,0
205488,-71.4285714285714,7,2,5,55,0,0
206194,-62.5,7,2,5,55,0,0
207077,-55.5555555555556,7,2,5,55,0,0
208312,-62.5,7,2,5,55,0,0
210077,-71.4285714285714,7,2,5,55,0,0
212018,-83.3333333333333,7,2,5,55,0,0
213253,-55.5555555555556,7,2,5,55,0,0
214135,-62.5,7,2,5,55,0,0
215724,-71.4285714285714,7,2,5,55,0,0
216959,-83.3333333333333,7,2,5,55,0,0
218194,-76.9230769230769,7,2,5,65,0,0
228077,-71.4285714285714,7,2,5,75,0,0
236547,-71.4285714285714,7,2,5,50,0,0
237959,376.175548589342,7,2,5,45,1,0
237959,-133.333333333333,7,2,5,45,0,0
248491,425.531914893617,7,2,5,45,1,0
248491,-133.333333333333,7,2,5,45,0,0
250193,408.163265306122,7,2,5,45,1,0
250193,-133.333333333333,7,2,5,45,0,0
251417,483.870967741935,7,2,5,35,1,0
251417,-133.333333333333,7,2,5,35,0,0
252142,-131.061598951507,7,2,5,35,0,0
252384,465.116279069767,7,2,5,35,1,0
252849,-133.333333333333,7,2,5,35,0,0
253779,740.740740740741,7,2,5,30,1,0
253779,-133.333333333333,7,2,5,30,0,0
254519,-133.333333333333,7,2,5,25,0,0
255260,-399.999999999997,7,2,5,20,0,0

[Colours]
Combo1 : 154,159,167
Combo2 : 199,199,199

[HitObjects]
84,237,783,5,2,0:0:0:0:
171,27,1135,1,2,0:0:0:0:
184,44,1488,1,0,0:0:0:0:
80,58,1665,1,2,0:0:0:0:
40,154,2018,2,0,P|87:195|112:248,1,108.750004148483,0|2,0:0|0:0,0:0:0:0:
99,257,2724,1,2,0:0:0:0:
89,275,2900,1,2,0:0:0:0:
79,293,3077,1,2,0:0:0:0:
250,253,3253,5,2,0:0:0:0:
209,336,3606,1,2,0:0:0:0:
393,326,3959,1,0,0:0:0:0:
343,248,4135,1,2,0:0:0:0:
386,166,4488,2,0,P|441:175|502:166,1,108.750004148483,0|2,0:0|0:0,0:0:0:0:
488,157,5194,1,2,0:0:0:0:
480,127,5371,1,2,0:0:0:0:
492,80,5547,1,2,0:0:0:0:
362,39,5724,6,0,P|363:72|381:111,1,54.3750020742417,2|0,0:0|0:0,0:0:0:0:
309,144,6077,1,2,0:0:0:0:
332,219,6253,1,0,0:0:0:0:
241,78,6606,6,0,P|225:107|221:149,1,54.3750020742417,2|0,0:0|0:0,0:3:0:0:
142,142,6959,1,2,0:0:0:0:
130,160,7135,1,0,0:0:0:0:
50,120,7488,1,0,0:0:0:0:
50,120,7665,1,2,0:0:0:0:
52,212,7841,2,0,P|55:242|56:275,1,54.3750020742417,2|0,0:0|0:0,0:0:0:0:
146,361,8194,6,0,P|141:333|118:286,1,54.3750020742417,2|0,0:0|0:0,0:0:0:0:
252,367,8547,1,2,0:0:0:0:
331,291,8724,1,0,0:0:0:0:
404,166,9077,5,2,0:0:0:0:
298,155,9253,1,0,0:0:0:0:
259,87,9430,1,0,0:0:0:0:
262,52,9606,2,0,P|274:22|291:-1,2,54.3750020742417,2|2|2,0:0|0:0|0:0,0:0:0:0:
442,267,10488,1,0,0:0:0:0:
332,261,10665,5,2,0:0:0:0:
484,69,11018,1,2,0:0:0:0:
476,84,11371,1,0,0:0:0:0:
512,186,11547,1,2,0:0:0:0:
442,267,11900,2,0,P|395:245|320:240,1,108.750004148483,0|2,0:0|0:0,0:0:0:0:
332,257,12606,1,2,0:0:0:0:
324,277,12782,1,2,0:0:0:0:
318,295,12959,1,2,0:0:0:0:
181,384,13135,5,2,0:0:0:0:
168,288,13488,1,2,0:0:0:0:
79,253,13841,1,0,0:0:0:0:
4,312,14018,1,2,0:0:0:0:
85,162,14371,2,0,P|55:128|-6:92,1,108.750004148483,0|2,0:0|0:0,0:0:0:0:
23,89,15077,1,2,0:0:0:0:
73,89,15253,1,2,0:0:0:0:
147,41,15430,1,2,0:0:0:0:
266,15,15606,6,0,P|262:44|250:84,1,54.3750020742417,2|0,0:0|0:0,0:0:0:0:
338,181,15959,1,2,0:0:0:0:
334,94,16135,1,0,0:0:0:0:
426,208,16488,6,0,P|410:236|389:258,1,54.3750020742417,2|0,0:0|0:0,0:0:0:0:
259,226,16841,1,2,0:0:0:0:
315,342,17018,1,0,0:0:0:0:
325,355,17371,1,0,0:0:0:0:
228,319,17547,1,2,0:0:0:0:
181,330,17724,1,0,0:0:0:0:
159,351,17900,1,2,0:0:0:0:
62,338,18077,6,0,P|38:330|9:312,2,54.3750020742417,0|2|2,0:0|0:0|0:0,0:0:0:0:
151,361,18606,1,2,0:0:0:0:
119,220,18959,1,0,0:0:0:0:
77,237,19135,2,0,P|175:246|228:135,1,217.500008296967,2|0,0:0|0:0,0:0:0:0:
117,87,20194,2,0,P|118:105|138:161,1,54.3750020742417,0|0,0:0|0:0,0:0:0:0:
378,201,20547,6,0,L|303:221,1,72.5,2|0,3:2|0:0,0:0:0:0:
195,377,20900,1,2,0:0:0:0:
33,298,21253,1,2,0:0:0:0:
93,229,21430,2,0,P|109:252|122:319,1,72.5
210,384,21782,2,0,P|229:313|230:220,1,145,2|2,0:0|0:0,0:0:0:0:
244,260,22488,1,2,0:0:0:0:
292,279,22665,1,2,0:0:0:0:
378,244,22841,1,2,0:0:0:0:
419,137,23018,6,0,P|462:117|518:120,1,72.5,2|0,0:0|0:0,0:0:0:0:
489,2,23371,1,2,0:0:0:0:
290,23,23724,1,2,0:0:0:0:
356,78,23900,2,0,P|376:34|372:-21,1,72.5
224,78,24253,2,0,P|248:127|270:237,1,145,2|2,0:0|0:0,0:0:0:0:
280,221,24959,1,2,0:0:0:0:
325,233,25136,1,2,0:0:0:0:
249,264,25312,1,2,0:0:0:0:
163,383,25488,6,0,P|174:348|175:306,1,72.5,2|0,0:0|0:0,0:0:0:0:
18,262,25841,1,2,0:0:0:0:
111,240,26018,2,0,P|129:203|122:97,1,145,2|2,0:0|0:0,0:0:0:0:
225,117,26547,1,0,0:0:0:0:
281,168,26724,1,2,0:0:0:0:
296,209,26900,2,0,P|337:206|425:147,1,145,2|2,0:0|0:0,3:0:0:0:
428,135,27430,1,2,0:0:0:0:
512,160,27606,2,0,P|500:186|450:229,1,72.5,0|0,0:0|0:0,0:0:0:0:
311,373,27959,6,0,P|293:349|281:284,1,72.5,2|0,0:0|0:0,0:0:0:0:
262,194,28312,1,2,0:0:0:0:
333,55,28488,1,2,0:0:0:0:
358,50,28841,1,2,0:0:0:0:
241,59,29018,1,0,0:0:0:0:
210,91,29194,1,2,0:0:0:0:
122,133,29371,6,0,L|48:114,1,72.5,2|0,0:0|0:0,0:0:0:0:
117,242,29724,2,0,B|161:205|222:211|222:211|200:247|199:273,1,163.125006222725,2|0,0:0|0:0,0:0:0:0:
323,359,30430,6,0,P|313:319|308:269,1,72.5,2|0,0:0|0:0,0:0:0:0:
464,215,30782,1,2,0:0:0:0:
322,296,31136,1,2,0:0:0:0:
275,207,31312,2,0,P|286:167|307:121,1,72.5,0|0,0:0|0:0,0:0:0:0:
317,27,31665,2,0,P|233:73|198:134,1,145,2|2,0:0|0:0,0:0:0:0:
207,125,32371,1,2,0:0:0:0:
220,160,32547,1,2,0:0:0:0:
182,230,32724,1,2,0:0:0:0:
71,228,32900,6,0,P|65:195|39:145,1,72.5,2|0,0:0|0:0,0:0:0:0:
113,72,33253,1,2,0:0:0:0:
296,128,33606,1,2,0:0:0:0:
331,211,33782,2,0,P|369:210|421:193,1,72.5,0|0,0:0|0:0,0:0:0:0:
501,92,34135,2,0,P|428:146|415:210,1,145,2|2,0:0|0:0,0:0:0:0:
472,272,34665,2,0,L|486:343,1,72.5,0|0,0:0|0:0,0:0:0:0:
366,381,35018,2,0,L|348:289,1,72.5,0|0,0:0|0:0,0:0:0:0:
147,236,35371,6,0,P|151:271|164:305,1,72.5,2|0,0:0|0:0,0:0:0:0:
67,327,35724,1,2,0:0:0:0:
159,323,35900,2,0,P|226:267|249:191,1,145,2|0,0:0|0:0,0:0:0:0:
185,152,36430,1,2,0:0:0:0:
283,128,36606,1,2,0:0:0:0:
412,8,36782,2,0,P|382:65|376:159,1,145,2|2,0:0|0:0,0:0:0:0:
400,98,37312,1,2,0:0:0:0:
375,57,37488,1,2,0:0:0:0:
343,50,37665,1,2,0:0:0:0:
249,86,37841,6,0,L|178:77,1,72.5,2|0,0:0|0:0,0:0:0:0:
84,136,38194,1,2,0:0:0:0:
89,144,38371,1,2,0:0:0:0:
116,284,38724,1,0,0:0:0:0:
151,360,38900,6,0,B|178:345|191:319|191:319|249:300|301:331,1,163.125006222725,2|0,0:0|0:0,0:0:0:0:
399,374,39606,2,0,P|388:338|385:287,1,72.5,2|0,0:0|0:0,0:0:0:0:
454,206,39959,1,0,0:0:0:0:
426,223,40135,1,2,0:0:0:0:
321,146,40312,6,0,B|288:148|288:148|216:188|216:188|170:191,1,145,6|2,3:2|3:2,0:0:0:0:
64,302,40841,1,0,0:0:0:0:
96,208,41018,2,0,L|79:118,1,72.5,2|0,3:2|0:0,0:0:0:0:
191,366,41371,1,2,3:2:0:0:
248,255,41547,1,2,0:2:0:0:
290,174,41724,2,0,L|282:71,1,72.5,0|2,3:0|0:0,0:0:0:0:
485,46,42077,2,0,L|477:130,1,72.5,0|2,3:2|0:0,0:0:0:0:
327,187,42430,1,0,3:2:0:0:
314,89,42606,1,2,0:2:0:0:
154,164,42782,6,0,P|77:133|19:87,1,145,2|2,3:2|3:2,0:0:0:0:
128,264,43312,1,0,0:0:0:0:
64,312,43488,2,0,P|50:279|51:243,1,72.5,2|0,3:2|0:0,0:0:0:0:
236,201,43841,1,2,3:2:0:0:
319,322,44018,1,2,0:2:0:0:
335,338,44194,2,0,L|354:250,1,72.5,0|2,3:0|0:2,0:0:0:0:
461,172,44547,2,0,L|449:91,1,72.5,0|2,3:0|0:0,0:0:0:0:
329,22,44900,1,0,3:0:0:0:
272,97,45077,1,2,0:0:0:0:
113,32,45253,6,0,B|45:112|45:112|44:146|70:178,1,145,6|2,3:2|3:2,0:0:0:0:
156,206,45782,1,0,0:0:0:0:
204,126,45959,2,0,L|301:107,1,72.5,2|0,3:2|0:0,0:0:0:0:
481,154,46312,1,2,3:2:0:0:
412,291,46488,1,2,0:2:0:0:
340,256,46665,2,0,L|325:166,1,72.5,0|2,3:0|0:0,0:0:0:0:
187,355,47018,2,0,L|193:268,1,72.5,0|2,3:0|0:0,0:0:0:0:
102,171,47371,1,0,3:0:0:0:
146,85,47547,1,0,0:0:0:0:
330,93,47724,6,0,P|400:77|464:15,1,145,2|2,3:2|3:2,0:0:0:0:
370,184,48253,1,0,0:0:0:0:
450,247,48430,2,0,P|454:291|441:346,1,72.5,2|0,3:2|0:0,0:0:0:0:
241,222,48782,2,0,P|269:222|317:245,1,72.5,2|0,3:2|0:0,0:0:0:0:
242,359,49135,1,2,3:2:0:0:
155,275,49312,2,0,L|82:294,1,72.5,2|0,0:0|3:0,0:0:0:0:
18,194,49665,1,2,0:0:0:0:
215,134,49841,2,0,L|132:105,1,72.5,2|0,3:2|0:0,0:0:0:0:
499,76,50194,6,0,L|444:9,1,72.5,6|0,3:2|3:0,0:0:0:0:
314,67,50547,1,2,3:2:0:0:
227,47,50724,1,2,3:2:0:0:
102,77,50900,2,0,L|17:54,1,72.5,2|0,3:2|3:0,0:0:0:0:
13,254,51253,6,0,P|22:229|28:181,1,72.5,2|0,3:2|3:0,0:0:0:0:
154,346,51606,2,0,P|177:325|205:286,1,72.5,2|2,3:2|3:2,0:0:0:0:
212,133,51959,1,0,3:0:0:0:
272,197,52135,1,2,3:2:0:0:
442,180,52312,2,0,P|400:163|353:162,1,72.5,2|0,3:2|3:0,0:0:0:0:
468,361,52665,6,0,L|448:274,1,72.5,2|0,3:2|3:0,0:0:0:0:
270,274,53018,1,2,3:2:0:0:
285,188,53194,1,2,3:2:0:0:
402,79,53371,2,0,L|415:5,1,72.5,2|0,3:2|3:0,0:0:0:0:
198,121,53724,6,0,P|178:94|170:50,1,72.5,2|0,3:2|3:0,0:0:0:0:
45,248,54077,2,0,P|78:232|131:230,1,72.5,2|2,3:2|3:2,0:0:0:0:
201,358,54430,1,0,3:0:0:0:
223,276,54606,1,2,3:2:0:0:
389,332,54782,2,0,P|368:301|323:273,1,72.5,2|0,3:2|3:0,0:0:0:0:
55,346,55135,6,0,L|46:273,1,72.5,6|0,3:2|3:0,0:0:0:0:
146,135,55488,1,2,3:2:0:0:
206,272,55665,1,2,3:2:0:0:
125,241,55841,1,0,3:2:0:0:
260,179,56018,1,2,3:2:0:0:
395,242,56194,2,0,L|422:152,1,72.5,2|0,3:2|3:0,0:0:0:0:
500,66,56547,5,2,3:2:0:0:
399,169,56724,2,0,P|391:122|398:74,1,72.5,2|0,3:2|3:0,0:0:0:0:
289,24,57077,1,2,3:2:0:0:
110,68,57253,2,0,P|146:46|200:34,1,72.5,2|0,3:2|3:0,0:0:0:0:
257,165,57606,5,2,3:2:0:0:
245,188,57694,1,0,3:0:0:0:
241,214,57782,1,0,3:0:0:0:
247,241,57871,1,0,3:0:0:0:
259,263,57959,6,0,L|263:324,1,43.4999986724854,2|0,3:2|3:0,0:0:0:0:
367,360,58135,2,0,L|351:311,1,43.4999986724854,2|0,3:2|3:0,0:0:0:0:
392,272,58312,2,0,L|388:223,1,43.4999986724854,0|0,3:2|3:0,0:0:0:0:
463,173,58488,2,0,L|470:121,1,43.4999986724854,2|0,3:2|3:0,0:0:0:0:
380,38,58665,5,2,0:2:0:0:
256,192,59724,5,4,0:3:0:0:
482,142,60077,6,0,L|447:39,1,94.2499956855776,0|0,3:0|0:0,0:0:0:0:
233,27,60430,1,8,0:0:0:0:
261,61,60606,1,0,1:0:0:0:
275,165,60782,1,0,3:0:0:0:
434,285,60959,2,0,P|414:236|376:192,1,94.2499956855776,8|0,0:0|1:0,0:0:0:0:
188,235,61312,5,0,3:0:0:0:
102,87,61488,1,0,1:0:0:0:
130,89,61577,1,0,1:0:0:0:
155,104,61665,2,0,P|135:153|97:197,1,94.2499956855776,8|0,1:2|1:0,0:0:0:0:
5,244,61930,1,0,1:0:0:0:
5,244,62018,1,0,3:0:0:0:
177,356,62194,1,8,0:0:0:0:
115,291,62371,1,0,1:0:0:0:
340,373,62547,6,0,P|346:305|374:249,1,94.2499956855776,0|0,3:0|0:0,0:0:0:0:
512,228,62900,1,8,0:0:0:0:
388,155,63077,1,0,1:0:0:0:
384,74,63252,1,0,3:0:0:0:
489,24,63430,2,0,L|384:48,1,94.2499956855776,8|0,0:0|0:0,0:0:0:0:
240,216,63782,6,0,P|268:154|272:91,1,94.2499956855776,0|0,3:0|1:0,0:0:0:0:
241,37,64047,1,0,1:0:0:0:
241,37,64135,1,8,1:2:0:0:
76,138,64312,1,0,1:0:0:0:
98,117,64400,1,0,1:0:0:0:
127,116,64488,1,0,3:0:0:0:
241,246,64665,1,8,0:0:0:0:
330,255,64841,1,0,3:0:0:0:
160,384,65018,6,0,L|138:279,1,94.2499956855776,0|0,3:0|0:0,0:0:0:0:
46,105,65371,1,8,0:0:0:0:
26,154,65547,1,0,1:0:0:0:
150,87,65724,1,0,3:0:0:0:
294,226,65900,2,0,L|403:219,1,94.2499956855776,8|0,0:0|1:0,0:0:0:0:
495,40,66253,5,0,3:0:0:0:
303,79,66430,1,0,1:0:0:0:
325,58,66518,1,0,1:0:0:0:
352,55,66606,2,0,P|381:83|416:166,1,94.2499956855776,8|0,1:2|0:0,0:0:0:0:
307,328,66959,2,0,P|242:309|187:320,1,94.2499956855776,0|8,3:0|1:2,0:0:0:0:
106,349,67224,1,0,1:0:0:0:
106,349,67312,1,0,1:0:0:0:
35,159,67488,6,0,P|56:197|99:247,1,94.2499956855776,0|0,3:0|0:0,0:0:0:0:
292,129,67841,2,0,P|289:75|275:17,1,94.2499956855776,8|0,0:0|0:0,0:0:0:0:
502,218,68194,1,0,3:0:0:0:
334,144,68371,1,8,1:2:0:0:
314,169,68459,1,0,1:2:0:0:
311,198,68547,1,0,1:2:0:0:
280,325,68724,5,0,3:0:0:0:
159,378,68900,1,0,1:0:0:0:
149,359,68988,1,0,1:0:0:0:
153,338,69077,2,0,P|168:291|170:228,1,94.2499956855776,8|0,1:2|0:0,0:0:0:0:
44,98,69430,1,0,3:0:0:0:
214,143,69606,1,10,3:2:0:0:
74,118,69782,1,0,3:0:0:0:
307,52,69959,6,0,L|434:90,1,94.2499956855776,0|0,3:0|0:0,0:0:0:0:
503,246,70312,1,8,0:0:0:0:
425,272,70488,1,0,1:0:0:0:
310,207,70665,1,0,3:0:0:0:
241,361,70841,2,0,P|288:339|313:301,1,94.2499956855776,8|0,0:0|1:0,0:0:0:0:
240,130,71194,5,0,3:0:0:0:
41,193,71371,1,0,1:0:0:0:
49,164,71459,1,0,1:0:0:0:
79,146,71547,2,0,P|114:153|164:191,1,94.2499956855776,8|0,1:2|1:0,0:0:0:0:
231,267,71812,1,0,1:0:0:0:
231,267,71900,1,0,3:0:0:0:
332,118,72077,1,8,0:0:0:0:
421,149,72253,1,0,1:0:0:0:
192,0,72430,6,0,P|186:52|145:111,1,94.2499956855776,0|0,3:0|0:0,0:0:0:0:
49,228,72782,1,8,0:0:0:0:
242,256,72959,1,0,1:0:0:0:
294,354,73135,1,0,3:0:0:0:
175,374,73312,2,0,L|281:348,1,94.2499956855776,8|0,0:0|1:0,0:0:0:0:
495,368,73665,6,0,P|456:333|426:271,1,94.2499956855776,0|0,3:0|1:0,0:0:0:0:
479,202,73930,1,0,1:0:0:0:
479,202,74018,1,8,1:2:0:0:
307,237,74194,1,0,1:0:0:0:
293,195,74282,1,0,1:0:0:0:
260,171,74371,1,0,3:0:0:0:
80,178,74547,1,8,0:0:0:0:
45,97,74724,1,0,3:0:0:0:
111,311,74900,6,0,L|217:251,1,94.2499956855776,0|0,3:0|0:0,0:0:0:0:
370,173,75253,1,8,0:0:0:0:
455,185,75430,1,0,1:0:0:0:
500,12,75606,1,0,3:0:0:0:
298,26,75782,2,0,P|298:71|315:127,1,94.2499956855776,8|0,0:0|1:0,0:0:0:0:
255,273,76135,5,0,3:0:0:0:
153,139,76312,1,0,1:0:0:0:
180,143,76400,1,0,1:0:0:0:
198,162,76488,2,0,P|165:195|121:217,1,94.2499956855776,8|0,1:2|0:0,0:0:0:0:
1,179,76752,1,0,1:0:0:0:
1,179,76841,1,0,3:0:0:0:
89,323,77018,1,8,0:0:0:0:
180,327,77194,1,0,1:0:0:0:
310,207,77371,6,0,P|321:256|346:320,1,94.2499956855776,0|0,3:0|0:0,0:0:0:0:
152,60,77724,2,0,P|105:76|50:134,1,94.2499956855776,8|0,0:0|0:0,0:0:0:0:
237,264,78077,1,0,3:0:0:0:
296,105,78253,1,8,1:2:0:0:
257,108,78342,1,0,1:0:0:0:
231,137,78430,1,0,1:0:0:0:
430,215,78606,5,0,3:0:0:0:
499,89,78782,1,0,1:0:0:0:
479,84,78871,1,0,1:0:0:0:
458,88,78959,1,8,1:2:0:0:
340,255,79135,1,2,0:0:0:0:
319,257,79224,1,2,0:0:0:0:
283,252,79312,1,2,0:0:0:0:
243,225,79400,1,2,0:0:0:0:
217,183,79488,2,0,L|134:181,1,47.1249978427888,2|2,0:0|0:0,0:0:0:0:
135,259,79665,2,0,L|85:277,1,47.1249978427888,2|2,0:0|0:0,0:0:0:0:
0,377,79841,6,0,P|57:327|192:347,1,188.499991371155,2|10,3:2|0:0,0:0:0:0:
307,181,80371,2,0,P|310:230|346:302,1,94.2499956855776,2|0,0:0|0:0,0:0:0:0:
465,360,80724,2,0,P|477:318|479:258,1,94.2499956855776,10|0,0:0|0:0,0:0:0:0:
485,123,81077,5,2,3:2:0:0:
470,138,81165,1,2,0:0:0:0:
441,153,81253,1,2,0:0:0:0:
392,146,81341,1,2,0:0:0:0:
352,106,81430,2,0,L|344:32,1,47.1249978427888,10|2,0:0|0:0,0:0:0:0:
243,26,81606,1,2,0:0:0:0:
249,37,81694,2,0,P|254:58|258:98,2,47.1249978427888,2|2|2,0:0|3:2|0:0,0:0:0:0:
206,164,81959,2,0,P|203:189|197:210,2,47.1249978427888,10|2|2,0:0|0:0|0:0,0:0:0:0:
275,237,82224,1,2,0:0:0:0:
277,246,82312,6,0,P|249:307|221:347,1,94.2499956855776,2|0,3:2|0:0,0:0:0:0:
48,299,82665,1,10,0:0:0:0:
131,380,82841,2,0,P|144:330|147:260,1,94.2499956855776,2|0,0:0|2:0,0:0:0:0:
63,164,83194,2,0,L|34:42,1,94.2499956855776,10|2,0:0|0:0,0:0:0:0:
120,31,83459,1,2,0:0:0:0:
131,42,83547,6,0,P|126:74|126:94,3,47.1249978427888,2|2|2|2,3:2|0:0|0:0|0:0,0:0:0:0:
206,69,83900,2,0,P|222:55|250:38,1,47.1249978427888,10|2,0:0|0:0,0:0:0:0:
356,76,84077,1,2,0:0:0:0:
370,89,84165,1,2,0:0:0:0:
379,117,84253,2,0,P|374:137|361:167,1,47.1249978427888,2|2,3:2|0:0,0:0:0:0:
266,260,84430,1,10,0:0:0:0:
292,299,84518,1,2,0:0:0:0:
330,320,84606,1,2,0:0:0:0:
360,317,84694,1,2,0:0:0:0:
387,308,84782,6,0,P|266:308|182:357,1,188.499991371155,2|10,3:2|0:0,0:0:0:0:
114,268,85312,2,0,P|94:313|47:371,1,94.2499956855776,2|0,0:0|0:0,0:0:0:0:
221,210,85665,2,0,P|185:174|160:125,1,94.2499956855776,10|0,0:0|0:0,0:0:0:0:
146,35,86018,1,2,3:2:0:0:
468,36,86371,5,10,0:0:0:0:
462,87,86459,1,2,0:0:0:0:
422,120,86547,1,2,0:0:0:0:
390,122,86635,1,2,0:0:0:0:
370,115,86724,2,0,P|353:88|345:65,1,47.1249978427888,2|2,3:2|0:0,0:0:0:0:
268,79,86900,2,0,P|267:53|270:32,2,47.1249978427888,10|2|2,0:0|0:0|0:0,0:0:0:0:
209,171,87165,1,2,0:0:0:0:
221,163,87253,6,0,P|229:195|215:273,1,94.2499956855776,2|2,3:2|0:0,0:0:0:0:
176,369,87606,1,10,0:0:0:0:
37,264,87782,2,0,P|86:270|153:292,1,94.2499956855776,2|2,0:0|3:2,0:0:0:0:
305,355,88135,2,0,B|372:374|435:360|435:360|418:336|376:307,1,188.499991371155,10|0,0:0|3:0,0:0:0:0:
466,274,88665,5,2,0:0:0:0:
488,271,88753,1,2,0:0:0:0:
508,252,88841,2,0,P|510:221|503:188,1,47.1249978427888,10|2,0:0|0:0,0:0:0:0:
402,149,89018,1,2,0:0:0:0:
380,154,89106,1,2,0:0:0:0:
349,144,89194,1,2,3:2:0:0:
327,96,89282,1,2,0:0:0:0:
344,37,89371,2,0,P|369:31|411:33,1,47.1249978427888,10|0,0:2|0:0,0:0:0:0:
267,152,89547,2,0,P|242:158|200:156,1,47.1249978427888,0|0,0:0|0:0,0:0:0:0:
137,36,89724,6,0,P|78:134|-20:162,1,188.499991371155,2|8,3:2|0:0,0:0:0:0:
118,293,90253,2,0,P|133:337|142:383,1,94.2499956855776,2|0,0:0|2:0,0:0:0:0:
286,321,90606,2,0,P|300:282|313:197,1,94.2499956855776,10|0,0:0|0:0,0:0:0:0:
122,124,90959,5,2,3:2:0:0:
140,135,91047,1,2,0:0:0:0:
169,132,91135,1,2,0:0:0:0:
203,95,91224,1,2,0:0:0:0:
244,54,91312,2,0,P|271:50|326:62,1,47.1249978427888,10|2,0:0|0:0,0:0:0:0:
367,0,91488,1,2,0:0:0:0:
379,2,91577,2,0,P|398:12|416:29,2,47.1249978427888,2|2|0,0:0|3:2|0:0,3:0:0:0:
448,111,91841,2,0,P|472:98|494:67,2,47.1249978427888,10|2|2,0:0|0:0|0:0,0:0:0:0:
510,216,92106,1,0,0:0:0:0:
507,226,92194,6,0,P|460:204|379:198,1,94.2499956855776,2|0,3:2|0:0,0:0:0:0:
260,318,92547,1,10,0:0:0:0:
309,217,92724,2,0,P|347:259|382:327,1,94.2499956855776,2|0,0:0|0:0,0:0:0:0:
157,384,93077,2,0,L|170:270,1,94.2499956855776,10|2,0:0|0:0,0:0:0:0:
339,76,93430,6,0,P|344:109|351:138,3,47.1249978427888,2|2|2|2,3:2|0:0|0:0|0:0,0:0:0:0:
479,115,93782,2,0,P|459:100|431:92,1,47.1249978427888,10|2,0:0|0:0,0:0:0:0:
250,34,93959,1,2,0:0:0:0:
248,49,94047,1,2,0:0:0:0:
238,71,94135,2,0,P|218:86|190:94,1,47.1249978427888,2|2,3:2|0:0,0:0:0:0:
28,176,94312,1,10,0:0:0:0:
56,168,94400,1,2,0:0:0:0:
104,174,94488,1,2,0:0:0:0:
145,208,94577,1,2,0:0:0:0:
160,266,94665,6,0,L|44:260,1,94.2499956855776,4|0,3:2|0:0,0:0:0:0:
393,225,95018,2,0,L|280:150,1,94.2499956855776,0|0,3:0|0:0,0:0:0:0:
512,366,95371,2,0,L|481:254,1,94.2499956855776,0|0,3:0|0:0,0:0:0:0:
482,62,95724,1,4,3:2:0:0:
313,139,95900,1,0,3:0:0:0:
234,111,96077,2,0,L|194:232,1,94.2499956855776,0|2,3:0|3:2,0:0:0:0:
100,384,96430,1,2,3:2:0:0:
30,235,96606,2,0,L|152:223,1,94.2499956855776,2|2,3:2|3:2,0:0:0:0:
142,237,96871,1,2,0:0:0:0:
125,188,96959,1,2,3:2:0:0:
104,140,97047,1,0,3:0:0:0:
87,90,97135,6,0,P|66:87|30:71,3,47.1249978427888,6|2|2|2,3:2|0:0|0:0|0:0,0:0:0:0:
150,35,97488,2,0,P|183:28|216:26,1,47.1249978427888,2|2,0:0|0:0,0:0:0:0:
321,66,97665,6,0,P|307:86|285:140,1,47.1249978427888,6|2,0:0|0:0,0:0:0:0:
222,170,97841,1,2,0:0:0:0:
226,183,97930,1,2,0:0:0:0:
240,199,98018,2,0,P|267:204|314:199,1,47.1249978427888,2|2,0:0|0:0,0:0:0:0:
384,163,98194,6,0,P|398:183|420:237,1,47.1249978427888,6|2,0:0|0:0,0:0:0:0:
512,279,98371,1,2,0:0:0:0:
485,275,98459,1,2,0:0:0:0:
449,282,98547,1,2,0:0:0:0:
408,311,98635,1,2,0:0:0:0:
388,355,98724,6,0,P|372:332|360:296,1,47.1249978427888,6|2,0:0|0:0,0:0:0:0:
241,239,98900,1,2,0:0:0:0:
192,234,98988,1,2,0:0:0:0:
147,255,99076,1,2,0:0:0:0:
123,283,99165,1,2,0:0:0:0:
113,308,99253,5,6,3:2:0:0:
112,325,99341,2,0,L|80:262,1,47.1249978427888,0|0,0:0|0:0,0:0:0:0:
30,345,99518,1,2,0:0:0:0:
30,345,99606,1,2,0:0:0:0:
169,253,119371,5,8,0:3:0:0:
82,113,119724,1,2,0:0:0:0:
166,109,120077,1,0,0:0:0:0:
212,180,120253,1,0,0:0:0:0:
157,119,120606,2,0,P|170:86|230:19,1,108.750004148483,0|2,0:0|0:0,0:0:0:0:
265,31,121312,1,2,0:0:0:0:
297,67,121488,1,2,0:0:0:0:
296,87,121665,1,2,0:0:0:0:
452,59,121841,5,2,0:0:0:0:
501,207,122194,1,2,0:0:0:0:
373,121,122548,1,0,0:0:0:0:
436,51,122724,1,0,0:0:0:0:
503,227,123077,2,0,P|468:286|459:347,1,108.750004148483,0|2,0:0|0:0,0:0:0:0:
451,337,123782,1,2,0:0:0:0:
407,344,123959,1,2,0:0:0:0:
324,275,124135,1,2,0:0:0:0:
401,160,124312,6,0,P|408:131|408:88,1,54.3750020742417,2|0,0:0|0:0,0:0:0:0:
336,39,124665,1,2,0:0:0:0:
288,116,124841,1,0,0:0:0:0:
257,247,125194,6,0,P|248:218|227:181,1,54.3750020742417,2|0,0:0|0:0,0:0:0:0:
144,191,125547,1,2,0:0:0:0:
133,225,125723,1,0,0:0:0:0:
52,172,126077,1,0,0:0:0:0:
52,172,126253,1,2,0:0:0:0:
48,266,126430,2,0,L|49:342,1,54.3750020742417,2|0,0:0|0:0,0:0:0:0:
151,161,126782,6,0,P|169:138|181:113,1,54.3750020742417,2|0,0:0|0:0,0:0:0:0:
315,162,127135,1,2,0:0:0:0:
414,76,127312,1,0,0:0:0:0:
478,21,127665,5,2,0:0:0:0:
432,154,127841,1,2,0:0:0:0:
462,231,128018,1,0,0:0:0:0:
492,247,128194,1,2,0:0:0:0:
482,331,128371,2,0,L|425:343,1,54.3750020742417,2|0,0:0|0:0,0:0:0:0:
192,275,129077,1,0,0:0:0:0:
156,365,129253,5,2,0:0:0:0:
26,264,129606,1,2,0:0:0:0:
106,198,129959,1,0,0:0:0:0:
193,253,130135,1,0,0:0:0:0:
93,192,130488,2,0,P|93:144|105:73,1,108.750004148483,0|2,0:0|0:0,0:0:0:0:
139,65,131194,1,0,0:0:0:0:
226,112,131371,1,0,0:0:0:0:
268,107,131547,1,0,0:0:0:0:
388,200,131724,5,2,0:0:0:0:
363,289,132077,1,2,0:0:0:0:
512,281,132430,1,0,0:0:0:0:
476,200,132606,1,0,0:0:0:0:
248,323,132959,2,0,P|300:308|355:308,1,108.750004148483,0|2,0:0|0:0,0:0:0:0:
239,351,133665,1,2,0:0:0:0:
182,354,133841,1,2,0:0:0:0:
108,290,134018,1,2,0:0:0:0:
136,132,134194,6,0,P|121:108|102:89,1,54.3750020742417,2|0,0:0|0:0,0:0:0:0:
41,171,134547,1,2,0:0:0:0:
163,91,134724,1,0,0:0:0:0:
324,99,135077,6,0,P|323:71|316:45,1,54.3750020742417,2|0,0:0|0:0,0:0:0:0:
223,162,135430,1,2,0:0:0:0:
352,38,135606,1,0,0:0:0:0:
512,184,135959,5,2,0:0:0:0:
377,191,136135,1,2,0:0:0:0:
316,259,136312,1,0,0:0:0:0:
311,297,136488,1,2,0:0:0:0:
386,342,136665,6,0,P|430:324|455:320,2,54.3750020742417,0|2|2,0:0|0:0|0:0,0:0:0:0:
301,381,137194,1,2,0:0:0:0:
224,295,137547,1,0,0:0:0:0:
148,309,137724,2,0,P|235:264|264:149,1,217.500008296967,2|0,0:0|0:0,0:0:0:0:
125,286,138782,2,0,P|96:284|64:269,1,54.3750020742417,0|0,0:0|0:0,0:0:0:0:
346,372,139135,6,0,L|339:299,1,72.5,12|0,0:0|3:0,0:0:0:0:
500,142,139488,1,0,3:2:0:0:
339,162,139665,2,0,L|273:98,1,72.5,8|0,0:0|3:0,0:0:0:0:
157,132,140018,1,0,3:0:0:0:
76,260,140194,2,0,P|36:266|-24:261,1,72.5,8|0,0:0|3:0,0:0:0:0:
101,74,140547,2,0,P|122:97|141:136,1,72.5,0|8,3:0|0:0,0:0:0:0:
230,330,140900,2,0,P|232:291|256:233,1,72.5,0|0,3:0|3:0,0:0:0:0:
391,215,141253,1,8,0:0:0:0:
463,299,141430,1,0,3:0:0:0:
512,118,141606,6,0,L|419:133,1,72.5,8|0,0:0|3:0,0:0:0:0:
261,246,141959,1,0,3:0:0:0:
213,157,142135,2,0,L|240:63,1,72.5,8|0,0:0|3:0,0:0:0:0:
61,41,142488,1,0,3:0:0:0:
28,126,142665,2,0,L|43:206,1,72.5,8|0,0:0|3:0,0:0:0:0:
184,277,143018,2,0,P|214:254|255:241,1,72.5,0|8,3:0|0:0,0:0:0:0:
361,370,143371,2,0,P|319:347|297:318,1,72.5,0|0,3:0|3:0,0:0:0:0:
375,139,143724,1,8,0:0:0:0:
397,247,143900,1,0,3:0:0:0:
285,51,144077,6,0,P|262:89|257:140,1,72.5,12|0,0:0|3:0,0:0:0:0:
61,150,144430,1,0,3:0:0:0:
137,0,144606,2,0,P|139:35|155:94,1,72.5,8|0,0:0|3:0,0:0:0:0:
233,287,144959,5,0,3:0:0:0:
355,253,145135,2,0,P|358:283|346:345,1,72.5,8|0,0:0|3:0,0:0:0:0:
491,364,145488,2,0,P|508:318|514:270,1,72.5,0|8,3:0|0:0,0:0:0:0:
493,196,145841,1,0,3:0:0:0:
413,178,146018,1,0,3:0:0:0:
341,83,146194,1,8,0:0:0:0:
286,191,146371,1,0,3:0:0:0:
130,82,146547,6,0,P|121:34|129:-10,1,72.5,8|0,0:0|3:0,0:0:0:0:
51,197,146900,1,0,3:0:0:0:
222,162,147077,2,0,P|254:167|306:189,1,72.5,8|0,0:0|3:0,0:0:0:0:
428,255,147430,1,0,3:0:0:0:
308,179,147606,1,8,0:0:0:0:
264,261,147782,2,0,P|259:302|262:333,1,72.5,0|0,3:0|3:0,0:0:0:0:
104,377,148135,2,0,P|83:339|74:294,1,72.5,8|0,0:0|3:0,0:0:0:0:
88,283,148488,1,0,3:0:0:0:
185,192,148665,1,8,0:0:0:0:
55,206,148841,1,0,3:0:0:0:
232,79,149018,6,0,L|315:34,1,72.5,12|0,0:0|3:0,0:0:0:0:
474,112,149371,1,0,3:0:0:0:
437,265,149547,2,0,L|357:246,1,72.5,8|0,0:0|3:0,0:0:0:0:
233,205,149900,1,0,3:0:0:0:
110,299,150077,2,0,P|105:338|116:394,1,72.5,8|0,0:0|3:0,0:0:0:0:
226,220,150430,2,0,P|216:176|196:129,1,72.5,0|8,3:0|0:0,0:0:0:0:
23,235,150782,2,0,P|43:210|98:177,1,72.5,0|0,3:0|3:0,0:0:0:0:
105,0,151135,1,8,0:0:0:0:
20,87,151312,1,0,3:0:0:0:
223,37,151488,6,0,L|250:138,1,72.5,12|0,0:0|3:0,0:0:0:0:
494,145,151841,1,0,3:0:0:0:
419,108,152018,2,0,L|335:170,1,72.5,8|0,0:0|3:0,0:0:0:0:
299,322,152371,1,0,3:0:0:0:
214,341,152547,2,0,L|138:282,1,72.5,8|0,0:0|3:0,0:0:0:0:
142,124,152900,2,0,P|156:151|164:192,1,72.5,0|8,3:0|0:0,0:0:0:0:
42,324,153253,2,0,P|39:285|56:230,1,72.5,0|0,3:0|3:0,0:0:0:0:
216,320,153606,1,8,0:0:0:0:
293,242,153782,1,0,3:0:0:0:
472,340,153959,6,0,P|465:300|442:252,1,72.5,12|0,0:0|3:0,0:0:0:0:
277,224,154312,1,0,3:0:0:0:
413,107,154488,2,0,P|403:140|384:175,1,72.5,8|0,0:0|3:0,0:0:0:0:
150,249,154841,5,0,3:0:0:0:
43,130,155018,2,0,P|23:79|19:39,1,72.5,8|0,0:0|3:0,0:0:0:0:
286,22,155371,2,0,P|277:57|277:105,1,72.5,0|8,3:0|0:0,0:0:0:0:
351,308,155724,5,0,3:0:0:0:
268,236,155900,1,0,3:0:0:0:
236,354,156077,1,8,0:0:0:0:
351,288,156253,1,0,3:0:0:0:
173,235,156430,6,0,P|174:214|178:182,3,36.25,8|0|0|0,3:2|3:0|3:0|3:0,0:0:0:0:
134,341,156782,2,0,P|125:324|116:300,1,36.25,0|0,3:0|3:0,0:0:0:0:
33,255,156959,2,0,P|21:275|14:291,3,36.25,8|0|0|0,3:2|3:0|3:0|3:0,0:0:0:0:
78,142,157312,2,0,P|82:164|96:192,1,36.25,0|0,3:0|3:0,0:0:0:0:
16,53,157488,2,0,P|23:36|33:21,5,36.25,12|0|0|0|0|0,3:2|3:0|3:0|3:0|3:0|3:0,0:0:0:0:
127,53,158018,1,8,3:2:0:0:
161,43,158106,1,0,3:0:0:0:
196,39,158194,1,0,3:0:0:0:
232,41,158282,1,0,3:0:0:0:
265,55,158371,1,0,3:0:0:0:
290,80,158459,1,0,3:0:0:0:
301,114,158547,5,2,3:2:0:0:
299,33,158900,6,0,L|326:154,1,94.2499956855776,4|0,3:2|0:0,0:0:0:0:
490,190,159253,1,8,0:0:0:0:
452,200,159430,1,0,1:0:0:0:
384,333,159606,1,0,3:0:0:0:
478,378,159782,2,0,L|377:352,1,94.2499956855776,8|0,0:0|1:0,0:0:0:0:
245,259,160135,5,0,3:0:0:0:
102,363,160312,1,0,1:0:0:0:
126,363,160400,1,0,1:0:0:0:
139,347,160488,2,0,P|121:305|80:260,1,94.2499956855776,8|0,1:2|1:0,0:0:0:0:
0,203,160753,1,0,1:0:0:0:
0,203,160841,1,0,3:0:0:0:
140,166,161018,1,8,0:0:0:0:
181,190,161194,1,0,1:0:0:0:
261,36,161371,6,0,P|241:82|228:146,1,94.2499956855776,0|0,3:0|0:0,0:0:0:0:
295,276,161724,1,8,0:0:0:0:
432,224,161900,1,0,1:0:0:0:
507,276,162077,1,0,3:0:0:0:
342,382,162253,2,0,L|315:291,1,94.2499956855776,8|0,0:0|1:0,0:0:0:0:
438,113,162606,6,0,P|385:105|306:110,1,94.2499956855776,0|0,3:0|1:0,0:0:0:0:
247,144,162871,1,0,1:0:0:0:
247,144,162959,1,8,1:2:0:0:
90,50,163135,1,0,1:0:0:0:
106,30,163224,1,0,1:0:0:0:
132,26,163312,1,0,3:0:0:0:
155,185,163488,1,8,0:0:0:0:
232,243,163665,1,0,3:0:0:0:
29,297,163841,6,0,L|51:189,1,94.2499956855776,0|0,3:0|0:0,0:0:0:0:
271,42,164194,1,8,0:0:0:0:
362,176,164371,1,0,1:0:0:0:
447,168,164547,1,0,3:0:0:0:
443,23,164724,2,0,P|412:39|360:88,1,94.2499956855776,8|0,0:0|1:0,0:0:0:0:
337,287,165077,5,0,3:0:0:0:
458,342,165253,1,0,1:0:0:0:
461,322,165341,1,0,1:0:0:0:
450,295,165430,2,0,P|395:272|342:272,1,94.2499956855776,8|0,1:2|0:0,0:0:0:0:
204,200,165782,2,0,L|228:303,1,94.2499956855776,0|8,3:0|1:2,0:0:0:0:
182,369,166047,1,0,1:0:0:0:
182,369,166135,1,0,1:0:0:0:
58,224,166312,6,0,P|62:177|79:113,1,94.2499956855776,0|0,3:0|0:0,0:0:0:0:
286,8,166665,2,0,P|256:60|243:113,1,94.2499956855776,8|0,0:0|1:0,0:0:0:0:
334,255,167018,1,0,3:0:0:0:
478,187,167194,1,8,1:2:0:0:
494,205,167282,1,0,1:2:0:0:
499,229,167371,1,0,1:0:0:0:
416,374,167547,5,0,3:0:0:0:
303,351,167724,1,0,1:2:0:0:
286,361,167812,1,0,1:2:0:0:
279,375,167900,1,8,1:2:0:0:
174,272,168077,2,0,P|157:316|124:369,1,94.2499956855776,2|0,3:2|3:0,0:0:0:0:
29,118,168430,1,10,0:2:0:0:
47,260,168606,1,0,3:0:0:0:
154,53,168782,6,0,L|275:80,1,94.2499956855776,4|0,3:2|0:0,0:0:0:0:
504,136,169135,1,8,0:0:0:0:
424,163,169312,1,0,1:0:0:0:
385,315,169488,1,0,3:0:0:0:
277,361,169665,2,0,P|289:308|288:263,1,94.2499956855776,8|0,0:0|1:0,0:0:0:0:
238,115,170018,5,0,3:0:0:0:
53,187,170194,1,0,1:0:0:0:
44,158,170282,1,0,1:0:0:0:
49,133,170371,2,0,P|76:97|147:56,1,94.2499956855776,8|0,1:2|1:0,0:0:0:0:
204,24,170635,1,0,1:0:0:0:
204,24,170724,1,0,3:0:0:0:
331,118,170900,1,8,0:0:0:0:
338,26,171077,1,0,1:0:0:0:
512,124,171253,6,0,L|426:201,1,94.2499956855776,0|0,3:0|0:0,0:0:0:0:
229,100,171606,1,8,0:0:0:0:
114,229,171782,1,0,1:0:0:0:
135,307,171959,1,0,3:0:0:0:
254,384,172135,2,0,L|257:287,1,94.2499956855776,8|0,0:0|1:0,0:0:0:0:
343,114,172488,6,0,P|348:162|367:218,1,94.2499956855776,0|0,3:0|1:0,0:0:0:0:
426,280,172753,1,0,1:0:0:0:
426,280,172841,1,8,1:2:0:0:
264,187,173018,1,0,1:0:0:0:
231,189,173106,1,0,1:0:0:0:
202,213,173194,1,0,3:0:0:0:
41,115,173371,1,8,0:0:0:0:
49,28,173547,1,0,3:0:0:0:
232,13,173724,6,0,P|196:55|167:115,1,94.2499956855776,0|0,3:0|0:0,0:0:0:0:
51,354,174077,1,8,0:0:0:0:
112,289,174253,1,0,1:0:0:0:
315,259,174430,1,0,3:0:0:0:
403,382,174606,2,0,L|397:267,1,94.2499956855776,8|0,0:0|1:0,0:0:0:0:
479,107,174959,5,0,3:0:0:0:
512,285,175135,1,0,1:0:0:0:
497,305,175224,1,0,1:0:0:0:
476,313,175312,2,0,P|436:305|370:266,1,94.2499956855776,8|0,1:2|0:0,0:0:0:0:
326,6,175665,2,0,P|299:50|259:82,1,94.2499956855776,0|8,3:0|1:2,0:0:0:0:
177,97,175930,1,0,0:0:0:0:
177,97,176018,1,0,1:0:0:0:
27,0,176194,6,0,P|51:41|65:103,1,94.2499956855776,0|0,3:0|0:0,0:0:0:0:
179,384,176547,2,0,P|206:340|220:280,1,94.2499956855776,8|0,0:0|1:0,0:0:0:0:
74,108,176900,1,0,3:0:0:0:
21,250,177077,1,8,1:2:0:0:
44,267,177165,1,0,1:2:0:0:
75,266,177253,1,0,1:2:0:0:
220,206,177430,5,0,3:0:0:0:
236,306,177606,1,0,1:2:0:0:
250,304,177694,1,0,1:2:0:0:
265,295,177782,1,8,1:2:0:0:
352,214,177959,1,2,0:0:0:0:
374,205,178047,1,2,0:0:0:0:
416,205,178135,1,2,0:0:0:0:
458,230,178224,1,2,0:0:0:0:
491,277,178312,2,0,P|494:302|495:340,1,47.1249978427888,2|2,0:0|0:0,0:0:0:0:
372,370,178488,2,0,P|376:348|386:324,1,47.1249978427888,2|2,0:0|0:0,0:0:0:0:
415,180,178665,6,0,P|319:187|215:147,1,188.499991371155,2|10,3:2|0:0,0:0:0:0:
185,249,179194,2,0,P|189:320|178:372,1,94.2499956855776,2|0,0:0|2:0,0:0:0:0:
42,176,179547,2,0,L|84:77,1,94.2499956855776,10|0,0:0|0:0,0:0:0:0:
328,51,179900,5,2,3:2:0:0:
321,72,179988,1,2,0:0:0:0:
297,105,180077,1,2,0:0:0:0:
249,121,180165,1,2,0:0:0:0:
204,110,180253,2,0,P|186:94|173:74,1,47.1249978427888,10|2,0:0|0:0,0:0:0:0:
51,100,180430,1,2,0:0:0:0:
40,113,180518,2,0,P|26:143|19:173,2,47.1249978427888,2|2|2,0:0|3:2|0:0,0:0:0:0:
118,218,180782,2,0,P|108:191|100:141,2,47.1249978427888,10|2|2,0:0|0:0|0:0,0:0:0:0:
208,205,181047,1,2,0:0:0:0:
203,218,181135,6,0,P|219:274|249:326,1,94.2499956855776,2|0,3:2|0:0,0:0:0:0:
443,336,181488,1,10,0:0:0:0:
331,373,181665,2,0,P|324:318|326:269,1,94.2499956855776,2|0,0:0|0:0,0:0:0:0:
512,255,182018,2,0,L|402:204,1,94.2499956855776,10|2,0:0|0:0,0:0:0:0:
365,146,182282,1,2,0:0:0:0:
366,135,182371,6,0,P|394:124|435:113,3,47.1249978427888,2|2|2|2,3:2|0:0|0:0|0:0,3:0:0:0:
313,68,182724,2,0,P|288:50|259:38,1,47.1249978427888,10|2,0:0|0:0,3:0:0:0:
173,162,182900,1,2,0:0:0:0:
196,156,182988,1,2,0:0:0:0:
211,140,183077,2,0,P|206:110|187:72,1,47.1249978427888,2|2,3:2|0:0,0:0:0:0:
12,29,183253,1,10,0:0:0:0:
26,71,183341,1,2,0:0:0:0:
50,94,183430,1,2,0:0:0:0:
80,97,183518,1,2,0:0:0:0:
96,91,183606,6,0,P|50:188|38:284,1,188.499991371155,2|10,3:2|0:0,3:0:0:0:
133,356,184135,2,0,P|107:306|48:266,1,94.2499956855776,2|0,0:0|2:0,0:0:0:0:
189,240,184488,2,0,L|326:217,1,94.2499956855776,10|0,0:0|0:0,0:0:0:0:
424,318,184841,1,2,3:2:0:0:
480,41,185194,5,10,0:0:0:0:
422,42,185282,1,2,0:0:0:0:
389,80,185371,1,2,0:0:0:0:
388,115,185459,1,2,0:0:0:0:
398,134,185547,2,0,P|407:158|414:189,1,47.1249978427888,2|2,3:2|0:0,0:0:0:0:
489,215,185724,2,0,P|489:244|483:294,2,47.1249978427888,10|2|2,0:0|0:0|0:0,0:0:0:0:
433,330,185988,1,2,0:0:0:0:
424,318,186077,6,0,P|366:291|332:289,1,94.2499956855776,2|2,3:2|0:0,0:0:0:0:
221,346,186430,1,10,0:0:0:0:
102,282,186606,2,0,P|113:332|138:378,1,94.2499956855776,0|2,0:0|3:2,0:0:0:0:
309,192,186959,2,0,B|246:239|177:237|177:237|208:229|213:210,1,188.499991371155,10|0,0:0|3:0,0:0:0:0:
150,151,187488,5,2,0:0:0:0:
137,130,187577,1,2,0:0:0:0:
111,118,187665,2,0,P|102:152|106:179,1,47.1249978427888,10|2,0:0|0:0,0:0:0:0:
223,224,187841,1,2,0:0:0:0:
220,200,187930,1,2,0:0:0:0:
232,158,188018,1,2,3:2:0:0:
267,125,188106,1,2,0:0:0:0:
326,118,188194,2,0,L|379:138,1,47.1249978427888,10|0,0:2|0:0,0:0:0:0:
512,249,188371,2,0,L|454:270,1,47.1249978427888,0|0,3:0|0:0,0:0:0:0:
494,70,188547,6,0,P|462:140|380:235,1,188.499991371155,2|8,3:2|0:0,0:0:0:0:
497,363,189077,2,0,P|433:345|372:341,1,94.2499956855776,2|0,0:0|0:0,0:0:0:0:
225,376,189430,2,0,L|235:266,1,94.2499956855776,10|0,0:0|0:0,0:0:0:0:
39,166,189782,5,2,3:2:0:0:
42,148,189871,1,2,0:0:0:0:
53,128,189959,1,2,0:0:0:0:
95,98,190047,1,2,0:0:0:0:
146,96,190135,2,0,P|178:114|202:136,1,47.1249978427888,10|2,0:0|0:0,0:0:0:0:
255,196,190312,1,2,0:0:0:0:
270,200,190400,2,0,P|297:188|327:186,2,47.1249978427888,2|2|2,0:0|3:2|0:0,0:0:0:0:
379,232,190665,2,0,P|402:235|429:242,2,47.1249978427888,10|2|2,0:0|0:0|0:0,0:0:0:0:
499,318,190930,1,2,0:0:0:0:
492,307,191018,6,0,P|477:256|471:183,1,94.2499956855776,2|0,3:2|0:0,0:0:0:0:
490,34,191371,1,10,0:0:0:0:
379,43,191547,2,0,P|392:78|390:151,1,94.2499956855776,2|0,0:0|2:0,0:0:0:0:
259,193,191900,2,0,L|234:321,1,94.2499956855776,10|2,0:0|0:0,0:0:0:0:
82,320,192253,6,0,P|69:359|67:394,3,47.1249978427888,2|2|2|2,3:2|0:0|0:0|0:0,0:0:0:0:
35,256,192606,2,0,P|44:237|60:215,1,47.1249978427888,10|2,0:0|0:0,0:0:0:0:
160,99,192782,1,2,0:0:0:0:
161,74,192871,1,2,0:0:0:0:
150,52,192959,2,0,P|122:32|83:27,1,47.1249978427888,2|2,3:2|0:0,0:0:0:0:
168,196,193135,1,10,0:0:0:0:
221,181,193224,1,2,0:0:0:0:
249,141,193312,1,2,0:0:0:0:
256,115,193400,1,2,0:0:0:0:
253,94,193488,6,0,P|217:183|199:299,1,188.499991371155,2|10,3:2|0:0,0:0:0:0:
295,378,194018,2,0,P|288:333|286:267,1,94.2499956855776,2|0,0:0|0:0,0:0:0:0:
487,277,194371,2,0,L|393:243,1,94.2499956855776,10|0,0:0|0:0,0:0:0:0:
481,9,194724,6,0,B|412:84|367:169,1,188.499991371155,2|10,3:2|0:0,0:0:0:0:
346,180,195165,1,2,0:0:0:0:
338,179,195253,2,0,P|340:145|337:101,1,47.1249978427888,2|2,0:0|0:0,0:0:0:0:
279,49,195430,2,0,P|267:75|241:109,1,47.1249978427888,2|2,3:2|0:0,0:0:0:0:
200,188,195606,1,10,0:0:0:0:
175,173,195694,1,2,0:0:0:0:
153,149,195782,2,0,P|164:164|172:198,1,47.1249978427888,2|2,0:0|0:0,0:0:0:0:
49,256,195959,5,2,0:0:0:0:
61,260,196047,2,0,L|70:213,2,47.1249978427888,2|2|2,0:0|0:0|0:0,0:0:0:0:
139,318,196312,1,2,0:0:0:0:
148,330,196400,2,0,L|159:385,2,47.1249978427888,2|2|2,0:0|0:0|0:0,0:0:0:0:
276,286,196665,1,2,0:0:0:0:
291,298,196753,1,2,0:0:0:0:
317,305,196841,2,0,P|349:305|379:292,1,47.1249978427888,2|2,0:0|0:0,3:0:0:0:
476,193,197018,1,2,0:0:0:0:
461,205,197106,1,2,0:0:0:0:
435,212,197194,2,0,P|403:212|373:199,1,47.1249978427888,2|2,0:0|0:0,3:0:0:0:
335,103,197371,5,2,0:0:0:0:
307,152,197459,1,2,0:0:0:0:
263,172,197547,1,2,0:0:0:0:
221,159,197635,1,2,0:0:0:0:
195,133,197724,1,2,0:0:0:0:
165,125,197812,1,2,0:0:0:0:
145,130,197900,2,0,P|114:153|102:183,1,47.1249978427888,2|2,0:0|0:0,3:0:0:0:
27,208,198077,2,0,L|31:66,1,141.374993528366,2|0,0:0|0:0,0:0:0:0:
38,43,198430,5,2,0:1:0:0:
0,134,198606,1,2,0:1:0:0:
52,298,198782,6,0,B|252:282|252:282|216:274|177:234,1,260.999992034912,6|0,3:1|3:0,0:0:0:0:
408,382,199312,2,0,B|363:351|363:351|300:149,1,232,10|0,0:2|3:0,0:0:0:0:
493,236,199841,1,2,0:1:0:0:
464,50,200018,2,0,L|443:302,1,232,8|0,0:0|3:0,0:0:0:0:
268,342,200547,2,0,L|245:267,1,58,10|2,1:2|1:2,0:0:0:0:
275,270,200724,2,0,L|252:195,1,58,2|2,1:2|1:2,0:0:0:0:
309,142,200900,6,0,B|265:152|265:152|188:313|188:313|108:340,1,260.999992034912,2|8,3:1|0:0,0:0:0:0:
45,153,201430,2,0,L|102:23,1,130.499996017456,2|0,0:1|3:0,0:0:0:0:
19,321,201782,1,10,0:2:0:0:
180,352,201959,2,0,L|327:360,1,116,2|0,0:1|3:0,0:0:0:0:
404,255,202312,1,0,0:0:0:0:
512,287,202488,1,8,1:2:0:0:
501,296,202577,1,0,1:0:0:0:
497,312,202665,1,2,1:2:0:0:
395,384,202841,2,0,L|375:278,1,101.499996902466,2|10,3:2|2:2,0:0:0:0:
456,56,203194,1,2,0:2:0:0:
351,168,203371,6,0,B|311:164|311:164|192:31|192:31|140:28,1,260.999992034912,2|8,3:1|0:0,0:0:0:0:
0,130,203900,1,2,0:1:0:0:
89,260,204077,2,0,L|232:188,1,130.499996017456,0|8,3:0|2:0,0:0:0:0:
253,22,204430,1,2,0:1:0:0:
144,134,204606,2,0,B|208:294|208:294|204:251|211:188,1,260.999992034912,2|10,3:1|0:0,0:0:0:0:
381,149,205135,1,2,1:2:0:0:
391,163,205224,1,0,1:0:0:0:
393,178,205312,1,2,3:2:0:0:
460,301,205488,2,0,B|428:264|428:264|347:257,1,101.499996902466,2|0,3:2|0:1,0:0:0:0:
68,216,205841,6,0,L|63:84,1,101.499996902466,2|0,3:1|0:0,0:0:0:0:
237,373,206194,2,0,L|273:253,1,116,10|0,0:2|0:0,0:0:0:0:
438,369,206547,1,2,3:1:0:0:
497,185,206724,2,0,L|370:165,1,116,8|2,0:0|0:1,0:0:0:0:
147,202,207077,2,0,B|142:170|142:170|29:117|29:117|-9:-17,2,260.999992034912,2|8|2,3:1|2:0|3:1,0:0:0:0:
233,114,207959,1,8,0:0:0:0:
313,267,208135,1,0,3:0:0:0:
132,306,208312,6,0,L|-1:284,1,116,6|0,3:1|0:0,0:0:0:0:
59,117,208665,2,0,L|129:224,1,116,8|0,0:0|0:0,0:0:0:0:
252,354,209018,1,0,3:0:0:0:
333,292,209194,2,0,L|452:255,1,116,8|2,0:0|0:1,0:0:0:0:
140,324,209547,2,0,B|112:158|112:158|145:62,1,232,0|8,3:0|0:0,0:0:0:0:
481,24,210077,1,2,0:1:0:0:
393,96,210253,1,2,3:1:0:0:
216,77,210430,1,10,1:2:0:0:
210,53,210518,1,2,1:0:0:0:
232,26,210606,2,0,L|264:94,1,50.749998451233,2|2,1:0|0:0,3:0:0:0:
310,211,210782,6,0,B|457:191|457:191|502:149,1,202.999993804932,2|8,3:1|0:0,0:0:0:0:
257,316,211312,1,0,1:0:0:0:
240,341,211400,1,0,1:0:0:0:
237,370,211488,1,0,3:0:0:0:
148,230,211665,2,0,L|255:162,1,101.499996902466,8|2,0:0|0:1,0:0:0:0:
501,308,212018,2,0,B|418:227|418:227|322:241,1,173.999994689942,0|8,3:0|0:0,0:0:0:0:
272,323,212547,1,0,0:0:0:0:
126,254,212724,1,0,3:0:0:0:
0,315,212900,2,0,L|45:336,1,43.4999986724854,2|2,1:2|1:2,0:0:0:0:
38,354,213077,2,0,L|89:376,1,43.4999986724854,2|2,1:2|1:2,0:0:0:0:
186,383,213253,6,0,B|216:177|216:177|190:106,1,260.999992034912,2|8,3:1|0:0,0:0:0:0:
25,15,213782,1,0,0:0:0:0:
118,132,213959,1,0,3:0:0:0:
322,136,214135,2,0,L|313:15,1,116,8|2,0:0|1:2,0:0:0:0:
342,19,214400,1,0,1:0:0:0:
371,28,214488,2,0,B|286:202|286:202|307:287,1,232,2|8,3:1|0:0,0:0:0:0:
476,340,215018,1,0,1:0:0:0:
485,316,215106,1,0,1:0:0:0:
483,288,215194,1,0,3:0:0:0:
325,228,215371,2,0,L|312:172,1,58,10|2,1:2|1:2,0:0:0:0:
293,316,215547,2,0,L|306:372,1,58,2|2,1:2|1:2,0:0:0:0:
162,277,215724,6,0,B|22:366|22:366|38:345|50:306,1,202.999993804932,2|8,3:1|0:0,0:0:0:0:
150,163,216253,1,0,0:0:0:0:
219,206,216430,1,0,3:0:0:0:
311,60,216606,2,0,L|284:178,1,101.499996902466,8|0,0:0|1:0,0:0:0:0:
324,179,216871,1,0,1:0:0:0:
337,192,216959,2,0,P|316:145|275:99,2,86.9999973449708,2|0|8,3:1|0:0|2:0,0:0:0:0:
432,335,217488,2,0,P|434:293|414:220,1,86.9999973449708,0|0,0:0|3:0,0:0:0:0:
246,357,217841,1,8,0:0:0:0:
399,261,218018,1,0,3:0:0:0:
150,337,218194,6,0,L|117:201,1,94.2499956855776,12|0,3:2|0:0,0:0:0:0:
39,132,218547,1,2,0:0:0:0:
176,238,218724,6,0,L|215:104,1,94.2499956855776,4|0,3:2|0:0,0:0:0:0:
175,22,219077,1,2,0:0:0:0:
252,157,219253,6,0,L|353:61,1,94.2499956855776,4|0,3:2|0:0,3:0:0:0:
332,0,219606,1,2,0:0:0:0:
442,147,219782,1,0,3:2:0:0:
443,157,219959,1,0,0:0:0:0:
353,230,220135,1,2,0:0:0:0:
476,317,220312,2,0,L|485:363,3,47.1249978427888,6|0|2|2,0:0|0:0|0:0|0:0,0:0:0:0:
480,272,220665,5,6,3:2:0:0:
364,369,220841,2,0,L|351:262,1,94.2499956855776,2|0,0:0|0:0,0:0:0:0:
165,173,221194,1,6,3:2:0:0:
165,330,221371,2,0,L|236:230,1,94.2499956855776,2|0,0:0|0:0,0:0:0:0:
247,16,221724,1,6,3:2:0:0:
60,46,221900,2,0,L|187:65,1,94.2499956855776,2|0,0:0|0:0,0:0:0:0:
347,28,222253,1,2,3:2:0:0:
356,39,222430,1,0,0:0:0:0:
483,123,222606,1,2,0:0:0:0:
493,262,222782,2,0,L|496:309,3,47.1249978427888,6|2|2|2,0:0|0:0|0:0|0:0,0:0:0:0:
491,227,223135,6,0,P|433:196|376:191,1,94.2499956855776,6|0,3:2|0:0,3:0:0:0:
238,210,223488,1,2,0:0:0:0:
310,33,223665,2,0,P|255:67|221:114,1,94.2499956855776,6|0,3:2|0:0,3:0:0:0:
199,209,224018,1,2,0:0:0:0:
117,72,224194,2,0,P|119:137|143:189,1,94.2499956855776,6|0,3:2|3:0,3:0:0:0:
221,243,224547,1,2,0:0:0:0:
101,250,224724,1,2,3:2:0:0:
186,383,224900,1,2,0:0:0:0:
280,335,225077,1,0,0:0:0:0:
432,346,225253,2,0,L|513:355,3,47.1249978427888,6|2|2|2,0:0|0:0|0:0|0:0,0:0:0:0:
409,319,225606,5,2,2:2:0:0:
427,168,225782,2,0,P|471:142|546:125,1,94.2499956855776,6|0,3:2|0:0,0:0:0:0:
314,296,226135,1,0,0:0:0:0:
121,247,226312,2,0,P|75:221|24:165,1,94.2499956855776,6|0,3:2|0:0,0:0:0:0:
255,380,226665,1,0,0:0:0:0:
191,171,226841,1,6,3:2:0:0:
240,57,227018,2,0,P|265:11|321:-39,1,94.2499956855776,2|0,0:0|0:0,3:0:0:0:
506,150,227371,5,0,3:0:0:0:
484,165,227459,1,0,3:0:0:0:
451,175,227547,1,0,3:0:0:0:
407,175,227635,1,0,3:0:0:0:
361,158,227724,1,0,3:0:0:0:
321,124,227812,1,0,3:0:0:0:
274,100,227900,2,0,P|248:96|197:104,1,47.1249978427888,0|0,3:0|3:0,0:0:0:0:
34,208,228077,6,0,B|51:195|51:195|136:186,1,101.499996902466,12|0,0:0|3:0,3:0:0:0:
374,288,228430,1,0,3:0:0:0:
216,360,228606,1,12,0:0:0:0:
159,303,228782,1,0,3:0:0:0:
196,234,228959,1,0,3:0:0:0:
183,72,229135,6,0,B|202:80|202:80|253:149,1,101.499996902466,12|0,0:0|3:0,3:0:0:0:
351,311,229488,1,0,3:0:0:0:
474,189,229665,1,8,0:0:0:0:
479,202,229841,1,0,3:0:0:0:
360,283,230018,1,0,3:0:0:0:
478,338,230194,2,0,P|502:355|529:396,3,50.749998451233,2|2|2|2,0:0|0:0|0:0|0:0,0:0:0:0:
459,302,230547,5,12,0:0:0:0:
331,285,230724,2,0,B|302:290|302:290|229:345,1,101.499996902466,0|0,3:0|3:0,0:0:0:0:
421,86,231077,1,12,0:0:0:0:
315,86,231253,1,0,3:0:0:0:
239,156,231430,1,0,3:0:0:0:
148,0,231606,5,12,0:0:0:0:
53,118,231782,2,0,B|42:145|42:145|53:236,1,101.499996902466,0|0,3:0|3:0,3:0:0:0:
311,52,232135,1,8,0:0:0:0:
308,70,232312,1,0,3:0:0:0:
408,181,232488,1,0,3:0:0:0:
485,43,232665,2,0,P|497:13|529:-11,3,50.749998451233,2|2|2|2,0:0|0:0|0:0|0:0,0:0:0:0:
470,76,233018,6,0,B|399:47|399:47|336:56,1,101.499996902466,12|0,0:0|3:0,0:0:0:0:
170,134,233371,1,0,3:0:0:0:
23,58,233547,1,12,0:0:0:0:
142,99,233724,1,0,3:0:0:0:
171,219,233900,1,0,3:0:0:0:
344,260,234077,6,0,B|269:270|269:270|218:310,1,101.499996902466,12|0,0:0|3:0,3:0:0:0:
83,378,234430,1,0,3:0:0:0:
48,198,234606,1,8,0:0:0:0:
56,215,234782,1,0,3:0:0:0:
106,366,234959,1,0,3:0:0:0:
238,315,235135,2,0,P|261:313|301:314,1,50.749998451233,2|2,0:0|0:0,0:0:0:0:
313,343,235312,2,0,P|345:347|368:344,1,50.749998451233,2|0,0:0|0:0,0:0:0:0:
475,294,235488,5,0,3:0:0:0:
497,272,235577,1,0,3:0:0:0:
511,244,235665,1,0,3:0:0:0:
511,213,235753,1,0,3:0:0:0:
501,183,235841,1,0,3:0:0:0:
352,267,236018,1,0,3:0:0:0:
229,107,236194,5,0,3:0:0:0:
237,137,236283,1,0,3:0:0:0:
254,163,236371,1,0,3:0:0:0:
281,178,236459,1,0,3:0:0:0:
312,185,236547,6,0,P|355:172|398:112,1,101.499996902466,2|0,0:0|3:0,0:0:0:0:
211,24,236900,1,10,0:0:0:0:
139,84,237077,1,2,0:0:0:0:
136,243,237253,2,0,L|149:291,3,50.749998451233,2|2|2|2,0:0|0:0|0:0|0:0,0:0:0:0:
37,185,237606,2,0,L|2:119,1,50.749998451233,2|2,0:0|0:0,0:0:0:0:
55,64,237782,2,0,L|58:8,1,50.749998451233,2|2,0:0|0:0,0:0:0:0:
230,11,237959,6,0,B|203:71|236:155|288:178|349:210|375:277|346:370|346:370|385:232|252:155|161:211,1,706.875026965142,2|0,0:0|0:0,0:0:0:0:
129,330,240592,6,0,P|178:317|245:309,1,108.750004148483,2|0,0:0|0:0,0:0:0:0:
332,338,241156,1,2,0:0:0:0:
478,281,241344,2,0,P|480:253|478:212,1,54.3750020742417,2|0,0:0|0:0,0:0:0:0:
444,187,241720,2,0,L|451:110,2,54.3750020742417,0|0|0,0:0|0:0|0:0,0:0:0:0:
365,237,242285,1,0,0:0:0:0:
228,177,242473,2,0,P|217:153|212:111,1,54.3750020742417,2|0,0:0|0:0,0:0:0:0:
285,0,242849,2,0,P|283:27|280:54,1,54.3750020742417,2|0,0:0|0:0,0:0:0:0:
130,173,243225,6,0,P|81:158|10:155,1,108.750004148483,2|0,0:0|0:0,0:0:0:0:
53,316,243789,1,2,0:0:0:0:
190,272,243977,1,2,0:0:0:0:
269,299,244165,2,0,P|304:293|330:282,1,54.3750020742417,0|0,0:0|0:0,0:0:0:0:
435,318,244542,2,0,P|447:342|481:368,1,54.3750020742417,2|0,0:0|0:0,0:0:0:0:
505,209,244918,1,0,0:0:0:0:
408,81,245106,2,0,P|408:59|421:16,1,54.3750020742417,2|0,0:0|0:0,0:0:0:0:
330,121,245482,2,0,P|338:149|341:180,1,54.3750020742417,2|0,0:0|0:0,0:0:0:0:
284,272,245858,6,0,P|257:254|229:245,1,54.3750020742417,2|0,0:0|0:0,0:0:0:0:
114,246,246234,1,0,0:0:0:0:
58,310,246422,1,2,0:0:0:0:
155,250,246611,2,0,P|163:217|169:185,1,54.3750020742417,2|0,0:0|0:0,0:0:0:0:
131,87,246987,1,2,0:0:0:0:
7,21,247175,2,0,P|22:50|50:73,1,54.3750020742417,2|0,0:0|0:0,0:0:0:0:
217,118,247551,1,2,0:0:0:0:
346,27,247739,2,0,P|321:57|312:92,1,54.3750020742417,2|0,0:0|0:0,0:0:0:0:
353,173,248115,1,0,0:0:0:0:
377,197,248303,1,0,0:0:0:0:
272,259,248491,6,0,P|325:266|373:291,1,108.750004148483,2|0,0:0|0:0,0:0:0:0:
465,335,249129,2,0,P|470:290|477:265,2,54.3750020742417,0|2|0,0:0|0:0|0:0,0:0:0:0:
345,364,249767,2,0,P|338:334|336:307,1,54.3750020742417,0|0,0:0|0:0,0:0:0:0:
239,216,250193,2,0,P|231:242|226:268,2,54.3750020742417,0|2|0,0:0|0:0|0:0,0:0:0:0:
157,127,250805,2,0,P|154:100|148:73,2,54.3750020742417,0|2|0,0:0|0:0|0:0,0:0:0:0:
348,53,251417,6,0,P|292:62|243:86,1,108.750004148483,2|0,0:0|0:0,0:0:0:0:
58,120,252142,2,0,P|113:125|175:141,1,108.750004148483,0|2,0:0|0:0,0:0:0:0:
351,77,252849,2,0,P|349:104|344:131,1,54.3750020742417,2|0,0:0|0:0,0:0:0:0:
167,148,253314,2,0,P|166:176|171:203,1,54.3750020742417,0|0,0:0|0:0,0:0:0:0:
259,250,253779,6,0,P|266:223|269:196,1,54.3750020742417,2|0,0:0|0:0,3:0:0:0:
331,309,254519,2,0,P|345:285|355:259,1,54.3750020742417,2|0,0:0|0:0,3:0:0:0:
256,384,255260,6,0,L|256:308,1,72.5,2|0,0:0|0:0,0:0:0:0:
