osu file format v14

[General]
AudioFilename: audio.mp3
AudioLeadIn: 0
PreviewTime: 783
Countdown: 0
SampleSet: Soft
StackLeniency: 0.2
Mode: 0
LetterboxInBreaks: 0
WidescreenStoryboard: 1

[Editor]
Bookmarks: 20547,40312,60077,79841,99606,119371,139135,158900,178665,198430,218194,228077,237959
DistanceSpacing: 1.4
BeatDivisor: 4
GridSize: 32
TimelineZoom: 1.9

[Metadata]
Title:Dedication
TitleUnicode:Dedication
Artist:void
ArtistUnicode:void
Creator:Rockyy
Version:Expert
Source:Deemo
Tags:artcore drum and bass dnb ad:piano3 shanipika yaspo mir nao tomori undeadphoneguy
BeatmapID:2027988
BeatmapSetID:969312

[Difficulty]
HPDrainRate:5
CircleSize:4.5
OverallDifficulty:8.3
ApproachRate:9.3
SliderMultiplier:1.9
SliderTickRate:1

[Events]
//Background and Video events
0,0,"background.jpg",0,0
//Break Periods
2,99806,118817
//Storyboard Layer 0 (Background)
//Storyboard Layer 1 (Fail)
//Storyboard Layer 2 (Pass)
//Storyboard Layer 3 (Foreground)
//Storyboard Layer 4 (Overlay)
//Storyboard Sound Samples

[TimingPoints]
783,352.941176470588,7,2,4,40,1,0
783,-133.333333333333,7,2,4,40,0,0
20547,-100,7,2,4,45,0,0
21782,-133.333333333333,7,2,4,45,0,0
22135,-200,7,2,4,45,0,0
23018,-200,7,2,4,45,0,0
24253,-133.333333333333,7,2,4,45,0,0
24606,-100,7,2,4,45,0,0
25488,-200,7,2,4,45,0,0
27959,-153.846153846153,7,2,4,45,0,0
28488,-100,7,2,4,45,0,0
31665,-133.333333333333,7,2,4,45,0,0
32018,-200,7,2,4,45,0,0
34135,-133.333333333333,7,2,4,45,0,0
34488,-80,7,2,4,45,0,0
35371,-100,7,2,4,45,0,0
38900,-333.333333333333,7,2,4,45,0,0
39518,-333.333333333333,7,2,4,5,0,0
39606,-333.333333333333,7,2,4,45,0,0
40312,-117.647058823529,7,2,4,50,0,0
49841,-86.9565217391304,7,2,4,50,0,0
50194,-117.647058823529,7,2,4,60,0,0
60077,-100,7,2,4,50,0,0
69606,-66.6666666666667,7,2,4,55,0,1
69959,-76.9230769230769,7,2,4,55,0,0
79841,-76.9230769230769,7,2,4,55,0,1
82135,-192.307692307692,7,2,4,55,0,1
82312,-76.9230769230769,7,2,4,55,0,1
89371,-66.6666666666667,7,2,4,55,0,0
89724,-76.9230769230769,7,2,4,55,0,1
94665,-100,7,2,4,55,0,0
97135,-66.6666666666667,7,2,4,55,0,0
99253,-41.6666666666667,7,2,4,55,0,1
99606,-76.9230769230769,7,2,4,50,0,0
119371,-100,7,2,4,40,0,0
119724,-133.333333333333,7,2,4,40,0,0
137724,-769.230769230769,7,2,4,40,0,0
137812,-769.230769230769,7,2,69,20,0,0
137900,-769.230769230769,7,2,4,30,0,0
137988,-769.230769230769,7,2,69,40,0,0
138077,-769.230769230769,7,2,4,50,0,0
138165,-769.230769230769,7,2,69,60,0,0
138253,-769.230769230769,7,2,4,70,0,0
138341,-769.230769230769,7,2,69,80,0,0
138430,-769.230769230769,7,2,4,85,0,0
138518,-769.230769230769,7,2,69,90,0,0
138782,-769.230769230769,7,2,4,40,0,0
139135,-100,7,2,4,50,0,1
156430,-100,7,2,4,50,0,0
168077,-133.333333333333,7,2,4,50,0,0
168341,-100,7,2,4,5,0,0
168430,-66.6666666666667,7,2,4,55,0,1
168782,-76.9230769230769,7,2,4,55,0,0
178665,-76.9230769230769,7,2,4,55,0,1
188194,-66.6666666666667,7,2,4,55,0,0
188547,-76.9230769230769,7,2,4,55,0,1
195959,-100,7,2,4,30,0,0
196665,-100,7,2,4,40,0,0
197371,-100,7,2,4,50,0,0
198430,-76.9230769230769,7,2,4,50,0,0
198606,-50,7,2,4,50,0,0
198782,-55.5555555555556,7,2,4,55,0,1
205841,-62.5,7,2,4,55,0,1
206900,-55.5555555555556,7,2,4,55,0,1
208135,-55.5555555555556,7,2,4,55,0,0
208312,-55.5555555555556,7,2,4,55,0,1
210782,-62.5,7,2,4,55,0,1
211841,-83.3333333333333,7,2,4,55,0,1
213253,-62.5,7,2,4,55,0,1
214312,-166.666666666667,7,2,4,55,0,1
214488,-83.3333333333333,7,2,4,55,0,1
215724,-62.5,7,2,4,55,0,1
216959,-90.9090909090909,7,2,4,55,0,1
217841,-100,7,2,4,55,0,0
218194,-55.5555555555556,7,2,4,55,0,1
227371,-55.5555555555556,7,2,4,55,0,0
228077,-55.5555555555556,7,2,4,65,0,1
236547,-100,7,2,4,50,0,0
237959,376.175548589342,7,2,4,45,1,0
237959,-133.333333333333,7,2,4,45,0,0
248491,425.531914893617,7,2,4,45,1,0
248491,-133.333333333333,7,2,4,45,0,0
250193,408.163265306122,7,2,4,45,1,0
250193,-133.333333333333,7,2,4,45,0,0
251417,483.870967741935,7,2,4,35,1,0
251417,-133.333333333333,7,2,4,35,0,0
252384,465.116279069767,7,2,4,35,1,0
252384,-133.333333333333,7,2,4,35,0,0
253779,740.740740740741,7,2,4,30,1,0
253779,-133.333333333333,7,2,4,30,0,0
254519,-133.333333333333,7,2,4,25,0,0
255260,-133.333333333333,7,2,4,60,0,0
258223,-133.333333333333,7,2,4,5,0,0

[Colours]
Combo1 : 255,0,0
Combo2 : 199,199,199
Combo3 : 154,159,167
Combo4 : 255,132,255
Combo5 : 255,113,184

[HitObjects]
63,55,783,6,0,L|55:146,1,71.2500027179719,2|0,0:0|0:0,0:0:0:0:
113,178,1091,1,0,0:0:0:0:
113,178,1135,1,2,0:0:0:0:
63,55,1488,5,0,0:0:0:0:
56,125,1665,1,0,0:0:0:0:
113,178,2018,1,0,0:0:0:0:
187,155,2371,1,0,0:0:0:0:
63,55,2724,53,0,0:0:0:0:
56,125,2901,1,0,0:0:0:0:
113,178,3077,1,0,0:0:0:0:
449,329,3253,5,2,0:0:0:0:
449,329,3606,2,0,L|358:337,1,71.2500027179719,0|0,0:0|0:0,0:0:0:0:
326,279,3915,1,0,0:0:0:0:
326,279,3958,1,2,0:0:0:0:
449,329,4135,53,0,0:0:0:0:
378,335,4488,1,0,0:0:0:0:
326,279,4841,1,0,0:0:0:0:
348,205,5194,5,0,0:0:0:0:
423,187,5371,1,0,0:0:0:0:
476,242,5547,1,0,0:0:0:0:
366,124,5724,53,2,0:0:0:0:
401,260,5900,1,0,0:0:0:0:
270,178,6077,5,0,0:0:0:0:
305,42,6253,1,0,0:0:0:0:
366,124,6562,53,0,0:0:0:0:
366,124,6606,1,2,0:0:0:0:
401,260,6782,1,0,0:0:0:0:
270,178,6959,5,0,0:0:0:0:
305,42,7135,1,0,0:0:0:0:
305,42,7488,53,0,0:0:0:0:
230,60,7665,1,0,0:0:0:0:
89,97,7841,5,0,0:0:0:0:
164,115,8018,1,0,0:0:0:0:
125,247,8194,53,2,0:0:0:0:
89,97,8371,1,0,0:0:0:0:
184,187,8547,1,0,0:0:0:0:
42,221,8680,1,0,0:0:0:0:
42,221,8724,1,2,0:0:0:0:
352,181,9077,5,0,0:0:0:0:
423,355,9254,1,0,0:0:0:0:
237,329,9430,1,0,0:0:0:0:
401,334,9606,53,0,0:0:0:0:
348,205,9783,1,0,0:0:0:0:
263,315,9959,1,0,0:0:0:0:
338,287,10488,1,0,0:0:0:0:
69,299,10665,5,2,0:0:0:0:
159,292,10974,1,0,0:0:0:0:
159,292,11018,1,2,0:0:0:0:
69,299,11371,53,0,0:0:0:0:
159,292,11547,1,0,0:0:0:0:
247,325,11900,1,0,0:0:0:0:
336,311,12253,1,0,0:0:0:0:
69,299,12606,5,0,0:0:0:0:
159,292,12782,1,0,0:0:0:0:
247,325,12959,1,0,0:0:0:0:
429,94,13135,53,2,0:0:0:0:
340,74,13488,1,0,0:0:0:0:
248,96,13797,1,0,0:0:0:0:
248,96,13841,1,2,0:0:0:0:
340,74,14018,5,0,0:0:0:0:
248,96,14371,1,0,0:0:0:0:
71,54,14724,1,0,0:0:0:0:
248,96,15077,53,0,0:0:0:0:
340,74,15253,1,0,0:0:0:0:
154,77,15430,1,0,0:0:0:0:
381,273,15606,5,2,0:0:0:0:
299,175,15782,1,0,0:0:0:0:
284,328,15959,53,0,0:0:0:0:
391,153,16135,1,0,0:0:0:0:
381,273,16488,5,0,0:0:0:0:
299,175,16664,1,0,0:0:0:0:
284,328,16841,53,0,0:0:0:0:
476,289,16974,1,0,0:0:0:0:
476,289,17018,1,2,0:0:0:0:
284,328,17371,5,0,0:0:0:0:
218,258,17547,1,0,0:0:0:0:
104,373,17724,1,0,0:0:0:0:
197,350,17900,1,0,0:0:0:0:
151,187,18077,53,0,0:0:0:0:
124,280,18253,1,0,0:0:0:0:
403,196,18430,5,0,0:0:0:0:
316,242,18606,2,0,L|330:321,1,71.2500027179719
403,196,18958,1,0,0:0:0:0:
432,100,19135,1,2,0:0:0:0:
66,48,19841,5,0,0:0:0:0:
57,142,20194,1,0,0:0:0:0:
163,219,20547,54,0,L|154:118,1,95,2|0,3:2|0:0,0:0:0:0:
253,46,20812,1,0,0:0:0:0:
253,46,20900,2,0,L|244:147,1,95,2|0,0:0|0:0,0:0:0:0:
154,124,21253,1,2,0:0:0:0:
244,140,21430,2,0,L|338:131,1,95,2|0,0:0|0:0,0:0:0:0:
488,183,21782,2,0,L|417:176,1,71.2500027179719,2|0,0:0|0:0,0:0:0:0:
308,226,22135,2,0,L|374:220,1,47.5,2|0,0:0|0:0,0:0:0:0:
429,269,22488,5,2,0:0:0:0:
324,321,22665,1,2,0:0:0:0:
235,342,22841,1,2,0:0:0:0:
116,328,23018,38,0,L|162:316,1,47.5,2|0,0:0|0:0,0:0:0:0:
162,316,23282,1,0,0:0:0:0:
162,316,23371,1,2,0:0:0:0:
163,317,23724,1,2,0:0:0:0:
85,244,23900,2,0,P|120:242|144:256,1,47.5,2|0,0:0|0:0,0:0:0:0:
253,156,24253,2,0,P|223:202|223:246,1,71.2500027179719,2|0,0:0|0:0,0:0:0:0:
80,22,24606,2,0,P|125:65|138:114,1,95,2|0,0:0|0:0,0:0:0:0:
287,24,24959,5,2,0:0:0:0:
382,16,25135,1,2,0:0:0:0:
490,86,25312,1,2,0:0:0:0:
425,226,25488,54,0,L|358:231,2,47.5,2|0|0,0:0|0:0|0:0,0:0:0:0:
501,279,26018,1,2,0:0:0:0:
277,296,26371,6,0,L|343:301,2,47.5,2|0|0,0:0|0:0|0:0,0:0:0:0:
201,349,26901,1,2,0:0:0:0:
201,349,27253,53,2,0:0:0:0:
190,226,27430,1,2,0:0:0:0:
127,147,27606,5,2,0:0:0:0:
76,260,27783,1,2,0:0:0:0:
243,128,27959,54,0,P|274:120|314:115,2,61.7499971733095,2|0|0,0:0|0:0|0:0,0:0:0:0:
152,39,28488,2,0,L|128:42,2,23.75,2|0|0,0:0|0:0|0:0,0:0:0:0:
152,39,28841,5,2,0:0:0:0:
190,226,29018,1,2,0:0:0:0:
9,165,29194,1,2,0:0:0:0:
170,217,29371,53,2,0:0:0:0:
154,64,29548,1,2,0:0:0:0:
29,155,29724,1,2,0:0:0:0:
120,146,30253,1,0,0:0:0:0:
210,155,30430,6,0,P|165:138|118:146,1,95,2|0,0:0|0:0,0:0:0:0:
282,71,30694,1,0,0:0:0:0:
282,71,30782,2,0,P|312:34|356:18,1,95,2|0,0:0|0:0,0:0:0:0:
475,185,31135,1,2,0:0:0:0:
475,185,31312,2,0,P|445:148|401:132,1,95,2|0,0:0|0:0,0:0:0:0:
299,252,31665,2,0,P|343:234|389:243,1,71.2500027179719,2|0,0:0|0:0,0:0:0:0:
439,299,32018,2,0,P|406:304|382:324,1,47.5,2|0,0:0|0:0,0:0:0:0:
73,316,32371,53,2,0:0:0:0:
198,374,32548,1,2,0:0:0:0:
295,363,32724,1,2,0:0:0:0:
302,250,32900,6,0,P|292:229|291:206,1,47.5,2|0,0:0|0:0,0:0:0:0:
291,205,33165,1,0,0:0:0:0:
291,205,33253,1,2,0:0:0:0:
291,205,33606,1,2,0:0:0:0:
205,243,33782,2,0,P|215:264|216:287,1,47.5,2|0,0:0|0:0,0:0:0:0:
164,124,34135,2,0,P|141:156|108:177,1,71.2500027179719,2|0,0:0|0:0,0:0:0:0:
397,64,34488,2,0,P|334:58|278:30,1,118.75,2|0,0:0|0:0,0:0:0:0:
420,143,34841,53,2,0:0:0:0:
397,64,35018,1,2,0:0:0:0:
284,35,35194,1,2,0:0:0:0:
203,127,35371,6,0,L|99:119,2,95
32,184,35900,1,2,0:0:0:0:
156,256,36253,54,0,L|260:248,2,95
348,316,36782,2,0,L|371:317,2,23.75,2|0|0,0:0|0:0|0:0,0:0:0:0:
348,316,37135,5,2,0:0:0:0:
407,179,37312,1,0,0:0:0:0:
335,228,37488,53,2,0:0:0:0:
414,265,37665,1,0,0:0:0:0:
315,54,37841,5,2,0:0:0:0:
256,192,38018,1,0,0:0:0:0:
328,142,38194,53,2,0:0:0:0:
134,58,38371,2,0,P|149:122|140:172,1,95
122,259,38724,1,2,0:0:0:0:
67,325,38900,6,0,P|23:313|44:299,1,99.7499969558717,2|0,0:0|0:0,0:0:0:0:
163,352,39606,1,2,0:0:0:0:
236,343,39783,1,2,0:0:0:0:
324,295,39959,1,2,0:0:0:0:
460,312,40136,1,2,0:0:0:0:
256,192,40312,21,2,3:2:0:0:
96,32,40665,21,0,3:0:0:0:
128,109,40841,1,0,0:0:0:0:
44,97,41017,1,0,3:0:0:0:
179,43,41194,2,0,L|283:28,1,80.750001540184,0|0,0:0|3:0,0:0:0:0:
96,32,41547,5,0,0:0:0:0:
128,109,41723,1,0,3:0:0:0:
44,97,41899,1,0,0:0:0:0:
179,43,42077,53,0,3:0:0:0:
96,186,42253,1,0,0:0:0:0:
96,32,42430,1,0,3:0:0:0:
128,109,42606,1,0,0:0:0:0:
256,192,42783,37,0,3:0:0:0:
416,32,43135,21,0,3:0:0:0:
384,109,43311,1,0,0:0:0:0:
468,97,43487,1,0,3:0:0:0:
333,43,43664,2,0,L|229:28,1,80.750001540184,0|0,0:0|3:0,0:0:0:0:
416,32,44017,5,0,0:0:0:0:
384,109,44193,1,0,3:0:0:0:
468,97,44371,1,0,0:0:0:0:
333,43,44547,53,0,3:0:0:0:
416,186,44723,1,0,0:0:0:0:
416,32,44900,1,0,3:0:0:0:
384,109,45076,1,0,0:0:0:0:
256,192,45253,37,4,3:2:0:0:
416,352,45606,21,0,3:0:0:0:
384,275,45782,1,0,0:0:0:0:
468,287,45958,1,0,3:0:0:0:
333,341,46135,2,0,L|229:356,1,80.750001540184,0|0,0:0|3:0,0:0:0:0:
416,352,46488,5,0,0:0:0:0:
384,275,46664,1,0,3:0:0:0:
468,287,46840,1,0,0:0:0:0:
333,341,47018,53,0,3:0:0:0:
416,198,47194,1,0,0:0:0:0:
416,352,47371,1,0,3:0:0:0:
384,275,47547,1,0,0:0:0:0:
256,192,47724,37,2,3:2:0:0:
96,352,48077,21,0,3:0:0:0:
128,275,48253,1,0,0:0:0:0:
44,287,48429,1,0,3:0:0:0:
179,341,48606,2,0,L|283:356,1,80.750001540184,0|2,0:0|3:2,0:0:0:0:
96,352,48959,5,0,0:0:0:0:
128,275,49135,1,0,3:0:0:0:
44,287,49311,1,0,0:0:0:0:
179,341,49488,54,0,P|221:354|282:342,1,80.750001540184,0|0,3:0|0:0,0:0:0:0:
316,101,49841,2,0,P|276:135|252:206,1,109.250002083778,2|0,3:2|0:0,0:0:0:0:
389,268,50194,5,4,3:2:0:0:
389,268,50371,1,0,3:0:0:0:
349,194,50547,53,0,3:0:0:0:
349,194,50724,1,0,3:0:0:0:
423,154,50900,5,0,3:0:0:0:
423,154,51077,1,0,3:0:0:0:
383,80,51253,53,0,3:0:0:0:
383,80,51430,1,0,3:0:0:0:
309,120,51606,5,0,3:0:0:0:
309,120,51783,1,0,3:0:0:0:
269,46,51959,53,0,3:0:0:0:
269,46,52136,1,0,3:0:0:0:
192,68,52312,6,0,P|238:60|289:31,1,80.750001540184,0|0,3:0|3:0,0:0:0:0:
179,364,52665,53,2,3:2:0:0:
194,367,52841,1,0,3:0:0:0:
76,332,53018,5,0,3:0:0:0:
80,346,53194,1,0,3:0:0:0:
52,228,53371,53,0,3:0:0:0:
41,238,53547,1,0,3:0:0:0:
129,157,53724,5,0,3:0:0:0:
114,152,53900,1,0,3:0:0:0:
230,186,54077,53,0,3:0:0:0:
226,171,54253,1,0,3:0:0:0:
254,288,54430,5,0,3:0:0:0:
264,278,54606,1,0,3:0:0:0:
373,237,54782,54,0,P|356:280|356:325,1,80.750001540184,0|0,3:0|3:0,0:0:0:0:
439,172,55135,5,4,3:2:0:0:
451,256,55311,1,0,3:0:0:0:
360,157,55488,53,0,3:0:0:0:
372,73,55664,1,0,3:0:0:0:
278,166,55841,5,0,3:0:0:0:
293,275,56017,1,0,3:0:0:0:
196,147,56194,53,0,3:0:0:0:
212,26,56370,1,0,3:0:0:0:
116,180,56547,5,0,3:0:0:0:
138,335,56723,1,0,3:0:0:0:
33,167,56900,53,0,3:0:0:0:
54,14,57076,1,0,3:0:0:0:
196,147,57253,5,0,3:0:0:0:
33,167,57430,1,0,3:0:0:0:
196,147,57606,21,0,3:0:0:0:
192,160,57694,1,0,3:0:0:0:
194,173,57782,1,0,3:0:0:0:
200,185,57870,1,0,3:0:0:0:
211,194,57958,1,0,3:0:0:0:
225,199,58047,1,0,3:0:0:0:
271,206,58135,53,0,3:0:0:0:
304,239,58223,1,0,3:0:0:0:
312,285,58311,1,0,3:0:0:0:
292,328,58399,1,0,3:0:0:0:
251,351,58488,1,0,3:0:0:0:
205,347,58576,1,0,3:0:0:0:
238,276,58664,37,2,0:2:0:0:
133,158,60077,6,0,B|39:149,1,95,0|0,3:0|0:0,0:0:0:0:
234,176,60430,2,0,B|328:167,1,95,8|0,0:0|0:0,0:0:0:0:
195,81,60782,1,0,3:0:0:0:
168,249,60959,1,8,0:0:0:0:
234,176,61135,1,0,0:0:0:0:
234,176,61224,1,0,0:0:0:0:
234,176,61312,53,0,3:0:0:0:
133,158,61488,1,0,0:0:0:0:
109,155,61576,1,0,0:0:0:0:
85,153,61664,1,8,0:0:0:0:
263,267,61841,1,0,0:0:0:0:
287,270,61929,1,0,0:0:0:0:
311,272,62017,1,0,3:0:0:0:
234,176,62194,1,8,0:0:0:0:
194,347,62371,1,0,0:0:0:0:
194,347,62459,1,0,0:0:0:0:
194,347,62547,6,0,P|239:361|290:352,1,95,0|0,3:0|0:0,0:0:0:0:
402,278,62900,2,0,P|357:264|306:273,1,95,8|0,0:0|0:0,0:0:0:0:
459,347,63253,1,0,3:0:0:0:
328,166,63430,2,0,B|234:175,1,95,8|0,0:0|0:0,0:0:0:0:
165,182,63694,1,0,0:0:0:0:
165,182,63782,53,0,3:0:0:0:
310,271,63959,1,0,0:0:0:0:
333,265,64047,1,0,0:0:0:0:
357,265,64135,2,0,P|379:268|401:278,1,47.5,8|0,0:0|0:0,0:0:0:0:
306,61,64312,1,0,0:0:0:0:
306,61,64400,1,0,0:0:0:0:
306,61,64488,1,0,3:0:0:0:
233,175,64665,1,8,0:0:0:0:
200,187,64753,1,0,0:0:0:0:
165,182,64841,1,0,0:0:0:0:
138,160,64929,1,0,0:0:0:0:
125,127,65018,6,0,B|116:221,1,95,0|0,3:0|0:0,0:0:0:0:
203,363,65371,2,0,B|194:269,1,95,8|0,0:0|0:0,0:0:0:0:
288,278,65723,1,0,3:0:0:0:
194,269,65900,2,0,B|288:278,1,95,8|0,0:0|0:0,0:0:0:0:
389,256,66165,1,0,0:0:0:0:
389,256,66253,53,0,3:0:0:0:
193,268,66429,1,0,0:0:0:0:
196,292,66517,1,0,0:0:0:0:
198,316,66605,1,8,0:0:0:0:
295,205,66782,1,0,0:0:0:0:
298,181,66870,1,0,0:0:0:0:
300,157,66958,1,0,3:0:0:0:
190,248,67135,1,8,0:0:0:0:
324,298,67312,2,0,B|328:345,1,47.5,0|0,0:0|0:0,0:0:0:0:
353,82,67488,6,0,P|308:68|257:77,1,95,0|0,3:0|0:0,0:0:0:0:
133,158,67841,2,0,P|178:172|229:163,1,95,8|0,0:0|0:0,0:0:0:0:
71,79,68194,1,0,3:0:0:0:
317,267,68371,2,0,B|223:276,1,95,8|0,0:0|0:0,0:0:0:0:
126,303,68635,1,0,0:0:0:0:
126,303,68723,53,0,3:0:0:0:
237,158,68900,1,0,0:0:0:0:
214,164,68988,1,0,0:0:0:0:
190,164,69076,2,0,P|168:161|146:151,1,47.5,8|0,0:0|0:0,0:0:0:0:
317,266,69253,1,0,0:0:0:0:
317,266,69341,1,0,0:0:0:0:
317,266,69429,1,0,3:0:0:0:
422,96,69606,54,0,B|377:113|333:88|333:88|304:113|304:113|280:83|248:74|213:86,1,213.750008153916,10|0,0:1|0:0,0:0:0:0:
71,78,69959,6,0,P|99:132|98:194,1,123.499994346619,0|0,3:0|0:0,0:0:0:0:
157,366,70312,2,0,P|156:305|185:251,1,123.499994346619,8|0,0:0|0:0,0:0:0:0:
74,289,70665,1,0,3:0:0:0:
355,319,70841,2,0,P|296:336|235:329,1,123.499994346619,8|0,0:0|0:0,0:0:0:0:
184,251,71106,1,0,0:0:0:0:
184,251,71194,5,0,3:0:0:0:
157,366,71371,1,0,0:0:0:0:
157,366,71459,1,0,0:0:0:0:
157,366,71547,1,8,0:0:0:0:
98,193,71724,2,0,B|36:198,1,61.7499971733095,0|0,0:0|0:0,0:0:0:0:
187,157,71901,1,0,3:0:0:0:
245,256,72077,2,0,B|183:250,1,61.7499971733095,8|0,0:0|0:0,0:0:0:0:
334,220,72253,1,0,0:0:0:0:
334,220,72341,1,0,0:0:0:0:
334,220,72430,54,0,P|388:192|450:193,1,123.499994346619,0|0,3:0|0:0,0:0:0:0:
261,96,72782,2,0,P|206:67|145:68,1,123.499994346619,8|0,0:0|0:0,0:0:0:0:
145,67,73135,1,0,3:0:0:0:
96,312,73312,2,0,P|126:258|177:226,1,123.499994346619,8|0,0:0|0:0,0:0:0:0:
177,226,73577,1,0,0:0:0:0:
177,226,73665,5,0,3:0:0:0:
61,197,73841,1,0,0:0:0:0:
61,197,73930,1,0,0:0:0:0:
61,197,74018,1,8,0:0:0:0:
145,67,74194,1,0,0:0:0:0:
176,63,74282,1,0,0:0:0:0:
207,67,74370,2,0,P|238:78|261:96,1,61.7499971733095,0|0,3:0|0:0,0:0:0:0:
356,42,74547,1,8,0:0:0:0:
324,163,74724,1,0,0:0:0:0:
327,193,74812,1,0,0:0:0:0:
330,224,74900,54,0,B|318:346,1,123.499994346619,0|0,3:0|0:0,0:0:0:0:
486,189,75253,2,0,B|474:67,1,123.499994346619,8|0,0:0|0:0,0:0:0:0:
463,334,75606,1,0,3:0:0:0:
324,163,75782,2,0,B|202:175,1,123.499994346619,8|0,0:0|0:0,0:0:0:0:
112,232,76047,1,0,0:0:0:0:
112,232,76135,5,0,3:0:0:0:
206,284,76312,2,0,B|200:345,1,61.7499971733095,0|0,0:0|0:0,0:0:0:0:
103,127,76488,1,8,0:0:0:0:
330,101,76665,1,0,0:0:0:0:
327,132,76753,1,0,0:0:0:0:
324,163,76841,1,0,3:0:0:0:
103,127,77018,1,8,0:0:0:0:
85,151,77106,1,0,0:0:0:0:
79,181,77194,1,0,0:0:0:0:
88,211,77282,1,0,0:0:0:0:
112,232,77371,54,0,B|234:220,1,123.499994346619,0|0,3:0|0:0,0:0:0:0:
452,113,77724,2,0,B|330:101,1,123.499994346619,8|0,0:0|0:0,0:0:0:0:
329,100,78077,1,0,3:0:0:0:
404,305,78253,1,8,0:0:0:0:
403,204,78430,1,0,0:0:0:0:
403,204,78518,1,0,0:0:0:0:
403,204,78606,1,0,3:0:0:0:
279,279,78782,1,0,0:0:0:0:
248,276,78870,1,0,0:0:0:0:
217,273,78958,1,8,0:0:0:0:
44,122,79135,37,2,0:0:0:0:
54,128,79224,1,2,0:0:0:0:
70,135,79312,1,2,0:0:0:0:
93,141,79400,1,2,0:0:0:0:
123,142,79488,1,2,0:0:0:0:
155,124,79577,1,2,0:0:0:0:
191,101,79665,1,2,0:0:0:0:
239,93,79753,1,2,0:0:0:0:
290,104,79841,22,0,B|388:129|375:50|471:65,1,185.249991519928,2|0,3:2|0:0,0:0:0:0:
463,64,80194,1,10,0:0:0:0:
476,306,80371,2,0,P|445:253|440:191,1,123.499994346619,2|0,0:0|0:0,0:0:0:0:
290,104,80724,2,0,P|340:155|316:266,1,185.249991519928,10|0,0:0|0:0,0:0:0:0:
251,331,81077,37,2,3:2:0:0:
199,363,81165,1,2,0:0:0:0:
138,363,81253,1,2,0:0:0:0:
88,328,81341,1,2,0:0:0:0:
66,272,81429,1,10,0:0:0:0:
78,212,81518,1,2,0:0:0:0:
121,169,81606,1,2,0:0:0:0:
186,151,81694,1,2,0:0:0:0:
247,178,81782,53,2,3:2:0:0:
248,196,81870,1,2,0:0:0:0:
244,212,81959,1,10,0:0:0:0:
234,226,82047,1,2,0:0:0:0:
218,236,82135,2,0,P|205:237|190:232,1,24.6999998492432,2|2,0:0|0:0,0:0:0:0:
283,86,82312,38,0,B|405:98,1,123.499994346619,2|0,3:2|0:0,0:0:0:0:
406,99,82665,1,10,0:0:0:0:
218,236,82841,2,0,B|96:248,1,123.499994346619,2|0,0:0|3:0,0:0:0:0:
391,239,83194,1,10,0:0:0:0:
388,133,83371,37,2,0:0:0:0:
380,149,83459,1,2,0:0:0:0:
376,167,83547,1,2,3:2:0:0:
374,186,83635,1,2,0:0:0:0:
376,204,83723,1,2,0:0:0:0:
382,222,83812,1,2,0:0:0:0:
391,239,83900,53,10,0:0:0:0:
352,220,83988,1,2,0:0:0:0:
309,222,84076,1,2,0:0:0:0:
272,242,84164,1,2,0:0:0:0:
248,278,84253,1,2,3:2:0:0:
213,328,84341,1,2,0:0:0:0:
156,346,84429,1,10,0:0:0:0:
99,326,84517,1,2,0:0:0:0:
66,275,84605,1,2,0:0:0:0:
71,215,84694,1,2,0:0:0:0:
108,166,84782,38,0,B|171:188|157:262|157:262|174:223|200:203,1,185.249991519928,2|0,3:2|0:0,0:0:0:0:
193,208,85135,1,10,0:0:0:0:
231,9,85312,2,0,P|198:70|199:139,1,123.499994346619,2|0,0:0|0:0,0:0:0:0:
412,78,85665,2,0,B|290:90,1,123.499994346619,10|0,0:0|0:0,0:0:0:0:
359,179,85930,1,0,0:0:0:0:
359,179,86018,5,2,3:2:0:0:
359,179,86371,21,10,0:0:0:0:
374,237,86459,1,2,0:0:0:0:
350,293,86547,1,2,0:0:0:0:
296,322,86635,1,2,0:0:0:0:
237,312,86723,1,2,3:2:0:0:
196,267,86812,1,2,0:0:0:0:
188,206,86900,53,10,0:0:0:0:
195,236,86988,1,2,0:0:0:0:
196,267,87076,1,2,0:0:0:0:
188,296,87164,1,2,0:0:0:0:
173,323,87252,37,2,3:2:0:0:
283,236,87430,1,2,0:0:0:0:
118,133,87606,5,10,0:0:0:0:
108,218,87782,1,2,0:0:0:0:
356,33,87959,53,2,3:2:0:0:
47,68,88135,1,10,0:0:0:0:
47,68,88488,37,0,3:0:0:0:
136,12,88665,1,2,0:0:0:0:
147,36,88753,1,2,0:0:0:0:
151,62,88841,1,10,0:0:0:0:
146,89,88929,1,2,0:0:0:0:
129,129,89018,1,2,0:0:0:0:
118,188,89106,1,2,0:0:0:0:
151,239,89194,1,2,3:2:0:0:
210,253,89282,1,2,0:0:0:0:
278,248,89371,6,0,B|324:275|373:250|373:250|402:276|402:276|441:247|476:261,1,213.750008153916,10|0,0:1|0:0,0:0:0:0:
323,164,89724,5,2,3:2:0:0:
288,41,89900,2,0,P|321:102|320:171,1,123.499994346619,2|8,0:0|0:0,0:0:0:0:
100,222,90253,2,0,P|136:162|196:129,1,123.499994346619,2|0,0:0|3:0,0:0:0:0:
321,360,90606,2,0,B|252:377|185:345|185:345|221:325|243:312,1,185.249991519928,10|0,0:0|0:0,0:0:0:0:
303,290,90959,37,2,3:2:0:0:
362,277,91047,1,2,0:0:0:0:
399,230,91135,1,2,0:0:0:0:
398,169,91223,1,2,0:0:0:0:
357,124,91311,1,10,0:0:0:0:
298,115,91400,1,2,0:0:0:0:
246,148,91488,53,2,0:0:0:0:
242,166,91576,1,2,0:0:0:0:
253,181,91664,1,2,3:2:0:0:
271,184,91752,1,0,0:0:0:0:
286,173,91841,1,10,0:0:0:0:
289,155,91929,1,2,0:0:0:0:
279,140,92017,1,2,0:0:0:0:
260,136,92105,1,0,0:0:0:0:
246,148,92194,38,0,B|124:160,1,123.499994346619,2|0,3:2|0:0,0:0:0:0:
123,160,92547,1,10,0:0:0:0:
276,267,92724,2,0,B|398:279,1,123.499994346619,2|0,0:0|0:0,0:0:0:0:
158,284,93077,1,10,0:0:0:0:
246,148,93253,37,2,0:0:0:0:
247,160,93341,1,2,0:0:0:0:
248,172,93429,1,2,3:2:0:0:
249,184,93517,1,2,0:0:0:0:
250,197,93605,1,2,0:0:0:0:
252,209,93694,1,2,0:0:0:0:
253,221,93782,53,10,0:0:0:0:
276,200,93870,1,2,0:0:0:0:
304,190,93958,1,2,0:0:0:0:
335,190,94046,1,2,0:0:0:0:
368,199,94135,1,2,3:2:0:0:
351,263,94223,1,2,0:0:0:0:
391,317,94311,1,10,0:0:0:0:
458,320,94399,1,2,0:0:0:0:
502,270,94487,1,2,0:0:0:0:
491,204,94576,1,2,0:0:0:0:
428,250,94665,37,4,3:2:0:0:
428,250,95018,1,0,3:0:0:0:
356,118,95194,2,0,B|344:240,1,95,0|0,0:0|3:0,0:0:0:0:
266,326,95547,2,0,B|254:204,1,95,0|4,0:0|0:0,0:0:0:0:
175,366,95900,1,0,3:0:0:0:
105,172,96077,5,0,3:0:0:0:
37,237,96253,1,2,3:2:0:0:
45,240,96341,1,2,0:0:0:0:
53,245,96429,1,2,3:2:0:0:
60,252,96517,1,2,0:0:0:0:
66,259,96605,1,2,3:2:0:0:
73,270,96694,1,2,0:0:0:0:
83,300,96782,1,2,3:2:0:0:
110,318,96870,1,2,0:0:0:0:
142,313,96959,2,0,P|182:292|196:288,1,47.5,2|0,3:2|0:0,0:0:0:0:
417,113,97135,5,6,0:0:0:0:
399,122,97223,1,2,0:0:0:0:
387,137,97311,1,2,0:0:0:0:
381,155,97399,1,2,0:0:0:0:
383,174,97487,1,2,0:0:0:0:
391,192,97576,1,2,0:0:0:0:
405,210,97665,5,6,0:0:0:0:
383,174,97753,1,2,0:0:0:0:
351,146,97841,1,2,0:0:0:0:
314,129,97929,1,2,0:0:0:0:
271,116,98017,1,2,0:0:0:0:
230,107,98106,1,2,0:0:0:0:
171,105,98194,53,6,0:0:0:0:
230,142,98282,1,2,0:0:0:0:
252,209,98370,1,2,0:0:0:0:
228,276,98458,1,2,0:0:0:0:
168,313,98546,1,2,0:0:0:0:
97,306,98635,1,2,0:0:0:0:
43,252,98724,5,6,0:0:0:0:
111,196,98812,1,2,0:0:0:0:
187,181,98900,1,2,0:0:0:0:
252,209,98988,1,2,0:0:0:0:
311,234,99077,1,2,0:0:0:0:
360,229,99165,1,2,0:0:0:0:
406,226,99253,6,2,B|514:267|519:96|407:113|363:140|409:195|274:176|256:80,1,341.999989562989,2|0,0:1|0:0,0:1:0:0:
349,67,99606,5,2,0:0:0:0:
371,355,119371,6,0,B|362:261,1,95,2|0,0:0|0:0,0:0:0:0:
415,173,119680,1,2,0:0:0:0:
415,173,119724,1,2,0:0:0:0:
371,355,120077,53,0,0:0:0:0:
361,260,120253,1,0,0:0:0:0:
415,173,120606,1,0,0:0:0:0:
405,78,120959,1,0,0:0:0:0:
371,355,121312,5,0,0:0:0:0:
361,260,121488,1,0,0:0:0:0:
415,173,121665,1,0,0:0:0:0:
258,256,121841,53,2,0:0:0:0:
177,192,122194,1,0,0:0:0:0:
82,230,122503,1,2,0:0:0:0:
82,230,122547,1,2,0:0:0:0:
258,256,122724,5,0,0:0:0:0:
177,192,123077,1,0,0:0:0:0:
82,230,123430,1,0,0:0:0:0:
163,294,123782,53,0,0:0:0:0:
177,192,123959,1,0,0:0:0:0:
291,103,124135,1,0,0:0:0:0:
467,66,124312,5,2,0:0:0:0:
428,226,124488,1,0,0:0:0:0:
388,89,124665,1,0,0:0:0:0:
448,146,124841,1,0,0:0:0:0:
266,348,125150,53,2,0:0:0:0:
266,348,125194,1,2,0:0:0:0:
305,188,125370,1,0,0:0:0:0:
345,325,125547,1,0,0:0:0:0:
285,268,125723,1,0,0:0:0:0:
84,198,126077,5,0,0:0:0:0:
164,217,126253,1,0,0:0:0:0:
140,137,126430,53,0,0:0:0:0:
108,277,126606,1,0,0:0:0:0:
345,325,126782,5,2,0:0:0:0:
305,188,126959,1,0,0:0:0:0:
348,334,127135,1,0,0:0:0:0:
409,230,127268,1,2,0:0:0:0:
409,230,127312,1,2,0:0:0:0:
409,230,127665,53,0,0:0:0:0:
254,276,127841,1,0,0:0:0:0:
206,346,128018,1,0,0:0:0:0:
219,180,128194,5,0,0:0:0:0:
254,276,128370,1,0,0:0:0:0:
206,346,128547,1,0,0:0:0:0:
254,276,129077,1,0,0:0:0:0:
116,163,129253,53,2,0:0:0:0:
219,180,129562,1,2,0:0:0:0:
219,180,129606,1,2,0:0:0:0:
116,163,129959,5,0,0:0:0:0:
219,180,130135,1,0,0:0:0:0:
318,137,130488,1,0,0:0:0:0:
421,154,130841,1,0,0:0:0:0:
116,163,131194,53,0,0:0:0:0:
219,180,131371,1,0,0:0:0:0:
318,137,131547,1,0,0:0:0:0:
254,276,131724,5,2,0:0:0:0:
219,180,132077,1,0,0:0:0:0:
254,276,132385,1,2,0:0:0:0:
254,276,132430,1,2,0:0:0:0:
219,180,132606,53,0,0:0:0:0:
116,163,132959,1,0,0:0:0:0:
318,137,133312,1,0,0:0:0:0:
116,163,133665,5,0,0:0:0:0:
186,97,133841,1,0,0:0:0:0:
313,64,134018,1,0,0:0:0:0:
461,136,134194,53,2,0:0:0:0:
444,239,134371,1,0,0:0:0:0:
461,136,134547,5,0,0:0:0:0:
356,288,134724,1,0,0:0:0:0:
356,288,135077,53,2,0:0:0:0:
339,185,135254,1,0,0:0:0:0:
356,288,135430,5,0,0:0:0:0:
196,250,135562,1,2,0:0:0:0:
196,250,135606,1,2,0:0:0:0:
196,249,135959,53,0,0:0:0:0:
93,266,136135,1,0,0:0:0:0:
129,168,136312,1,0,0:0:0:0:
164,180,136488,1,0,0:0:0:0:
253,86,136665,5,0,0:0:0:0:
288,74,136841,1,0,0:0:0:0:
353,18,137018,53,0,0:0:0:0:
441,47,137194,2,0,L|413:128,1,71.2500027179719
354,167,137547,1,0,0:0:0:0:
407,235,137724,6,0,P|414:266|386:252,1,74.0999995477295,2|0,0:0|0:0,0:0:0:0:
128,160,139135,53,8,0:0:0:0:
225,131,139312,1,0,3:0:0:0:
225,131,139488,1,0,3:0:0:0:
128,160,139665,5,8,0:0:0:0:
216,206,139842,1,0,3:0:0:0:
216,206,140018,1,0,3:0:0:0:
128,160,140194,53,8,0:0:0:0:
157,257,140371,1,0,3:0:0:0:
157,257,140547,1,0,3:0:0:0:
128,160,140724,5,8,0:0:0:0:
79,249,140901,1,0,3:0:0:0:
79,249,141077,1,0,3:0:0:0:
225,131,141253,53,8,0:0:0:0:
128,160,141430,1,0,3:0:0:0:
315,184,141606,5,8,0:0:0:0:
395,260,141783,1,0,3:0:0:0:
395,260,141959,1,0,3:0:0:0:
315,184,142135,53,8,0:0:0:0:
424,171,142312,1,0,3:0:0:0:
424,171,142488,1,0,3:0:0:0:
315,184,142665,5,8,0:0:0:0:
375,92,142842,1,0,3:0:0:0:
375,92,143018,1,0,3:0:0:0:
315,184,143194,53,8,0:0:0:0:
283,78,143371,1,0,3:0:0:0:
283,78,143547,1,0,3:0:0:0:
315,184,143724,5,8,0:0:0:0:
395,260,143900,1,0,3:0:0:0:
196,254,144077,53,12,0:0:0:0:
225,131,144253,1,0,3:0:0:0:
225,131,144429,1,0,3:0:0:0:
196,254,144606,5,8,0:0:0:0:
111,160,144782,1,0,3:0:0:0:
111,160,144958,1,0,3:0:0:0:
196,254,145135,53,8,0:0:0:0:
70,269,145311,1,0,3:0:0:0:
70,269,145487,1,0,3:0:0:0:
196,254,145665,5,8,0:0:0:0:
136,365,145841,1,0,3:0:0:0:
136,365,146017,1,0,3:0:0:0:
265,347,146194,53,8,0:0:0:0:
265,347,146370,1,0,3:0:0:0:
375,171,146547,5,8,0:0:0:0:
226,142,146724,1,0,3:0:0:0:
226,142,146900,1,0,3:0:0:0:
375,171,147077,53,8,0:0:0:0:
231,220,147254,1,0,3:0:0:0:
231,220,147430,1,0,3:0:0:0:
375,171,147606,5,8,0:0:0:0:
274,285,147783,1,0,3:0:0:0:
274,285,147959,1,0,3:0:0:0:
375,171,148135,53,8,0:0:0:0:
344,320,148312,1,0,3:0:0:0:
344,320,148488,1,0,3:0:0:0:
375,171,148665,5,8,0:0:0:0:
422,315,148842,1,0,3:0:0:0:
150,245,149018,53,12,0:0:0:0:
285,123,149194,1,0,3:0:0:0:
285,123,149371,1,0,3:0:0:0:
106,179,149547,5,8,0:0:0:0:
296,239,149723,1,0,3:0:0:0:
296,239,149900,1,0,3:0:0:0:
131,95,150077,53,8,0:0:0:0:
178,308,150253,1,0,3:0:0:0:
178,308,150430,1,0,3:0:0:0:
204,47,150606,5,8,0:0:0:0:
26,209,150782,1,0,3:0:0:0:
26,209,150959,1,0,3:0:0:0:
288,160,151135,53,8,0:0:0:0:
34,78,151311,1,0,3:0:0:0:
278,315,151488,5,12,0:0:0:0:
413,193,151665,1,0,3:0:0:0:
413,193,151841,1,0,3:0:0:0:
370,328,152018,53,8,0:0:0:0:
327,132,152195,1,0,3:0:0:0:
327,132,152371,1,0,3:0:0:0:
455,275,152547,5,8,0:0:0:0:
229,207,152724,1,0,3:0:0:0:
229,207,152900,1,0,3:0:0:0:
489,190,153077,53,8,0:0:0:0:
286,353,153254,1,0,3:0:0:0:
286,353,153430,1,0,3:0:0:0:
455,275,153606,5,8,0:0:0:0:
199,194,153783,1,0,3:0:0:0:
367,97,153959,53,12,0:0:0:0:
286,353,154136,1,0,3:0:0:0:
281,360,154312,1,0,3:0:0:0:
411,174,154488,5,8,0:0:0:0:
148,231,154665,1,0,3:0:0:0:
140,239,154841,1,0,3:0:0:0:
381,262,155018,53,8,0:0:0:0:
200,62,155195,1,0,3:0:0:0:
174,61,155371,1,0,3:0:0:0:
308,309,155547,5,8,0:0:0:0:
390,52,155724,1,0,3:0:0:0:
364,13,155900,1,0,3:0:0:0:
205,166,156077,53,8,0:0:0:0:
468,108,156254,1,0,3:0:0:0:
205,166,156430,37,8,3:2:0:0:
184,177,156518,1,0,3:0:0:0:
172,197,156606,1,0,3:0:0:0:
169,221,156694,1,0,3:0:0:0:
178,242,156782,1,0,3:0:0:0:
196,258,156871,1,0,3:0:0:0:
219,263,156959,1,8,3:2:0:0:
242,257,157047,1,0,3:0:0:0:
260,243,157135,1,0,3:0:0:0:
278,228,157223,1,0,3:0:0:0:
300,220,157311,1,0,3:0:0:0:
324,221,157399,1,0,3:0:0:0:
346,232,157488,53,12,3:2:0:0:
339,185,157576,1,0,3:0:0:0:
354,141,157664,1,0,3:0:0:0:
389,108,157753,1,0,3:0:0:0:
404,64,157841,1,0,3:0:0:0:
378,26,157929,1,0,3:0:0:0:
332,23,158017,1,8,3:2:0:0:
303,58,158105,1,0,3:0:0:0:
312,103,158194,1,0,3:0:0:0:
337,125,158282,1,0,3:0:0:0:
354,141,158371,1,0,3:0:0:0:
360,153,158459,1,0,3:0:0:0:
288,185,158547,53,2,3:2:0:0:
288,185,158900,54,0,L|193:192,1,95,4|0,3:2|0:0,0:0:0:0:
114,261,159253,2,0,L|19:253,1,95,8|0,0:0|0:0,0:0:0:0:
108,125,159606,1,0,3:0:0:0:
216,316,159782,2,0,L|310:308,1,95,8|0,0:0|0:0,0:0:0:0:
381,237,160047,1,0,0:0:0:0:
381,237,160135,5,0,3:0:0:0:
285,138,160312,1,0,0:0:0:0:
286,161,160400,1,0,0:0:0:0:
288,185,160488,1,8,0:0:0:0:
445,103,160665,1,0,0:0:0:0:
445,103,160753,1,0,0:0:0:0:
445,103,160841,1,0,3:0:0:0:
300,46,161018,2,0,P|233:68|205:113,1,95,8|0,0:0|0:0,0:0:0:0:
206,100,161282,1,0,0:0:0:0:
201,113,161371,53,0,3:0:0:0:
156,13,161547,1,0,0:0:0:0:
87,142,161724,2,0,L|94:236,1,95,8|0,0:0|0:0,0:0:0:0:
94,236,162077,1,0,3:0:0:0:
230,343,162253,2,0,L|237:248,1,95,8|0,0:0|0:0,0:0:0:0:
134,335,162518,1,0,0:0:0:0:
134,335,162606,5,0,3:0:0:0:
237,248,162782,1,0,0:0:0:0:
260,246,162870,1,0,0:0:0:0:
284,244,162958,1,8,0:0:0:0:
168,150,163135,1,0,0:0:0:0:
168,150,163224,1,0,0:0:0:0:
168,150,163312,1,0,3:0:0:0:
374,46,163488,1,8,0:0:0:0:
346,83,163576,1,0,0:0:0:0:
345,130,163664,1,0,0:0:0:0:
373,168,163752,1,0,0:0:0:0:
417,182,163841,53,0,3:0:0:0:
374,46,164018,1,0,0:0:0:0:
262,142,164194,2,0,L|167:149,1,95,8|0,0:0|0:0,0:0:0:0:
114,310,164547,1,0,3:0:0:0:
265,276,164724,2,0,L|359:283,1,95,8|0,0:0|0:0,0:0:0:0:
373,285,164988,1,0,0:0:0:0:
387,287,165077,5,0,3:0:0:0:
262,142,165253,1,0,0:0:0:0:
238,143,165341,1,0,0:0:0:0:
214,145,165429,1,8,0:0:0:0:
100,219,165606,1,0,0:0:0:0:
100,219,165694,1,0,0:0:0:0:
100,219,165782,1,0,3:0:0:0:
92,83,165959,1,8,0:0:0:0:
214,145,166135,1,0,0:0:0:0:
212,169,166223,1,0,0:0:0:0:
200,194,166311,53,0,3:0:0:0:
357,96,166488,1,0,0:0:0:0:
186,75,166665,2,0,L|92:82,1,95,8|0,0:0|0:0,0:0:0:0:
91,82,167018,1,0,3:0:0:0:
276,208,167194,2,0,L|370:201,1,95,8|0,0:0|0:0,0:0:0:0:
453,147,167459,1,0,0:0:0:0:
453,147,167547,5,0,3:0:0:0:
419,289,167724,1,0,0:0:0:0:
420,312,167812,1,0,0:0:0:0:
422,336,167900,1,8,0:0:0:0:
236,150,168077,22,2,P|191:168|231:181,1,106.875004076958,2|0,0:1|0:0,0:1:0:0:
126,296,168430,6,2,B|181:304|216:279|216:279|236:293|236:293|283:269|332:288,1,213.750008153916,10|0,0:1|0:0,0:1:0:0:
416,62,168782,6,0,P|379:102|366:173,1,123.499994346619,4|0,3:2|0:0,0:0:0:0:
338,347,169135,2,0,P|327:286|287:240,1,123.499994346619,8|0,0:0|0:0,0:0:0:0:
177,187,169488,1,0,3:0:0:0:
54,196,169665,2,0,L|177:187,1,123.499994346619,8|0,0:0|0:0,0:0:0:0:
115,107,169930,1,0,0:0:0:0:
115,107,170018,5,0,3:0:0:0:
112,285,170194,1,0,0:0:0:0:
110,315,170282,1,0,0:0:0:0:
108,346,170370,1,8,0:0:0:0:
287,240,170547,1,0,0:0:0:0:
287,240,170635,1,0,0:0:0:0:
287,240,170724,1,0,3:0:0:0:
187,63,170900,2,0,L|177:185,1,123.499994346619,8|0,0:0|0:0,0:0:0:0:
201,165,171165,1,0,0:0:0:0:
228,152,171253,54,0,P|287:139|347:159,1,123.499994346619,0|0,3:0|0:0,0:0:0:0:
490,19,171606,2,0,P|444:60|425:118,1,123.499994346619,8|0,0:0|0:0,0:0:0:0:
439,255,171959,1,0,3:0:0:0:
346,158,172135,2,0,P|287:139|228:152,1,123.499994346619,8|0,0:0|0:0,0:0:0:0:
287,240,172400,1,0,0:0:0:0:
287,240,172488,5,0,3:0:0:0:
188,65,172665,1,0,0:0:0:0:
188,65,172753,1,0,0:0:0:0:
188,65,172841,1,8,0:0:0:0:
52,136,173018,1,0,0:0:0:0:
52,136,173106,1,0,0:0:0:0:
52,136,173194,1,0,3:0:0:0:
228,151,173371,1,8,0:0:0:0:
52,136,173547,1,0,0:0:0:0:
45,169,173635,1,0,0:0:0:0:
38,203,173724,54,0,L|49:327,1,123.499994346619,0|0,3:0|0:0,0:0:0:0:
228,151,174077,2,0,L|217:27,1,123.499994346619,8|0,0:0|0:0,0:0:0:0:
139,239,174430,1,0,3:0:0:0:
228,151,174606,2,0,L|351:161,1,123.499994346619,8|0,0:0|0:0,0:0:0:0:
442,235,174871,1,0,0:0:0:0:
442,235,174959,5,0,3:0:0:0:
242,314,175135,1,0,0:0:0:0:
240,289,175223,1,0,0:0:0:0:
237,259,175311,1,8,0:0:0:0:
357,100,175488,1,0,0:0:0:0:
354,130,175576,1,0,0:0:0:0:
351,161,175664,1,0,3:0:0:0:
105,111,175841,1,8,0:0:0:0:
235,50,176018,1,0,0:0:0:0:
235,50,176106,1,0,0:0:0:0:
235,50,176194,53,0,3:0:0:0:
215,182,176371,1,0,0:0:0:0:
357,100,176547,2,0,L|480:90,1,123.499994346619,8|0,0:0|0:0,0:0:0:0:
355,265,176900,1,0,3:0:0:0:
215,182,177077,2,0,L|92:172,1,123.499994346619,8|0,0:0|0:0,0:0:0:0:
75,170,177341,1,0,0:0:0:0:
56,169,177430,5,0,3:0:0:0:
146,305,177606,1,0,0:0:0:0:
176,302,177694,1,0,0:0:0:0:
207,299,177782,1,8,0:0:0:0:
460,144,177959,21,2,0:0:0:0:
450,150,178048,1,2,0:0:0:0:
434,157,178136,1,2,0:0:0:0:
411,163,178224,1,2,0:0:0:0:
381,164,178312,1,2,0:0:0:0:
349,146,178401,1,2,0:0:0:0:
313,123,178489,1,2,0:0:0:0:
265,115,178577,1,2,0:0:0:0:
214,126,178665,22,0,B|116:151|129:72|33:87,1,185.249991519928,2|0,3:2|0:0,0:0:0:0:
60,180,179018,5,10,0:0:0:0:
181,48,179194,2,0,P|230:13|291:16,1,123.499994346619,2|0,0:0|3:0,0:0:0:0:
77,344,179547,2,0,P|32:258|69:170,1,185.249991519928,10|0,0:0|0:0,0:0:0:0:
120,116,179900,5,2,3:2:0:0:
169,80,179988,1,2,0:0:0:0:
230,80,180076,1,2,0:0:0:0:
279,115,180164,1,2,0:0:0:0:
298,173,180252,1,10,0:0:0:0:
317,231,180341,1,2,0:0:0:0:
366,266,180429,1,2,0:0:0:0:
427,266,180517,1,2,0:0:0:0:
477,231,180606,5,2,3:2:0:0:
454,210,180694,1,2,0:0:0:0:
426,197,180782,1,10,0:0:0:0:
395,193,180870,1,2,0:0:0:0:
365,198,180958,1,2,0:0:0:0:
338,211,181047,1,2,0:0:0:0:
317,231,181135,22,0,L|306:107,1,123.499994346619,2|0,3:2|0:0,0:0:0:0:
306,107,181488,1,10,0:0:0:0:
186,315,181665,2,0,L|197:191,1,123.499994346619,2|0,0:0|0:0,0:0:0:0:
81,275,182018,1,10,0:0:0:0:
197,192,182194,37,2,0:0:0:0:
216,195,182282,1,2,0:0:0:0:
234,193,182370,1,2,3:2:0:0:
252,187,182458,1,2,0:0:0:0:
268,178,182546,1,2,0:0:0:0:
281,165,182635,1,2,0:0:0:0:
291,142,182724,53,10,0:0:0:0:
268,178,182812,1,2,0:0:0:0:
266,221,182900,1,2,0:0:0:0:
285,259,182988,1,2,0:0:0:0:
316,285,183076,1,2,3:2:0:0:
373,296,183165,1,2,0:0:0:0:
430,269,183253,1,10,0:0:0:0:
463,211,183341,1,2,0:0:0:0:
454,145,183429,1,2,0:0:0:0:
407,97,183518,1,2,0:0:0:0:
341,86,183606,38,0,B|275:80|221:107|221:107|255:106|287:131,1,185.249991519928,2|0,3:2|0:0,0:0:0:0:
279,125,183959,1,10,0:0:0:0:
197,192,184135,2,0,L|73:181,1,123.499994346619,2|0,0:0|3:0,0:0:0:0:
263,273,184488,2,0,L|387:262,1,123.499994346619,10|0,0:0|0:0,0:0:0:0:
170,286,184753,1,0,0:0:0:0:
170,286,184841,5,2,3:2:0:0:
170,286,185194,5,10,0:0:0:0:
227,250,185282,1,2,0:0:0:0:
259,191,185370,1,2,0:0:0:0:
257,124,185458,1,2,0:0:0:0:
222,66,185546,1,2,3:2:0:0:
157,46,185635,1,2,0:0:0:0:
92,70,185724,5,10,0:0:0:0:
106,96,185812,1,2,0:0:0:0:
129,117,185900,1,2,0:0:0:0:
158,128,185988,1,2,0:0:0:0:
188,129,186076,21,2,3:2:0:0:
65,261,186253,1,2,0:0:0:0:
92,70,186430,5,10,0:0:0:0:
163,204,186607,1,0,0:0:0:0:
326,47,186782,53,2,3:2:0:0:
316,280,186959,1,10,0:0:0:0:
316,280,187312,37,0,3:0:0:0:
390,328,187488,1,2,0:0:0:0:
404,294,187576,1,2,0:0:0:0:
403,257,187664,1,10,0:0:0:0:
386,224,187752,1,2,0:0:0:0:
351,196,187841,1,2,0:0:0:0:
311,151,187929,1,2,0:0:0:0:
318,91,188017,1,2,3:2:0:0:
368,58,188105,1,2,0:0:0:0:
425,79,188194,6,0,B|375:107|319:91|319:91|306:108|306:108|266:83|215:102,1,213.750008153916,10|0,0:1|0:0,0:0:0:0:
152,137,188547,5,2,3:2:0:0:
49,222,188724,2,0,P|91:170|145:140,1,123.499994346619,2|8,0:0|0:0,0:0:0:0:
318,322,189077,2,0,P|251:311|198:279,1,123.499994346619,2|0,0:0|0:0,0:0:0:0:
322,16,189430,2,0,B|346:78|346:138|346:138|322:106|297:88,1,185.249991519928,10|0,0:0|0:0,0:0:0:0:
236,61,189782,21,2,3:2:0:0:
175,51,189870,1,2,0:0:0:0:
119,74,189958,1,2,0:0:0:0:
82,122,190046,1,2,0:0:0:0:
76,183,190134,1,10,0:0:0:0:
102,238,190223,1,2,0:0:0:0:
153,272,190311,1,2,0:0:0:0:
213,275,190399,1,2,0:0:0:0:
272,253,190488,5,2,3:2:0:0:
247,254,190576,1,2,0:0:0:0:
224,246,190664,1,10,0:0:0:0:
205,230,190752,1,2,0:0:0:0:
193,209,190840,1,2,0:0:0:0:
190,184,190929,1,2,0:0:0:0:
186,160,191018,22,0,L|175:284,1,123.499994346619,2|0,3:2|0:0,0:0:0:0:
338,152,191371,1,10,0:0:0:0:
338,152,191547,2,0,L|327:28,1,123.499994346619,2|0,0:0|3:0,0:0:0:0:
351,308,191900,1,10,0:0:0:0:
270,193,192077,21,2,0:0:0:0:
279,209,192165,1,2,0:0:0:0:
292,222,192253,1,2,3:2:0:0:
308,231,192341,1,2,0:0:0:0:
325,236,192429,1,2,0:0:0:0:
344,236,192518,1,2,0:0:0:0:
364,231,192606,5,10,0:0:0:0:
328,219,192694,1,2,0:0:0:0:
292,222,192782,1,2,0:0:0:0:
259,238,192870,1,2,0:0:0:0:
234,265,192959,1,2,3:2:0:0:
183,298,193047,1,2,0:0:0:0:
123,290,193135,1,10,0:0:0:0:
83,245,193223,1,2,0:0:0:0:
82,185,193311,1,2,0:0:0:0:
120,138,193400,1,2,0:0:0:0:
182,137,193488,22,0,B|304:149,1,123.499994346619,2|0,3:2|0:0,0:0:0:0:
482,56,193841,1,10,0:0:0:0:
482,56,194018,2,0,B|360:68,1,123.499994346619,2|0,0:0|0:0,0:0:0:0:
404,273,194371,2,0,P|424:213|372:136,1,123.499994346619,10|0,0:0|0:0,0:0:0:0:
337,224,194635,1,0,0:0:0:0:
337,224,194724,5,2,3:2:0:0:
337,224,195077,21,10,0:0:0:0:
325,218,195165,1,2,0:0:0:0:
313,215,195253,1,2,0:0:0:0:
301,215,195341,1,2,0:0:0:0:
278,224,195430,1,2,3:2:0:0:
255,234,195518,1,2,0:0:0:0:
225,232,195606,1,10,0:0:0:0:
195,209,195694,1,2,0:0:0:0:
178,175,195782,2,0,L|164:243,1,61.7499971733095,2|2,0:0|0:0,0:0:0:0:
443,52,195959,21,2,0:0:0:0:
430,45,196047,1,2,0:0:0:0:
416,46,196135,1,2,0:0:0:0:
404,53,196223,1,2,0:0:0:0:
396,65,196311,1,2,0:0:0:0:
395,79,196400,1,2,0:0:0:0:
401,91,196488,1,2,0:0:0:0:
412,100,196576,1,2,0:0:0:0:
424,102,196665,37,2,0:0:0:0:
405,80,196753,1,2,0:0:0:0:
380,67,196841,1,2,0:0:0:0:
352,63,196929,1,2,0:0:0:0:
324,69,197017,1,2,0:0:0:0:
301,84,197106,1,2,0:0:0:0:
276,99,197194,1,2,0:0:0:0:
248,99,197282,1,2,0:0:0:0:
223,86,197371,53,2,0:0:0:0:
252,133,197459,1,2,0:0:0:0:
247,189,197547,1,2,0:0:0:0:
210,231,197635,1,2,0:0:0:0:
155,244,197723,1,2,0:0:0:0:
104,220,197812,1,2,0:0:0:0:
57,223,197900,1,2,0:0:0:0:
29,259,197988,1,2,0:0:0:0:
33,298,198077,1,2,0:0:0:0:
37,326,198165,1,2,0:0:0:0:
40,344,198253,1,2,0:0:0:0:
92,49,198430,6,0,P|87:91|67:123,1,61.7499971733095,2|0,0:1|0:0,0:0:0:0:
154,293,198606,2,0,P|162:225|210:175,1,95,2|0,0:1|0:0,0:0:0:0:
92,49,198782,54,2,P|216:87|354:73,1,256.499992172241,2|0,3:1|0:0,0:1:0:0:
366,57,199135,1,0,3:0:0:0:
412,352,199312,6,2,B|347:311|299:237|316:157|316:157|362:156|395:134|417:110,1,341.999989562989,10|0,0:1|3:0,0:1:0:0:
244,255,199841,54,2,B|248:285|238:318|238:318|141:314|72:245|85:174|85:174|165:169|202:260|151:365|151:365|105:357|84:328,1,598.49998173523,2|0,3:1|0:0,0:1:0:0:
85,174,200547,37,2,0:0:0:0:
135,119,200635,1,2,0:0:0:0:
217,103,200723,1,2,0:0:0:0:
282,156,200811,1,2,0:0:0:0:
331,252,200900,38,2,P|359:89|477:52,1,256.499992172241,2|0,3:1|0:0,0:1:0:0:
451,53,201253,1,8,0:0:0:0:
450,225,201430,54,2,P|258:234|188:182,1,256.499992172241,2|0,3:1|0:0,0:1:0:0:
111,110,201782,2,0,P|125:157|93:216,1,85.4999973907472,2|0,0:1|0:0,0:0:0:0:
8,281,201959,6,2,B|52:276|99:247|115:191|115:191|170:309|321:350|442:305|442:305|427:345|429:377,1,598.49998173523,2|0,3:1|0:0,0:1:0:0:
329,189,202665,37,2,0:2:0:0:
418,161,202841,1,2,0:2:0:0:
350,98,203018,1,2,0:2:0:0:
397,252,203194,1,2,0:2:0:0:
193,172,203371,6,2,B|115:160|78:111|99:43|99:43|146:44|177:63|183:87,1,256.499992172241,2|0,3:1|0:0,0:1:0:0:
177,73,203724,1,8,0:0:0:0:
15,361,203900,6,2,B|64:320|85:249|45:173|45:173|83:222|135:246|187:239,1,341.999989562989,2|0,3:1|0:0,0:1:0:0:
347,154,204430,54,0,P|317:174|353:181,1,85.4999973907472,2|0,3:1|0:0,0:0:0:0:
158,239,204606,2,2,B|283:181|247:331|417:254,1,256.499992172241,2|0,3:1|0:0,0:1:0:0:
411,247,204959,37,10,0:0:0:0:
213,300,205135,1,2,0:0:0:0:
266,102,205312,1,2,0:0:0:0:
213,300,205488,1,2,0:0:0:0:
102,212,205665,38,0,P|143:203|182:184,1,85.4999973907472,2|0,0:1|0:0,0:0:0:0:
266,102,205841,54,2,B|299:144|307:202|307:202|275:281|202:299,1,228,2|0,3:1|0:0,0:1:0:0:
213,300,206194,2,2,B|232:250|279:214|279:214|363:202|415:256,1,228,10|0,0:1|0:0,0:1:0:0:
411,247,206547,2,2,B|358:254|303:232|303:232|251:165|272:93,1,228,2|0,3:1|0:0,0:1:0:0:
181,183,206900,6,0,P|140:192|102:212,1,85.4999973907472,2|0,0:1|0:0,0:0:0:0:
126,17,207077,2,2,B|139:52|136:81|106:118|106:118|173:91|226:95|267:124|267:124|307:106|307:106|356:131|411:133|451:98|451:98|431:136|416:182|434:219,1,598.49998173523,2|0,3:1|0:0,0:1:0:0:
351,299,207782,54,2,B|309:256|265:248|215:277|215:277|165:260|165:260|127:295|67:301|20:251,1,341.999989562989,2|0,3:1|0:0,0:1:0:0:
28,25,208312,6,2,B|138:108|140:214|37:267|37:267|-11:124|108:42|217:76|217:76|172:136|182:253|286:231,1,854.999973907471,2|8,3:1|0:0,0:1:0:0:
449,123,209371,54,2,B|407:48|277:60|269:156|269:156|382:144|399:317|288:327|241:305,1,512.999984344483,2|8,3:1|0:0,0:1:0:0:
172,290,210077,6,0,P|161:246|118:204,1,85.4999973907472,2|0,0:1|0:0,0:0:0:0:
53,170,210253,2,0,P|63:126|106:84,1,85.4999973907472,2|0,3:1|0:0,0:0:0:0:
127,15,210430,21,2,0:0:0:0:
187,74,210518,1,2,0:0:0:0:
252,94,210606,1,2,0:0:0:0:
302,88,210694,1,2,0:0:0:0:
337,76,210782,22,2,B|311:155|335:217|406:242|406:242|427:192|422:143|422:143|354:132|281:162|258:216|258:216|287:273|344:319|422:329|422:329|458:313|472:279,1,760,2|8,3:1|0:0,0:1:0:0:
139,305,211841,6,2,B|134:338|102:378|102:378|76:380|39:365|30:335|30:335|68:281|73:238|42:184|42:184|161:142|128:272|259:215,1,569.999982604981,2|0,3:1|0:0,0:1:0:0:
151,58,212900,37,2,0:0:0:0:
159,102,212988,1,2,0:0:0:0:
204,139,213076,1,2,0:0:0:0:
271,149,213164,1,2,0:0:0:0:
357,134,213253,22,2,B|297:236|364:328|462:295|462:295|433:206|333:184|278:248|278:248|243:229|198:236|169:272|169:272|159:325|109:353|37:341,1,760,2|8,3:1|0:0,0:1:0:0:
236,312,214312,54,0,L|241:349,1,28.4999991302491,2|0,0:1|0:0,0:0:0:0:
90,259,214488,2,2,B|110:216|100:183|69:149|69:149|108:154|139:176|137:202|137:202|176:171|232:160|268:169|268:169|275:141|275:141|244:127|202:139,1,455.999986083985,2|0,3:1|0:0,0:1:0:0:
414,32,215371,37,2,0:0:0:0:
392,83,215459,1,2,0:0:0:0:
403,127,215547,1,2,0:0:0:0:
427,150,215635,1,2,0:0:0:0:
447,161,215724,38,2,B|318:161|246:266|286:387|286:387|385:343|393:162|242:133|242:133|232:232|126:277|46:170,1,912,2|0,3:1|0:0,0:1:0:0:
147,137,216959,54,2,B|191:221|162:314|61:337|61:337|115:289|178:295|214:359,1,418.000012756348,2|0,3:1|0:0,0:1:0:0:
371,96,217841,38,0,P|336:79|371:63,1,95,8|0,0:0|0:0,0:0:0:0:
417,290,218194,5,0,3:2:0:0:
386,184,218371,1,0,0:0:0:0:
386,184,218547,1,0,0:0:0:0:
355,329,218724,53,4,3:2:0:0:
453,225,218901,1,0,0:0:0:0:
453,225,219077,1,0,0:0:0:0:
282,297,219253,5,4,3:2:0:0:
474,340,219430,1,0,0:0:0:0:
474,340,219606,1,0,0:0:0:0:
298,141,219782,53,4,3:2:0:0:
355,329,219959,1,0,0:0:0:0:
355,329,220135,1,0,0:0:0:0:
384,108,220312,5,6,0:0:0:0:
132,217,220488,1,2,0:0:0:0:
102,212,220577,1,2,0:0:0:0:
79,201,220665,53,6,3:2:0:0:
123,327,220841,1,0,0:0:0:0:
151,349,221018,1,0,0:0:0:0:
165,136,221194,5,6,3:2:0:0:
50,284,221370,1,0,0:0:0:0:
45,319,221547,1,0,0:0:0:0:
259,176,221724,53,6,3:2:0:0:
47,135,221900,1,0,0:0:0:0:
14,148,222077,1,0,0:0:0:0:
219,269,222253,5,6,3:2:0:0:
145,58,222429,1,0,0:0:0:0:
118,37,222606,1,0,0:0:0:0:
128,271,222782,5,6,0:0:0:0:
150,278,222870,1,2,0:0:0:0:
174,280,222958,1,2,0:0:0:0:
197,277,223046,1,2,0:0:0:0:
219,269,223134,37,6,3:2:0:0:
349,129,223312,1,0,0:0:0:0:
320,55,223488,1,0,0:0:0:0:
189,179,223665,5,6,3:2:0:0:
380,209,223841,1,0,0:0:0:0:
429,147,224018,1,0,0:0:0:0:
257,122,224194,53,6,3:2:0:0:
322,304,224372,1,0,0:0:0:0:
400,315,224548,1,0,0:0:0:0:
349,129,224724,5,6,3:2:0:0:
219,268,224900,1,0,0:0:0:0:
248,341,225078,1,0,0:0:0:0:
398,207,225253,5,6,0:0:0:0:
382,162,225341,1,2,0:0:0:0:
349,129,225429,1,2,0:0:0:0:
304,115,225517,1,2,0:0:0:0:
257,122,225605,1,2,2:2:0:0:
402,43,225782,37,6,3:2:0:0:
398,207,225959,1,0,0:0:0:0:
257,122,226135,1,0,0:0:0:0:
450,122,226312,5,6,3:2:0:0:
306,200,226489,1,0,0:0:0:0:
310,36,226666,1,0,0:0:0:0:
185,241,226842,53,6,3:2:0:0:
189,77,227018,1,0,0:0:0:0:
185,241,227195,1,0,0:0:0:0:
34,187,227371,37,0,1:0:0:0:
77,168,227459,1,0,1:0:0:0:
123,172,227547,1,0,1:0:0:0:
162,198,227635,1,0,1:0:0:0:
185,241,227724,53,0,1:0:0:0:
240,286,227812,1,0,1:0:0:0:
313,286,227900,1,0,1:0:0:0:
376,254,227988,1,0,1:0:0:0:
445,244,228077,5,12,0:0:0:0:
256,192,228253,1,0,3:0:0:0:
185,241,228430,1,0,3:0:0:0:
395,138,228606,53,12,0:0:0:0:
256,276,228782,1,0,3:0:0:0:
263,362,228959,1,0,3:0:0:0:
297,114,229135,5,12,0:0:0:0:
334,319,229311,1,0,3:0:0:0:
411,356,229488,1,0,3:0:0:0:
208,176,229665,53,8,0:0:0:0:
396,227,229841,1,0,3:0:0:0:
467,179,230018,1,0,3:0:0:0:
201,277,230194,37,2,0:0:0:0:
183,293,230282,1,2,0:0:0:0:
173,314,230370,1,2,0:0:0:0:
171,337,230458,1,2,0:0:0:0:
184,362,230547,37,12,0:0:0:0:
28,171,230723,1,0,3:0:0:0:
44,68,230900,1,0,3:0:0:0:
60,314,231077,53,12,0:0:0:0:
147,84,231253,1,0,3:0:0:0:
244,46,231430,1,0,3:0:0:0:
40,183,231606,5,12,0:0:0:0:
282,143,231782,1,0,3:0:0:0:
364,208,231959,1,0,3:0:0:0:
153,96,232135,53,8,0:0:0:0:
299,290,232311,1,0,3:0:0:0:
286,378,232488,1,0,3:0:0:0:
286,165,232665,37,2,0:0:0:0:
323,136,232753,1,2,0:0:0:0:
369,126,232841,1,2,0:0:0:0:
415,137,232929,1,2,0:0:0:0:
451,167,233018,37,12,0:0:0:0:
369,59,233195,1,0,3:0:0:0:
111,67,233371,1,0,3:0:0:0:
322,358,233547,53,12,0:0:0:0:
374,232,233724,1,0,3:0:0:0:
238,13,233900,1,0,3:0:0:0:
113,305,234077,5,12,0:0:0:0:
248,287,234254,1,0,0:0:0:0:
369,59,234430,1,0,3:0:0:0:
54,107,234606,53,8,0:0:0:0:
137,214,234783,1,0,3:0:0:0:
395,205,234959,1,0,3:0:0:0:
184,92,235135,37,2,0:0:0:0:
184,92,235224,1,2,0:0:0:0:
184,92,235312,1,2,0:0:0:0:
435,113,235488,5,0,3:0:0:0:
406,155,235576,1,0,3:0:0:0:
395,205,235664,1,0,3:0:0:0:
404,255,235752,1,0,3:0:0:0:
435,296,235841,21,0,3:0:0:0:
373,266,235929,1,0,3:0:0:0:
306,254,236017,1,0,3:0:0:0:
238,261,236105,1,0,3:0:0:0:
175,291,236194,53,0,3:0:0:0:
93,305,236282,1,0,3:0:0:0:
30,252,236370,1,0,3:0:0:0:
30,170,236458,1,0,3:0:0:0:
89,107,236547,38,0,P|142:100|185:108,1,95,2|0,0:0|0:0,0:0:0:0:
274,48,236900,2,0,P|320:56|367:49,1,95,2|0,0:0|0:0,0:0:0:0:
430,217,237253,21,2,0:0:0:0:
400,191,237341,1,2,0:0:0:0:
363,180,237429,1,2,0:0:0:0:
324,187,237517,1,2,0:0:0:0:
261,224,237606,5,2,0:0:0:0:
214,232,237694,1,2,0:0:0:0:
169,219,237782,1,2,0:0:0:0:
133,188,237870,1,2,0:0:0:0:
121,146,237959,22,0,L|106:231,1,71.2500027179719,2|0,0:0|0:0,0:0:0:0:
187,373,238335,2,0,L|175:303,1,71.2500027179719,0|0,0:0|0:0,0:0:0:0:
214,80,238711,2,0,L|229:165,1,71.2500027179719,2|0,0:0|0:0,0:0:0:0:
305,207,239087,2,0,L|290:292,1,71.2500027179719,0|0,0:0|0:0,0:0:0:0:
399,362,239463,2,0,L|384:277,1,71.2500027179719,0|0,0:0|0:0,0:0:0:0:
478,177,239839,2,0,L|463:262,1,71.2500027179719,0|0,0:0|0:0,0:0:0:0:
365,86,240216,2,0,L|380:171,1,71.2500027179719,0|0,0:0|0:0,0:0:0:0:
44,273,240592,6,0,L|29:358,1,71.2500027179719,2|0,0:0|0:0,0:0:0:0:
122,222,240968,2,0,L|107:137,1,71.2500027179719,0|0,0:0|0:0,0:0:0:0:
210,37,241344,2,0,L|195:122,1,71.2500027179719
276,257,241720,2,0,L|263:186,1,71.2500027179719,0|0,0:0|0:0,0:0:0:0:
353,343,242096,2,0,L|365:272,1,71.2500027179719,0|0,0:0|0:0,0:0:0:0:
358,150,242473,2,0,L|345:79,1,71.2500027179719
458,20,242849,2,0,L|445:90,1,71.2500027179719,2|0,0:0|0:0,0:0:0:0:
44,261,243225,54,0,L|31:331,1,71.2500027179719,2|0,0:0|0:0,0:0:0:0:
123,214,243601,2,0,L|110:143,1,71.2500027179719,0|0,0:0|0:0,0:0:0:0:
43,29,243977,2,0,L|30:99,1,71.2500027179719
220,326,244353,2,0,L|207:255,1,71.2500027179719,2|0,0:0|0:0,0:0:0:0:
268,189,244730,2,0,L|280:118,1,71.2500027179719,0|0,0:0|0:0,0:0:0:0:
356,34,245106,2,0,L|368:104,1,71.2500027179719,0|0,0:0|0:0,0:0:0:0:
457,166,245482,2,0,L|444:236,1,71.2500027179719,2|0,0:0|0:0,0:0:0:0:
365,333,245858,2,0,L|352:262,1,71.2500027179719
255,259,246234,2,0,L|267:188,1,71.2500027179719
177,156,246611,2,0,L|164:85,1,71.2500027179719,0|0,0:0|0:0,0:0:0:0:
66,90,246987,2,0,L|78:19,1,71.2500027179719,0|0,0:0|0:0,0:0:0:0:
270,119,247363,2,0,L|282:189,1,71.2500027179719,2|0,0:0|0:0,0:0:0:0:
192,219,247739,2,0,L|179:289,1,71.2500027179719,0|0,0:0|0:0,0:0:0:0:
276,296,248115,2,0,L|288:366,1,71.2500027179719,0|0,0:0|0:0,0:0:0:0:
74,143,248491,6,0,L|62:213,1,71.2500027179719,2|0,0:0|0:0,0:0:0:0:
158,106,248916,2,0,L|146:36,1,71.2500027179719,0|0,0:0|0:0,0:0:0:0:
224,174,249342,2,0,L|212:244,1,71.2500027179719,0|0,0:0|0:0,0:0:0:0:
129,262,249767,2,0,L|141:332,1,71.2500027179719
279,351,250193,54,0,L|291:281,1,71.2500027179719,2|0,0:0|0:0,0:0:0:0:
199,174,250601,2,0,L|211:244,1,71.2500027179719,0|0,0:0|0:0,0:0:0:0:
303,72,251009,2,0,L|291:142,1,71.2500027179719,0|0,0:0|0:0,0:0:0:0:
107,31,251417,6,0,L|119:101,1,71.2500027179719,2|0,0:0|0:0,0:0:0:0:
199,173,251900,2,0,L|211:103,1,71.2500027179719,0|0,0:0|0:0,0:0:0:0:
303,72,252384,54,0,L|315:142,1,71.2500027179719,2|0,0:0|0:0,0:0:0:0:
384,242,252849,2,0,L|396:172,1,71.2500027179719,0|0,0:0|0:0,0:0:0:0:
467,259,253314,2,0,L|479:329,1,71.2500027179719,0|0,0:0|0:0,0:0:0:0:
199,173,253779,6,0,L|211:243,1,71.2500027179719,2|0,0:0|0:0,0:0:0:0:
309,239,254519,54,0,L|297:309,1,71.2500027179719,2|0,0:0|0:0,0:0:0:0:
256,384,255260,5,2,0:0:0:0:
256,192,255445,12,0,258223,0:0:0:0:
