osu file format v14

[General]
AudioFilename: audio.mp3
AudioLeadIn: 0
PreviewTime: 783
Countdown: 0
SampleSet: Soft
StackLeniency: 0.2
Mode: 0
LetterboxInBreaks: 0
WidescreenStoryboard: 1

[Editor]
Bookmarks: 40312,60077,99606,99959,100135,102782,102871,103047,103135,103312,103488,105077,105606,106047,106224,106577,106753,106930,107635,110724,110988,111253,111341,112224,112753,112930,113635,113724,114165,115312,115400,115488,116282,116459,116547,118047,118224,119900,120253,143194,158900,198430,218194,237959
DistanceSpacing: 1.4
BeatDivisor: 4
GridSize: 32
TimelineZoom: 1.9

[Metadata]
Title:Dedication
TitleUnicode:Dedication
Artist:void
ArtistUnicode:void
Creator:Rockyy
Version:Collab Extra
Source:Deemo
Tags:artcore drum and bass dnb ad:piano3 shanipika yaspo mir nao tomori undeadphoneguy
BeatmapID:2027987
BeatmapSetID:969312

[Difficulty]
HPDrainRate:5
CircleSize:4.2
OverallDifficulty:8
ApproachRate:9.2
SliderMultiplier:1.7
SliderTickRate:1

[Events]
//Background and Video events
0,0,"background.jpg",0,0
//Break Periods
2,99805,118801
//Storyboard Layer 0 (Background)
//Storyboard Layer 1 (Fail)
//Storyboard Layer 2 (Pass)
//Storyboard Layer 3 (Foreground)
//Storyboard Layer 4 (Overlay)
//Storyboard Sound Samples

[TimingPoints]
783,352.941176470588,7,2,4,40,1,0
783,-133.333333333333,7,2,4,40,0,0
20547,-125,7,2,4,45,0,0
21782,-125,7,2,4,45,0,0
22135,-125,7,2,4,45,0,0
23018,-125,7,2,4,45,0,0
24253,-125,7,2,4,45,0,0
24606,-125,7,2,4,45,0,0
25488,-125,7,2,4,45,0,0
27959,-125,7,2,4,45,0,0
28488,-125,7,2,4,45,0,0
31665,-125,7,2,4,45,0,0
32018,-125,7,2,4,45,0,0
34135,-125,7,2,4,45,0,0
34488,-125,7,2,4,45,0,0
35371,-125,7,2,4,45,0,0
38900,-125,7,2,4,45,0,0
39518,-125,7,2,4,5,0,0
39606,-125,7,2,4,45,0,0
40312,-100,7,2,4,50,0,0
49841,-100,7,2,4,50,0,0
50194,-100,7,2,4,60,0,0
59194,-500,7,2,4,60,0,0
60077,-100,7,2,4,50,0,0
69606,-66.6666666666667,7,2,4,55,0,1
69959,-100,7,2,4,55,0,0
79841,-100,7,2,4,55,0,1
82135,-100,7,2,4,55,0,1
82312,-100,7,2,4,55,0,1
89371,-100,7,2,4,55,0,0
89724,-100,7,2,4,55,0,1
94665,-100,7,2,4,55,0,0
97135,-100,7,2,4,55,0,0
99253,-100,7,2,4,55,0,1
99606,-100,7,2,4,50,0,0
119371,-100,7,2,4,40,0,0
119724,-125,7,2,4,40,0,0
128547,-200,7,2,4,40,0,0
129253,-125,7,2,4,40,0,0
137724,-250,7,2,4,40,0,0
139135,-100,7,2,4,50,0,1
156430,-100,7,2,4,50,0,0
158900,-100,7,2,4,50,0,0
168077,-100,7,2,4,50,0,0
168341,-100,7,2,4,5,0,0
168430,-100,7,2,4,55,0,1
168782,-100,7,2,4,55,0,0
178665,-100,7,2,4,55,0,1
188194,-100,7,2,4,55,0,0
188547,-100,7,2,4,55,0,1
195959,-100,7,2,4,30,0,0
196665,-100,7,2,4,40,0,0
197371,-100,7,2,4,50,0,0
198430,-100,7,2,4,50,0,0
198606,-100,7,2,4,50,0,0
198782,-83.3333333333333,7,2,4,55,0,1
205841,-83.3333333333333,7,2,4,55,0,1
206900,-83.3333333333333,7,2,4,55,0,1
208135,-83.3333333333333,7,2,4,55,0,0
208312,-83.3333333333333,7,2,4,55,0,1
210782,-83.3333333333333,7,2,4,55,0,1
211841,-83.3333333333333,7,2,4,55,0,1
213253,-83.3333333333333,7,2,4,55,0,1
214312,-83.3333333333333,7,2,4,55,0,1
214488,-83.3333333333333,7,2,4,55,0,1
215724,-83.3333333333333,7,2,4,55,0,1
216959,-83.3333333333333,7,2,4,55,0,1
217841,-83.3333333333333,7,2,4,55,0,0
218194,-83.3333333333333,7,2,4,55,0,1
227371,-83.3333333333333,7,2,4,55,0,0
228077,-83.3333333333333,7,2,4,65,0,1
236547,-100,7,2,4,50,0,0
237959,376.175548589342,7,2,4,45,1,0
237959,-100,7,2,4,45,0,0
248491,425.531914893617,7,2,4,45,1,0
248491,-100,7,2,4,45,0,0
250193,408.163265306122,7,2,4,45,1,0
250193,-100,7,2,4,45,0,0
251417,483.870967741935,7,2,4,35,1,0
251417,-100,7,2,4,35,0,0
252384,465.116279069767,7,2,4,35,1,0
252384,-100,7,2,4,35,0,0
253779,740.740740740741,7,2,4,30,1,0
253779,-100,7,2,4,30,0,0
254519,-100,7,2,4,25,0,0
255260,-100,7,2,4,60,0,0

[Colours]
Combo1 : 243,238,171
Combo2 : 191,236,251
Combo3 : 250,187,182
Combo4 : 163,248,180

[HitObjects]
121,132,783,6,0,P|204:145|268:159,1,127.500004863739,2|0,0:0|0:0,2:0:0:0:
148,213,1488,1,0,0:0:0:0:
148,213,1665,1,0,0:0:0:0:
242,28,2018,2,0,P|255:96|242:165,2,127.500004863739,0|0|0,0:0|0:0|0:0,2:0:0:0:
170,67,2900,1,0,0:0:0:0:
170,67,3077,1,0,0:0:0:0:
328,155,3253,6,0,P|389:142|471:136,1,127.500004863739,2|0,0:0|0:0,2:0:0:0:
297,230,3959,1,0,0:0:0:0:
297,230,4135,2,0,P|248:225|158:223,2,127.500004863739,0|0|0,0:0|0:0|0:0,2:0:0:0:
355,293,5194,1,0,0:0:0:0:
432,264,5371,2,0,L|443:186,1,63.7500024318696,0|0,0:0|0:0,2:0:0:0:
316,36,5724,6,0,P|320:79|343:111,1,63.7500024318696,2|0,0:0|0:0,2:0:0:0:
418,74,6077,2,0,P|414:31|391:-1,1,63.7500024318696,0|0,0:0|0:0,2:0:0:0:
3,257,6606,6,0,P|7:214|30:182,1,63.7500024318696,2|0,0:0|0:0,2:0:0:0:
105,219,6959,2,0,P|101:262|78:294,1,63.7500024318696,0|0,0:0|0:0,2:0:0:0:
323,329,7488,6,0,L|305:251,1,63.7500024318696,0|0,0:0|0:0,2:0:0:0:
414,197,7841,2,0,L|400:260,1,63.7500024318696,0|0,0:0|0:0,2:0:0:0:
241,316,8194,6,0,P|182:301|159:307,2,63.7500024318696,2|0|0,0:0|0:0|0:0,2:0:0:0:
107,240,8724,2,0,P|164:218|251:226,1,127.500004863739,0|0,0:0|0:0,2:0:0:0:
35,190,9253,1,0,0:0:0:0:
35,190,9430,2,0,P|73:163|107:150,1,63.7500024318696,0|0,0:0|0:0,2:0:0:0:
219,138,9782,2,0,P|190:123|165:104,1,63.7500024318696,0|0,0:0|0:0,2:0:0:0:
91,65,10488,5,0,0:0:0:0:
162,211,10665,2,0,L|173:349,1,127.500004863739,2|0,0:0|0:0,2:0:0:0:
236,148,11371,1,0,0:0:0:0:
299,210,11547,2,0,P|361:219|421:200,2,127.500004863739,0|0|0,0:0|0:0|0:0,2:0:0:0:
445,120,12606,1,0,0:0:0:0:
502,187,12782,2,0,L|511:260,1,63.7500024318696,0|0,0:0|0:0,2:0:0:0:
434,327,13135,6,0,L|420:190,2,127.500004863739,2|0|0,0:0|0:0|0:0,2:0:0:0:
364,376,14018,1,0,0:0:0:0:
177,310,14371,2,0,P|224:297|303:342,2,127.500004863739,0|0|0,0:0|0:0|0:0,2:0:0:0:
110,368,15253,2,0,L|23:383,1,63.7500024318696,0|0,0:0|0:0,2:0:0:0:
168,143,15606,6,0,P|218:152|246:173,1,63.7500024318696,2|0,0:0|0:0,2:0:0:0:
80,153,15959,2,0,L|95:76,1,63.7500024318696,0|0,0:0|0:0,2:0:0:0:
471,243,16488,6,0,P|442:230|410:228,1,63.7500024318696,0|0,0:0|0:0,2:0:0:0:
411,375,16841,2,0,L|423:312,1,63.7500024318696,0|0,0:0|0:0,2:0:0:0:
274,30,17371,5,0,0:0:0:0:
342,73,17547,2,0,L|413:62,1,63.7500024318696,0|0,0:0|0:0,2:0:0:0:
266,115,17900,2,0,L|203:124,1,63.7500024318696,0|0,0:0|0:0,2:0:0:0:
112,96,18253,2,0,P|101:56|113:19,1,63.7500024318696,0|0,0:0|0:0,2:0:0:0:
55,170,18606,2,0,P|29:124|19:32,1,127.500004863739,0|0,0:0|0:0,2:0:0:0:
140,186,19135,1,0,0:0:0:0:
140,186,19841,5,0,0:0:0:0:
373,240,20194,5,0,0:0:0:0:
259,26,20547,6,0,B|279:82|251:159|251:159|274:213|274:213|241:284|274:360,1,340,2|0,3:2|0:0,2:0:0:0:
271,354,21782,2,0,P|322:331|405:363,1,136,0|0,0:0|0:0,2:0:0:0:
165,323,22488,2,0,P|102:346|40:322,1,136,0|0,0:0|0:0,2:0:0:0:
99,120,23018,6,0,L|104:263,2,136,2|0|0,0:0|0:0|0:0,2:0:0:0:
162,53,23900,1,0,0:0:0:0:
340,146,24253,1,0,0:0:0:0:
472,17,24606,1,0,0:0:0:0:
382,8,24782,2,0,P|394:53|411:96,1,68,0|0,0:0|0:0,2:0:0:0:
468,153,25135,2,0,L|460:248,1,68,0|0,0:0|0:0,2:0:0:0:
291,352,25488,5,2,0:0:0:0:
271,280,25665,1,0,0:0:0:0:
198,305,25841,1,0,0:0:0:0:
218,377,26018,1,0,0:0:0:0:
18,187,26371,5,2,0:0:0:0:
80,140,26547,1,0,0:0:0:0:
150,178,26724,1,0,0:0:0:0:
88,225,26900,1,0,0:0:0:0:
263,70,27253,5,0,0:0:0:0:
321,124,27430,2,0,L|404:114,2,68,0|0|0,0:0|0:0|0:0,2:0:0:0:
211,240,27959,6,0,L|131:233,1,68,2|0,0:0|0:0,2:0:0:0:
265,309,28312,1,0,0:0:0:0:
333,253,28488,2,0,P|391:228|473:264,1,136,0|2,0:0|0:0,2:0:0:0:
280,179,29018,2,0,L|274:88,1,68,0|0,0:0|0:0,2:0:0:0:
208,38,29371,5,0,0:0:0:0:
366,83,29547,1,0,0:0:0:0:
351,66,29724,1,0,0:0:0:0:
193,111,29900,1,0,2:0:0:0:
67,67,30077,2,0,L|0:77,1,68,0|0,2:0|0:0,2:0:0:0:
98,240,30430,6,0,P|152:213|243:243,1,136,2|0,0:0|0:0,2:0:0:0:
313,301,31135,1,0,0:0:0:0:
313,301,31312,2,0,P|373:329|439:314,2,136,0|0|0,0:0|0:0|0:0,2:0:0:0:
146,357,32371,1,0,0:0:0:0:
79,305,32547,2,0,L|63:223,1,68,0|0,0:0|0:0,2:0:0:0:
181,89,32900,6,0,L|160:238,2,136,2|0|0,0:0|0:0|0:0,2:0:0:0:
96,131,33782,1,0,0:0:0:0:
274,288,34135,1,0,0:0:0:0:
428,118,34488,1,0,0:0:0:0:
428,118,34665,2,0,P|434:65|422:36,1,68,0|0,0:0|0:0,2:0:0:0:
352,85,35018,2,0,P|346:138|358:167,1,68,0|0,0:0|0:0,2:0:0:0:
419,212,35371,5,2,0:0:0:0:
265,175,35547,1,0,0:0:0:0:
226,335,35724,1,0,0:0:0:0:
380,372,35900,1,0,0:0:0:0:
392,44,36253,5,2,0:0:0:0:
266,107,36430,1,0,0:0:0:0:
386,193,36606,1,0,0:0:0:0:
512,130,36783,1,0,0:0:0:0:
217,24,37135,5,0,0:0:0:0:
148,83,37312,2,0,P|139:124|144:164,2,68,0|0|0,0:0|0:0|0:0,2:0:0:0:
71,39,37841,2,0,P|27:56|-9:57,2,68,2|0|0,0:0|0:0|0:0,2:0:0:0:
59,141,38371,1,0,0:0:0:0:
59,141,38724,1,0,0:0:0:0:
223,125,38900,6,0,B|302:110|277:154|356:140,1,136,0|0,0:0|2:0,2:0:0:0:
417,189,39430,1,0,2:0:0:0:
469,50,39606,2,0,L|334:64,1,136,0|0,0:0|0:0,2:0:0:0:
333,64,40135,1,0,0:0:0:0:
97,57,40312,6,0,B|68:113|68:113|116:237,1,170,0|0,3:0|3:0,2:0:0:0:
148,301,40841,1,0,0:0:0:0:
77,362,41018,2,0,P|49:309|58:266,1,85,0|0,3:0|0:0,2:0:0:0:
217,239,41371,2,0,P|245:292|236:335,1,85,0|0,3:0|0:0,2:0:0:0:
148,301,41724,1,0,3:0:0:0:
178,156,41900,6,0,L|277:143,2,85,0|0|0,0:0|3:0|0:0,2:0:0:0:
95,73,42430,1,0,3:0:0:0:
104,230,42606,1,0,0:0:0:0:
217,239,42782,5,0,3:0:0:0:
262,144,42959,1,0,2:0:0:0:
343,77,43135,5,0,3:0:0:0:
283,151,43312,1,0,0:0:0:0:
171,148,43488,1,0,3:0:0:0:
112,59,43665,1,0,0:0:0:0:
303,159,43841,6,0,B|385:212|383:127|480:192,1,170,0|0,3:0|3:0,2:0:0:0:
410,338,44371,2,0,P|399:288|411:250,1,85,0|0,0:0|3:0,2:0:0:0:
488,296,44724,1,0,0:0:0:0:
313,292,44900,2,0,P|262:313|226:339,1,85,0|0,3:0|0:0,2:0:0:0:
11,284,45253,6,0,P|69:334|158:283,1,170,4|0,3:2|3:0,2:0:0:0:
191,217,45782,1,0,0:0:0:0:
143,141,45959,2,0,P|101:131|46:135,1,85,0|0,3:0|0:0,2:0:0:0:
203,231,46312,2,0,L|380:222,1,170,0|0,3:0|3:0,2:0:0:0:
510,152,46841,5,0,0:0:0:0:
413,106,47018,1,0,3:0:0:0:
485,172,47194,1,0,0:0:0:0:
430,332,47371,5,0,3:0:0:0:
387,236,47547,1,0,0:0:0:0:
310,382,47724,5,2,3:2:0:0:
292,298,47900,1,0,2:0:0:0:
204,273,48077,1,0,3:0:0:0:
136,336,48253,6,0,P|91:342|46:333,1,85,0|0,0:0|3:0,2:0:0:0:
210,294,48606,1,0,0:0:0:0:
215,210,48782,2,0,P|187:173|149:148,1,85,2|0,3:2|0:0,2:0:0:0:
69,145,49135,1,0,3:0:0:0:
135,73,49312,6,0,P|176:64|228:56,2,85,0|0|0,0:0|3:0|0:0,2:0:0:0:
69,145,49841,1,2,3:2:0:0:
84,0,50018,1,0,0:0:0:0:
227,74,50194,6,0,L|319:85,1,85,4|0,3:2|3:0,2:0:0:0:
349,173,50547,2,0,L|441:162,1,85,0|0,3:0|3:0,2:0:0:0:
480,83,50900,1,0,3:0:0:0:
403,26,51077,1,0,3:0:0:0:
349,173,51253,6,0,P|356:239|364:271,1,85,0|0,3:0|3:0,2:0:0:0:
453,335,51606,2,0,P|461:293|464:250,1,85,0|0,3:0|3:0,2:0:0:0:
349,173,51959,1,0,3:0:0:0:
242,234,52135,1,0,3:0:0:0:
150,177,52312,2,0,P|136:135|128:78,1,85,0|0,3:0|3:0,2:0:0:0:
59,299,52665,6,0,P|102:283|153:278,1,85,2|0,3:2|3:0,2:0:0:0:
222,324,53018,1,0,3:0:0:0:
314,353,53194,1,0,3:0:0:0:
394,311,53371,2,0,P|417:260|430:214,1,85,0|0,3:0|3:0,2:0:0:0:
304,246,53724,2,0,P|281:195|268:149,1,85,0|0,3:0|3:0,2:0:0:0:
280,64,54077,1,0,3:0:0:0:
370,15,54253,1,0,3:0:0:0:
266,71,54430,6,0,P|216:76|169:76,1,85,0|0,3:0|3:0,2:0:0:0:
82,42,54782,1,0,3:0:0:0:
82,42,54959,1,0,3:0:0:0:
41,173,55135,6,0,P|50:219|60:280,1,85,4|0,3:2|3:0,2:0:0:0:
147,373,55488,2,0,P|154:331|162:289,1,85,0|0,3:0|3:0,2:0:0:0:
236,204,55841,1,0,3:0:0:0:
147,139,56018,1,0,3:0:0:0:
249,214,56194,6,0,L|351:202,1,85,0|0,3:0|3:0,2:0:0:0:
372,334,56547,2,0,L|270:322,1,85,0|0,3:0|3:0,2:0:0:0:
249,214,56900,1,0,3:0:0:0:
249,214,57077,1,0,3:0:0:0:
324,113,57253,2,0,L|426:101,1,85,0|0,3:0|3:0,2:0:0:0:
249,214,57606,5,0,3:0:0:0:
220,245,57694,1,0,3:0:0:0:
182,264,57782,1,0,3:0:0:0:
140,268,57870,1,0,3:0:0:0:
100,257,57958,1,0,3:0:0:0:
66,231,58047,1,0,3:0:0:0:
43,195,58135,1,0,3:0:0:0:
40,153,58224,1,0,3:0:0:0:
57,114,58312,1,0,3:0:0:0:
97,103,58400,1,0,3:0:0:0:
136,119,58488,1,0,3:0:0:0:
150,159,58577,1,0,3:0:0:0:
150,159,59194,6,0,L|147:189,1,25.5,0|0,2:0|2:0,2:0:0:0:
113,367,59724,5,0,2:0:0:0:
502,351,60077,5,0,3:0:0:0:
445,271,60253,1,0,0:0:0:0:
293,241,60430,1,8,0:0:0:0:
350,321,60606,1,0,0:0:0:0:
322,154,60782,5,0,3:0:0:0:
208,275,60959,2,0,L|107:269,1,85,8|0,0:0|0:0,2:0:0:0:
322,154,61312,5,0,3:0:0:0:
208,275,61488,1,0,0:0:0:0:
158,123,61665,1,8,0:0:0:0:
322,154,61841,2,0,L|437:146,1,85,0|0,0:0|3:0,2:0:0:0:
158,123,62194,2,0,L|43:115,1,85,8|0,0:0|0:0,2:0:0:0:
207,217,62547,5,0,3:0:0:0:
261,118,62724,1,0,0:0:0:0:
127,18,62900,1,8,0:0:0:0:
73,117,63077,1,0,0:0:0:0:
270,244,63253,5,0,3:0:0:0:
344,206,63430,2,0,P|413:192|452:202,1,85,8|0,0:0|0:0,2:0:0:0:
270,244,63782,1,0,3:0:0:0:
202,175,63959,2,0,L|189:62,1,85,0|8,0:0|0:0,2:0:0:0:
270,244,64312,1,0,0:0:0:0:
216,318,64488,2,0,P|149:347|109:343,1,85,0|8,3:0|0:0,2:0:0:0:
11,270,64841,1,0,0:0:0:0:
72,106,65018,5,0,3:0:0:0:
87,203,65194,1,0,0:0:0:0:
216,318,65371,1,8,0:0:0:0:
201,221,65547,1,0,0:0:0:0:
318,79,65724,5,0,3:0:0:0:
209,56,65900,1,8,0:0:0:0:
134,127,66077,1,0,0:0:0:0:
243,150,66253,1,0,3:0:0:0:
82,32,66430,5,0,0:0:0:0:
69,217,66606,1,8,0:0:0:0:
251,158,66782,1,0,0:0:0:0:
251,158,66871,1,0,0:0:0:0:
251,158,66959,1,0,3:0:0:0:
390,213,67135,2,0,P|347:212|306:220,1,85,8|0,0:0|0:0,2:0:0:0:
440,294,67488,5,0,3:0:0:0:
472,153,67665,1,0,0:0:0:0:
267,4,67841,1,8,0:0:0:0:
235,145,68018,1,0,0:0:0:0:
357,115,68194,1,0,3:0:0:0:
170,65,68371,5,8,0:0:0:0:
239,249,68547,1,0,0:0:0:0:
357,115,68724,1,0,3:0:0:0:
161,310,68900,5,0,0:0:0:0:
71,263,69077,1,8,0:0:0:0:
152,209,69253,1,0,0:0:0:0:
161,310,69430,1,0,3:0:0:0:
364,267,69606,6,0,B|387:271|407:239|338:201|295:260|295:260|256:247|219:248,1,191.250007295609,10|0,0:1|0:0,2:0:0:0:
448,328,69959,6,0,P|472:278|430:166,1,170,0|8,3:0|0:0,2:0:0:0:
298,111,70488,1,0,0:0:0:0:
413,30,70665,1,0,3:0:0:0:
309,225,70841,2,0,L|187:227,1,85,8|0,0:0|0:0,2:0:0:0:
201,244,71106,1,0,0:0:0:0:
201,244,71194,5,0,3:0:0:0:
93,183,71371,1,0,0:0:0:0:
93,183,71459,1,0,0:0:0:0:
93,183,71547,2,0,P|82:122|93:73,1,85,8|0,0:0|0:0,2:0:0:0:
181,127,71900,1,0,3:0:0:0:
89,284,72077,2,0,L|-11:270,1,85,8|0,0:0|0:0,2:0:0:0:
117,359,72341,1,0,0:0:0:0:
117,359,72430,6,0,P|185:340|222:346,1,85,0|0,3:0|0:0,2:0:0:0:
382,261,72782,2,0,P|320:246|289:218,1,85,8|0,0:0|0:0,2:0:0:0:
467,165,73135,1,0,3:0:0:0:
377,375,73312,1,8,0:0:0:0:
214,211,73488,1,0,0:0:0:0:
214,211,73577,1,0,0:0:0:0:
214,211,73665,1,0,3:0:0:0:
379,180,73842,5,0,0:0:0:0:
389,178,73930,1,0,0:0:0:0:
400,177,74018,1,8,0:0:0:0:
410,175,74106,1,0,2:0:0:0:
423,172,74194,2,0,P|437:113|420:74,1,85,0|0,0:0|3:0,2:0:0:0:
271,209,74547,2,0,P|263:250|278:289,1,85,8|0,0:0|0:0,2:0:0:0:
484,363,74900,5,0,3:0:0:0:
360,245,75077,1,0,0:0:0:0:
199,343,75253,1,8,0:0:0:0:
75,225,75430,1,0,0:0:0:0:
150,162,75606,5,0,3:0:0:0:
76,330,75782,2,0,L|-14:323,1,85,8|0,0:0|0:0,2:0:0:0:
75,225,76135,1,0,3:0:0:0:
199,343,76312,2,0,P|263:334|313:330,1,85,0|8,0:0|0:0,2:0:0:0:
386,242,76665,1,0,0:0:0:0:
386,242,76753,1,0,0:0:0:0:
386,242,76841,1,0,3:0:0:0:
269,138,77018,2,0,P|263:179|276:220,1,85,8|0,0:0|0:0,2:0:0:0:
407,321,77371,5,0,3:0:0:0:
482,254,77547,1,0,0:0:0:0:
357,149,77724,1,8,0:0:0:0:
495,33,77900,1,0,0:0:0:0:
463,125,78077,5,0,3:0:0:0:
255,67,78253,1,8,0:0:0:0:
199,263,78430,1,0,0:0:0:0:
407,321,78606,1,0,3:0:0:0:
337,202,78782,5,0,0:0:0:0:
337,202,78871,1,0,0:0:0:0:
337,202,78959,1,8,0:0:0:0:
177,351,79135,5,2,0:0:0:0:
158,341,79223,1,2,0:0:0:0:
137,336,79311,1,2,0:0:0:0:
116,337,79399,1,2,0:0:0:0:
95,341,79488,5,2,0:0:0:0:
52,309,79576,1,2,0:0:0:0:
27,263,79664,1,2,0:0:0:0:
24,210,79752,1,2,0:0:0:0:
43,161,79841,5,2,3:2:0:0:
124,203,80018,2,0,L|234:185,1,85,0|10,2:0|0:0,2:0:0:0:
467,65,80371,2,0,P|423:56|355:82,1,85,2|0,0:0|0:0,2:0:0:0:
307,149,80724,2,0,P|351:158|419:132,1,85,10|0,0:0|2:0,2:0:0:0:
457,240,81077,5,2,3:2:0:0:
457,240,81165,1,2,0:0:0:0:
457,240,81253,2,0,P|465:281|460:299,1,42.5,2|2,0:0|0:0,2:0:0:0:
397,344,81430,2,0,L|340:336,1,42.5,10|2,0:0|0:0,2:0:0:0:
273,284,81606,1,2,0:0:0:0:
273,284,81694,1,2,0:0:0:0:
273,284,81782,1,2,3:2:0:0:
273,284,81871,1,2,0:0:0:0:
273,284,81959,6,0,L|230:289,1,42.5,10|2,0:0|0:0,2:0:0:0:
140,330,82135,2,0,P|100:314|84:298,1,42.5,2|2,0:0|0:0,2:0:0:0:
6,351,82312,6,0,P|-13:273|13:175,1,170,2|10,3:2|0:0,2:0:0:0:
132,59,82841,1,2,0:0:0:0:
189,127,83018,1,0,3:0:0:0:
99,159,83194,1,10,0:0:0:0:
273,46,83371,6,0,L|338:56,1,42.5,2|2,0:0|0:0,2:0:0:0:
390,124,83547,1,2,3:2:0:0:
424,113,83635,1,2,0:0:0:0:
439,147,83724,1,2,0:0:0:0:
405,158,83812,1,2,0:0:0:0:
382,192,83900,6,0,L|380:252,1,42.5,10|2,0:0|0:0,2:0:0:0:
247,353,84077,2,0,L|239:283,1,42.5,2|2,0:0|0:0,2:0:0:0:
158,176,84253,5,2,3:2:0:0:
120,139,84341,1,2,0:0:0:0:
68,131,84429,1,10,0:0:0:0:
21,155,84517,1,2,0:0:0:0:
0,201,84605,1,2,0:0:0:0:
8,216,84694,1,2,0:0:0:0:
23,229,84782,6,0,B|87:215|87:215|119:231|119:231|211:212,1,170,2|10,3:2|0:0,2:0:0:0:
328,315,85312,2,0,P|380:300|437:308,1,85,2|0,0:0|0:0,2:0:0:0:
279,244,85665,2,0,L|310:142,1,85,10|0,0:0|0:0,2:0:0:0:
489,63,86018,5,2,3:2:0:0:
447,148,86194,1,0,2:0:0:0:
349,54,86371,2,0,L|292:41,1,42.5,10|2,0:0|0:0,2:0:0:0:
193,122,86547,1,2,0:0:0:0:
153,157,86635,1,2,0:0:0:0:
103,172,86723,1,2,3:2:0:0:
51,162,86811,1,2,0:0:0:0:
8,131,86899,5,10,0:0:0:0:
28,123,86988,1,2,0:0:0:0:
49,120,87076,1,2,0:0:0:0:
70,123,87164,1,2,0:0:0:0:
90,131,87253,5,2,3:2:0:0:
50,240,87430,1,2,0:0:0:0:
125,324,87606,1,10,0:0:0:0:
90,131,87782,1,2,0:0:0:0:
50,240,87959,1,2,3:2:0:0:
235,330,88135,2,0,L|344:315,1,85,10|0,0:0|2:0,2:0:0:0:
446,371,88488,5,0,3:0:0:0:
491,284,88665,1,2,0:0:0:0:
489,252,88753,1,2,0:0:0:0:
484,220,88841,1,10,0:0:0:0:
471,191,88929,1,2,0:0:0:0:
450,167,89017,1,2,0:0:0:0:
431,142,89106,1,2,0:0:0:0:
421,112,89194,1,2,3:2:0:0:
420,80,89282,1,2,0:0:0:0:
422,48,89371,6,0,P|377:81|358:86,1,42.5,10|0,0:1|2:0,2:0:0:0:
290,97,89547,2,0,P|256:87|212:83,1,42.5,0|0,2:0|0:0,2:0:0:0:
112,136,89724,5,2,3:2:0:0:
28,104,89900,2,0,L|8:226,1,85,2|8,0:0|0:0,2:0:0:0:
219,326,90253,2,0,P|272:307|334:323,1,85,2|0,0:0|3:0,2:0:0:0:
442,247,90606,2,0,P|400:247|362:230,1,85,10|0,0:0|2:0,2:0:0:0:
243,58,90959,5,2,3:2:0:0:
244,44,91047,1,2,0:0:0:0:
246,31,91135,5,2,0:0:0:0:
283,48,91223,1,2,0:0:0:0:
306,84,91311,1,10,0:0:0:0:
305,126,91399,1,2,0:0:0:0:
283,161,91488,5,2,0:0:0:0:
241,154,91576,1,2,0:0:0:0:
199,159,91664,1,2,3:2:0:0:
160,177,91752,1,0,0:0:0:0:
121,192,91840,1,10,0:0:0:0:
78,193,91929,1,2,0:0:0:0:
37,185,92018,2,0,L|28:121,1,42.5,2|0,0:0|0:0,2:0:0:0:
29,301,92194,5,2,3:2:0:0:
108,285,92371,1,0,0:0:0:0:
177,334,92547,1,10,0:0:0:0:
345,268,92724,2,0,P|354:206|327:166,1,85,2|0,0:0|0:0,2:0:0:0:
267,242,93077,2,0,P|255:282|267:322,1,85,10|2,0:0|0:0,2:0:0:0:
290,338,93341,1,2,0:0:0:0:
290,338,93430,6,0,L|367:346,1,42.5,2|2,3:2|0:0,2:0:0:0:
182,211,93606,2,0,L|125:220,1,42.5,2|2,0:0|0:0,2:0:0:0:
269,85,93782,1,10,0:0:0:0:
329,96,93870,1,2,0:0:0:0:
360,150,93958,1,2,0:0:0:0:
352,172,94047,1,2,0:0:0:0:
343,193,94135,5,2,3:2:0:0:
389,168,94223,1,2,0:0:0:0:
441,174,94311,1,10,0:0:0:0:
480,209,94399,1,2,0:0:0:0:
492,259,94487,1,2,0:0:0:0:
482,272,94577,1,2,0:0:0:0:
469,282,94665,6,0,B|372:264|409:341|286:321,1,170,4|0,3:2|3:0,2:0:0:0:
130,228,95194,2,0,P|117:179|131:134,1,85,0|0,0:0|3:0,2:0:0:0:
198,74,95547,1,0,0:0:0:0:
224,240,95724,2,0,L|188:357,1,85,4|0,3:2|0:0,2:0:0:0:
300,184,96077,5,0,3:0:0:0:
109,303,96253,1,2,3:2:0:0:
24,225,96430,2,0,L|90:225,1,42.5,2|2,3:2|0:0,2:0:0:0:
338,292,96606,1,2,3:2:0:0:
338,292,96694,1,2,0:0:0:0:
338,292,96782,1,2,3:2:0:0:
376,256,96870,1,2,0:0:0:0:
396,207,96958,1,2,3:2:0:0:
393,155,97046,1,0,0:0:0:0:
367,109,97135,6,0,L|351:43,5,42.5,6|2|2|2|2|2,0:0|0:0|0:0|0:0|0:0|0:0,2:0:0:0:
246,191,97665,6,0,L|236:233,5,42.5,6|2|2|2|2|2,0:0|0:0|0:0|0:0|0:0|0:0,2:0:0:0:
58,61,98194,6,0,L|48:20,5,42.5,6|2|2|2|2|2,0:0|0:0|0:0|0:0|0:0|0:0,2:0:0:0:
401,262,98724,6,0,L|391:304,5,42.5,6|2|2|2|2|2,0:0|0:0|0:0|0:0|0:0|0:0,2:0:0:0:
304,358,99253,6,0,B|267:341|237:345|237:345|189:378|125:371,1,170,2|2,0:1|0:0,2:0:0:0:
87,149,119371,5,2,0:0:0:0:
87,149,119724,2,0,P|135:132|177:144,1,68,0|0,0:0|2:0,2:0:0:0:
223,173,120077,1,0,0:0:0:0:
223,173,120253,2,0,P|218:219|211:253,1,68,0|0,0:0|2:0,2:0:0:0:
167,322,120606,2,0,P|110:330|31:358,2,136,0|0|0,0:0|0:0|0:0,2:0:0:0:
241,368,121488,2,0,P|294:376|320:380,1,68,0|0,0:0|0:0,2:0:0:0:
469,106,121841,6,0,P|486:164|495:200,1,68,2|0,0:0|2:0,2:0:0:0:
411,306,122194,2,0,P|420:273|429:240,1,68,0|0,0:0|2:0,2:0:0:0:
376,159,122547,1,0,0:0:0:0:
376,159,122724,2,0,P|327:177|284:190,1,68,0|0,0:0|2:0,2:0:0:0:
255,241,123077,2,0,P|222:230|190:218,1,68,0|0,0:0|2:0,2:0:0:0:
101,113,123430,2,0,P|105:164|80:266,1,136,0|0,0:0|0:0,2:0:0:0:
30,335,123959,2,0,P|7:289|-4:258,1,68,0|0,0:0|0:0,2:0:0:0:
155,323,124312,5,2,0:0:0:0:
246,342,124488,1,0,0:0:0:0:
354,255,124665,1,0,0:0:0:0:
436,298,124841,2,0,L|424:382,1,68,0|0,0:0|2:0,2:0:0:0:
354,255,125194,5,2,0:0:0:0:
322,176,125371,1,0,0:0:0:0:
380,112,125547,1,0,0:0:0:0:
331,40,125724,2,0,P|283:57|219:150,1,136,0|0,0:0|0:0,2:0:0:0:
226,212,126253,1,0,0:0:0:0:
151,170,126430,2,0,P|84:161|70:161,1,68,0|0,0:0|0:0,2:0:0:0:
199,290,126782,5,2,0:0:0:0:
226,212,126959,1,0,0:0:0:0:
284,278,127135,1,0,0:0:0:0:
199,290,127312,2,0,P|155:312|136:327,1,68,0|0,0:0|2:0,2:0:0:0:
88,384,127665,5,0,0:0:0:0:
34,313,127841,1,0,0:0:0:0:
91,247,128018,1,0,0:0:0:0:
51,179,128194,1,0,0:0:0:0:
38,156,128371,1,0,0:0:0:0:
38,132,128547,6,0,P|70:107|155:128,1,127.5,0|0,0:0|0:0,2:0:0:0:
206,196,129253,6,0,P|251:204|281:208,1,68,2|0,0:0|2:0,2:0:0:0:
308,103,129606,2,0,P|263:111|233:115,1,68,0|0,0:0|2:0,2:0:0:0:
150,122,129959,1,0,0:0:0:0:
206,196,130135,2,0,P|218:258|221:279,1,68,0|0,0:0|2:0,2:0:0:0:
101,349,130488,2,0,P|113:287|119:202,2,136,0|0|0,0:0|0:0|0:0,2:0:0:0:
25,283,131371,1,0,0:0:0:0:
25,283,131547,1,0,0:0:0:0:
218,262,131724,6,0,L|302:274,1,68,2|0,0:0|2:0,2:0:0:0:
272,368,132077,2,0,L|339:358,1,68,0|0,0:0|2:0,2:0:0:0:
415,296,132430,1,0,0:0:0:0:
415,296,132606,2,0,P|435:337|445:372,1,68,0|0,0:0|2:0,2:0:0:0:
374,212,132959,6,0,P|444:206|496:258,2,136,0|0|0,0:0|0:0|0:0,2:0:0:0:
415,296,133841,1,0,0:0:0:0:
300,163,134018,1,0,0:0:0:0:
78,259,134194,5,2,0:0:0:0:
146,304,134371,1,0,0:0:0:0:
170,226,134547,1,0,0:0:0:0:
101,180,134724,2,0,P|87:131|67:28,1,136,0|2,0:0|0:0,2:0:0:0:
14,186,135253,1,0,0:0:0:0:
167,117,135430,1,0,0:0:0:0:
299,196,135606,6,0,P|375:202|419:184,1,102,0|0,0:0|2:0,2:0:0:0:
429,167,135959,1,0,0:0:0:0:
468,261,136135,1,0,0:0:0:0:
348,365,136312,1,0,0:0:0:0:
379,289,136488,1,0,0:0:0:0:
271,211,136665,5,0,0:0:0:0:
275,238,136841,1,0,0:0:0:0:
267,267,137018,1,0,0:0:0:0:
251,290,137194,2,0,P|197:288|121:228,1,136,0|0,0:0|0:0,2:0:0:0:
52,205,137724,6,0,P|95:153|163:166,1,136,0|0,0:0|0:0,2:0:0:0:
157,161,138782,1,0,2:0:0:0:
447,296,139135,6,0,P|387:282|340:270,1,85,8|0,0:0|3:0,2:0:0:0:
310,208,139488,1,0,3:0:0:0:
294,73,139665,6,0,P|234:87|187:99,1,85,8|0,0:0|3:0,2:0:0:0:
157,161,140018,1,0,3:0:0:0:
375,138,140194,5,8,0:0:0:0:
311,338,140371,1,0,3:0:0:0:
310,208,140547,1,0,3:0:0:0:
394,384,140724,5,8,0:0:0:0:
237,276,140900,1,0,3:0:0:0:
387,273,141077,1,0,3:0:0:0:
221,375,141253,5,8,0:0:0:0:
214,177,141430,1,0,3:0:0:0:
57,284,141606,6,0,P|109:269|159:256,1,85,8|0,0:0|3:0,2:0:0:0:
237,276,141959,1,0,3:0:0:0:
245,83,142135,6,0,P|297:98|347:111,1,85,8|0,0:0|3:0,2:0:0:0:
425,91,142488,1,0,3:0:0:0:
146,108,142665,6,0,P|146:58|168:16,1,85,8|0,0:0|3:0,2:0:0:0:
238,0,143018,1,0,3:0:0:0:
425,91,143194,6,0,P|425:141|403:183,1,85,8|0,0:0|3:0,2:0:0:0:
333,199,143547,1,0,3:0:0:0:
445,360,143724,5,8,0:0:0:0:
402,285,143900,1,0,3:0:0:0:
120,311,144077,5,12,0:0:0:0:
340,357,144253,1,0,3:0:0:0:
213,379,144430,1,0,3:0:0:0:
229,204,144606,6,0,L|251:308,1,85,8|0,0:0|3:0,2:0:0:0:
126,177,144959,1,0,3:0:0:0:
332,189,145135,1,8,0:0:0:0:
199,107,145312,1,0,3:0:0:0:
229,204,145488,1,0,3:0:0:0:
50,240,145665,6,0,L|28:344,1,85,8|0,0:0|3:0,2:0:0:0:
97,380,146018,1,0,3:0:0:0:
81,156,146194,5,8,0:0:0:0:
138,278,146371,1,0,3:0:0:0:
490,115,146547,6,0,P|449:105|394:98,1,85,8|0,0:0|3:0,2:0:0:0:
336,137,146900,1,0,3:0:0:0:
292,300,147077,6,0,P|251:310|196:317,1,85,8|0,0:0|3:0,2:0:0:0:
138,278,147430,1,0,3:0:0:0:
386,260,147606,5,8,0:0:0:0:
346,372,147782,1,0,3:0:0:0:
287,207,147959,1,0,3:0:0:0:
66,184,148135,5,8,0:0:0:0:
138,278,148312,1,0,3:0:0:0:
123,82,148488,1,0,3:0:0:0:
371,166,148665,5,8,0:0:0:0:
194,178,148841,1,0,3:0:0:0:
338,15,149018,6,0,P|323:60|314:103,1,85,12|0,0:0|3:0,2:0:0:0:
371,166,149371,1,0,3:0:0:0:
194,178,149547,6,0,P|209:223|218:266,1,85,8|0,0:0|3:0,2:0:0:0:
161,329,149900,1,0,3:0:0:0:
452,178,150077,6,0,P|395:162|350:174,1,85,8|0,0:0|3:0,2:0:0:0:
338,237,150430,1,0,3:0:0:0:
47,270,150606,6,0,P|104:254|149:266,1,85,8|0,0:0|3:0,2:0:0:0:
161,329,150959,1,0,3:0:0:0:
252,128,151135,5,8,0:0:0:0:
239,272,151312,1,0,3:0:0:0:
138,57,151488,6,0,L|46:39,1,85,12|0,0:0|3:0,2:0:0:0:
8,110,151841,1,0,3:0:0:0:
252,128,152018,6,0,L|344:110,1,85,8|0,0:0|3:0,2:0:0:0:
382,181,152371,1,0,3:0:0:0:
146,174,152547,5,8,0:0:0:0:
244,37,152724,1,0,3:0:0:0:
266,221,152900,1,0,3:0:0:0:
77,241,153077,5,8,0:0:0:0:
252,128,153253,1,0,3:0:0:0:
245,324,153430,1,0,3:0:0:0:
140,151,153606,5,8,0:0:0:0:
181,378,153782,1,0,3:0:0:0:
469,258,153959,5,12,0:0:0:0:
397,208,154135,1,0,3:0:0:0:
322,251,154312,1,0,3:0:0:0:
107,224,154488,6,0,P|56:202|6:179,1,85,8|0,0:0|3:0,2:0:0:0:
167,301,154841,5,0,3:0:0:0:
212,176,155018,1,8,0:0:0:0:
175,96,155194,1,0,3:0:0:0:
296,8,155371,6,0,P|359:6|409:16,1,85,0|8,3:0|0:0,2:0:0:0:
94,43,155724,5,0,3:0:0:0:
289,133,155900,1,0,3:0:0:0:
108,204,156077,1,8,0:0:0:0:
249,285,156253,1,0,3:0:0:0:
139,368,156430,5,8,3:2:0:0:
89,358,156518,1,0,3:0:0:0:
56,319,156606,1,0,3:0:0:0:
59,268,156694,1,0,3:0:0:0:
95,232,156782,1,0,3:0:0:0:
146,229,156871,1,0,3:0:0:0:
195,219,156959,1,8,3:2:0:0:
234,186,157047,1,0,3:0:0:0:
250,137,157135,1,0,3:0:0:0:
242,86,157224,1,0,3:0:0:0:
207,48,157312,1,0,3:0:0:0:
156,45,157400,1,0,3:0:0:0:
113,72,157488,6,0,L|104:136,1,42.5,12|0,3:2|3:0,2:0:0:0:
292,246,157665,1,0,3:0:0:0:
336,269,157753,1,0,3:0:0:0:
386,276,157841,1,0,3:0:0:0:
435,261,157930,1,0,3:0:0:0:
469,223,158018,6,0,L|446:151,1,42.5,8|0,3:2|3:0,2:0:0:0:
233,13,158194,1,0,3:0:0:0:
227,63,158282,1,0,3:0:0:0:
222,114,158371,1,0,3:0:0:0:
217,164,158459,1,0,3:0:0:0:
213,214,158547,1,2,3:2:0:0:
243,203,158900,6,0,B|342:192|299:228|429:215,1,170,4|8,3:2|0:0,2:0:0:0:
224,287,159430,1,0,0:0:0:0:
391,301,159606,1,0,3:0:0:0:
224,287,159782,2,0,B|336:276|293:312|392:301,1,170,8|0,0:0|3:0,2:0:0:0:
476,263,160312,2,0,P|483:224|472:173,1,85,0|8,0:0|0:0,2:0:0:0:
140,339,160665,1,0,0:0:0:0:
140,339,160753,1,0,0:0:0:0:
140,339,160841,1,0,3:0:0:0:
56,293,161018,2,0,L|45:204,1,85,8|0,0:0|0:0,2:0:0:0:
28,176,161282,1,0,0:0:0:0:
28,176,161371,6,0,P|8:131|84:42,1,170,0|8,3:0|0:0,2:0:0:0:
92,125,161900,1,0,0:0:0:0:
137,257,162077,1,0,3:0:0:0:
91,124,162253,2,0,P|153:177|137:257,1,170,8|0,0:0|3:0,2:0:0:0:
72,306,162782,2,0,L|-19:297,1,85,0|8,0:0|0:0,2:0:0:0:
152,358,163135,1,0,0:0:0:0:
152,358,163224,1,0,0:0:0:0:
152,358,163312,1,0,3:0:0:0:
227,295,163488,2,0,P|283:285|318:296,1,85,8|0,0:0|0:0,2:0:0:0:
337,312,163753,1,0,0:0:0:0:
337,312,163841,6,0,L|512:295,1,170,0|8,3:0|0:0,2:0:0:0:
269,237,164371,1,0,0:0:0:0:
438,220,164547,1,0,3:0:0:0:
269,237,164724,2,0,L|444:220,1,170,8|0,0:0|3:0,2:0:0:0:
209,302,165253,2,0,P|185:263|187:206,1,85,0|8,0:0|0:0,2:0:0:0:
234,154,165606,1,0,0:0:0:0:
234,154,165694,1,0,0:0:0:0:
234,154,165782,1,0,3:0:0:0:
102,276,165959,2,0,L|-1:268,1,85,8|0,0:0|0:0,2:0:0:0:
62,180,166312,5,0,3:0:0:0:
166,331,166488,1,0,0:0:0:0:
308,167,166665,1,8,0:0:0:0:
412,318,166841,1,0,0:0:0:0:
458,232,167018,5,0,3:0:0:0:
230,267,167194,1,8,0:0:0:0:
51,125,167371,1,0,0:0:0:0:
279,90,167547,1,0,3:0:0:0:
211,148,167724,5,0,0:0:0:0:
211,148,167812,1,0,0:0:0:0:
211,148,167900,1,8,0:0:0:0:
346,33,168077,6,0,P|366:86|355:132,1,85,2|0,0:1|2:0,2:0:0:0:
142,200,168430,2,0,P|122:147|133:101,1,85,10|0,0:1|2:0,2:0:0:0:
221,307,168782,6,0,P|153:281|35:330,1,170,4|8,3:2|0:0,2:0:0:0:
211,148,169312,1,0,0:0:0:0:
370,150,169488,1,0,3:0:0:0:
211,148,169665,2,0,P|279:174|397:125,1,170,8|0,0:0|3:0,2:0:0:0:
443,209,170194,2,0,L|462:305,1,85,0|8,0:0|0:0,2:0:0:0:
502,129,170547,1,0,0:0:0:0:
502,129,170635,1,0,0:0:0:0:
502,129,170724,1,0,3:0:0:0:
365,281,170900,2,0,L|356:382,1,85,8|0,0:0|0:0,2:0:0:0:
322,377,171165,1,0,0:0:0:0:
322,377,171253,6,0,P|264:345|158:374,1,170,0|8,3:0|0:0,2:0:0:0:
0,171,171782,1,0,0:0:0:0:
155,181,171959,1,0,3:0:0:0:
0,171,172135,2,0,P|58:203|164:174,1,170,8|0,0:0|3:0,2:0:0:0:
231,230,172665,2,0,L|323:215,1,85,0|8,0:0|0:0,2:0:0:0:
413,168,173018,1,0,0:0:0:0:
413,168,173106,1,0,0:0:0:0:
413,168,173194,1,0,3:0:0:0:
327,108,173371,1,8,0:0:0:0:
419,258,173547,1,0,0:0:0:0:
419,258,173635,1,0,0:0:0:0:
419,258,173724,6,0,L|439:75,1,170,0|8,3:0|0:0,2:0:0:0:
315,180,174253,1,0,0:0:0:0:
334,12,174430,1,0,3:0:0:0:
315,180,174606,2,0,L|334:12,1,170,8|0,0:0|3:0,2:0:0:0:
83,162,175135,5,0,0:0:0:0:
216,241,175312,2,0,P|182:187|70:166,1,170,8|0,0:0|3:0,2:0:0:0:
353,270,175841,2,0,P|403:243|463:245,1,85,8|0,0:0|0:0,2:0:0:0:
425,330,176194,5,0,3:0:0:0:
353,67,176371,1,0,0:0:0:0:
205,69,176547,1,8,0:0:0:0:
277,332,176724,1,0,0:0:0:0:
311,240,176900,5,0,3:0:0:0:
86,337,177077,1,8,0:0:0:0:
90,46,177253,1,0,0:0:0:0:
200,264,177430,1,0,3:0:0:0:
112,211,177606,1,0,0:0:0:0:
205,163,177782,1,8,0:0:0:0:
339,341,177959,5,2,0:0:0:0:
360,338,178047,1,2,0:0:0:0:
381,336,178135,1,2,0:0:0:0:
402,334,178223,1,2,0:0:0:0:
422,331,178312,5,2,0:0:0:0:
394,299,178400,1,2,0:0:0:0:
358,276,178488,1,2,0:0:0:0:
317,265,178576,1,2,0:0:0:0:
275,265,178664,5,2,3:2:0:0:
203,322,178841,2,0,L|109:318,1,85,0|10,3:0|0:0,2:0:0:0:
303,152,179194,2,0,L|205:149,1,85,2|0,0:0|3:0,2:0:0:0:
403,322,179547,2,0,L|305:319,1,85,10|0,0:0|2:0,2:0:0:0:
104,203,179900,1,2,3:2:0:0:
99,191,179988,1,2,0:0:0:0:
99,180,180077,5,2,0:0:0:0:
129,172,180165,1,2,0:0:0:0:
161,169,180253,1,10,0:0:0:0:
192,175,180341,1,2,0:0:0:0:
220,190,180429,1,2,0:0:0:0:
248,206,180518,1,2,0:0:0:0:
278,214,180606,1,2,3:2:0:0:
310,214,180694,1,2,0:0:0:0:
342,208,180782,5,10,0:0:0:0:
349,167,180870,1,2,0:0:0:0:
332,129,180958,1,2,0:0:0:0:
296,108,181046,1,2,0:0:0:0:
254,112,181134,5,2,3:2:0:0:
172,75,181312,2,0,L|151:-17,1,85,0|10,3:0|0:0,2:0:0:0:
98,248,181665,2,0,L|80:137,1,85,2|0,0:0|0:0,2:0:0:0:
359,307,182018,2,0,L|341:196,1,85,10|2,0:0|0:0,2:0:0:0:
352,200,182282,1,2,0:0:0:0:
365,185,182371,1,2,3:2:0:0:
391,176,182459,1,2,0:0:0:0:
416,181,182547,2,0,L|473:190,1,42.5,2|2,0:0|0:0,2:0:0:0:
373,58,182724,5,10,0:0:0:0:
322,42,182812,1,2,0:0:0:0:
274,51,182900,2,0,L|267:130,1,42.5,2|2,0:0|0:0,2:0:0:0:
151,156,183077,2,0,L|171:227,1,42.5,2|2,3:2|0:0,2:0:0:0:
34,45,183253,5,10,0:0:0:0:
93,22,183341,1,2,0:0:0:0:
156,26,183429,1,2,0:0:0:0:
211,56,183517,1,2,0:0:0:0:
249,107,183606,6,0,B|271:201|216:177|248:284,1,170,2|10,3:2|0:0,2:0:0:0:
339,282,184135,2,0,B|310:186|365:210|343:116,2,170,2|10|2,3:2|0:0|3:2,2:0:0:0:
418,335,185018,1,0,2:0:0:0:
458,247,185194,1,10,0:0:0:0:
423,241,185282,1,2,0:0:0:0:
387,245,185370,1,2,0:0:0:0:
354,256,185458,1,2,0:0:0:0:
320,265,185546,1,2,3:2:0:0:
285,266,185635,1,2,0:0:0:0:
245,254,185724,5,10,0:0:0:0:
241,244,185812,1,2,0:0:0:0:
237,234,185900,1,2,0:0:0:0:
233,224,185988,1,2,0:0:0:0:
230,214,186076,5,2,3:2:0:0:
140,169,186253,2,0,B|97:167|97:167|47:188,1,85,2|10,0:0|0:0,2:0:0:0:
269,319,186606,2,0,B|312:321|312:321|362:300,1,85,0|2,0:0|3:2,2:0:0:0:
285,229,186959,2,0,L|94:268,1,170,10|0,0:0|3:0,2:0:0:0:
337,147,187488,5,2,0:0:0:0:
360,167,187576,1,2,0:0:0:0:
376,195,187664,1,10,0:0:0:0:
381,226,187752,1,2,0:0:0:0:
376,257,187841,5,2,0:0:0:0:
339,220,187929,1,2,0:0:0:0:
327,169,188017,1,2,3:2:0:0:
343,118,188105,1,2,0:0:0:0:
382,84,188194,6,0,L|430:135,1,42.5,10|0,0:1|2:0,2:0:0:0:
512,244,188371,2,0,L|500:321,1,42.5,0|0,2:0|0:0,2:0:0:0:
338,358,188547,5,2,3:2:0:0:
173,338,188724,1,2,3:2:0:0:
338,358,188900,1,8,0:0:0:0:
173,338,189077,2,0,B|265:312|338:358,1,170,2|10,0:0|0:0,2:0:0:0:
105,296,189606,1,0,2:0:0:0:
28,332,189782,1,2,3:2:0:0:
28,332,189871,1,2,0:0:0:0:
28,332,189959,5,2,0:0:0:0:
6,295,190047,1,2,0:0:0:0:
0,254,190135,1,10,0:0:0:0:
6,212,190223,1,2,0:0:0:0:
29,176,190312,5,2,0:0:0:0:
56,192,190400,1,2,0:0:0:0:
87,201,190488,1,2,3:2:0:0:
119,200,190576,1,2,0:0:0:0:
149,192,190664,5,10,0:0:0:0:
150,181,190753,1,2,0:0:0:0:
151,171,190841,1,2,0:0:0:0:
152,160,190929,1,2,0:0:0:0:
153,150,191017,5,2,3:2:0:0:
214,81,191194,1,0,3:0:0:0:
246,159,191371,1,10,0:0:0:0:
398,106,191547,2,0,B|341:113|341:113|311:149|311:149|232:160,1,170,2|10,0:0|0:0,2:0:0:0:
407,203,192077,1,2,0:0:0:0:
407,203,192165,1,2,0:0:0:0:
407,203,192253,2,0,L|460:199,3,42.5,2|2|2|2,3:2|0:0|0:0|0:0,2:0:0:0:
321,314,192606,5,10,0:0:0:0:
275,287,192694,1,2,0:0:0:0:
222,282,192782,1,2,0:0:0:0:
172,300,192870,1,2,0:0:0:0:
134,336,192959,5,2,3:2:0:0:
89,315,193047,1,2,0:0:0:0:
55,280,193135,1,10,0:0:0:0:
34,235,193223,1,2,0:0:0:0:
31,186,193311,1,2,0:0:0:0:
45,139,193400,1,2,0:0:0:0:
74,99,193488,5,2,3:2:0:0:
232,158,193665,1,0,3:0:0:0:
206,7,193841,1,10,0:0:0:0:
170,90,194018,2,0,B|231:90|231:90|268:118|268:118|362:115,2,170,2|10|2,0:0|0:0|3:2,2:0:0:0:
344,211,194900,2,0,L|440:203,1,85,0|10,2:0|0:0,2:0:0:0:
459,223,195165,1,2,0:0:0:0:
459,223,195253,1,2,0:0:0:0:
459,223,195341,1,2,0:0:0:0:
459,223,195430,5,2,3:2:0:0:
478,203,195518,1,2,0:0:0:0:
490,177,195606,1,10,0:0:0:0:
492,149,195694,1,2,0:0:0:0:
485,122,195782,1,2,0:0:0:0:
468,99,195871,1,2,0:0:0:0:
444,84,195959,6,0,L|385:99,3,42.5,2|2|2|2,0:0|0:0|0:0|0:0,2:0:0:0:
315,209,196312,6,0,L|255:223,3,42.5,2|2|2|2,0:0|0:0|0:0|0:0,2:0:0:0:
91,100,196665,6,0,L|29:92,3,42.5,2|2|2|2,0:0|0:0|0:0|0:0,2:0:0:0:
463,326,197018,6,0,L|401:318,3,42.5,2|2|2|2,0:0|0:0|0:0|0:0,2:0:0:0:
148,167,197371,6,0,P|138:190|138:219,1,42.5,2|2,0:0|0:0,2:0:0:0:
54,210,197547,6,0,P|56:234|71:260,1,42.5,2|2,0:0|0:0,2:0:0:0:
336,240,197724,6,0,P|311:242|285:257,1,42.5,2|2,0:0|0:0,2:0:0:0:
251,180,197900,6,0,P|230:194|216:220,1,42.5,2|2,0:0|0:0,2:0:0:0:
380,334,198077,6,0,P|357:324|328:324,3,42.5,2|2|2|0,0:0|0:0|0:0|2:0,2:0:0:0:
190,306,198430,5,2,0:1:0:0:
190,306,198606,1,2,0:1:0:0:
499,205,198782,6,0,B|464:171|411:172|411:172|396:230|330:240,1,203.999993774414,2|0,3:1|3:0,2:0:0:0:
178,59,199312,2,0,P|255:48|303:177,1,203.999993774414,10|0,0:1|3:0,2:0:0:0:
269,304,199841,2,0,P|244:261|247:211,1,101.999996887207,2|0,3:1|2:0,2:0:0:0:
314,144,200194,1,0,2:0:0:0:
163,267,200371,1,0,3:0:0:0:
352,350,200547,1,10,0:0:0:0:
481,226,200724,1,2,0:0:0:0:
481,226,200812,1,2,0:0:0:0:
481,226,200900,6,0,B|501:161|501:161|477:104|477:104|500:16,1,203.999993774414,2|8,3:1|0:0,2:0:0:0:
391,177,201430,2,0,B|353:194|353:194|279:177,1,101.999996887207,2|0,0:1|3:0,2:0:0:0:
76,143,201782,1,10,0:1:0:0:
179,110,201959,2,0,B|188:160|188:160|145:228,2,101.999996887207,2|0|0,0:1|2:0|2:0,2:0:0:0:
139,30,202488,6,0,P|155:24|210:25,1,50.9999984436036,8|0,2:0|0:0,2:0:0:0:
274,158,202665,1,2,0:2:0:0:
409,91,202841,1,2,3:2:0:0:
487,298,203018,1,10,0:2:0:0:
392,198,203194,1,2,0:2:0:0:
120,311,203371,6,0,P|200:355|311:297,1,203.999993774414,2|8,3:1|0:0,2:0:0:0:
392,198,203900,2,0,P|370:258|389:303,1,101.999996887207,2|0,0:1|3:0,2:0:0:0:
432,358,204253,1,8,0:0:0:0:
288,227,204430,1,2,0:1:0:0:
411,114,204606,6,0,L|522:104,1,101.999996887207,2|0,3:1|2:0,2:0:0:0:
283,234,204959,2,0,L|172:224,1,101.999996887207,10|2,0:0|0:0,2:0:0:0:
110,150,205312,1,2,3:2:0:0:
197,312,205488,1,10,0:0:0:0:
197,312,205577,1,0,2:0:0:0:
197,312,205665,1,2,0:1:0:0:
271,157,205841,6,0,P|278:89|277:40,1,101.999996887207,2|0,3:1|2:0,2:0:0:0:
83,260,206194,2,0,P|83:310|89:361,1,101.999996887207,10|0,0:1|2:0,2:0:0:0:
281,265,206547,1,2,3:1:0:0:
126,160,206724,1,8,2:0:0:0:
375,79,206900,2,0,P|374:110|367:143,1,50.9999984436036,2|0,0:1|0:0,2:0:0:0:
284,283,207077,6,0,P|365:256|502:233,1,203.999993774414,2|8,3:1|2:0,2:0:0:0:
480,351,207606,1,0,2:0:0:0:
480,351,207694,1,0,0:0:0:0:
480,351,207782,2,0,P|444:344|414:336,1,50.9999984436036,2|0,3:1|2:0,2:0:0:0:
306,184,207959,1,8,2:0:0:0:
279,372,208135,2,0,P|315:365|345:357,1,50.9999984436036,0|0,3:0|2:0,2:0:0:0:
93,238,208312,6,0,B|220:214|159:308|316:278,1,203.999993774414,2|8,3:1|2:0,2:0:0:0:
481,214,208841,1,0,2:0:0:0:
481,214,208930,1,0,2:0:0:0:
481,214,209018,1,0,3:0:0:0:
401,293,209194,1,8,0:0:0:0:
309,106,209371,2,0,P|329:172|336:213,2,101.999996887207,2|8|0,0:1|2:0|2:0,2:0:0:0:
411,111,209900,1,8,0:0:0:0:
211,182,210077,5,2,0:1:0:0:
46,84,210253,1,2,0:1:0:0:
101,7,210430,1,2,0:0:0:0:
131,47,210518,1,2,0:0:0:0:
137,97,210606,1,2,0:0:0:0:
116,143,210694,1,2,0:0:0:0:
123,193,210782,6,0,P|125:273|112:322,1,101.999996887207,2|0,3:1|2:0,2:0:0:0:
210,367,211135,2,0,B|274:385|274:385|418:336,1,203.999993774414,8|0,2:0|3:0,2:0:0:0:
346,143,211665,1,8,0:0:0:0:
291,251,211841,1,2,0:1:0:0:
410,223,212018,1,0,3:0:0:0:
301,59,212194,1,0,2:0:0:0:
301,59,212282,1,0,2:0:0:0:
301,59,212371,5,8,2:0:0:0:
237,141,212547,1,0,2:0:0:0:
95,46,212724,1,0,3:0:0:0:
21,117,212900,1,10,0:0:0:0:
88,307,213077,1,2,0:0:0:0:
88,307,213165,1,2,0:0:0:0:
88,307,213253,6,0,L|114:173,1,101.999996887207,2|0,3:1|2:0,2:0:0:0:
416,251,213606,2,0,P|302:263|182:286,1,203.999993774414,8|0,2:0|3:0,2:0:0:0:
470,163,214135,1,8,0:0:0:0:
391,368,214312,1,2,0:1:0:0:
391,368,214400,1,0,0:0:0:0:
391,368,214488,6,0,P|461:371|508:362,1,101.999996887207,2|0,3:1|2:0,2:0:0:0:
347,163,214841,1,8,2:0:0:0:
292,258,215018,1,0,2:0:0:0:
75,170,215194,1,0,3:0:0:0:
139,335,215371,5,10,0:0:0:0:
164,290,215459,1,2,0:0:0:0:
173,239,215547,1,2,0:0:0:0:
163,189,215635,1,2,0:0:0:0:
187,143,215724,6,0,P|257:103|397:93,1,203.999993774414,2|8,3:1|2:0,2:0:0:0:
504,220,216253,2,0,P|448:203|411:149,1,101.999996887207,0|0,2:0|3:0,2:0:0:0:
444,25,216606,5,8,2:0:0:0:
484,117,216782,1,0,0:0:0:0:
283,208,216959,5,2,3:1:0:0:
266,298,217135,1,0,2:0:0:0:
100,105,217312,5,8,2:0:0:0:
29,160,217488,1,0,2:0:0:0:
220,116,217665,5,0,3:0:0:0:
387,177,217841,1,8,0:0:0:0:
166,258,218018,1,0,0:0:0:0:
367,360,218194,5,0,3:2:0:0:
425,299,218371,1,0,0:0:0:0:
496,344,218547,1,0,0:0:0:0:
237,218,218724,5,4,3:2:0:0:
179,157,218901,1,0,0:0:0:0:
108,202,219077,1,0,0:0:0:0:
379,99,219253,5,4,3:2:0:0:
466,117,219430,1,0,0:0:0:0:
408,182,219606,1,0,0:0:0:0:
123,295,219782,5,4,3:2:0:0:
65,230,219958,1,0,0:0:0:0:
152,212,220135,1,0,0:0:0:0:
295,352,220312,5,6,0:0:0:0:
306,346,220400,1,0,2:0:0:0:
318,341,220488,1,2,0:0:0:0:
330,336,220576,1,2,0:0:0:0:
341,331,220664,5,6,3:2:0:0:
422,246,220841,1,0,0:0:0:0:
349,154,221018,1,0,0:0:0:0:
145,0,221194,5,6,3:2:0:0:
72,92,221371,1,0,0:0:0:0:
152,178,221548,1,0,0:0:0:0:
428,56,221724,5,6,3:2:0:0:
317,24,221900,1,0,0:0:0:0:
270,131,222077,1,0,0:0:0:0:
0,237,222253,5,6,3:2:0:0:
111,205,222429,1,0,0:0:0:0:
158,312,222606,1,0,0:0:0:0:
348,209,222782,5,6,0:0:0:0:
351,183,222870,1,2,0:0:0:0:
354,158,222958,1,2,0:0:0:0:
357,133,223046,1,2,0:0:0:0:
360,107,223134,5,6,3:2:0:0:
232,10,223312,1,0,0:0:0:0:
236,192,223488,1,0,0:0:0:0:
13,110,223665,5,6,3:2:0:0:
173,89,223841,1,0,2:0:0:0:
78,245,224019,1,0,0:0:0:0:
503,215,224194,5,6,3:2:0:0:
343,194,224372,1,0,0:0:0:0:
438,350,224548,1,0,0:0:0:0:
119,204,224724,5,6,3:2:0:0:
238,313,224900,1,0,2:0:0:0:
58,341,225078,1,0,0:0:0:0:
271,186,225253,5,6,0:0:0:0:
271,186,225341,1,2,0:0:0:0:
271,186,225430,2,0,L|351:196,1,50.9999984436036,2|2,0:0|0:0,2:0:0:0:
420,149,225606,1,2,2:2:0:0:
201,76,225782,5,6,3:2:0:0:
72,165,225959,1,0,0:0:0:0:
0,30,226135,1,0,0:0:0:0:
209,219,226312,5,6,3:2:0:0:
375,64,226488,1,0,0:0:0:0:
473,270,226665,1,0,0:0:0:0:
393,340,226841,5,6,3:2:0:0:
474,62,227018,1,0,0:0:0:0:
191,107,227194,1,0,0:0:0:0:
365,161,227371,5,0,1:0:0:0:
382,192,227459,1,0,1:0:0:0:
385,227,227547,1,0,1:0:0:0:
374,262,227635,1,0,1:0:0:0:
352,290,227724,5,0,1:0:0:0:
309,257,227812,1,0,1:0:0:0:
281,211,227900,1,0,1:0:0:0:
271,158,227988,1,0,1:0:0:0:
283,104,228076,5,12,0:0:0:0:
401,17,228253,1,0,3:0:0:0:
382,192,228430,1,0,3:0:0:0:
168,197,228606,5,12,0:0:0:0:
50,110,228783,1,0,3:0:0:0:
69,285,228960,1,0,3:0:0:0:
6,199,229135,5,12,0:0:0:0:
145,116,229312,1,0,3:0:0:0:
296,173,229489,1,0,3:0:0:0:
493,329,229665,5,8,0:0:0:0:
354,246,229842,1,0,3:0:0:0:
203,303,230019,1,0,3:0:0:0:
44,220,230194,5,2,0:0:0:0:
44,220,230282,1,2,0:0:0:0:
44,220,230371,1,2,0:0:0:0:
80,33,230547,5,12,0:0:0:0:
126,221,230724,1,0,3:0:0:0:
80,33,230900,1,0,3:0:0:0:
142,304,231077,5,12,0:0:0:0:
183,141,231253,1,0,3:0:0:0:
142,304,231430,1,0,3:0:0:0:
264,72,231606,5,12,0:0:0:0:
322,309,231782,1,0,3:0:0:0:
264,72,231959,1,0,3:0:0:0:
497,35,232135,5,8,0:0:0:0:
312,210,232312,1,0,3:0:0:0:
92,79,232488,1,0,3:0:0:0:
204,15,232665,6,0,L|224:81,1,50.9999984436036,2|2,0:0|0:0,2:0:0:0:
76,203,232841,2,0,L|61:278,1,50.9999984436036,2|2,0:0|0:0,2:0:0:0:
165,366,233018,5,12,0:0:0:0:
73,111,233194,1,0,3:0:0:0:
339,158,233371,1,0,3:0:0:0:
203,176,233547,5,12,0:0:0:0:
469,129,233724,1,0,3:0:0:0:
377,384,233900,1,0,3:0:0:0:
375,254,234077,5,12,0:0:0:0:
174,336,234253,1,0,0:0:0:0:
5,202,234430,1,0,3:0:0:0:
74,287,234606,5,8,0:0:0:0:
275,369,234782,1,0,3:0:0:0:
444,235,234959,1,0,3:0:0:0:
325,156,235135,6,0,L|311:91,1,50.9999984436036,2|2,0:0|0:0,2:0:0:0:
461,85,235312,2,0,L|472:9,1,50.9999984436036,2|0,0:0|2:0,2:0:0:0:
422,247,235488,5,0,3:0:0:0:
381,277,235576,1,0,3:0:0:0:
331,287,235664,1,0,3:0:0:0:
282,275,235752,1,0,3:0:0:0:
243,244,235840,5,0,3:0:0:0:
197,221,235929,1,0,3:0:0:0:
147,219,236017,1,0,3:0:0:0:
100,238,236105,1,0,3:0:0:0:
65,274,236194,5,0,3:0:0:0:
121,246,236282,1,0,3:0:0:0:
155,193,236370,1,0,3:0:0:0:
159,130,236458,1,0,3:0:0:0:
130,74,236546,5,2,0:0:0:0:
64,135,236724,1,0,0:0:0:0:
0,75,236900,1,2,0:0:0:0:
344,148,237077,5,0,0:0:0:0:
419,99,237253,1,2,0:0:0:0:
419,99,237341,1,2,0:0:0:0:
419,99,237430,1,2,0:0:0:0:
419,99,237518,1,2,0:0:0:0:
419,99,237606,2,0,L|480:99,3,42.5,2|2|2|2,0:0|0:0|0:0|0:0,2:0:0:0:
481,79,237959,5,2,0:0:0:0:
256,192,238053,12,0,240592,0:0:0:0:
