osu file format v14

[General]
AudioFilename: angelik-vice.mp3
AudioLeadIn: 0
PreviewTime: 124767
Countdown: 0
SampleSet: Normal
StackLeniency: 0.7
Mode: 1
LetterboxInBreaks: 0
WidescreenStoryboard: 1

[Editor]
Bookmarks: 11826,23120,34414,45708,57002,68296,79590,90884,102179,113473,124767,136061,147355,153002,158649,164296,169943,181237,192531,203826,215120,226414,237708,260296,282884
DistanceSpacing: 0.3
BeatDivisor: 4
GridSize: 4
TimelineZoom: 2.4

[Metadata]
Title:angelik-vice (full ver.)
TitleUnicode:angelik-vice (full ver.)
Artist:void
ArtistUnicode:void
Creator:Charlotte
Version:Fallen Angel
Source:crossbeats REV.
Tags:Mournfinale CAPCOM クロスビーツ・オリジナルサウンドトラックCD~crossbeats REV.シリーズ・セレクション~ Mesmerised [R] Ron's
BeatmapID:1437693
BeatmapSetID:679876

[Difficulty]
HPDrainRate:4.4
CircleSize:5
OverallDifficulty:6.6
ApproachRate:8
SliderMultiplier:1.4
SliderTickRate:1

[Events]
//Background and Video events
0,0,"BG7.jpg",0,90
//Break Periods
2,23320,28193
//Storyboard Layer 0 (Background)
Sprite,Background,Centre,"BG7.jpg",320,455 S,0,532,,0.45 F,0,532,6179,0,1 F,0,11826,12531,1,0.5 F,0,23120,23826,0.5,1 F,0,34414,35120,1,0.5 F,0,123355,123708,0.5,0 F,0,124414,124767,0,1 F,0,147355,147708,1,0.5 F,0,191120,191473,0.5,0 F,0,192179,192531,0,1 F,0,249002,249708,1,0.5 F,0,258884,259237,0.5,0 F,0,260296,260649,0,0.5 F,0,282531,282884,0.5,1 F,0,306884,307237,1,0
//Storyboard Layer 1 (Fail)
//Storyboard Layer 2 (Pass)
//Storyboard Layer 3 (Foreground)
Sprite,Foreground,Centre,"sb\black.png",320,240 V,0,532,,0.8,1.95 M,0,532,306884,320,100
Sprite,Foreground,Centre,"BG7.jpg",320,455 F,0,124767,125120,1,0 S,0,124767,125120,0.45,0.6 F,0,192531,192884,1,0 S,0,192531,192884,0.45,0.6 F,0,282884,283237,1,0 S,0,282884,283237,0.45,0.6
//Storyboard Sound Samples

[TimingPoints]
532,352.941176470588,4,1,0,70,1,0
28855,-100,4,1,0,60,0,0
34326,-100,4,1,0,70,0,0
45708,-100,4,1,0,80,0,0
79502,-100,4,1,0,50,0,0
102090,-100,4,1,0,70,0,0
113384,-100,4,1,0,80,0,0
124679,-100,4,1,0,90,0,0
124767,-100,4,1,0,90,0,1
147355,-100,4,1,0,70,0,0
175590,-100,4,1,0,60,0,0
181149,-100,4,1,0,80,0,0
192443,-100,4,1,0,90,0,0
192531,-100,4,1,0,90,0,1
223502,-90.9090909090909,4,1,0,90,0,1
224031,-83.3333333333333,4,1,0,90,0,1
224914,-76.9230769230769,4,1,0,90,0,1
225443,-71.4285714285714,4,1,0,90,0,1
225796,-66.6666666666667,4,1,0,90,0,1
226326,-100,4,1,0,90,0,1
237708,-100,4,1,0,70,0,0
248914,-100,4,1,0,80,0,0
260208,-100,4,1,0,70,0,0
277237,-100,4,1,0,60,0,0
282796,-100,4,1,0,80,0,0
297002,-66.6666666666667,4,1,0,80,0,0
298414,-66.6666666666667,4,1,0,70,0,0
299826,-66.6666666666667,4,1,0,60,0,0
301237,-66.6666666666667,4,1,0,50,0,0
302649,-66.6666666666667,4,1,0,30,0,0
304061,-66.6666666666667,4,1,0,15,0,0
305473,-66.6666666666667,4,1,0,5,0,0

[HitObjects]
256,192,532,5,4,0:0:0:0:
256,192,708,1,0,0:0:0:0:
256,192,796,1,0,0:0:0:0:
256,192,884,1,8,0:0:0:0:
256,192,1061,1,0,0:0:0:0:
256,192,1149,1,0,0:0:0:0:
256,192,1237,1,0,0:0:0:0:
256,192,1414,1,8,0:0:0:0:
256,192,1502,1,0,0:0:0:0:
256,192,1590,1,0,0:0:0:0:
256,188,1767,1,8,0:0:0:0:
256,192,1943,1,0,0:0:0:0:
256,192,2120,1,0,0:0:0:0:
256,192,2208,1,0,0:0:0:0:
256,192,2296,1,8,0:0:0:0:
256,192,2473,1,8,0:0:0:0:
256,192,2561,1,8,0:0:0:0:
256,188,2649,1,0,0:0:0:0:
256,192,2826,1,0,0:0:0:0:
256,192,2914,1,8,0:0:0:0:
256,192,3002,1,0,0:0:0:0:
256,192,3179,1,8,0:0:0:0:
256,192,3355,1,0,0:0:0:0:
256,192,3531,1,0,0:0:0:0:
256,192,3620,1,0,0:0:0:0:
256,192,3708,1,8,0:0:0:0:
256,192,3884,1,0,0:0:0:0:
256,192,3973,1,0,0:0:0:0:
256,192,4061,1,0,0:0:0:0:
256,192,4237,1,8,0:0:0:0:
256,192,4326,1,0,0:0:0:0:
256,192,4414,1,0,0:0:0:0:
256,188,4590,1,8,0:0:0:0:
256,192,4767,1,0,0:0:0:0:
256,192,4943,1,0,0:0:0:0:
256,192,5031,1,0,0:0:0:0:
256,192,5120,1,8,0:0:0:0:
256,192,5296,1,8,0:0:0:0:
256,192,5384,1,8,0:0:0:0:
256,188,5473,1,0,0:0:0:0:
256,192,5649,1,0,0:0:0:0:
256,192,5737,1,8,0:0:0:0:
256,192,5826,1,0,0:0:0:0:
256,192,6002,1,8,0:0:0:0:
256,192,6179,1,0,0:0:0:0:
256,192,6355,1,0,0:0:0:0:
256,192,6443,1,0,0:0:0:0:
256,192,6531,1,8,0:0:0:0:
256,192,6708,1,0,0:0:0:0:
256,192,6796,1,0,0:0:0:0:
256,192,6884,1,0,0:0:0:0:
256,192,7061,1,8,0:0:0:0:
256,192,7149,1,8,0:0:0:0:
256,192,7237,1,0,0:0:0:0:
256,188,7414,1,8,0:0:0:0:
256,192,7590,1,0,0:0:0:0:
256,192,7767,1,0,0:0:0:0:
256,192,7855,1,0,0:0:0:0:
256,192,7943,1,8,0:0:0:0:
256,192,8120,1,0,0:0:0:0:
256,192,8208,1,8,0:0:0:0:
256,188,8296,1,0,0:0:0:0:
256,192,8473,1,8,0:0:0:0:
256,192,8561,1,8,0:0:0:0:
256,192,8649,1,0,0:0:0:0:
256,192,8826,1,8,0:0:0:0:
256,192,9002,1,0,0:0:0:0:
256,192,9179,1,0,0:0:0:0:
256,192,9267,1,0,0:0:0:0:
256,192,9355,1,8,0:0:0:0:
256,192,9531,1,0,0:0:0:0:
256,192,9620,1,0,0:0:0:0:
256,192,9708,1,0,0:0:0:0:
256,192,9884,1,8,0:0:0:0:
256,192,9973,1,8,0:0:0:0:
256,192,10061,1,0,0:0:0:0:
256,188,10237,1,8,0:0:0:0:
256,192,10414,1,0,0:0:0:0:
256,192,10590,1,0,0:0:0:0:
256,192,10679,1,0,0:0:0:0:
256,192,10767,1,8,0:0:0:0:
256,192,10943,1,0,0:0:0:0:
256,192,11031,1,8,0:0:0:0:
256,188,11120,1,0,0:0:0:0:
256,192,11296,1,8,0:0:0:0:
256,192,11384,1,8,0:0:0:0:
256,192,11473,1,0,0:0:0:0:
256,192,11826,1,0,0:0:0:0:
256,192,11914,1,8,0:0:0:0:
256,188,12090,1,0,0:0:0:0:
256,192,12179,1,0,0:0:0:0:
256,192,12355,1,8,0:0:0:0:
256,192,12531,1,8,0:0:0:0:
256,192,12620,1,0,0:0:0:0:
256,192,12708,1,8,0:0:0:0:
256,192,12796,1,8,0:0:0:0:
256,192,12884,1,0,0:0:0:0:
256,192,12973,1,8,0:0:0:0:
256,192,13149,1,0,0:0:0:0:
256,192,13326,1,0,0:0:0:0:
256,192,13502,1,8,0:0:0:0:
256,192,13590,1,0,0:0:0:0:
256,192,13767,1,8,0:0:0:0:
256,192,13943,1,0,0:0:0:0:
256,192,14031,1,8,0:0:0:0:
256,192,14120,1,0,0:0:0:0:
256,192,14208,1,0,0:0:0:0:
256,192,14296,1,8,0:0:0:0:
256,192,14384,1,8,0:0:0:0:
256,192,14561,1,0,0:0:0:0:
256,192,14737,1,8,0:0:0:0:
256,192,14914,1,0,0:0:0:0:
256,192,15002,1,0,0:0:0:0:
256,192,15179,1,8,0:0:0:0:
256,192,15355,1,8,0:0:0:0:
256,192,15443,1,0,0:0:0:0:
256,192,15531,1,8,0:0:0:0:
256,192,15620,1,8,0:0:0:0:
256,192,15708,1,0,0:0:0:0:
256,192,15796,1,8,0:0:0:0:
256,192,15973,1,0,0:0:0:0:
256,192,16149,1,0,0:0:0:0:
256,192,16326,1,8,0:0:0:0:
256,192,16414,1,0,0:0:0:0:
256,192,16590,1,8,0:0:0:0:
256,192,16767,1,0,0:0:0:0:
256,192,16855,1,8,0:0:0:0:
256,192,16943,1,0,0:0:0:0:
256,192,17031,1,0,0:0:0:0:
256,192,17120,1,8,0:0:0:0:
256,192,17208,1,8,0:0:0:0:
256,192,17384,1,0,0:0:0:0:
256,192,17561,1,0,0:0:0:0:
256,192,17649,1,0,0:0:0:0:
256,192,17737,1,8,0:0:0:0:
256,192,17826,1,0,0:0:0:0:
256,192,18002,1,8,0:0:0:0:
256,192,18179,1,8,0:0:0:0:
256,192,18267,1,8,0:0:0:0:
256,192,18355,1,0,0:0:0:0:
256,192,18443,1,0,0:0:0:0:
256,192,18531,1,8,0:0:0:0:
256,192,18620,1,8,0:0:0:0:
256,192,18796,1,0,0:0:0:0:
256,192,18973,1,0,0:0:0:0:
256,192,19061,1,8,0:0:0:0:
256,192,19149,1,8,0:0:0:0:
256,192,19237,1,0,0:0:0:0:
256,192,19414,1,8,0:0:0:0:
256,192,19590,1,0,0:0:0:0:
256,192,19679,1,8,0:0:0:0:
256,192,19767,1,8,0:0:0:0:
256,192,19855,1,0,0:0:0:0:
256,192,19943,1,0,0:0:0:0:
256,192,20031,1,8,0:0:0:0:
256,192,20208,1,0,0:0:0:0:
256,192,20384,1,0,0:0:0:0:
256,192,20473,1,0,0:0:0:0:
256,192,20561,1,8,0:0:0:0:
256,192,20649,1,0,0:0:0:0:
256,192,20826,1,8,0:0:0:0:
256,192,21002,1,8,0:0:0:0:
256,192,21090,1,8,0:0:0:0:
256,192,21179,1,0,0:0:0:0:
256,192,21267,1,0,0:0:0:0:
256,192,21355,1,8,0:0:0:0:
256,192,21443,1,8,0:0:0:0:
256,192,21620,1,0,0:0:0:0:
256,192,21796,1,0,0:0:0:0:
256,192,21884,1,8,0:0:0:0:
256,192,21973,1,8,0:0:0:0:
256,192,22061,1,0,0:0:0:0:
256,192,22237,1,8,0:0:0:0:
256,192,22414,1,0,0:0:0:0:
256,192,22502,1,8,0:0:0:0:
256,192,22590,1,0,0:0:0:0:
256,192,22679,1,0,0:0:0:0:
256,192,22767,1,8,0:0:0:0:
256,192,22855,1,0,0:0:0:0:
256,192,22943,1,8,0:0:0:0:
256,192,23031,1,8,0:0:0:0:
256,192,23120,1,0,0:0:0:0:
256,192,28943,5,8,0:0:0:0:
256,192,29208,1,8,0:0:0:0:
256,192,29473,1,8,0:0:0:0:
256,192,29737,1,8,0:0:0:0:
256,192,30002,1,8,0:0:0:0:
256,192,30267,1,8,0:0:0:0:
256,192,30531,1,8,0:0:0:0:
256,192,30796,1,8,0:0:0:0:
256,192,31061,1,8,0:0:0:0:
256,192,31326,1,8,0:0:0:0:
256,192,31767,1,8,0:0:0:0:
256,192,32031,1,8,0:0:0:0:
256,192,32296,1,8,0:0:0:0:
256,192,32561,1,8,0:0:0:0:
256,192,32826,1,8,0:0:0:0:
256,192,33090,1,8,0:0:0:0:
256,192,33355,1,8,0:0:0:0:
256,192,33620,1,8,0:0:0:0:
256,192,33884,1,8,0:0:0:0:
256,192,34149,1,8,0:0:0:0:
256,192,34414,1,4,0:0:0:0:
256,192,34590,1,0,0:0:0:0:
256,192,34679,1,0,0:0:0:0:
256,192,34767,1,8,0:0:0:0:
256,192,34943,1,8,0:0:0:0:
256,192,35120,1,0,0:0:0:0:
256,192,35296,1,8,0:0:0:0:
256,192,35384,1,8,0:0:0:0:
256,192,35473,1,8,0:0:0:0:
256,192,35649,1,0,0:0:0:0:
256,192,36002,1,0,0:0:0:0:
256,192,36179,1,8,0:0:0:0:
256,192,36355,1,0,0:0:0:0:
256,192,36531,1,8,0:0:0:0:
256,192,36620,1,8,0:0:0:0:
256,192,36708,1,0,0:0:0:0:
256,192,36796,1,0,0:0:0:0:
256,188,36884,1,8,0:0:0:0:
256,188,37061,1,8,0:0:0:0:
256,192,37237,1,0,0:0:0:0:
256,192,37414,1,0,0:0:0:0:
256,192,37502,1,0,0:0:0:0:
256,192,37590,1,8,0:0:0:0:
256,192,37767,1,8,0:0:0:0:
256,188,37943,1,0,0:0:0:0:
256,192,38120,1,8,0:0:0:0:
256,192,38208,1,0,0:0:0:0:
256,192,38296,1,8,0:0:0:0:
256,192,38473,1,0,0:0:0:0:
256,196,38826,1,0,0:0:0:0:
256,196,39002,1,8,0:0:0:0:
256,196,39179,1,0,0:0:0:0:
256,192,39267,1,0,0:0:0:0:
256,192,39355,1,8,0:0:0:0:
256,196,39531,1,8,0:0:0:0:
256,196,39620,1,0,0:0:0:0:
256,196,39796,1,0,0:0:0:0:
256,196,39884,1,8,0:0:0:0:
256,196,40061,1,4,0:0:0:0:
256,192,40237,1,0,0:0:0:0:
256,192,40326,1,0,0:0:0:0:
256,192,40414,1,8,0:0:0:0:
256,196,40590,1,8,0:0:0:0:
256,196,40767,1,0,0:0:0:0:
256,196,40943,1,8,0:0:0:0:
256,196,41031,1,8,0:0:0:0:
256,192,41120,1,8,0:0:0:0:
256,192,41296,1,0,0:0:0:0:
256,192,41649,1,0,0:0:0:0:
256,192,41826,1,8,0:0:0:0:
256,192,42002,1,0,0:0:0:0:
256,192,42179,1,8,0:0:0:0:
256,192,42267,1,8,0:0:0:0:
256,192,42355,1,0,0:0:0:0:
256,192,42443,1,0,0:0:0:0:
256,188,42531,1,8,0:0:0:0:
256,188,42708,1,8,0:0:0:0:
256,192,42796,1,8,0:0:0:0:
256,192,42884,1,0,0:0:0:0:
256,192,43061,1,0,0:0:0:0:
256,192,43149,1,0,0:0:0:0:
256,192,43237,1,8,0:0:0:0:
256,192,43414,1,8,0:0:0:0:
256,188,43590,1,0,0:0:0:0:
256,192,43767,1,8,0:0:0:0:
256,192,43855,1,0,0:0:0:0:
256,192,43943,1,8,0:0:0:0:
256,192,44120,1,0,0:0:0:0:
256,192,44208,1,0,0:0:0:0:
256,192,44296,1,8,0:0:0:0:
256,192,44384,1,8,0:0:0:0:
256,196,44473,1,0,0:0:0:0:
256,196,44649,1,8,0:0:0:0:
256,192,44737,1,0,0:0:0:0:
256,196,44826,1,8,0:0:0:0:
256,192,44914,1,8,0:0:0:0:
256,192,45002,1,0,0:0:0:0:
252,192,45090,1,0,0:0:0:0:
256,196,45179,1,8,0:0:0:0:
256,196,45267,1,0,0:0:0:0:
256,192,45355,1,8,0:0:0:0:
256,196,45708,1,4,0:0:0:0:
256,192,45884,1,0,0:0:0:0:
256,192,45973,1,0,0:0:0:0:
256,192,46061,1,8,0:0:0:0:
256,196,46237,1,0,0:0:0:0:
256,196,46326,1,0,0:0:0:0:
256,196,46414,1,0,0:0:0:0:
256,196,46767,1,0,0:0:0:0:
256,192,46943,1,8,0:0:0:0:
256,192,47120,1,0,0:0:0:0:
256,192,47296,1,0,0:0:0:0:
256,192,47384,1,0,0:0:0:0:
256,192,47473,1,8,0:0:0:0:
256,188,47649,1,0,0:0:0:0:
256,188,47737,1,8,0:0:0:0:
256,192,47826,1,0,0:0:0:0:
256,192,48002,1,8,0:0:0:0:
256,192,48090,1,8,0:0:0:0:
256,192,48179,1,0,0:0:0:0:
256,192,48267,1,0,0:0:0:0:
256,192,48355,1,8,0:0:0:0:
256,192,48531,1,0,0:0:0:0:
256,192,48708,1,0,0:0:0:0:
256,192,48796,1,0,0:0:0:0:
256,192,48884,1,8,0:0:0:0:
256,192,49061,1,0,0:0:0:0:
256,192,49149,1,0,0:0:0:0:
256,192,49237,1,0,0:0:0:0:
256,192,49590,1,0,0:0:0:0:
256,192,49767,1,8,0:0:0:0:
256,192,49943,1,0,0:0:0:0:
256,192,50120,1,0,0:0:0:0:
256,192,50208,1,0,0:0:0:0:
256,192,50296,1,8,0:0:0:0:
256,192,50473,1,0,0:0:0:0:
256,192,50561,1,0,0:0:0:0:
256,192,50649,1,0,0:0:0:0:
256,192,50826,1,0,0:0:0:0:
256,192,50914,1,8,0:0:0:0:
256,192,51002,1,0,0:0:0:0:
256,192,51090,1,0,0:0:0:0:
256,192,51179,1,8,0:0:0:0:
256,192,51355,1,0,0:0:0:0:
260,192,51531,1,0,0:0:0:0:
256,192,51620,1,0,0:0:0:0:
256,192,51708,1,8,0:0:0:0:
256,192,51884,1,0,0:0:0:0:
256,192,51973,1,0,0:0:0:0:
256,192,52061,1,0,0:0:0:0:
256,196,52414,1,0,0:0:0:0:
256,192,52590,1,8,0:0:0:0:
256,192,52767,1,0,0:0:0:0:
256,192,52943,1,0,0:0:0:0:
256,192,53031,1,0,0:0:0:0:
256,192,53120,1,8,0:0:0:0:
256,188,53296,1,0,0:0:0:0:
256,188,53384,1,8,0:0:0:0:
256,192,53473,1,0,0:0:0:0:
256,192,53649,1,8,0:0:0:0:
256,192,53737,1,8,0:0:0:0:
256,192,53826,1,0,0:0:0:0:
256,192,53914,1,0,0:0:0:0:
256,192,54002,1,8,0:0:0:0:
256,192,54179,1,0,0:0:0:0:
256,192,54355,1,0,0:0:0:0:
256,192,54443,1,0,0:0:0:0:
256,192,54531,1,8,0:0:0:0:
256,192,54708,1,0,0:0:0:0:
256,192,54796,1,0,0:0:0:0:
256,192,54884,1,0,0:0:0:0:
256,192,55237,1,0,0:0:0:0:
256,192,55414,1,8,0:0:0:0:
256,192,55590,1,0,0:0:0:0:
256,192,55767,1,0,0:0:0:0:
256,192,55855,1,0,0:0:0:0:
256,192,55943,1,8,0:0:0:0:
256,192,56120,1,8,0:0:0:0:
256,192,56208,1,0,0:0:0:0:
256,192,56384,1,0,0:0:0:0:
256,192,56473,1,8,0:0:0:0:
256,192,56561,1,8,0:0:0:0:
256,192,56649,1,0,0:0:0:0:
256,192,56737,1,0,0:0:0:0:
256,192,56826,1,0,0:0:0:0:
256,192,57002,1,4,0:0:0:0:
260,192,57179,1,0,0:0:0:0:
256,192,57267,1,0,0:0:0:0:
256,192,57355,1,8,0:0:0:0:
256,192,57531,1,0,0:0:0:0:
256,192,57620,1,0,0:0:0:0:
256,192,57708,1,0,0:0:0:0:
256,192,57884,1,8,0:0:0:0:
256,192,57973,1,0,0:0:0:0:
256,188,58149,1,0,0:0:0:0:
256,192,58237,1,8,0:0:0:0:
256,192,58414,1,0,0:0:0:0:
256,192,58590,1,0,0:0:0:0:
256,192,58679,1,0,0:0:0:0:
256,192,58767,1,8,0:0:0:0:
256,192,58943,1,0,0:0:0:0:
256,188,59031,1,8,0:0:0:0:
256,188,59120,1,0,0:0:0:0:
256,192,59296,1,8,0:0:0:0:
256,192,59384,1,8,0:0:0:0:
256,192,59473,1,0,0:0:0:0:
256,192,59561,1,0,0:0:0:0:
256,192,59649,1,8,0:0:0:0:
256,192,59826,1,0,0:0:0:0:
256,188,60002,1,0,0:0:0:0:
256,188,60090,1,0,0:0:0:0:
256,192,60179,1,8,0:0:0:0:
256,192,60355,1,8,0:0:0:0:
256,192,60443,1,8,0:0:0:0:
256,192,60531,1,0,0:0:0:0:
256,192,60708,1,8,0:0:0:0:
256,192,60796,1,0,0:0:0:0:
256,188,60973,1,0,0:0:0:0:
256,188,61061,1,8,0:0:0:0:
256,192,61237,1,0,0:0:0:0:
256,192,61414,1,0,0:0:0:0:
256,192,61502,1,0,0:0:0:0:
256,192,61590,1,8,0:0:0:0:
256,192,61767,1,0,0:0:0:0:
256,188,61855,1,0,0:0:0:0:
256,188,61943,1,0,0:0:0:0:
256,192,62120,1,0,0:0:0:0:
256,192,62208,1,8,0:0:0:0:
256,192,62296,1,0,0:0:0:0:
256,192,62384,1,0,0:0:0:0:
256,192,62473,1,8,0:0:0:0:
256,192,62561,1,8,0:0:0:0:
256,192,62649,1,0,0:0:0:0:
256,188,62826,1,0,0:0:0:0:
256,188,62914,1,0,0:0:0:0:
256,192,63002,1,8,0:0:0:0:
256,192,63179,1,0,0:0:0:0:
256,192,63267,1,0,0:0:0:0:
256,192,63355,1,0,0:0:0:0:
256,192,63531,1,8,0:0:0:0:
256,192,63620,1,0,0:0:0:0:
256,188,63796,1,0,0:0:0:0:
256,192,63884,1,8,0:0:0:0:
256,192,64061,1,0,0:0:0:0:
256,192,64237,1,0,0:0:0:0:
256,192,64326,1,0,0:0:0:0:
256,192,64414,1,8,0:0:0:0:
256,192,64590,1,0,0:0:0:0:
256,188,64679,1,8,0:0:0:0:
256,188,64767,1,0,0:0:0:0:
256,192,64943,1,8,0:0:0:0:
256,192,65031,1,8,0:0:0:0:
256,192,65120,1,0,0:0:0:0:
256,192,65208,1,0,0:0:0:0:
256,192,65296,1,8,0:0:0:0:
256,192,65473,1,0,0:0:0:0:
256,188,65649,1,0,0:0:0:0:
256,188,65737,1,0,0:0:0:0:
256,192,65826,1,8,0:0:0:0:
256,192,66002,1,8,0:0:0:0:
256,192,66090,1,8,0:0:0:0:
256,192,66179,1,0,0:0:0:0:
256,192,66267,1,0,0:0:0:0:
256,192,66355,1,8,0:0:0:0:
256,192,66443,1,0,0:0:0:0:
256,188,66620,1,0,0:0:0:0:
256,188,66708,1,8,0:0:0:0:
256,192,66884,1,0,0:0:0:0:
256,192,67061,1,0,0:0:0:0:
256,192,67149,1,0,0:0:0:0:
256,192,67237,1,8,0:0:0:0:
256,192,67414,1,8,0:0:0:0:
256,188,67502,1,0,0:0:0:0:
256,188,67679,1,0,0:0:0:0:
256,192,67767,1,8,0:0:0:0:
256,192,67855,1,0,0:0:0:0:
256,192,67943,1,8,0:0:0:0:
256,192,68031,1,8,0:0:0:0:
256,192,68120,1,0,0:0:0:0:
256,192,68296,1,0,0:0:0:0:
256,188,68561,1,0,0:0:0:0:
256,188,68649,1,8,0:0:0:0:
256,192,68826,1,0,0:0:0:0:
256,192,69002,1,8,0:0:0:0:
256,192,69179,1,0,0:0:0:0:
256,192,69267,1,0,0:0:0:0:
260,188,69355,1,0,0:0:0:0:
256,188,69531,1,12,0:0:0:0:
256,192,69796,1,0,0:0:0:0:
256,192,69884,1,8,0:0:0:0:
256,192,70061,1,0,0:0:0:0:
256,192,70237,1,8,0:0:0:0:
256,192,70326,1,0,0:0:0:0:
256,188,70414,1,0,0:0:0:0:
256,184,70590,1,8,0:0:0:0:
256,192,70767,1,0,0:0:0:0:
256,192,71120,1,0,0:0:0:0:
256,192,71296,1,0,0:0:0:0:
260,188,71384,1,8,0:0:0:0:
256,188,71473,1,0,0:0:0:0:
256,192,71649,1,8,0:0:0:0:
256,192,71826,1,0,0:0:0:0:
256,192,72002,1,8,0:0:0:0:
256,192,72090,1,8,0:0:0:0:
260,188,72179,1,0,0:0:0:0:
256,188,72355,1,12,0:0:0:0:
256,192,72620,1,0,0:0:0:0:
256,192,72708,1,8,0:0:0:0:
256,192,72884,1,0,0:0:0:0:
256,192,73061,1,8,0:0:0:0:
256,192,73149,1,0,0:0:0:0:
256,188,73237,1,8,0:0:0:0:
256,192,73414,1,0,0:0:0:0:
256,184,73590,1,8,0:0:0:0:
256,192,73943,1,0,0:0:0:0:
256,188,74208,1,0,0:0:0:0:
256,188,74296,1,8,0:0:0:0:
256,192,74473,1,0,0:0:0:0:
256,192,74649,1,8,0:0:0:0:
256,192,74826,1,0,0:0:0:0:
256,192,74914,1,0,0:0:0:0:
260,188,75002,1,0,0:0:0:0:
256,188,75179,1,12,0:0:0:0:
256,192,75443,1,0,0:0:0:0:
256,192,75531,1,8,0:0:0:0:
256,192,75708,1,0,0:0:0:0:
256,192,75884,1,8,0:0:0:0:
256,192,75973,1,0,0:0:0:0:
256,188,76061,1,0,0:0:0:0:
256,188,76149,1,0,0:0:0:0:
256,184,76237,1,8,0:0:0:0:
256,192,76326,1,8,0:0:0:0:
256,192,76414,1,0,0:0:0:0:
256,192,76502,1,0,0:0:0:0:
256,192,76590,1,8,0:0:0:0:
252,188,76679,1,0,0:0:0:0:
256,192,76767,1,8,0:0:0:0:
256,192,76826,1,8,0:0:0:0:
256,192,76884,1,8,0:0:0:0:
256,192,76943,1,0,0:0:0:0:
256,192,77120,1,8,0:0:0:0:
256,192,77179,1,8,0:0:0:0:
256,192,77237,1,8,0:0:0:0:
256,192,77296,1,0,0:0:0:0:
256,192,77473,1,8,0:0:0:0:
256,192,77561,1,8,0:0:0:0:
256,192,77649,1,0,0:0:0:0:
256,192,77708,1,0,0:0:0:0:
256,192,77767,1,0,0:0:0:0:
256,192,77826,1,8,0:0:0:0:
256,192,77914,1,0,0:0:0:0:
256,192,78002,1,8,0:0:0:0:
256,192,78061,1,8,0:0:0:0:
256,192,78120,1,8,0:0:0:0:
256,192,78179,1,0,0:0:0:0:
256,192,78296,1,8,0:0:0:0:
256,192,78414,1,8,0:0:0:0:
260,196,78531,1,0,0:0:0:0:
256,192,78649,1,8,0:0:0:0:
256,192,78767,1,0,0:0:0:0:
256,192,78884,1,8,0:0:0:0:
256,192,78943,1,8,0:0:0:0:
256,192,79002,1,8,0:0:0:0:
256,192,79061,1,0,0:0:0:0:
256,192,79120,1,0,0:0:0:0:
256,192,79179,1,0,0:0:0:0:
256,192,79237,1,8,0:0:0:0:
256,192,79590,1,4,0:0:0:0:
256,192,79943,1,0,0:0:0:0:
256,192,80120,1,8,0:0:0:0:
256,192,81002,1,0,0:0:0:0:
256,192,81179,1,0,0:0:0:0:
256,192,81355,1,8,0:0:0:0:
256,192,81531,1,0,0:0:0:0:
256,192,81884,1,8,0:0:0:0:
256,192,82414,1,0,0:0:0:0:
256,192,82767,1,8,0:0:0:0:
256,192,82943,1,0,0:0:0:0:
256,192,83296,1,0,0:0:0:0:
256,192,83826,1,0,0:0:0:0:
256,192,84002,1,0,0:0:0:0:
256,192,84179,1,8,0:0:0:0:
256,192,84355,1,0,0:0:0:0:
256,192,84531,1,0,0:0:0:0:
256,192,84708,1,0,0:0:0:0:
256,192,84884,1,8,0:0:0:0:
256,192,85237,1,0,0:0:0:0:
256,192,85414,1,0,0:0:0:0:
256,192,85590,1,8,0:0:0:0:
256,192,85767,1,0,0:0:0:0:
256,192,86649,1,0,0:0:0:0:
256,192,86826,1,0,0:0:0:0:
256,192,87002,1,8,0:0:0:0:
256,192,87179,1,0,0:0:0:0:
256,192,87531,1,8,0:0:0:0:
256,192,88061,1,0,0:0:0:0:
256,192,88237,1,0,0:0:0:0:
256,192,88414,1,0,0:0:0:0:
252,192,88590,1,8,0:0:0:0:
256,192,88943,1,0,0:0:0:0:
252,192,89473,1,0,0:0:0:0:
256,192,89649,1,0,0:0:0:0:
256,192,89826,1,0,0:0:0:0:
252,192,90002,1,8,0:0:0:0:
256,188,90884,1,8,0:0:0:0:
256,188,91414,1,0,0:0:0:0:
256,188,92296,1,8,0:0:0:0:
256,188,92826,1,0,0:0:0:0:
256,188,93179,1,8,0:0:0:0:
256,188,93708,1,0,0:0:0:0:
256,188,94237,1,8,0:0:0:0:
256,188,94767,1,0,0:0:0:0:
256,188,95120,1,0,0:0:0:0:
256,188,95296,1,0,0:0:0:0:
256,188,95473,1,8,0:0:0:0:
256,188,95649,1,0,0:0:0:0:
256,188,95826,1,0,0:0:0:0:
256,188,96002,1,0,0:0:0:0:
256,188,96179,1,8,0:0:0:0:
256,188,96531,1,0,0:0:0:0:
256,188,97061,1,8,0:0:0:0:
256,188,97943,1,0,0:0:0:0:
256,188,98473,1,8,0:0:0:0:
256,188,98826,1,0,0:0:0:0:
256,188,99355,1,0,0:0:0:0:
256,188,99884,1,8,0:0:0:0:
256,188,100414,1,0,0:0:0:0:
256,192,100767,12,0,102002,0:0:0:0:
256,192,102179,5,4,0:0:0:0:
256,192,102443,1,8,0:0:0:0:
256,192,102708,1,0,0:0:0:0:
256,192,103061,1,0,0:0:0:0:
256,192,103237,1,8,0:0:0:0:
256,192,103414,1,0,0:0:0:0:
256,192,103502,1,0,0:0:0:0:
256,192,103590,1,8,0:0:0:0:
256,192,103855,1,0,0:0:0:0:
256,192,103943,1,8,0:0:0:0:
256,192,104120,1,0,0:0:0:0:
256,192,104296,1,8,0:0:0:0:
256,192,104561,1,8,0:0:0:0:
256,192,104649,1,0,0:0:0:0:
256,192,104826,1,8,0:0:0:0:
256,192,105002,1,0,0:0:0:0:
260,188,105267,1,8,0:0:0:0:
260,184,105531,1,0,0:0:0:0:
264,184,105884,1,0,0:0:0:0:
260,184,106237,1,8,0:0:0:0:
264,184,106326,1,8,0:0:0:0:
260,184,106414,1,0,0:0:0:0:
260,184,106943,1,8,0:0:0:0:
264,184,107473,1,0,0:0:0:0:
260,184,107826,1,8,0:0:0:0:
264,184,108090,1,0,0:0:0:0:
264,184,108355,1,8,0:0:0:0:
264,184,108884,1,0,0:0:0:0:
264,184,108973,1,0,0:0:0:0:
264,184,109061,1,8,0:0:0:0:
264,184,109237,1,0,0:0:0:0:
264,184,109767,1,8,0:0:0:0:
264,184,109943,1,0,0:0:0:0:
264,184,110296,1,0,0:0:0:0:
264,184,110384,1,0,0:0:0:0:
264,184,110473,1,8,0:0:0:0:
264,184,110561,1,8,0:0:0:0:
264,184,110649,1,0,0:0:0:0:
264,184,110914,1,8,0:0:0:0:
264,184,111179,1,0,0:0:0:0:
260,188,111708,1,0,0:0:0:0:
264,184,111796,1,0,0:0:0:0:
264,184,111884,1,8,0:0:0:0:
264,184,112061,1,0,0:0:0:0:
264,184,112326,1,0,0:0:0:0:
264,184,112590,1,8,0:0:0:0:
256,192,112767,12,0,113296,0:0:0:0:
256,192,113473,5,4,0:0:0:0:
256,192,113826,1,8,0:0:0:0:
256,192,114179,1,0,0:0:0:0:
256,192,114355,1,0,0:0:0:0:
256,192,114443,1,0,0:0:0:0:
256,192,114531,1,8,0:0:0:0:
256,192,114708,1,8,0:0:0:0:
256,192,114884,1,0,0:0:0:0:
256,192,115237,1,0,0:0:0:0:
256,192,115590,1,0,0:0:0:0:
256,192,115767,1,0,0:0:0:0:
256,192,115943,1,8,0:0:0:0:
256,192,116296,1,4,0:0:0:0:
256,192,116649,1,8,0:0:0:0:
256,192,117002,1,0,0:0:0:0:
256,192,117179,1,0,0:0:0:0:
256,192,117267,1,0,0:0:0:0:
256,192,117355,1,8,0:0:0:0:
256,192,117531,1,8,0:0:0:0:
256,192,117708,1,0,0:0:0:0:
256,192,118061,1,8,0:0:0:0:
256,192,118414,1,0,0:0:0:0:
256,192,118590,1,8,0:0:0:0:
256,192,118767,1,8,0:0:0:0:
256,192,119120,1,4,0:0:0:0:
256,192,119473,1,8,0:0:0:0:
256,192,119826,1,0,0:0:0:0:
256,192,120179,1,0,0:0:0:0:
256,192,120355,1,8,0:0:0:0:
256,192,120708,1,0,0:0:0:0:
256,192,121061,1,8,0:0:0:0:
256,192,121237,1,0,0:0:0:0:
256,192,121414,1,8,0:0:0:0:
256,192,121590,1,0,0:0:0:0:
256,192,121767,1,0,0:0:0:0:
256,192,121943,1,12,0:0:0:0:
256,192,122473,1,0,0:0:0:0:
256,192,123002,1,8,0:0:0:0:
256,192,123355,1,4,0:0:0:0:
260,188,124414,1,8,0:0:0:0:
256,188,124502,1,8,0:0:0:0:
260,188,124590,1,8,0:0:0:0:
260,188,124767,1,4,0:0:0:0:
260,188,124943,1,0,0:0:0:0:
260,188,125031,1,0,0:0:0:0:
260,188,125120,1,8,0:0:0:0:
260,188,125296,1,0,0:0:0:0:
264,188,125473,1,8,0:0:0:0:
256,188,125561,1,8,0:0:0:0:
260,188,125649,1,0,0:0:0:0:
260,188,125737,1,0,0:0:0:0:
260,188,125826,1,8,0:0:0:0:
260,188,126002,1,0,0:0:0:0:
260,188,126179,1,8,0:0:0:0:
264,188,126355,1,0,0:0:0:0:
264,188,126443,1,0,0:0:0:0:
256,188,126531,1,8,0:0:0:0:
260,188,126708,1,8,0:0:0:0:
260,188,126884,1,0,0:0:0:0:
260,188,126973,1,8,0:0:0:0:
260,188,127061,1,0,0:0:0:0:
260,188,127149,1,0,0:0:0:0:
256,184,127237,1,8,0:0:0:0:
260,188,127590,1,0,0:0:0:0:
260,188,127767,1,0,0:0:0:0:
260,188,127855,1,0,0:0:0:0:
260,188,127943,1,8,0:0:0:0:
260,188,128120,1,0,0:0:0:0:
260,188,128296,1,8,0:0:0:0:
260,188,128384,1,0,0:0:0:0:
260,188,128561,1,0,0:0:0:0:
260,188,128649,1,8,0:0:0:0:
260,188,128737,1,8,0:0:0:0:
260,188,128826,1,0,0:0:0:0:
260,188,129002,1,8,0:0:0:0:
260,188,129179,1,0,0:0:0:0:
260,188,129267,1,0,0:0:0:0:
260,188,129355,1,8,0:0:0:0:
260,188,129531,1,0,0:0:0:0:
260,188,129708,1,0,0:0:0:0:
260,188,129796,1,0,0:0:0:0:
260,188,129884,1,8,0:0:0:0:
260,188,129973,1,0,0:0:0:0:
260,188,130061,1,8,0:0:0:0:
260,188,130414,1,0,0:0:0:0:
260,188,130590,1,0,0:0:0:0:
260,188,130679,1,0,0:0:0:0:
260,188,130767,1,8,0:0:0:0:
260,188,130943,1,0,0:0:0:0:
264,188,131120,1,8,0:0:0:0:
256,188,131208,1,8,0:0:0:0:
260,188,131296,1,0,0:0:0:0:
260,188,131384,1,0,0:0:0:0:
260,188,131473,1,8,0:0:0:0:
260,188,131649,1,0,0:0:0:0:
260,188,131826,1,8,0:0:0:0:
264,188,132002,1,0,0:0:0:0:
264,188,132090,1,0,0:0:0:0:
256,188,132179,1,8,0:0:0:0:
260,188,132355,1,8,0:0:0:0:
260,188,132531,1,0,0:0:0:0:
260,188,132620,1,8,0:0:0:0:
260,188,132708,1,0,0:0:0:0:
260,188,132796,1,0,0:0:0:0:
256,184,132884,1,8,0:0:0:0:
260,188,133237,1,4,0:0:0:0:
260,188,133414,1,8,0:0:0:0:
260,188,133502,1,8,0:0:0:0:
260,188,133590,1,0,0:0:0:0:
260,188,133767,1,12,0:0:0:0:
260,188,133943,1,0,0:0:0:0:
260,188,134031,1,0,0:0:0:0:
260,188,134120,1,8,0:0:0:0:
260,188,134296,1,4,0:0:0:0:
260,188,134649,1,0,0:0:0:0:
260,188,134737,1,0,0:0:0:0:
260,188,134826,1,0,0:0:0:0:
260,188,134914,1,0,0:0:0:0:
260,188,135002,1,8,0:0:0:0:
260,188,135179,1,0,0:0:0:0:
260,188,135267,1,8,0:0:0:0:
260,188,135443,1,8,0:0:0:0:
260,188,135531,1,0,0:0:0:0:
260,188,135708,1,12,0:0:0:0:
260,188,136061,1,4,0:0:0:0:
260,188,136237,1,0,0:0:0:0:
260,188,136326,1,0,0:0:0:0:
260,188,136414,1,8,0:0:0:0:
260,188,136590,1,0,0:0:0:0:
264,188,136767,1,8,0:0:0:0:
256,188,136855,1,0,0:0:0:0:
260,188,136943,1,0,0:0:0:0:
260,188,137120,1,8,0:0:0:0:
260,188,137208,1,0,0:0:0:0:
260,188,137296,1,8,0:0:0:0:
260,188,137384,1,8,0:0:0:0:
260,188,137473,1,0,0:0:0:0:
264,188,137649,1,8,0:0:0:0:
264,188,137737,1,0,0:0:0:0:
256,188,137826,1,8,0:0:0:0:
260,188,138002,1,8,0:0:0:0:
260,188,138179,1,0,0:0:0:0:
260,188,138267,1,0,0:0:0:0:
260,188,138355,1,8,0:0:0:0:
260,188,138443,1,8,0:0:0:0:
256,184,138531,1,0,0:0:0:0:
260,188,138884,1,0,0:0:0:0:
260,188,139061,1,0,0:0:0:0:
260,188,139149,1,0,0:0:0:0:
260,188,139237,1,8,0:0:0:0:
260,188,139414,1,0,0:0:0:0:
260,188,139590,1,8,0:0:0:0:
260,188,139679,1,0,0:0:0:0:
260,188,139767,1,0,0:0:0:0:
260,188,139855,1,0,0:0:0:0:
260,188,139943,1,8,0:0:0:0:
260,188,140120,1,0,0:0:0:0:
260,188,140296,1,8,0:0:0:0:
260,188,140384,1,8,0:0:0:0:
260,188,140473,1,8,0:0:0:0:
260,188,140561,1,8,0:0:0:0:
260,188,140649,1,0,0:0:0:0:
260,188,140826,1,8,0:0:0:0:
260,188,141002,1,8,0:0:0:0:
260,188,141090,1,8,0:0:0:0:
260,188,141179,1,8,0:0:0:0:
260,188,141267,1,8,0:0:0:0:
260,188,141355,1,0,0:0:0:0:
260,188,141414,1,0,0:0:0:0:
260,188,141473,1,0,0:0:0:0:
260,188,141531,1,8,0:0:0:0:
260,188,141708,1,0,0:0:0:0:
260,188,141884,1,0,0:0:0:0:
260,188,141973,1,0,0:0:0:0:
260,188,142061,1,8,0:0:0:0:
260,188,142237,1,0,0:0:0:0:
264,188,142414,1,8,0:0:0:0:
256,188,142502,1,0,0:0:0:0:
260,188,142590,1,0,0:0:0:0:
260,188,142767,1,8,0:0:0:0:
260,188,142855,1,0,0:0:0:0:
260,188,142943,1,8,0:0:0:0:
260,188,143031,1,8,0:0:0:0:
260,188,143120,1,0,0:0:0:0:
264,188,143296,1,8,0:0:0:0:
264,188,143384,1,0,0:0:0:0:
256,188,143473,1,8,0:0:0:0:
260,188,143649,1,8,0:0:0:0:
260,188,143826,1,0,0:0:0:0:
260,188,143914,1,0,0:0:0:0:
260,188,144002,1,8,0:0:0:0:
260,188,144090,1,8,0:0:0:0:
256,184,144179,1,0,0:0:0:0:
260,188,144531,1,0,0:0:0:0:
260,188,144708,1,0,0:0:0:0:
260,188,144796,1,0,0:0:0:0:
260,188,144884,1,8,0:0:0:0:
260,188,145061,1,0,0:0:0:0:
260,188,145237,1,8,0:0:0:0:
260,188,145326,1,0,0:0:0:0:
260,188,145414,1,0,0:0:0:0:
260,188,145502,1,0,0:0:0:0:
260,188,145590,1,8,0:0:0:0:
260,188,145767,1,8,0:0:0:0:
260,188,145943,1,0,0:0:0:0:
260,188,146002,1,0,0:0:0:0:
260,188,146061,1,0,0:0:0:0:
260,188,146120,1,8,0:0:0:0:
260,188,146208,1,0,0:0:0:0:
260,188,146296,1,8,0:0:0:0:
260,188,146384,1,8,0:0:0:0:
260,188,146473,1,0,0:0:0:0:
260,188,146561,1,0,0:0:0:0:
260,188,146649,1,8,0:0:0:0:
260,188,146826,1,0,0:0:0:0:
260,188,147002,1,8,0:0:0:0:
252,184,147061,1,8,0:0:0:0:
260,188,147120,1,8,0:0:0:0:
260,188,147179,1,0,0:0:0:0:
260,188,147355,1,4,0:0:0:0:
260,188,147531,1,8,0:0:0:0:
260,188,147708,1,8,0:0:0:0:
260,188,147796,1,8,0:0:0:0:
260,188,147884,1,0,0:0:0:0:
260,188,148061,1,0,0:0:0:0:
260,188,148237,1,8,0:0:0:0:
260,188,148326,1,0,0:0:0:0:
260,188,148502,1,0,0:0:0:0:
260,188,148590,1,8,0:0:0:0:
260,188,148767,1,0,0:0:0:0:
260,188,148943,1,0,0:0:0:0:
260,188,149120,1,8,0:0:0:0:
260,188,149208,1,0,0:0:0:0:
260,188,149296,1,8,0:0:0:0:
260,188,149473,1,0,0:0:0:0:
260,188,149649,1,8,0:0:0:0:
260,188,149737,1,0,0:0:0:0:
260,188,149914,1,8,0:0:0:0:
260,188,150002,1,8,0:0:0:0:
260,188,150179,1,0,0:0:0:0:
260,188,150355,1,8,0:0:0:0:
260,188,150531,1,8,0:0:0:0:
260,188,150620,1,8,0:0:0:0:
260,188,150708,1,0,0:0:0:0:
260,188,150884,1,0,0:0:0:0:
260,188,151061,1,8,0:0:0:0:
260,188,151149,1,0,0:0:0:0:
260,188,151326,1,0,0:0:0:0:
260,188,151414,1,8,0:0:0:0:
260,188,151590,1,0,0:0:0:0:
260,188,151767,1,0,0:0:0:0:
260,188,151943,1,8,0:0:0:0:
260,188,152031,1,0,0:0:0:0:
260,188,152120,1,8,0:0:0:0:
260,188,152296,1,0,0:0:0:0:
260,188,152473,1,8,0:0:0:0:
260,188,152561,1,0,0:0:0:0:
260,188,152737,1,8,0:0:0:0:
260,188,152826,1,8,0:0:0:0:
260,188,153002,1,4,0:0:0:0:
260,188,153179,1,8,0:0:0:0:
260,188,153355,1,8,0:0:0:0:
260,188,153443,1,0,0:0:0:0:
260,188,153531,1,0,0:0:0:0:
260,188,153708,1,0,0:0:0:0:
260,188,153796,1,8,0:0:0:0:
260,188,153884,1,8,0:0:0:0:
260,188,153973,1,0,0:0:0:0:
260,188,154149,1,0,0:0:0:0:
260,188,154237,1,8,0:0:0:0:
260,188,154414,1,0,0:0:0:0:
260,188,154502,1,8,0:0:0:0:
260,188,154590,1,0,0:0:0:0:
260,188,154767,1,8,0:0:0:0:
260,188,154855,1,0,0:0:0:0:
260,188,154943,1,8,0:0:0:0:
260,188,155031,1,8,0:0:0:0:
260,188,155120,1,0,0:0:0:0:
260,188,155296,1,8,0:0:0:0:
260,188,155384,1,0,0:0:0:0:
260,188,155561,1,0,0:0:0:0:
260,188,155649,1,8,0:0:0:0:
260,188,155826,1,0,0:0:0:0:
260,188,156002,1,8,0:0:0:0:
260,188,156179,1,8,0:0:0:0:
260,188,156267,1,0,0:0:0:0:
260,188,156355,1,0,0:0:0:0:
260,188,156531,1,8,0:0:0:0:
260,188,156620,1,8,0:0:0:0:
260,188,156708,1,8,0:0:0:0:
260,188,156796,1,0,0:0:0:0:
260,188,156973,1,0,0:0:0:0:
260,188,157061,1,8,0:0:0:0:
260,188,157237,1,0,0:0:0:0:
260,188,157326,1,0,0:0:0:0:
260,188,157414,1,0,0:0:0:0:
260,188,157590,1,8,0:0:0:0:
260,188,157679,1,0,0:0:0:0:
260,188,157767,1,8,0:0:0:0:
260,188,157855,1,8,0:0:0:0:
260,188,157943,1,0,0:0:0:0:
260,188,158120,1,8,0:0:0:0:
260,188,158208,1,0,0:0:0:0:
260,188,158384,1,0,0:0:0:0:
260,188,158473,1,8,0:0:0:0:
260,188,158649,1,4,0:0:0:0:
260,188,158826,1,8,0:0:0:0:
260,188,159002,1,8,0:0:0:0:
260,188,159090,1,8,0:0:0:0:
260,188,159179,1,0,0:0:0:0:
260,188,159355,1,0,0:0:0:0:
260,188,159531,1,8,0:0:0:0:
260,188,159620,1,0,0:0:0:0:
260,188,159796,1,0,0:0:0:0:
260,188,159884,1,8,0:0:0:0:
260,188,160061,1,0,0:0:0:0:
260,188,160149,1,8,0:0:0:0:
260,188,160237,1,8,0:0:0:0:
260,188,160326,1,0,0:0:0:0:
260,188,160414,1,8,0:0:0:0:
260,188,160502,1,0,0:0:0:0:
260,188,160590,1,8,0:0:0:0:
260,188,160767,1,0,0:0:0:0:
260,188,160943,1,8,0:0:0:0:
260,188,161031,1,0,0:0:0:0:
260,188,161208,1,8,0:0:0:0:
260,188,161296,1,8,0:0:0:0:
260,188,161473,1,0,0:0:0:0:
260,188,161649,1,8,0:0:0:0:
260,188,161826,1,8,0:0:0:0:
260,188,161914,1,8,0:0:0:0:
260,188,162002,1,0,0:0:0:0:
260,188,162179,1,0,0:0:0:0:
260,188,162355,1,8,0:0:0:0:
260,188,162443,1,0,0:0:0:0:
260,188,162620,1,0,0:0:0:0:
260,188,162708,1,8,0:0:0:0:
260,188,162884,1,0,0:0:0:0:
260,188,162973,1,8,0:0:0:0:
260,188,163061,1,0,0:0:0:0:
260,188,163149,1,8,0:0:0:0:
260,188,163237,1,8,0:0:0:0:
260,188,163326,1,0,0:0:0:0:
260,188,163414,1,8,0:0:0:0:
260,188,163590,1,0,0:0:0:0:
260,188,163767,1,8,0:0:0:0:
260,188,163855,1,0,0:0:0:0:
260,188,164031,1,8,0:0:0:0:
260,188,164120,1,8,0:0:0:0:
260,188,164296,1,4,0:0:0:0:
260,188,164473,1,8,0:0:0:0:
260,188,164649,1,8,0:0:0:0:
260,188,164737,1,0,0:0:0:0:
260,188,164826,1,0,0:0:0:0:
260,188,165002,1,0,0:0:0:0:
264,192,165090,1,8,0:0:0:0:
260,188,165179,1,8,0:0:0:0:
260,188,165267,1,0,0:0:0:0:
260,188,165443,1,0,0:0:0:0:
260,188,165531,1,8,0:0:0:0:
260,188,165708,1,0,0:0:0:0:
260,188,165796,1,8,0:0:0:0:
260,188,165884,1,0,0:0:0:0:
260,188,165973,1,0,0:0:0:0:
260,188,166061,1,8,0:0:0:0:
260,188,166149,1,0,0:0:0:0:
260,188,166237,1,8,0:0:0:0:
260,188,166326,1,8,0:0:0:0:
260,188,166414,1,0,0:0:0:0:
260,188,166590,1,8,0:0:0:0:
260,188,166679,1,0,0:0:0:0:
260,188,166855,1,0,0:0:0:0:
260,188,166943,1,8,0:0:0:0:
260,188,167120,1,0,0:0:0:0:
260,188,167296,1,8,0:0:0:0:
260,188,167473,1,8,0:0:0:0:
260,188,167561,1,0,0:0:0:0:
260,188,167649,1,0,0:0:0:0:
260,188,167826,1,0,0:0:0:0:
260,188,167914,1,8,0:0:0:0:
260,188,168002,1,8,0:0:0:0:
260,188,168090,1,0,0:0:0:0:
260,188,168267,1,0,0:0:0:0:
260,188,168355,1,8,0:0:0:0:
260,188,168531,1,0,0:0:0:0:
260,188,168620,1,8,0:0:0:0:
260,188,168708,1,0,0:0:0:0:
260,188,168796,1,8,0:0:0:0:
260,188,168884,1,0,0:0:0:0:
260,188,168973,1,0,0:0:0:0:
260,188,169061,1,8,0:0:0:0:
260,188,169149,1,8,0:0:0:0:
260,188,169237,1,0,0:0:0:0:
260,188,169414,1,8,0:0:0:0:
260,188,169502,1,0,0:0:0:0:
260,188,169679,1,0,0:0:0:0:
260,188,169767,1,8,0:0:0:0:
260,188,169943,1,4,0:0:0:0:
260,188,170120,1,8,0:0:0:0:
260,188,170296,1,8,0:0:0:0:
260,188,170473,1,8,0:0:0:0:
260,188,170649,1,0,0:0:0:0:
260,188,170826,1,8,0:0:0:0:
260,188,170914,1,8,0:0:0:0:
260,188,171179,1,8,0:0:0:0:
260,188,171355,1,0,0:0:0:0:
260,188,171531,1,8,0:0:0:0:
260,188,171708,1,8,0:0:0:0:
260,188,171884,1,0,0:0:0:0:
260,188,172061,1,8,0:0:0:0:
260,188,172237,1,0,0:0:0:0:
260,188,172326,1,8,0:0:0:0:
260,188,172590,1,8,0:0:0:0:
260,188,172767,1,0,0:0:0:0:
260,188,172943,1,8,0:0:0:0:
260,188,173120,1,8,0:0:0:0:
260,188,173296,1,8,0:0:0:0:
260,188,173473,1,0,0:0:0:0:
260,188,173649,1,8,0:0:0:0:
260,188,173737,1,8,0:0:0:0:
260,188,174002,1,8,0:0:0:0:
260,188,174179,1,0,0:0:0:0:
260,188,174355,1,8,0:0:0:0:
260,188,174531,1,8,0:0:0:0:
260,188,174708,1,0,0:0:0:0:
260,188,174884,1,8,0:0:0:0:
260,188,175061,1,0,0:0:0:0:
260,188,175149,1,8,0:0:0:0:
260,188,175237,1,0,0:0:0:0:
260,188,175414,1,8,0:0:0:0:
260,188,175590,1,4,0:0:0:0:
260,188,175767,1,8,0:0:0:0:
260,188,175943,1,8,0:0:0:0:
260,188,176120,1,8,0:0:0:0:
260,188,176296,1,0,0:0:0:0:
260,188,176473,1,0,0:0:0:0:
260,188,176561,1,8,0:0:0:0:
260,188,176826,1,8,0:0:0:0:
260,188,177179,1,0,0:0:0:0:
260,188,177355,1,8,0:0:0:0:
260,188,177531,1,8,0:0:0:0:
260,188,177708,1,0,0:0:0:0:
260,188,177973,1,8,0:0:0:0:
260,188,178237,1,8,0:0:0:0:
260,188,178414,1,0,0:0:0:0:
260,188,178590,1,8,0:0:0:0:
260,188,178767,1,8,0:0:0:0:
260,188,178943,1,0,0:0:0:0:
260,188,179120,1,8,0:0:0:0:
260,188,179296,1,0,0:0:0:0:
260,188,179384,1,8,0:0:0:0:
260,188,179649,1,8,0:0:0:0:
260,188,180002,1,0,0:0:0:0:
260,188,180179,1,8,0:0:0:0:
260,188,180355,1,8,0:0:0:0:
260,188,180531,1,0,0:0:0:0:
260,188,180884,1,12,0:0:0:0:
260,188,181237,1,0,0:0:0:0:
260,188,181326,1,0,0:0:0:0:
260,188,181414,1,8,0:0:0:0:
260,188,181502,1,0,0:0:0:0:
260,188,181590,1,0,0:0:0:0:
260,188,181679,1,8,0:0:0:0:
260,188,181767,1,8,0:0:0:0:
260,188,181855,1,8,0:0:0:0:
260,188,181943,1,0,0:0:0:0:
260,188,182031,1,8,0:0:0:0:
260,188,182120,1,8,0:0:0:0:
260,188,182208,1,0,0:0:0:0:
260,188,182296,1,8,0:0:0:0:
260,188,182384,1,0,0:0:0:0:
260,188,182473,1,0,0:0:0:0:
260,188,182561,1,8,0:0:0:0:
260,188,182649,1,0,0:0:0:0:
260,188,182737,1,0,0:0:0:0:
260,188,182826,1,8,0:0:0:0:
260,188,182914,1,0,0:0:0:0:
260,188,183002,1,8,0:0:0:0:
260,188,183090,1,8,0:0:0:0:
260,188,183179,1,0,0:0:0:0:
260,188,183267,1,8,0:0:0:0:
260,188,183443,1,8,0:0:0:0:
260,188,183531,1,0,0:0:0:0:
260,188,183620,1,0,0:0:0:0:
260,188,183708,1,8,0:0:0:0:
260,188,183796,1,0,0:0:0:0:
260,188,183884,1,8,0:0:0:0:
260,188,183973,1,8,0:0:0:0:
260,188,184061,1,0,0:0:0:0:
260,188,184149,1,0,0:0:0:0:
260,188,184237,1,8,0:0:0:0:
260,188,184326,1,0,0:0:0:0:
260,188,184414,1,8,0:0:0:0:
260,188,184502,1,8,0:0:0:0:
260,188,184590,1,0,0:0:0:0:
260,188,184679,1,8,0:0:0:0:
260,188,184767,1,0,0:0:0:0:
260,188,184855,1,8,0:0:0:0:
260,188,184943,1,0,0:0:0:0:
260,188,185031,1,0,0:0:0:0:
260,188,185120,1,8,0:0:0:0:
260,188,185208,1,0,0:0:0:0:
260,188,185296,1,8,0:0:0:0:
260,188,185384,1,8,0:0:0:0:
260,188,185473,1,0,0:0:0:0:
260,188,185561,1,0,0:0:0:0:
260,188,185649,1,8,0:0:0:0:
260,188,185737,1,0,0:0:0:0:
260,188,185826,1,8,0:0:0:0:
260,188,185914,1,8,0:0:0:0:
260,188,186002,1,0,0:0:0:0:
260,188,186090,1,8,0:0:0:0:
260,188,186267,1,8,0:0:0:0:
260,188,186355,1,0,0:0:0:0:
260,188,186443,1,0,0:0:0:0:
260,188,186531,1,8,0:0:0:0:
260,188,186620,1,8,0:0:0:0:
260,188,186708,1,0,0:0:0:0:
260,188,186796,1,8,0:0:0:0:
260,188,186884,1,0,0:0:0:0:
260,188,186973,1,0,0:0:0:0:
260,188,187061,1,8,0:0:0:0:
260,188,187149,1,0,0:0:0:0:
260,188,187326,1,8,0:0:0:0:
260,188,187414,1,8,0:0:0:0:
260,188,187590,1,0,0:0:0:0:
260,188,187679,1,8,0:0:0:0:
260,188,187855,1,0,0:0:0:0:
260,188,187943,1,8,0:0:0:0:
260,188,188031,1,0,0:0:0:0:
260,188,188120,1,8,0:0:0:0:
260,188,188208,1,0,0:0:0:0:
260,188,188384,1,0,0:0:0:0:
260,188,188473,1,8,0:0:0:0:
260,188,188649,1,8,0:0:0:0:
260,188,188737,1,0,0:0:0:0:
260,188,188826,1,8,0:0:0:0:
260,188,188914,1,8,0:0:0:0:
260,188,189090,1,8,0:0:0:0:
260,188,189179,1,0,0:0:0:0:
260,188,189267,1,0,0:0:0:0:
260,188,189355,1,8,0:0:0:0:
260,188,189443,1,0,0:0:0:0:
260,188,189531,1,8,0:0:0:0:
260,188,189620,1,8,0:0:0:0:
260,188,189708,1,0,0:0:0:0:
260,188,189796,1,0,0:0:0:0:
260,188,189884,1,8,0:0:0:0:
260,188,189973,1,0,0:0:0:0:
260,188,190061,1,8,0:0:0:0:
260,188,190149,1,8,0:0:0:0:
260,188,190237,1,0,0:0:0:0:
260,188,190326,1,8,0:0:0:0:
260,188,190414,1,0,0:0:0:0:
260,188,190502,1,8,0:0:0:0:
260,188,190590,1,0,0:0:0:0:
260,188,190679,1,0,0:0:0:0:
260,188,190767,1,8,0:0:0:0:
260,188,190855,1,0,0:0:0:0:
260,188,190943,1,8,0:0:0:0:
260,188,191031,1,8,0:0:0:0:
260,188,191120,1,0,0:0:0:0:
260,188,192179,1,8,0:0:0:0:
256,188,192267,1,8,0:0:0:0:
260,188,192355,1,8,0:0:0:0:
260,188,192531,1,4,0:0:0:0:
260,188,192708,1,0,0:0:0:0:
260,188,192796,1,0,0:0:0:0:
260,188,192884,1,8,0:0:0:0:
260,188,193061,1,0,0:0:0:0:
264,188,193237,1,8,0:0:0:0:
256,188,193326,1,0,0:0:0:0:
260,188,193414,1,0,0:0:0:0:
260,188,193502,1,0,0:0:0:0:
260,188,193590,1,8,0:0:0:0:
260,188,193767,1,0,0:0:0:0:
260,188,193943,1,8,0:0:0:0:
264,188,194120,1,0,0:0:0:0:
264,188,194208,1,0,0:0:0:0:
256,188,194296,1,8,0:0:0:0:
260,188,194473,1,0,0:0:0:0:
260,188,194561,1,0,0:0:0:0:
260,188,194649,1,8,0:0:0:0:
260,188,194737,1,8,0:0:0:0:
260,188,194826,1,0,0:0:0:0:
260,188,194914,1,0,0:0:0:0:
256,184,195002,1,8,0:0:0:0:
260,188,195355,1,0,0:0:0:0:
260,188,195531,1,0,0:0:0:0:
260,188,195620,1,0,0:0:0:0:
260,188,195708,1,8,0:0:0:0:
260,188,195884,1,0,0:0:0:0:
260,188,196061,1,8,0:0:0:0:
260,188,196149,1,0,0:0:0:0:
260,188,196326,1,0,0:0:0:0:
260,188,196414,1,8,0:0:0:0:
260,188,196502,1,8,0:0:0:0:
260,188,196590,1,0,0:0:0:0:
260,188,196679,1,0,0:0:0:0:
260,188,196767,1,8,0:0:0:0:
260,188,196943,1,8,0:0:0:0:
260,188,197031,1,0,0:0:0:0:
260,188,197120,1,8,0:0:0:0:
260,188,197296,1,0,0:0:0:0:
260,188,197384,1,8,0:0:0:0:
260,188,197473,1,0,0:0:0:0:
260,188,197561,1,0,0:0:0:0:
260,188,197649,1,8,0:0:0:0:
260,188,197737,1,0,0:0:0:0:
260,188,197826,1,8,0:0:0:0:
260,188,198179,1,0,0:0:0:0:
260,188,198355,1,0,0:0:0:0:
260,188,198443,1,0,0:0:0:0:
260,188,198531,1,8,0:0:0:0:
260,188,198708,1,0,0:0:0:0:
264,188,198884,1,8,0:0:0:0:
256,188,198973,1,0,0:0:0:0:
260,188,199061,1,0,0:0:0:0:
260,188,199149,1,0,0:0:0:0:
260,188,199237,1,8,0:0:0:0:
260,188,199414,1,0,0:0:0:0:
260,188,199590,1,8,0:0:0:0:
264,188,199767,1,0,0:0:0:0:
264,188,199855,1,0,0:0:0:0:
256,188,199943,1,8,0:0:0:0:
260,188,200120,1,0,0:0:0:0:
260,188,200208,1,0,0:0:0:0:
260,188,200296,1,8,0:0:0:0:
260,188,200384,1,8,0:0:0:0:
260,188,200473,1,0,0:0:0:0:
260,188,200561,1,0,0:0:0:0:
256,184,200649,1,8,0:0:0:0:
260,188,201002,1,4,0:0:0:0:
260,188,201179,1,8,0:0:0:0:
260,188,201267,1,8,0:0:0:0:
260,188,201355,1,0,0:0:0:0:
260,188,201531,1,12,0:0:0:0:
260,188,201708,1,0,0:0:0:0:
260,188,201796,1,0,0:0:0:0:
260,188,201884,1,8,0:0:0:0:
260,188,202061,1,4,0:0:0:0:
260,188,202414,1,0,0:0:0:0:
260,188,202502,1,8,0:0:0:0:
260,188,202590,1,0,0:0:0:0:
260,188,202679,1,0,0:0:0:0:
260,188,202767,1,8,0:0:0:0:
260,188,202943,1,0,0:0:0:0:
260,188,203031,1,8,0:0:0:0:
260,188,203208,1,8,0:0:0:0:
260,188,203296,1,0,0:0:0:0:
260,188,203473,1,12,0:0:0:0:
260,188,203826,1,12,0:0:0:0:
260,188,204002,1,0,0:0:0:0:
260,188,204090,1,0,0:0:0:0:
260,188,204179,1,8,0:0:0:0:
260,188,204355,1,0,0:0:0:0:
260,188,204531,1,8,0:0:0:0:
260,188,204620,1,0,0:0:0:0:
256,188,204708,1,0,0:0:0:0:
260,188,204796,1,8,0:0:0:0:
260,188,204884,1,8,0:0:0:0:
260,188,204973,1,8,0:0:0:0:
260,188,205061,1,0,0:0:0:0:
260,188,205149,1,0,0:0:0:0:
260,188,205237,1,8,0:0:0:0:
264,188,205414,1,0,0:0:0:0:
256,188,205502,1,0,0:0:0:0:
264,188,205590,1,8,0:0:0:0:
260,188,205767,1,0,0:0:0:0:
260,188,205855,1,8,0:0:0:0:
260,188,205943,1,8,0:0:0:0:
260,188,206031,1,0,0:0:0:0:
260,188,206120,1,8,0:0:0:0:
256,184,206208,1,0,0:0:0:0:
260,188,206296,1,8,0:0:0:0:
260,188,206649,1,8,0:0:0:0:
260,188,206826,1,0,0:0:0:0:
260,188,206914,1,0,0:0:0:0:
260,188,207002,1,8,0:0:0:0:
260,188,207179,1,0,0:0:0:0:
260,192,207267,1,0,0:0:0:0:
260,188,207355,1,8,0:0:0:0:
260,188,207443,1,0,0:0:0:0:
260,188,207620,1,0,0:0:0:0:
260,188,207708,1,8,0:0:0:0:
260,188,207884,1,0,0:0:0:0:
260,188,207973,1,8,0:0:0:0:
260,188,208061,1,8,0:0:0:0:
260,188,208237,1,0,0:0:0:0:
260,188,208326,1,0,0:0:0:0:
260,188,208414,1,8,0:0:0:0:
260,188,208590,1,0,0:0:0:0:
260,188,208679,1,8,0:0:0:0:
260,188,208767,1,0,0:0:0:0:
260,188,208855,1,8,0:0:0:0:
260,188,208943,1,8,0:0:0:0:
260,188,209031,1,0,0:0:0:0:
260,188,209120,1,8,0:0:0:0:
260,188,209473,1,8,0:0:0:0:
260,188,209649,1,0,0:0:0:0:
260,188,209737,1,0,0:0:0:0:
260,188,209826,1,8,0:0:0:0:
260,188,210002,1,0,0:0:0:0:
264,188,210179,1,8,0:0:0:0:
256,188,210267,1,0,0:0:0:0:
260,188,210355,1,0,0:0:0:0:
260,188,210443,1,8,0:0:0:0:
260,188,210531,1,8,0:0:0:0:
260,188,210620,1,8,0:0:0:0:
260,188,210708,1,0,0:0:0:0:
260,188,210796,1,0,0:0:0:0:
260,188,210884,1,8,0:0:0:0:
264,188,211061,1,0,0:0:0:0:
264,188,211149,1,0,0:0:0:0:
256,188,211237,1,8,0:0:0:0:
260,188,211414,1,0,0:0:0:0:
260,188,211502,1,8,0:0:0:0:
260,188,211590,1,8,0:0:0:0:
260,188,211679,1,0,0:0:0:0:
260,188,211767,1,8,0:0:0:0:
260,188,211855,1,0,0:0:0:0:
256,184,211943,1,8,0:0:0:0:
260,188,212296,1,4,0:0:0:0:
260,188,212473,1,8,0:0:0:0:
260,188,212561,1,8,0:0:0:0:
260,188,212649,1,0,0:0:0:0:
260,188,212826,1,12,0:0:0:0:
260,188,213002,1,0,0:0:0:0:
260,188,213090,1,0,0:0:0:0:
260,188,213179,1,8,0:0:0:0:
260,188,213355,1,4,0:0:0:0:
260,188,213531,1,8,0:0:0:0:
260,188,213620,1,0,0:0:0:0:
260,188,213708,1,8,0:0:0:0:
260,188,213884,1,0,0:0:0:0:
260,188,213973,1,8,0:0:0:0:
260,188,214061,1,0,0:0:0:0:
260,188,214149,1,0,0:0:0:0:
260,188,214237,1,8,0:0:0:0:
260,188,214326,1,8,0:0:0:0:
260,188,214414,1,0,0:0:0:0:
260,188,214590,1,0,0:0:0:0:
260,188,214767,1,8,0:0:0:0:
260,188,215120,1,4,0:0:0:0:
260,188,215296,1,0,0:0:0:0:
260,188,215384,1,0,0:0:0:0:
260,188,215473,1,8,0:0:0:0:
260,188,215649,1,0,0:0:0:0:
264,188,215826,1,8,0:0:0:0:
256,188,215914,1,8,0:0:0:0:
260,188,216002,1,0,0:0:0:0:
260,188,216090,1,0,0:0:0:0:
260,188,216179,1,8,0:0:0:0:
260,188,216355,1,0,0:0:0:0:
260,188,216531,1,8,0:0:0:0:
264,188,216708,1,0,0:0:0:0:
264,188,216796,1,0,0:0:0:0:
256,188,216884,1,8,0:0:0:0:
260,188,217061,1,0,0:0:0:0:
260,188,217149,1,0,0:0:0:0:
260,188,217237,1,8,0:0:0:0:
260,188,217326,1,0,0:0:0:0:
260,188,217414,1,8,0:0:0:0:
260,188,217502,1,8,0:0:0:0:
256,184,217590,1,0,0:0:0:0:
260,188,217943,1,0,0:0:0:0:
260,188,218120,1,0,0:0:0:0:
260,188,218208,1,0,0:0:0:0:
260,188,218296,1,8,0:0:0:0:
260,188,218473,1,0,0:0:0:0:
260,188,218649,1,8,0:0:0:0:
260,188,218737,1,0,0:0:0:0:
260,188,218914,1,0,0:0:0:0:
260,188,219002,1,8,0:0:0:0:
260,188,219090,1,8,0:0:0:0:
260,188,219179,1,0,0:0:0:0:
260,188,219267,1,0,0:0:0:0:
260,188,219355,1,8,0:0:0:0:
260,188,219531,1,8,0:0:0:0:
260,188,219620,1,0,0:0:0:0:
260,188,219708,1,8,0:0:0:0:
260,188,219884,1,0,0:0:0:0:
260,188,219973,1,0,0:0:0:0:
260,188,220061,1,8,0:0:0:0:
260,188,220149,1,8,0:0:0:0:
260,188,220237,1,0,0:0:0:0:
260,188,220326,1,8,0:0:0:0:
260,188,220414,1,0,0:0:0:0:
260,188,220767,1,0,0:0:0:0:
260,188,220943,1,0,0:0:0:0:
260,188,221031,1,0,0:0:0:0:
260,188,221120,1,8,0:0:0:0:
260,188,221296,1,0,0:0:0:0:
264,188,221473,1,8,0:0:0:0:
256,188,221561,1,8,0:0:0:0:
260,188,221649,1,0,0:0:0:0:
260,188,221737,1,0,0:0:0:0:
260,188,221826,1,8,0:0:0:0:
260,188,222002,1,0,0:0:0:0:
260,188,222179,1,8,0:0:0:0:
264,188,222355,1,0,0:0:0:0:
264,188,222443,1,0,0:0:0:0:
256,188,222531,1,8,0:0:0:0:
260,188,222708,1,0,0:0:0:0:
260,188,222796,1,0,0:0:0:0:
260,188,222884,1,8,0:0:0:0:
260,188,222973,1,0,0:0:0:0:
260,188,223061,1,8,0:0:0:0:
260,188,223149,1,8,0:0:0:0:
256,184,223237,1,0,0:0:0:0:
260,188,223590,1,4,0:0:0:0:
260,188,224120,1,12,0:0:0:0:
260,188,224649,1,4,0:0:0:0:
260,188,225002,1,4,0:0:0:0:
260,188,225531,1,12,0:0:0:0:
260,188,225884,1,0,0:0:0:0:
260,188,226061,1,12,0:0:0:0:
260,188,226414,1,4,0:0:0:0:
260,188,226590,1,0,0:0:0:0:
260,188,226679,1,0,0:0:0:0:
260,188,226767,1,8,0:0:0:0:
260,188,226943,1,0,0:0:0:0:
264,188,227120,1,8,0:0:0:0:
256,188,227208,1,0,0:0:0:0:
260,188,227296,1,0,0:0:0:0:
260,188,227384,1,0,0:0:0:0:
260,188,227473,1,8,0:0:0:0:
260,188,227561,1,0,0:0:0:0:
260,188,227649,1,8,0:0:0:0:
260,188,227737,1,8,0:0:0:0:
260,188,227826,1,0,0:0:0:0:
260,188,227914,1,0,0:0:0:0:
264,188,228002,1,8,0:0:0:0:
264,188,228090,1,0,0:0:0:0:
256,188,228179,1,8,0:0:0:0:
260,188,228355,1,0,0:0:0:0:
260,188,228443,1,8,0:0:0:0:
260,188,228531,1,0,0:0:0:0:
260,188,228620,1,0,0:0:0:0:
260,188,228708,1,8,0:0:0:0:
260,188,228796,1,8,0:0:0:0:
256,184,228884,1,0,0:0:0:0:
260,188,229237,1,0,0:0:0:0:
260,188,229414,1,0,0:0:0:0:
260,188,229502,1,0,0:0:0:0:
260,188,229590,1,8,0:0:0:0:
260,188,229767,1,0,0:0:0:0:
260,188,229943,1,8,0:0:0:0:
260,188,230031,1,0,0:0:0:0:
260,188,230120,1,8,0:0:0:0:
260,188,230208,1,0,0:0:0:0:
260,188,230296,1,8,0:0:0:0:
260,188,230384,1,8,0:0:0:0:
260,188,230473,1,0,0:0:0:0:
260,188,230561,1,0,0:0:0:0:
260,188,230649,1,8,0:0:0:0:
260,188,230737,1,0,0:0:0:0:
260,188,230826,1,8,0:0:0:0:
260,188,230914,1,8,0:0:0:0:
260,188,231002,1,0,0:0:0:0:
260,188,231179,1,8,0:0:0:0:
260,188,231355,1,8,0:0:0:0:
260,188,231443,1,0,0:0:0:0:
260,188,231531,1,8,0:0:0:0:
260,188,231620,1,8,0:0:0:0:
260,188,231708,1,0,0:0:0:0:
260,188,231767,1,0,0:0:0:0:
260,188,231826,1,0,0:0:0:0:
260,188,231884,1,8,0:0:0:0:
260,188,231973,1,8,0:0:0:0:
260,188,232061,1,0,0:0:0:0:
260,188,232237,1,0,0:0:0:0:
260,188,232326,1,0,0:0:0:0:
260,188,232414,1,8,0:0:0:0:
260,188,232590,1,0,0:0:0:0:
264,188,232767,1,8,0:0:0:0:
256,188,232855,1,0,0:0:0:0:
260,188,232943,1,0,0:0:0:0:
260,188,233031,1,0,0:0:0:0:
260,188,233120,1,8,0:0:0:0:
260,188,233208,1,0,0:0:0:0:
260,188,233296,1,8,0:0:0:0:
260,188,233384,1,8,0:0:0:0:
260,188,233473,1,0,0:0:0:0:
260,188,233561,1,0,0:0:0:0:
264,188,233649,1,8,0:0:0:0:
264,188,233737,1,0,0:0:0:0:
256,188,233826,1,8,0:0:0:0:
260,188,234002,1,0,0:0:0:0:
260,188,234090,1,8,0:0:0:0:
260,188,234179,1,0,0:0:0:0:
260,188,234267,1,0,0:0:0:0:
260,188,234355,1,8,0:0:0:0:
260,188,234443,1,8,0:0:0:0:
256,184,234531,1,0,0:0:0:0:
260,188,234884,1,0,0:0:0:0:
260,188,235061,1,0,0:0:0:0:
260,188,235149,1,0,0:0:0:0:
260,188,235237,1,8,0:0:0:0:
260,188,235414,1,0,0:0:0:0:
260,188,235590,1,8,0:0:0:0:
260,188,235679,1,0,0:0:0:0:
260,188,235767,1,0,0:0:0:0:
260,188,235855,1,0,0:0:0:0:
260,188,235943,1,8,0:0:0:0:
260,188,236031,1,8,0:0:0:0:
260,188,236120,1,0,0:0:0:0:
260,188,236296,1,0,0:0:0:0:
260,188,236355,1,0,0:0:0:0:
260,188,236414,1,0,0:0:0:0:
260,188,236473,1,8,0:0:0:0:
260,188,236561,1,0,0:0:0:0:
260,188,236649,1,8,0:0:0:0:
260,188,236737,1,8,0:0:0:0:
260,188,236826,1,0,0:0:0:0:
260,188,236914,1,0,0:0:0:0:
260,188,237002,1,8,0:0:0:0:
260,188,237179,1,0,0:0:0:0:
260,188,237355,1,8,0:0:0:0:
260,188,237414,1,8,0:0:0:0:
260,188,237473,1,8,0:0:0:0:
260,188,237531,1,0,0:0:0:0:
260,188,237708,1,4,0:0:0:0:
260,188,238237,1,8,0:0:0:0:
260,188,238767,1,0,0:0:0:0:
260,188,239120,1,8,0:0:0:0:
248,188,240002,1,0,0:0:0:0:
248,188,240179,1,0,0:0:0:0:
248,188,240355,1,8,0:0:0:0:
248,188,240531,1,0,0:0:0:0:
248,188,241061,1,8,0:0:0:0:
248,188,241590,1,8,0:0:0:0:
248,188,241943,1,0,0:0:0:0:
248,188,242473,1,0,0:0:0:0:
248,188,243002,1,8,0:0:0:0:
248,188,243355,1,0,0:0:0:0:
248,188,243531,1,0,0:0:0:0:
244,184,243708,1,8,0:0:0:0:
244,184,243884,1,8,0:0:0:0:
248,188,244767,1,0,0:0:0:0:
248,188,244943,1,0,0:0:0:0:
244,184,245120,1,0,0:0:0:0:
244,184,245296,1,8,0:0:0:0:
244,184,245826,1,0,0:0:0:0:
244,184,246179,1,8,0:0:0:0:
248,192,246708,1,8,0:0:0:0:
248,192,247237,1,8,0:0:0:0:
248,192,247590,1,0,0:0:0:0:
248,192,248120,1,0,0:0:0:0:
248,192,248649,1,8,0:0:0:0:
248,192,249002,1,4,0:0:0:0:
248,192,249355,1,0,0:0:0:0:
248,192,249531,1,0,0:0:0:0:
248,192,249708,1,8,0:0:0:0:
248,192,250061,1,0,0:0:0:0:
248,192,250414,1,8,0:0:0:0:
248,192,250767,1,0,0:0:0:0:
248,192,250943,1,0,0:0:0:0:
248,192,251120,1,8,0:0:0:0:
256,192,251296,1,8,0:0:0:0:
248,192,251473,1,0,0:0:0:0:
252,192,251649,1,8,0:0:0:0:
248,192,251826,1,8,0:0:0:0:
248,192,252179,1,0,0:0:0:0:
248,192,252355,1,0,0:0:0:0:
248,192,252531,1,8,0:0:0:0:
248,192,252884,1,0,0:0:0:0:
248,192,253237,1,8,0:0:0:0:
248,192,253590,1,0,0:0:0:0:
248,192,253767,1,8,0:0:0:0:
248,192,253943,1,8,0:0:0:0:
248,192,254120,1,0,0:0:0:0:
248,192,254296,1,8,0:0:0:0:
248,192,254649,1,0,0:0:0:0:
248,192,254826,1,0,0:0:0:0:
248,192,255002,1,8,0:0:0:0:
248,192,255179,1,8,0:0:0:0:
248,192,255355,1,0,0:0:0:0:
248,192,255708,1,8,0:0:0:0:
248,192,256061,1,0,0:0:0:0:
248,192,256237,1,8,0:0:0:0:
248,192,256414,1,8,0:0:0:0:
248,192,256590,1,8,0:0:0:0:
248,192,256767,1,0,0:0:0:0:
248,192,257120,1,8,0:0:0:0:
248,192,257473,1,0,0:0:0:0:
248,192,257649,1,0,0:0:0:0:
248,192,257826,1,8,0:0:0:0:
248,192,258002,1,0,0:0:0:0:
248,192,258179,1,0,0:0:0:0:
248,192,258267,1,0,0:0:0:0:
248,192,258355,1,0,0:0:0:0:
252,196,258443,1,0,0:0:0:0:
248,192,258531,1,8,0:0:0:0:
248,192,258620,1,8,0:0:0:0:
252,196,258708,1,8,0:0:0:0:
252,196,258796,1,8,0:0:0:0:
252,196,258884,1,0,0:0:0:0:
260,188,260296,1,4,0:0:0:0:
260,188,260473,1,8,0:0:0:0:
260,188,260649,1,8,0:0:0:0:
260,188,260737,1,8,0:0:0:0:
260,188,260826,1,0,0:0:0:0:
260,188,261002,1,0,0:0:0:0:
260,188,261090,1,0,0:0:0:0:
260,188,261179,1,8,0:0:0:0:
260,188,261267,1,0,0:0:0:0:
260,188,261443,1,0,0:0:0:0:
260,188,261531,1,8,0:0:0:0:
260,188,261708,1,0,0:0:0:0:
260,188,261796,1,8,0:0:0:0:
260,188,261884,1,0,0:0:0:0:
260,188,261973,1,0,0:0:0:0:
260,188,262061,1,8,0:0:0:0:
260,188,262149,1,0,0:0:0:0:
260,188,262237,1,8,0:0:0:0:
260,188,262414,1,0,0:0:0:0:
260,188,262590,1,8,0:0:0:0:
260,188,262679,1,0,0:0:0:0:
260,188,262855,1,8,0:0:0:0:
260,188,262943,1,8,0:0:0:0:
260,188,263120,1,0,0:0:0:0:
260,188,263296,1,8,0:0:0:0:
260,188,263473,1,8,0:0:0:0:
260,188,263561,1,8,0:0:0:0:
260,188,263649,1,0,0:0:0:0:
260,188,263826,1,0,0:0:0:0:
260,188,263914,1,0,0:0:0:0:
260,188,264002,1,8,0:0:0:0:
260,188,264090,1,0,0:0:0:0:
260,188,264267,1,0,0:0:0:0:
260,188,264355,1,8,0:0:0:0:
260,188,264531,1,0,0:0:0:0:
260,188,264620,1,8,0:0:0:0:
260,188,264708,1,0,0:0:0:0:
260,188,264796,1,0,0:0:0:0:
260,188,264884,1,8,0:0:0:0:
260,188,264973,1,0,0:0:0:0:
260,188,265061,1,8,0:0:0:0:
260,188,265237,1,0,0:0:0:0:
260,188,265414,1,8,0:0:0:0:
260,188,265502,1,0,0:0:0:0:
260,188,265679,1,8,0:0:0:0:
260,188,265767,1,8,0:0:0:0:
260,188,265943,1,4,0:0:0:0:
260,188,266120,1,8,0:0:0:0:
260,188,266296,1,8,0:0:0:0:
260,188,266384,1,0,0:0:0:0:
260,188,266473,1,0,0:0:0:0:
260,188,266649,1,0,0:0:0:0:
260,188,266737,1,8,0:0:0:0:
260,188,266826,1,8,0:0:0:0:
260,188,266914,1,0,0:0:0:0:
260,188,267090,1,0,0:0:0:0:
260,188,267179,1,8,0:0:0:0:
260,188,267355,1,0,0:0:0:0:
260,188,267443,1,8,0:0:0:0:
260,188,267531,1,0,0:0:0:0:
260,188,267708,1,8,0:0:0:0:
260,188,267796,1,0,0:0:0:0:
260,188,267884,1,8,0:0:0:0:
260,188,267973,1,8,0:0:0:0:
260,188,268061,1,0,0:0:0:0:
260,188,268149,1,0,0:0:0:0:
260,188,268237,1,8,0:0:0:0:
260,188,268326,1,0,0:0:0:0:
260,188,268502,1,0,0:0:0:0:
260,188,268590,1,8,0:0:0:0:
260,188,268767,1,0,0:0:0:0:
260,188,268943,1,8,0:0:0:0:
260,188,269120,1,8,0:0:0:0:
260,188,269208,1,0,0:0:0:0:
260,188,269296,1,0,0:0:0:0:
260,188,269473,1,0,0:0:0:0:
260,188,269561,1,8,0:0:0:0:
260,188,269649,1,8,0:0:0:0:
260,188,269737,1,0,0:0:0:0:
260,188,269914,1,0,0:0:0:0:
260,188,270002,1,8,0:0:0:0:
260,188,270179,1,0,0:0:0:0:
260,188,270267,1,0,0:0:0:0:
260,188,270355,1,0,0:0:0:0:
260,188,270531,1,8,0:0:0:0:
260,188,270620,1,0,0:0:0:0:
260,188,270708,1,8,0:0:0:0:
260,188,270796,1,8,0:0:0:0:
260,188,270884,1,0,0:0:0:0:
260,188,270973,1,0,0:0:0:0:
260,188,271061,1,8,0:0:0:0:
260,188,271149,1,0,0:0:0:0:
260,188,271326,1,0,0:0:0:0:
260,188,271414,1,8,0:0:0:0:
260,188,271590,1,4,0:0:0:0:
260,188,271767,1,8,0:0:0:0:
260,188,271943,1,8,0:0:0:0:
260,188,272120,1,8,0:0:0:0:
260,188,272296,1,0,0:0:0:0:
252,188,272473,1,8,0:0:0:0:
260,188,272561,1,8,0:0:0:0:
260,188,272826,1,8,0:0:0:0:
260,188,273002,1,0,0:0:0:0:
260,188,273179,1,8,0:0:0:0:
260,188,273355,1,8,0:0:0:0:
260,188,273531,1,0,0:0:0:0:
260,188,273708,1,8,0:0:0:0:
260,188,273884,1,0,0:0:0:0:
260,188,273973,1,8,0:0:0:0:
260,188,274237,1,8,0:0:0:0:
260,188,274414,1,0,0:0:0:0:
260,188,274590,1,8,0:0:0:0:
260,188,274767,1,8,0:0:0:0:
260,188,274943,1,8,0:0:0:0:
260,188,275120,1,0,0:0:0:0:
260,188,275296,1,8,0:0:0:0:
260,188,275384,1,8,0:0:0:0:
260,188,275649,1,8,0:0:0:0:
260,188,275826,1,0,0:0:0:0:
260,188,276002,1,8,0:0:0:0:
260,188,276179,1,8,0:0:0:0:
260,188,276355,1,0,0:0:0:0:
260,188,276531,1,8,0:0:0:0:
260,188,276708,1,0,0:0:0:0:
260,188,276796,1,8,0:0:0:0:
260,188,276884,1,0,0:0:0:0:
260,188,277061,1,8,0:0:0:0:
260,188,277237,1,4,0:0:0:0:
260,188,277414,1,8,0:0:0:0:
260,188,277590,1,8,0:0:0:0:
260,188,277767,1,8,0:0:0:0:
260,188,277943,1,0,0:0:0:0:
260,188,278120,1,0,0:0:0:0:
260,188,278208,1,8,0:0:0:0:
260,188,278473,1,8,0:0:0:0:
260,188,278826,1,0,0:0:0:0:
260,188,279002,1,8,0:0:0:0:
260,188,279179,1,8,0:0:0:0:
260,188,279355,1,0,0:0:0:0:
260,188,279620,1,8,0:0:0:0:
260,188,279884,1,8,0:0:0:0:
260,188,280061,1,0,0:0:0:0:
260,188,280237,1,8,0:0:0:0:
260,188,280414,1,8,0:0:0:0:
260,188,280590,1,0,0:0:0:0:
260,188,280767,1,8,0:0:0:0:
260,188,280943,1,0,0:0:0:0:
260,188,281031,1,8,0:0:0:0:
260,188,281296,1,8,0:0:0:0:
260,188,281649,1,0,0:0:0:0:
260,188,281826,1,8,0:0:0:0:
260,188,282002,1,8,0:0:0:0:
260,188,282179,1,0,0:0:0:0:
260,188,282531,1,12,0:0:0:0:
260,188,282884,1,0,0:0:0:0:
260,188,282973,1,0,0:0:0:0:
260,188,283061,1,8,0:0:0:0:
260,188,283149,1,0,0:0:0:0:
260,188,283237,1,8,0:0:0:0:
260,188,283326,1,8,0:0:0:0:
260,188,283414,1,0,0:0:0:0:
260,188,283502,1,8,0:0:0:0:
260,188,283590,1,0,0:0:0:0:
260,188,283679,1,8,0:0:0:0:
260,188,283767,1,8,0:0:0:0:
260,188,283855,1,0,0:0:0:0:
260,188,283943,1,8,0:0:0:0:
260,188,284031,1,0,0:0:0:0:
260,188,284120,1,0,0:0:0:0:
260,188,284208,1,8,0:0:0:0:
260,188,284296,1,0,0:0:0:0:
260,188,284384,1,0,0:0:0:0:
260,188,284473,1,8,0:0:0:0:
260,188,284561,1,0,0:0:0:0:
260,188,284649,1,8,0:0:0:0:
260,188,284737,1,8,0:0:0:0:
260,188,284826,1,0,0:0:0:0:
260,188,284914,1,8,0:0:0:0:
260,188,285090,1,8,0:0:0:0:
260,188,285179,1,0,0:0:0:0:
260,188,285267,1,8,0:0:0:0:
260,188,285355,1,8,0:0:0:0:
260,188,285443,1,0,0:0:0:0:
260,188,285531,1,8,0:0:0:0:
260,188,285620,1,8,0:0:0:0:
260,188,285708,1,0,0:0:0:0:
260,188,285796,1,0,0:0:0:0:
260,188,285884,1,8,0:0:0:0:
260,188,285973,1,0,0:0:0:0:
260,188,286061,1,0,0:0:0:0:
260,188,286149,1,8,0:0:0:0:
260,188,286237,1,8,0:0:0:0:
260,188,286326,1,8,0:0:0:0:
260,188,286414,1,0,0:0:0:0:
260,188,286502,1,8,0:0:0:0:
260,188,286590,1,0,0:0:0:0:
260,188,286679,1,0,0:0:0:0:
260,188,286767,1,8,0:0:0:0:
260,188,286855,1,0,0:0:0:0:
260,188,286943,1,8,0:0:0:0:
260,188,287031,1,8,0:0:0:0:
260,188,287120,1,0,0:0:0:0:
260,188,287208,1,0,0:0:0:0:
260,188,287296,1,8,0:0:0:0:
260,188,287384,1,0,0:0:0:0:
260,188,287473,1,0,0:0:0:0:
260,188,287561,1,8,0:0:0:0:
260,188,287649,1,8,0:0:0:0:
260,188,287737,1,8,0:0:0:0:
260,188,287914,1,8,0:0:0:0:
260,188,288002,1,0,0:0:0:0:
260,188,288090,1,8,0:0:0:0:
260,188,288179,1,8,0:0:0:0:
260,188,288267,1,8,0:0:0:0:
260,188,288355,1,0,0:0:0:0:
260,188,288443,1,8,0:0:0:0:
260,188,288531,1,0,0:0:0:0:
260,188,288620,1,0,0:0:0:0:
260,188,288708,1,8,0:0:0:0:
260,188,288796,1,0,0:0:0:0:
260,188,288973,1,8,0:0:0:0:
260,188,289061,1,8,0:0:0:0:
260,188,289237,1,0,0:0:0:0:
260,188,289326,1,8,0:0:0:0:
260,188,289502,1,0,0:0:0:0:
260,188,289590,1,8,0:0:0:0:
260,188,289679,1,0,0:0:0:0:
260,188,289767,1,8,0:0:0:0:
260,188,289855,1,0,0:0:0:0:
260,188,290031,1,0,0:0:0:0:
260,188,290120,1,8,0:0:0:0:
260,188,290296,1,8,0:0:0:0:
260,188,290384,1,0,0:0:0:0:
260,188,290473,1,8,0:0:0:0:
260,188,290561,1,8,0:0:0:0:
260,188,290737,1,8,0:0:0:0:
260,188,290826,1,0,0:0:0:0:
260,188,290914,1,0,0:0:0:0:
260,188,291002,1,8,0:0:0:0:
260,188,291090,1,0,0:0:0:0:
260,188,291179,1,8,0:0:0:0:
260,188,291267,1,8,0:0:0:0:
260,188,291355,1,0,0:0:0:0:
260,188,291443,1,0,0:0:0:0:
260,188,291531,1,8,0:0:0:0:
260,188,291620,1,0,0:0:0:0:
260,188,291708,1,8,0:0:0:0:
260,188,291796,1,8,0:0:0:0:
260,188,291884,1,0,0:0:0:0:
260,188,291973,1,8,0:0:0:0:
260,188,292061,1,0,0:0:0:0:
260,188,292149,1,8,0:0:0:0:
260,188,292237,1,8,0:0:0:0:
260,188,292326,1,0,0:0:0:0:
260,188,292414,1,8,0:0:0:0:
260,188,292502,1,0,0:0:0:0:
260,188,292590,1,0,0:0:0:0:
260,188,292679,1,8,0:0:0:0:
260,188,292767,1,0,0:0:0:0:
260,188,292855,1,0,0:0:0:0:
260,188,292943,1,8,0:0:0:0:
260,188,293031,1,0,0:0:0:0:
260,188,293120,1,8,0:0:0:0:
260,188,293208,1,8,0:0:0:0:
260,188,293296,1,0,0:0:0:0:
260,188,293384,1,8,0:0:0:0:
260,188,293561,1,8,0:0:0:0:
260,188,293649,1,0,0:0:0:0:
260,188,293737,1,8,0:0:0:0:
264,188,293826,1,8,0:0:0:0:
264,188,293914,1,8,0:0:0:0:
264,188,294002,1,0,0:0:0:0:
264,188,294090,1,8,0:0:0:0:
264,188,294179,1,0,0:0:0:0:
268,184,294355,1,4,0:0:0:0:
268,184,294620,1,4,0:0:0:0:
268,184,294884,1,12,0:0:0:0:
268,184,295149,1,4,0:0:0:0:
268,184,295414,1,12,0:0:0:0:
268,184,295767,1,4,0:0:0:0:
268,184,296031,1,4,0:0:0:0:
268,184,296296,1,12,0:0:0:0:
268,184,296561,1,12,0:0:0:0:
268,184,296826,1,4,0:0:0:0:
256,192,297002,12,0,306884,0:0:0:0:
