osu file format v14

[General]
AudioFilename: Valedict - void.mp3
AudioLeadIn: 0
PreviewTime: 29431
Countdown: 0
SampleSet: Soft
StackLeniency: 0.7
Mode: 3
LetterboxInBreaks: 0
SpecialStyle: 0
WidescreenStoryboard: 0

[Editor]
DistanceSpacing: 0.8
BeatDivisor: 4
GridSize: 16
TimelineZoom: 1.3

[Metadata]
Title:Valedict
TitleUnicode:Valedict
Artist:void
ArtistUnicode:void
Creator:pwhk
Version:Hyper
Source:BMS
Tags:bof2012 Ein Neuer Heiliger Krieg sci-fi groundbreaking 234 Trident
BeatmapID:545591
BeatmapSetID:217583

[Difficulty]
HPDrainRate:7.5
CircleSize:7
OverallDifficulty:8
ApproachRate:4
SliderMultiplier:1
SliderTickRate:1

[Events]
//Background and Video events
0,0,"title.png",0,0
//Break Periods
//Storyboard Layer 0 (Background)
//Storyboard Layer 1 (Fail)
//Storyboard Layer 2 (Pass)
//Storyboard Layer 3 (Foreground)
//Storyboard Sound Samples

[TimingPoints]
5970,384.615384615385,4,2,1,30,1,0
30970,-100,4,2,1,30,0,1
42893,-100,4,2,1,30,0,0
104431,-100,4,2,1,30,0,1
117123,-100,4,2,1,30,0,0

[Colours]
Combo1 : 128,0,128
Combo2 : 0,128,255
Combo3 : 0,0,255
Combo4 : 255,0,255

[HitObjects]
256,192,5970,5,2,0:0:0:0:
36,192,5970,1,4,0:0:0:0:
475,192,5970,1,4,1:0:0:0:
36,192,9046,1,2,0:0:0:0:
475,192,9046,1,4,0:0:0:0:
36,192,12123,1,2,0:0:0:0:
329,192,12123,1,4,0:0:0:0:
182,192,12123,1,0,0:0:0:0:
402,192,12220,1,0,0:0:0:0:
36,192,12508,1,2,0:0:0:0:
36,192,12893,1,2,0:0:0:0:
36,192,13277,1,2,0:0:0:0:
475,192,13662,1,2,0:0:0:0:
182,192,13662,1,0,0:0:0:0:
256,192,13758,1,0,0:0:0:0:
475,192,14046,1,2,0:0:0:0:
475,192,14431,1,2,0:0:0:0:
475,192,14816,1,2,0:0:0:0:
36,192,15200,1,2,0:0:0:0:
329,192,15200,1,0,0:0:0:0:
402,192,15296,1,0,0:0:0:0:
36,192,15585,1,2,0:0:0:0:
36,192,15970,1,2,0:0:0:0:
36,192,16354,1,2,0:0:0:0:
182,192,16739,1,0,0:0:0:0:
256,192,16835,1,0,0:0:0:0:
36,192,17508,1,0,0:0:0:0:
109,192,17604,1,0,0:0:0:0:
182,192,17700,1,0,0:0:0:0:
256,192,17796,1,0,0:0:0:0:
329,192,17893,1,0,0:0:0:0:
109,192,17957,1,0,0:0:0:0:
182,192,18021,1,0,0:0:0:0:
256,192,18085,1,0,0:0:0:0:
329,192,18149,1,0,0:0:0:0:
402,192,18213,1,0,0:0:0:0:
475,192,18277,1,4,0:0:0:0:
182,192,18277,1,0,0:0:0:0:
329,192,18373,1,0,0:0:0:0:
36,192,18470,1,0,0:0:0:0:
402,192,18566,1,0,0:0:0:0:
256,192,18662,1,0,0:0:0:0:
109,192,18854,1,0,0:0:0:0:
256,192,18950,1,0,0:0:0:0:
109,192,19143,1,0,0:0:0:0:
256,192,19239,1,0,0:0:0:0:
109,192,19431,1,0,0:0:0:0:
402,192,19559,1,0,0:0:0:0:
256,192,19687,1,0,0:0:0:0:
109,192,19816,1,0,0:0:0:0:
182,192,19912,1,0,0:0:0:0:
329,192,20008,1,0,0:0:0:0:
475,192,20104,1,0,0:0:0:0:
36,192,20200,1,0,0:0:0:0:
109,192,20296,1,0,0:0:0:0:
256,192,20393,1,0,0:0:0:0:
329,192,20489,1,0,0:0:0:0:
402,192,20585,1,0,0:0:0:0:
475,192,20681,1,0,0:0:0:0:
329,192,20777,1,0,0:0:0:0:
182,192,20873,1,0,0:0:0:0:
36,192,20970,1,0,0:0:0:0:
109,192,21034,1,0,0:0:0:0:
182,192,21098,1,0,0:0:0:0:
329,192,21162,1,0,0:0:0:0:
402,192,21226,1,0,0:0:0:0:
475,192,21290,1,0,0:0:0:0:
109,192,21354,1,0,0:0:0:0:
36,192,21546,1,0,0:0:0:0:
256,192,21643,1,0,0:0:0:0:
182,192,21835,1,0,0:0:0:0:
475,192,21931,1,0,0:0:0:0:
329,192,22123,1,0,0:0:0:0:
256,192,22316,1,0,0:0:0:0:
329,192,22412,1,0,0:0:0:0:
475,192,22508,1,0,0:0:0:0:
402,192,22604,1,0,0:0:0:0:
256,192,22700,1,0,0:0:0:0:
109,192,22796,1,0,0:0:0:0:
36,192,22893,1,0,0:0:0:0:
256,192,22989,1,0,0:0:0:0:
109,192,23085,1,0,0:0:0:0:
256,192,23181,1,0,0:0:0:0:
402,192,23277,1,0,0:0:0:0:
182,192,23470,1,0,0:0:0:0:
329,192,23566,1,0,0:0:0:0:
109,192,23662,1,0,0:0:0:0:
329,192,23758,1,0,0:0:0:0:
475,192,23854,1,0,0:0:0:0:
402,192,24046,1,0,0:0:0:0:
475,192,24175,1,0,0:0:0:0:
329,192,24239,1,0,0:0:0:0:
182,192,24303,1,0,0:0:0:0:
475,192,24431,1,4,0:0:0:0:
109,192,24431,1,0,0:0:0:0:
36,192,24527,1,0,0:0:0:0:
256,192,24623,1,0,0:0:0:0:
182,192,24720,1,0,0:0:0:0:
402,192,24816,1,0,0:0:0:0:
36,192,24912,1,0,0:0:0:0:
182,192,25008,1,0,0:0:0:0:
256,192,25104,1,0,0:0:0:0:
109,192,25200,1,0,0:0:0:0:
402,192,25296,1,0,0:0:0:0:
36,192,25393,1,0,0:0:0:0:
182,192,25489,1,0,0:0:0:0:
329,192,25585,1,0,0:0:0:0:
109,192,25681,1,0,0:0:0:0:
402,192,25777,1,0,0:0:0:0:
36,192,25873,1,0,0:0:0:0:
256,192,25970,1,0,0:0:0:0:
109,192,26066,1,0,0:0:0:0:
402,192,26162,1,0,0:0:0:0:
182,192,26258,1,0,0:0:0:0:
475,192,26354,1,0,0:0:0:0:
256,192,26450,1,0,0:0:0:0:
109,192,26546,1,0,0:0:0:0:
329,192,26643,1,0,0:0:0:0:
36,192,26739,1,0,0:0:0:0:
402,192,26835,1,0,0:0:0:0:
109,192,26931,1,0,0:0:0:0:
329,192,27027,1,0,0:0:0:0:
256,192,27123,1,0,0:0:0:0:
182,192,27220,1,0,0:0:0:0:
402,192,27316,1,0,0:0:0:0:
256,192,27412,1,0,0:0:0:0:
475,192,27508,1,0,0:0:0:0:
109,192,27604,1,0,0:0:0:0:
402,192,27700,1,0,0:0:0:0:
182,192,27796,1,0,0:0:0:0:
329,192,27893,1,0,0:0:0:0:
109,192,27989,1,0,0:0:0:0:
256,192,28085,1,0,0:0:0:0:
36,192,28181,1,0,0:0:0:0:
182,192,28277,1,0,0:0:0:0:
36,192,28373,1,0,0:0:0:0:
256,192,28470,1,0,0:0:0:0:
109,192,28566,1,0,0:0:0:0:
475,192,28662,1,0,0:0:0:0:
402,192,28726,1,0,0:0:0:0:
329,192,28790,1,0,0:0:0:0:
256,192,28854,1,0,0:0:0:0:
182,192,28918,1,0,0:0:0:0:
109,192,28982,1,0,0:0:0:0:
36,192,29046,1,0,0:0:0:0:
402,192,29046,1,0,0:0:0:0:
109,192,29143,1,0,0:0:0:0:
182,192,29239,1,0,0:0:0:0:
256,192,29335,1,0,0:0:0:0:
109,192,29431,1,0,0:0:0:0:
182,192,29527,1,0,0:0:0:0:
256,192,29623,1,0,0:0:0:0:
329,192,29720,1,0,0:0:0:0:
182,192,29816,1,0,0:0:0:0:
256,192,29912,1,0,0:0:0:0:
329,192,30008,1,0,0:0:0:0:
402,192,30104,1,0,0:0:0:0:
256,192,30200,1,0,0:0:0:0:
329,192,30296,1,0,0:0:0:0:
402,192,30393,1,0,0:0:0:0:
475,192,30489,1,0,0:0:0:0:
329,192,30585,1,0,0:0:0:0:
36,192,30777,1,0,0:0:0:0:
402,192,30970,1,4,1:0:0:0:
109,192,30970,1,4,0:0:0:0:
256,192,30970,1,2,0:0:0:0:
329,192,31162,1,0,0:0:0:0:
182,192,31258,1,0,0:0:0:0:
36,192,31354,1,2,0:0:0:0:
109,192,31450,1,0,0:0:0:0:
256,192,31546,1,0,0:0:0:0:
475,192,31739,1,0,0:0:0:0:
36,192,31739,1,2,0:0:0:0:
256,192,31931,1,0,0:0:0:0:
36,192,32123,1,2,0:0:0:0:
109,192,32123,1,0,0:0:0:0:
182,192,32316,1,0,0:0:0:0:
329,192,32508,1,0,0:0:0:0:
36,192,32508,1,2,0:0:0:0:
402,192,32700,1,0,0:0:0:0:
256,192,32796,1,0,0:0:0:0:
36,192,32893,1,2,0:0:0:0:
182,192,32989,1,0,0:0:0:0:
329,192,33085,1,0,0:0:0:0:
402,192,33277,1,0,0:0:0:0:
36,192,33277,1,2,0:0:0:0:
329,192,33470,1,0,0:0:0:0:
36,192,33662,1,0,0:0:0:0:
475,192,33662,1,2,0:0:0:0:
182,192,33854,1,0,0:0:0:0:
402,192,34046,1,0,0:0:0:0:
475,192,34046,1,2,0:0:0:0:
109,192,34239,1,0,0:0:0:0:
256,192,34335,1,0,0:0:0:0:
475,192,34431,1,2,0:0:0:0:
182,192,34527,1,0,0:0:0:0:
329,192,34623,1,0,0:0:0:0:
36,192,34816,1,0,0:0:0:0:
475,192,34816,1,2,0:0:0:0:
256,192,35008,1,0,0:0:0:0:
109,192,35200,1,0,0:0:0:0:
475,192,35200,1,2,0:0:0:0:
182,192,35393,1,0,0:0:0:0:
36,192,35585,1,0,0:0:0:0:
475,192,35585,1,2,0:0:0:0:
109,192,35777,1,0,0:0:0:0:
329,192,35873,1,0,0:0:0:0:
475,192,35970,1,2,0:0:0:0:
402,192,36066,1,0,0:0:0:0:
182,192,36162,1,0,0:0:0:0:
256,192,36354,1,0,0:0:0:0:
475,192,36354,1,2,0:0:0:0:
182,192,36546,1,0,0:0:0:0:
475,192,36546,1,2,0:0:0:0:
109,192,36739,1,4,0:0:0:0:
256,192,36739,1,2,0:0:0:0:
329,192,36867,1,2,0:0:0:0:
475,192,36867,1,4,0:0:0:0:
182,192,36995,1,2,0:0:0:0:
36,192,36995,1,4,0:0:0:0:
256,192,37123,1,2,0:0:0:0:
402,192,37123,1,4,0:0:0:0:
475,192,37316,1,0,0:0:0:0:
36,192,37316,1,0,0:0:0:0:
402,192,37412,1,0,0:0:0:0:
109,192,37412,1,0,0:0:0:0:
256,192,37508,1,2,0:0:0:0:
182,192,37604,1,0,0:0:0:0:
329,192,37604,1,0,0:0:0:0:
109,192,37700,1,0,0:0:0:0:
402,192,37700,1,0,0:0:0:0:
475,192,37893,1,0,0:0:0:0:
36,192,37893,1,2,0:0:0:0:
182,192,38085,1,0,0:0:0:0:
329,192,38085,1,0,0:0:0:0:
109,192,38277,1,2,0:0:0:0:
402,192,38277,1,0,0:0:0:0:
182,192,38470,1,0,0:0:0:0:
329,192,38470,1,0,0:0:0:0:
109,192,38662,1,0,0:0:0:0:
402,192,38662,1,2,0:0:0:0:
36,192,38854,1,0,0:0:0:0:
475,192,38854,1,0,0:0:0:0:
109,192,38950,1,0,0:0:0:0:
402,192,38950,1,0,0:0:0:0:
256,192,39046,1,2,0:0:0:0:
182,192,39143,1,0,0:0:0:0:
329,192,39143,1,0,0:0:0:0:
402,192,39239,1,0,0:0:0:0:
109,192,39239,1,0,0:0:0:0:
475,192,39431,1,2,0:0:0:0:
36,192,39431,1,0,0:0:0:0:
109,192,39623,1,0,0:0:0:0:
402,192,39623,1,0,0:0:0:0:
182,192,39816,1,2,0:0:0:0:
329,192,39816,1,0,0:0:0:0:
109,192,40008,1,2,0:0:0:0:
402,192,40008,1,0,0:0:0:0:
36,192,40200,1,2,0:0:0:0:
475,192,40200,1,0,0:0:0:0:
109,192,40393,1,2,0:0:0:0:
402,192,40393,1,0,0:0:0:0:
182,192,40489,1,0,0:0:0:0:
329,192,40489,1,0,0:0:0:0:
256,192,40585,1,2,0:0:0:0:
109,192,40681,1,0,0:0:0:0:
402,192,40681,1,0,0:0:0:0:
36,192,40777,1,2,0:0:0:0:
475,192,40777,1,0,0:0:0:0:
182,192,40970,1,2,0:0:0:0:
329,192,40970,1,0,0:0:0:0:
109,192,41162,1,2,0:0:0:0:
402,192,41162,1,0,0:0:0:0:
475,192,41354,128,0,41546:0:0:0:0:
182,192,41354,1,0,0:0:0:0:
402,192,41546,128,0,41739:0:0:0:0:
109,192,41546,1,0,0:0:0:0:
329,192,41739,128,0,41931:0:0:0:0:
36,192,41739,1,0,0:0:0:0:
256,192,41931,1,0,0:0:0:0:
402,192,42508,1,0,0:0:0:0:
475,192,42893,1,4,0:0:0:0:
36,192,42893,1,4,0:0:0:0:
109,192,43854,1,0,0:0:0:0:
475,192,44239,1,0,0:0:0:0:
182,192,44431,1,0,0:0:0:0:
329,192,45393,1,0,0:0:0:0:
182,192,45777,1,0,0:0:0:0:
36,192,45970,1,0,0:0:0:0:
475,192,45970,1,0,0:0:0:0:
109,192,46354,1,0,0:0:0:0:
256,192,46739,1,0,0:0:0:0:
256,192,46931,1,0,0:0:0:0:
402,192,47123,1,0,0:0:0:0:
109,192,47316,1,0,0:0:0:0:
182,192,48854,1,0,0:0:0:0:
329,192,48950,1,0,0:0:0:0:
475,192,49046,1,0,0:0:0:0:
36,192,49046,1,0,0:0:0:0:
109,192,49623,1,0,0:0:0:0:
475,192,50200,1,0,0:0:0:0:
182,192,50585,1,0,0:0:0:0:
329,192,50970,1,0,0:0:0:0:
402,192,51354,1,0,0:0:0:0:
256,192,51643,1,0,0:0:0:0:
109,192,51931,1,0,0:0:0:0:
329,192,52123,1,0,0:0:0:0:
36,192,52123,1,0,0:0:0:0:
182,192,52700,1,0,0:0:0:0:
256,192,52796,1,0,0:0:0:0:
329,192,52893,1,0,0:0:0:0:
402,192,53181,1,0,0:0:0:0:
475,192,53470,1,0,0:0:0:0:
256,192,53662,1,0,0:0:0:0:
36,192,54239,1,0,0:0:0:0:
109,192,55008,1,0,0:0:0:0:
256,192,55104,1,0,0:0:0:0:
402,192,55200,1,4,0:0:0:0:
36,192,55200,1,4,1:0:0:0:
475,192,55200,1,2,0:0:0:0:
475,192,55970,1,8,0:0:0:0:
36,192,55970,1,2,0:0:0:0:
256,192,55970,1,0,0:0:0:0:
182,192,56162,1,0,0:0:0:0:
402,192,56546,1,0,0:0:0:0:
36,192,56739,1,2,0:0:0:0:
109,192,56739,1,0,0:0:0:0:
475,192,57508,1,8,0:0:0:0:
36,192,57508,1,2,0:0:0:0:
256,192,57508,1,0,0:0:0:0:
329,192,57700,1,0,0:0:0:0:
36,192,58085,1,2,0:0:0:0:
182,192,58085,1,0,0:0:0:0:
36,192,58277,1,2,0:0:0:0:
182,192,58277,1,0,0:0:0:0:
256,192,58662,1,0,0:0:0:0:
475,192,59046,1,8,0:0:0:0:
36,192,59046,1,2,0:0:0:0:
329,192,59046,1,0,0:0:0:0:
329,192,59239,1,0,0:0:0:0:
402,192,59431,1,0,0:0:0:0:
109,192,59623,1,0,0:0:0:0:
36,192,59816,1,2,0:0:0:0:
182,192,60345,1,0,0:0:0:0:
329,192,60393,1,0,0:0:0:0:
475,192,60585,1,8,0:0:0:0:
36,192,60585,1,2,0:0:0:0:
256,192,60585,1,0,0:0:0:0:
402,192,60970,1,2,0:0:0:0:
329,192,61098,1,2,0:0:0:0:
256,192,61226,1,2,0:0:0:0:
182,192,61354,1,0,0:0:0:0:
36,192,61354,1,2,0:0:0:0:
109,192,61931,1,0,0:0:0:0:
475,192,62123,1,8,0:0:0:0:
36,192,62123,1,2,0:0:0:0:
256,192,62123,1,0,0:0:0:0:
182,192,62508,1,0,0:0:0:0:
402,192,62636,1,0,0:0:0:0:
109,192,62764,1,0,0:0:0:0:
36,192,62893,1,2,0:0:0:0:
329,192,62893,1,0,0:0:0:0:
36,192,63277,1,2,0:0:0:0:
402,192,63470,1,0,0:0:0:0:
475,192,63662,1,8,0:0:0:0:
36,192,63662,1,2,0:0:0:0:
256,192,63662,1,0,0:0:0:0:
182,192,64046,1,0,0:0:0:0:
329,192,64143,1,0,0:0:0:0:
402,192,64239,1,0,0:0:0:0:
109,192,64335,1,0,0:0:0:0:
36,192,64431,1,2,0:0:0:0:
256,192,64431,1,0,0:0:0:0:
36,192,64720,1,2,0:0:0:0:
329,192,64816,1,0,0:0:0:0:
36,192,65008,1,2,0:0:0:0:
475,192,65200,1,8,0:0:0:0:
256,192,65200,1,0,0:0:0:0:
36,192,65200,1,2,0:0:0:0:
329,192,65393,1,0,0:0:0:0:
402,192,65585,1,0,0:0:0:0:
109,192,65777,1,0,0:0:0:0:
36,192,65970,1,4,0:0:0:0:
256,192,65970,1,0,0:0:0:0:
36,192,66162,1,0,0:0:0:0:
475,192,66354,1,0,0:0:0:0:
329,192,66546,1,0,0:0:0:0:
36,192,66546,1,0,0:0:0:0:
475,192,66643,1,0,0:0:0:0:
182,192,66739,128,0,67508:0:0:0:0:
475,192,67123,1,0,0:0:0:0:
256,192,67508,1,4,0:0:0:0:
109,192,67604,1,0,0:0:0:0:
329,192,67796,1,0,0:0:0:0:
182,192,67989,1,0,0:0:0:0:
182,192,68181,1,0,0:0:0:0:
402,192,68373,1,0,0:0:0:0:
182,192,68470,1,0,0:0:0:0:
329,192,68662,1,0,0:0:0:0:
182,192,68854,1,0,0:0:0:0:
256,192,69046,1,0,0:0:0:0:
109,192,69143,1,0,0:0:0:0:
329,192,69335,1,0,0:0:0:0:
182,192,69527,1,0,0:0:0:0:
182,192,69720,1,0,0:0:0:0:
475,192,69816,1,0,0:0:0:0:
402,192,69912,1,0,0:0:0:0:
256,192,70008,1,0,0:0:0:0:
109,192,70104,1,0,0:0:0:0:
36,192,70200,1,0,0:0:0:0:
182,192,70296,1,0,0:0:0:0:
329,192,70393,1,0,0:0:0:0:
402,192,70489,1,0,0:0:0:0:
256,192,70585,1,0,0:0:0:0:
109,192,70681,1,0,0:0:0:0:
329,192,70873,1,0,0:0:0:0:
182,192,71066,1,0,0:0:0:0:
182,192,71258,1,0,0:0:0:0:
402,192,71450,1,0,0:0:0:0:
182,192,71546,1,0,0:0:0:0:
329,192,71739,1,0,0:0:0:0:
182,192,71931,1,0,0:0:0:0:
256,192,72123,1,0,0:0:0:0:
109,192,72220,1,0,0:0:0:0:
329,192,72412,1,0,0:0:0:0:
182,192,72604,1,0,0:0:0:0:
475,192,72700,128,0,72893:0:0:0:0:
256,192,73277,128,0,73470:0:0:0:0:
36,192,73470,1,2,0:0:0:0:
109,192,73662,1,2,0:0:0:0:
475,192,73662,1,4,0:0:0:0:
256,192,73758,1,0,0:0:0:0:
402,192,73950,1,0,0:0:0:0:
329,192,74143,1,0,0:0:0:0:
329,192,74335,1,0,0:0:0:0:
182,192,74527,1,0,0:0:0:0:
329,192,74623,1,0,0:0:0:0:
402,192,74816,1,0,0:0:0:0:
329,192,75008,1,0,0:0:0:0:
109,192,75200,1,0,0:0:0:0:
256,192,75296,1,0,0:0:0:0:
402,192,75489,1,0,0:0:0:0:
329,192,75681,1,0,0:0:0:0:
109,192,75777,1,0,0:0:0:0:
256,192,75873,1,0,0:0:0:0:
402,192,75970,1,0,0:0:0:0:
329,192,76162,1,0,0:0:0:0:
182,192,76354,1,0,0:0:0:0:
36,192,76546,1,0,0:0:0:0:
109,192,76739,1,0,0:0:0:0:
256,192,76835,1,0,0:0:0:0:
402,192,77027,1,0,0:0:0:0:
329,192,77220,1,0,0:0:0:0:
329,192,77412,1,0,0:0:0:0:
182,192,77604,1,0,0:0:0:0:
329,192,77700,1,0,0:0:0:0:
402,192,77893,1,0,0:0:0:0:
329,192,78085,1,0,0:0:0:0:
256,192,78277,128,0,79816:0:0:0:0:
36,192,79816,1,2,0:0:0:0:
402,192,79816,1,4,0:0:0:0:
36,192,80008,1,2,0:0:0:0:
402,192,80008,1,4,0:0:0:0:
402,192,80296,1,4,0:0:0:0:
36,192,80296,1,2,0:0:0:0:
36,192,80585,1,2,0:0:0:0:
402,192,80585,1,4,0:0:0:0:
36,192,80777,1,2,0:0:0:0:
402,192,80777,1,4,0:0:0:0:
402,192,81066,1,4,0:0:0:0:
36,192,81066,1,2,0:0:0:0:
256,192,81162,1,2,0:0:0:0:
182,192,81162,1,4,0:0:0:0:
475,192,81354,1,2,0:0:0:0:
109,192,81354,1,4,0:0:0:0:
475,192,81546,1,2,0:0:0:0:
109,192,81546,1,4,0:0:0:0:
109,192,81835,1,4,0:0:0:0:
475,192,81835,1,2,0:0:0:0:
475,192,82123,1,2,0:0:0:0:
109,192,82123,1,4,0:0:0:0:
475,192,82316,1,2,0:0:0:0:
109,192,82316,1,4,0:0:0:0:
475,192,82604,1,2,0:0:0:0:
109,192,82604,1,4,0:0:0:0:
256,192,82700,1,2,0:0:0:0:
182,192,82796,1,2,0:0:0:0:
36,192,82893,1,2,0:0:0:0:
329,192,82893,1,4,0:0:0:0:
36,192,83085,1,2,0:0:0:0:
329,192,83085,1,4,0:0:0:0:
329,192,83373,1,4,0:0:0:0:
36,192,83373,1,2,0:0:0:0:
182,192,83470,1,2,0:0:0:0:
36,192,83662,1,2,0:0:0:0:
329,192,83662,1,4,0:0:0:0:
36,192,83854,1,2,0:0:0:0:
329,192,83854,1,4,0:0:0:0:
36,192,84046,1,2,0:0:0:0:
329,192,84046,1,4,0:0:0:0:
182,192,84175,1,2,0:0:0:0:
475,192,84175,1,4,0:0:0:0:
36,192,84303,1,2,0:0:0:0:
329,192,84303,1,4,0:0:0:0:
402,192,84431,1,2,0:0:0:0:
109,192,84431,1,4,0:0:0:0:
402,192,84623,1,2,0:0:0:0:
109,192,84623,1,4,0:0:0:0:
109,192,84912,1,4,0:0:0:0:
402,192,84912,1,2,0:0:0:0:
256,192,85008,1,2,0:0:0:0:
109,192,85200,1,4,0:0:0:0:
402,192,85200,1,2,0:0:0:0:
182,192,85328,1,4,0:0:0:0:
329,192,85328,1,2,0:0:0:0:
402,192,85457,1,2,0:0:0:0:
109,192,85457,1,4,0:0:0:0:
329,192,85585,1,2,0:0:0:0:
36,192,85585,1,4,0:0:0:0:
475,192,85970,1,2,0:0:0:0:
109,192,85970,1,4,0:0:0:0:
109,192,86162,1,4,0:0:0:0:
475,192,86162,1,2,0:0:0:0:
109,192,86450,1,4,0:0:0:0:
475,192,86450,1,2,0:0:0:0:
475,192,86739,1,2,0:0:0:0:
109,192,86739,1,4,0:0:0:0:
109,192,86931,1,4,0:0:0:0:
475,192,86931,1,2,0:0:0:0:
109,192,87220,1,4,0:0:0:0:
475,192,87220,1,2,0:0:0:0:
256,192,87316,1,4,0:0:0:0:
329,192,87316,1,2,0:0:0:0:
36,192,87508,1,4,0:0:0:0:
402,192,87508,1,2,0:0:0:0:
402,192,87700,1,2,0:0:0:0:
36,192,87700,1,4,0:0:0:0:
402,192,87989,1,2,0:0:0:0:
36,192,87989,1,4,0:0:0:0:
36,192,88277,1,4,0:0:0:0:
402,192,88277,1,2,0:0:0:0:
402,192,88470,1,2,0:0:0:0:
36,192,88470,1,4,0:0:0:0:
36,192,88758,1,4,0:0:0:0:
402,192,88758,1,2,0:0:0:0:
256,192,88854,1,2,0:0:0:0:
475,192,88950,1,2,0:0:0:0:
402,192,89046,1,2,0:0:0:0:
109,192,89046,1,4,0:0:0:0:
182,192,89239,1,2,0:0:0:0:
329,192,89335,1,2,0:0:0:0:
182,192,89431,1,2,0:0:0:0:
329,192,89527,1,2,0:0:0:0:
182,192,89623,1,2,0:0:0:0:
402,192,89816,1,2,0:0:0:0:
109,192,89912,1,2,0:0:0:0:
402,192,90008,1,2,0:0:0:0:
109,192,90104,1,2,0:0:0:0:
402,192,90200,1,2,0:0:0:0:
182,192,90393,1,2,0:0:0:0:
329,192,90489,1,2,0:0:0:0:
36,192,90585,1,2,0:0:0:0:
475,192,90713,1,2,0:0:0:0:
36,192,90841,1,2,0:0:0:0:
475,192,90970,1,2,0:0:0:0:
36,192,91098,1,2,0:0:0:0:
475,192,91226,1,2,0:0:0:0:
36,192,91354,1,2,0:0:0:0:
475,192,91482,1,2,0:0:0:0:
36,192,91611,1,2,0:0:0:0:
109,192,91739,1,2,0:0:0:0:
402,192,91739,1,2,0:0:0:0:
256,192,91739,1,4,0:0:0:0:
475,192,92123,1,4,0:0:0:0:
36,192,92123,1,4,1:0:0:0:
182,192,92123,1,0,0:0:0:0:
402,192,92220,1,0,0:0:0:0:
109,192,92316,1,0,0:0:0:0:
329,192,92412,1,0,0:0:0:0:
256,192,92508,1,0,0:0:0:0:
109,192,92700,1,0,0:0:0:0:
256,192,92796,1,0,0:0:0:0:
109,192,92989,1,0,0:0:0:0:
256,192,93085,1,0,0:0:0:0:
109,192,93277,1,0,0:0:0:0:
402,192,93405,1,0,0:0:0:0:
256,192,93534,1,0,0:0:0:0:
109,192,93662,1,0,0:0:0:0:
182,192,93758,1,0,0:0:0:0:
329,192,93854,1,0,0:0:0:0:
475,192,93950,1,0,0:0:0:0:
36,192,94046,1,0,0:0:0:0:
109,192,94143,1,0,0:0:0:0:
182,192,94239,1,0,0:0:0:0:
329,192,94335,1,0,0:0:0:0:
402,192,94431,1,0,0:0:0:0:
475,192,94527,1,0,0:0:0:0:
256,192,94623,1,0,0:0:0:0:
36,192,94720,1,0,0:0:0:0:
182,192,94816,1,0,0:0:0:0:
329,192,94880,1,0,0:0:0:0:
402,192,94944,1,0,0:0:0:0:
475,192,95008,1,0,0:0:0:0:
256,192,95072,1,0,0:0:0:0:
329,192,95136,1,0,0:0:0:0:
109,192,95200,1,0,0:0:0:0:
256,192,95393,1,0,0:0:0:0:
402,192,95489,1,0,0:0:0:0:
182,192,95681,1,0,0:0:0:0:
475,192,95777,1,0,0:0:0:0:
329,192,95970,1,0,0:0:0:0:
182,192,96162,1,0,0:0:0:0:
329,192,96258,1,0,0:0:0:0:
475,192,96354,1,0,0:0:0:0:
402,192,96450,1,0,0:0:0:0:
256,192,96546,1,0,0:0:0:0:
109,192,96643,1,0,0:0:0:0:
36,192,96739,1,0,0:0:0:0:
256,192,96835,1,0,0:0:0:0:
109,192,96931,1,0,0:0:0:0:
256,192,97027,1,0,0:0:0:0:
402,192,97123,1,0,0:0:0:0:
182,192,97316,1,0,0:0:0:0:
329,192,97412,1,0,0:0:0:0:
109,192,97508,1,0,0:0:0:0:
329,192,97604,1,0,0:0:0:0:
475,192,97700,1,0,0:0:0:0:
256,192,97893,1,0,0:0:0:0:
475,192,98021,1,0,0:0:0:0:
182,192,98149,1,0,0:0:0:0:
256,192,98277,1,2,0:0:0:0:
109,192,98277,1,0,0:0:0:0:
402,192,98373,1,0,0:0:0:0:
109,192,98470,1,0,0:0:0:0:
402,192,98566,1,0,0:0:0:0:
109,192,98662,1,0,0:0:0:0:
402,192,98758,1,0,0:0:0:0:
109,192,98854,1,0,0:0:0:0:
402,192,98950,1,0,0:0:0:0:
109,192,99046,1,0,0:0:0:0:
256,192,99046,1,2,0:0:0:0:
402,192,99143,1,0,0:0:0:0:
109,192,99239,1,0,0:0:0:0:
402,192,99335,1,0,0:0:0:0:
109,192,99431,1,0,0:0:0:0:
402,192,99527,1,0,0:0:0:0:
109,192,99623,1,0,0:0:0:0:
402,192,99720,1,0,0:0:0:0:
182,192,99816,1,0,0:0:0:0:
256,192,99816,1,2,0:0:0:0:
329,192,99912,1,0,0:0:0:0:
182,192,100008,1,0,0:0:0:0:
329,192,100104,1,0,0:0:0:0:
182,192,100200,1,0,0:0:0:0:
329,192,100296,1,0,0:0:0:0:
182,192,100393,1,0,0:0:0:0:
329,192,100489,1,0,0:0:0:0:
182,192,100585,1,0,0:0:0:0:
256,192,100585,1,2,0:0:0:0:
329,192,100681,1,0,0:0:0:0:
182,192,100777,1,0,0:0:0:0:
36,192,100873,1,0,0:0:0:0:
475,192,100970,1,0,0:0:0:0:
402,192,101034,1,0,0:0:0:0:
329,192,101098,1,0,0:0:0:0:
256,192,101162,1,0,0:0:0:0:
182,192,101226,1,0,0:0:0:0:
109,192,101290,1,0,0:0:0:0:
36,192,101354,5,2,0:0:0:0:
402,192,101354,1,4,0:0:0:0:
475,192,101354,1,4,0:0:0:0:
36,192,101739,1,2,0:0:0:0:
182,192,101739,1,4,0:0:0:0:
329,192,101739,1,4,0:0:0:0:
402,192,102123,1,4,0:0:0:0:
256,192,102123,1,4,0:0:0:0:
36,192,102123,1,2,0:0:0:0:
475,192,102412,1,4,0:0:0:0:
329,192,102412,1,4,0:0:0:0:
36,192,102412,1,2,0:0:0:0:
329,192,102700,1,4,0:0:0:0:
182,192,102700,1,4,0:0:0:0:
36,192,102700,1,2,0:0:0:0:
475,192,102893,1,2,0:0:0:0:
329,192,102941,1,2,0:0:0:0:
182,192,102989,1,2,0:0:0:0:
36,192,103037,1,2,0:0:0:0:
402,192,103085,1,2,0:0:0:0:
256,192,103149,1,2,0:0:0:0:
109,192,103213,1,2,0:0:0:0:
329,192,103277,1,2,0:0:0:0:
182,192,103373,1,2,0:0:0:0:
329,192,103470,1,2,0:0:0:0:
182,192,103566,1,2,0:0:0:0:
109,192,103662,1,2,0:0:0:0:
402,192,103790,1,2,0:0:0:0:
109,192,103918,1,2,0:0:0:0:
402,192,104046,1,2,0:0:0:0:
109,192,104175,1,2,0:0:0:0:
402,192,104303,1,2,0:0:0:0:
475,192,104431,1,2,0:0:0:0:
36,192,104431,1,4,0:0:0:0:
182,192,104431,1,0,0:0:0:0:
109,192,104623,1,0,0:0:0:0:
256,192,104816,1,0,0:0:0:0:
36,192,104816,1,2,0:0:0:0:
329,192,105008,1,0,0:0:0:0:
182,192,105104,1,0,0:0:0:0:
475,192,105200,1,0,0:0:0:0:
36,192,105200,1,2,0:0:0:0:
109,192,105296,1,0,0:0:0:0:
256,192,105393,1,0,0:0:0:0:
402,192,105585,1,0,0:0:0:0:
36,192,105585,1,2,0:0:0:0:
256,192,105777,1,0,0:0:0:0:
36,192,105970,1,2,0:0:0:0:
402,192,105970,1,0,0:0:0:0:
109,192,105970,1,0,0:0:0:0:
182,192,106162,1,0,0:0:0:0:
329,192,106354,1,0,0:0:0:0:
36,192,106354,1,2,0:0:0:0:
402,192,106546,1,0,0:0:0:0:
256,192,106643,1,0,0:0:0:0:
36,192,106739,1,2,0:0:0:0:
109,192,106739,1,0,0:0:0:0:
182,192,106835,1,0,0:0:0:0:
329,192,106931,1,0,0:0:0:0:
475,192,107123,1,0,0:0:0:0:
36,192,107123,1,2,0:0:0:0:
329,192,107316,1,0,0:0:0:0:
36,192,107316,1,2,0:0:0:0:
109,192,107508,1,0,0:0:0:0:
182,192,107508,1,0,0:0:0:0:
475,192,107508,1,2,0:0:0:0:
256,192,107700,1,0,0:0:0:0:
475,192,107893,1,2,0:0:0:0:
402,192,107893,1,0,0:0:0:0:
182,192,108085,1,0,0:0:0:0:
329,192,108181,1,0,0:0:0:0:
475,192,108277,1,2,0:0:0:0:
256,192,108373,1,0,0:0:0:0:
402,192,108470,1,0,0:0:0:0:
109,192,108662,1,0,0:0:0:0:
475,192,108662,1,2,0:0:0:0:
329,192,108854,1,0,0:0:0:0:
182,192,109046,1,0,0:0:0:0:
475,192,109046,1,2,0:0:0:0:
402,192,109046,1,0,0:0:0:0:
256,192,109239,1,0,0:0:0:0:
36,192,109431,1,0,0:0:0:0:
475,192,109431,1,2,0:0:0:0:
109,192,109623,1,0,0:0:0:0:
329,192,109720,1,0,0:0:0:0:
182,192,109816,1,0,0:0:0:0:
475,192,109816,1,2,0:0:0:0:
402,192,109912,1,0,0:0:0:0:
256,192,110008,1,0,0:0:0:0:
475,192,110104,1,2,0:0:0:0:
329,192,110200,1,0,0:0:0:0:
182,192,110393,1,0,0:0:0:0:
475,192,110393,1,2,0:0:0:0:
109,192,110585,1,4,0:0:0:0:
256,192,110585,1,2,0:0:0:0:
475,192,110713,1,4,0:0:0:0:
329,192,110713,1,2,0:0:0:0:
182,192,110841,1,2,0:0:0:0:
36,192,110841,1,4,0:0:0:0:
256,192,110970,1,2,0:0:0:0:
402,192,110970,1,4,0:0:0:0:
329,192,111162,1,2,0:0:0:0:
475,192,111162,1,0,0:0:0:0:
256,192,111258,1,0,0:0:0:0:
402,192,111258,1,0,0:0:0:0:
109,192,111354,1,2,0:0:0:0:
182,192,111450,1,0,0:0:0:0:
329,192,111450,1,0,0:0:0:0:
256,192,111546,1,2,0:0:0:0:
402,192,111546,1,0,0:0:0:0:
329,192,111739,1,2,0:0:0:0:
475,192,111739,1,0,0:0:0:0:
109,192,111931,1,2,0:0:0:0:
256,192,111931,1,0,0:0:0:0:
36,192,112123,1,2,0:0:0:0:
182,192,112123,1,0,0:0:0:0:
109,192,112316,1,2,0:0:0:0:
256,192,112316,1,0,0:0:0:0:
329,192,112508,1,2,0:0:0:0:
475,192,112508,1,0,0:0:0:0:
182,192,112700,1,0,0:0:0:0:
36,192,112700,1,2,0:0:0:0:
256,192,112796,1,0,0:0:0:0:
109,192,112796,1,0,0:0:0:0:
402,192,112893,1,2,0:0:0:0:
329,192,112989,1,0,0:0:0:0:
182,192,112989,1,0,0:0:0:0:
256,192,113085,1,0,0:0:0:0:
109,192,113085,1,2,0:0:0:0:
329,192,113277,1,2,0:0:0:0:
475,192,113277,1,0,0:0:0:0:
182,192,113470,1,2,0:0:0:0:
329,192,113470,1,0,0:0:0:0:
109,192,113662,1,2,0:0:0:0:
256,192,113662,1,0,0:0:0:0:
182,192,113854,1,2,0:0:0:0:
329,192,113854,1,0,0:0:0:0:
256,192,114046,1,2,0:0:0:0:
402,192,114046,1,0,0:0:0:0:
36,192,114239,1,2,0:0:0:0:
182,192,114239,1,0,0:0:0:0:
109,192,114335,1,0,0:0:0:0:
329,192,114335,1,0,0:0:0:0:
256,192,114431,1,2,0:0:0:0:
182,192,114527,1,0,0:0:0:0:
402,192,114527,1,0,0:0:0:0:
329,192,114623,1,2,0:0:0:0:
475,192,114623,1,0,0:0:0:0:
36,192,114816,1,2,0:0:0:0:
182,192,114816,1,0,0:0:0:0:
256,192,115008,1,2,0:0:0:0:
402,192,115008,1,0,0:0:0:0:
109,192,115200,1,2,0:0:0:0:
256,192,115200,1,0,0:0:0:0:
109,192,115393,1,2,0:0:0:0:
256,192,115393,1,0,0:0:0:0:
36,192,115585,1,2,0:0:0:0:
182,192,115585,1,0,0:0:0:0:
182,192,115777,1,2,0:0:0:0:
329,192,115777,1,0,0:0:0:0:
402,192,115873,1,0,0:0:0:0:
256,192,115873,1,0,0:0:0:0:
109,192,115970,1,2,0:0:0:0:
329,192,116066,1,0,0:0:0:0:
475,192,116066,1,0,0:0:0:0:
256,192,116162,1,2,0:0:0:0:
402,192,116162,1,0,0:0:0:0:
475,192,116354,1,0,0:0:0:0:
182,192,116354,1,2,0:0:0:0:
109,192,116546,1,2,0:0:0:0:
402,192,116546,1,0,0:0:0:0:
36,192,116739,128,0,117123:0:0:0:0:
475,192,116739,128,0,117123:0:0:0:0:
256,192,117123,1,4,0:0:0:0:
182,192,118277,5,0,0:0:0:0:
402,192,119046,1,0,0:0:0:0:
329,192,119623,1,0,0:0:0:0:
182,192,119720,1,0,0:0:0:0:
36,192,119816,1,0,0:0:0:0:
475,192,119816,1,0,0:0:0:0:
256,192,121354,1,0,0:0:0:0:
109,192,122123,1,0,0:0:0:0:
182,192,122316,1,0,0:0:0:0:
329,192,122508,1,0,0:0:0:0:
109,192,122700,1,0,0:0:0:0:
256,192,122796,1,0,0:0:0:0:
402,192,122893,1,0,0:0:0:0:
36,192,122893,1,0,0:0:0:0:
329,192,124431,1,0,0:0:0:0:
475,192,125200,1,0,0:0:0:0:
329,192,125777,1,0,0:0:0:0:
182,192,125873,1,0,0:0:0:0:
402,192,125970,1,0,0:0:0:0:
36,192,125970,1,0,0:0:0:0:
