osu file format v14

[General]
AudioFilename: audio.mp3
AudioLeadIn: 0
PreviewTime: 29431
Countdown: 0
SampleSet: Soft
StackLeniency: 0.7
Mode: 3
LetterboxInBreaks: 0
SpecialStyle: 0
WidescreenStoryboard: 1

[Editor]
DistanceSpacing: 0.8
BeatDivisor: 4
GridSize: 16
TimelineZoom: 1.3

[Metadata]
Title:Valedict
TitleUnicode:Valedict
Artist:void
ArtistUnicode:void
Creator:RiceSS
Version:Normal
Source:THE BMS OF FIGHTERS 2012 -Ein Neuer Heiliger Krieg-
Tags:BMS BOF2012 video game electronic Instrumental famoss Momomi Aoyama - Ein neuer Heiliger 234 Trident Regist No.355 Groundbreaking Psychedelic Trancecore sci-fi Remind a Locus VSDA-0005
BeatmapID:3503198
BeatmapSetID:1711378

[Difficulty]
HPDrainRate:7
CircleSize:4
OverallDifficulty:7
ApproachRate:4
SliderMultiplier:1
SliderTickRate:1

[Events]
//Background and Video events
0,0,"title.png",0,0
//Break Periods
//Storyboard Layer 0 (Background)
//Storyboard Layer 1 (Fail)
//Storyboard Layer 2 (Pass)
//Storyboard Layer 3 (Foreground)
//Storyboard Layer 4 (Overlay)
//Storyboard Sound Samples

[TimingPoints]
5970,384.615384615385,4,2,1,40,1,0
12123,-100,4,2,1,50,0,0
18277,-100,4,2,1,60,0,0
30970,-100,4,2,1,60,0,1
42893,-100,4,2,1,60,0,0
104431,-100,4,2,1,60,0,1
117123,-100,4,2,1,60,0,0

[HitObjects]
64,192,5970,5,0,0:0:0:0:
448,192,5970,1,0,0:0:0:0:
320,192,9046,1,2,0:0:0:0:
448,192,9046,1,0,0:0:0:0:
64,192,9431,1,2,0:0:0:0:
448,192,9816,1,2,0:0:0:0:
64,192,10200,1,2,0:0:0:0:
448,192,10585,1,2,0:0:0:0:
64,192,10970,1,2,0:0:0:0:
448,192,11354,1,2,0:0:0:0:
64,192,11739,1,2,0:0:0:0:
320,192,12123,1,2,0:0:0:0:
448,192,12123,1,0,0:0:0:0:
64,192,12316,1,0,0:0:0:0:
448,192,12508,1,2,0:0:0:0:
192,192,12700,1,0,0:0:0:0:
320,192,12893,1,2,0:0:0:0:
64,192,13085,1,0,0:0:0:0:
448,192,13277,1,2,0:0:0:0:
192,192,13470,1,0,0:0:0:0:
320,192,13662,1,2,0:0:0:0:
448,192,13854,1,0,0:0:0:0:
64,192,14046,1,2,0:0:0:0:
320,192,14239,1,0,0:0:0:0:
192,192,14431,1,2,0:0:0:0:
448,192,14623,1,0,0:0:0:0:
64,192,14816,1,2,0:0:0:0:
320,192,15008,1,0,0:0:0:0:
64,192,15200,1,2,0:0:0:0:
448,192,15200,1,0,0:0:0:0:
192,192,15393,1,0,0:0:0:0:
448,192,15585,1,2,0:0:0:0:
64,192,15777,1,0,0:0:0:0:
320,192,15970,1,2,0:0:0:0:
192,192,16162,1,0,0:0:0:0:
448,192,16354,1,2,0:0:0:0:
64,192,16546,1,0,0:0:0:0:
320,192,16739,128,0,17508:0:0:0:0:
448,192,17508,128,0,18277:0:0:0:0:
64,192,17893,128,0,18277:0:0:0:0:
320,192,18277,1,6,0:0:0:0:
192,192,18373,1,0,0:0:0:0:
64,192,18470,1,0,0:0:0:0:
448,192,18566,1,0,0:0:0:0:
320,192,18662,1,2,0:0:0:0:
192,192,18854,1,0,0:0:0:0:
320,192,18950,1,0,0:0:0:0:
192,192,19143,1,0,0:0:0:0:
448,192,19239,1,0,0:0:0:0:
64,192,19431,1,2,0:0:0:0:
448,192,19559,1,0,0:0:0:0:
320,192,19687,1,0,0:0:0:0:
64,192,19816,1,2,0:0:0:0:
192,192,19912,1,0,0:0:0:0:
320,192,20008,1,0,0:0:0:0:
448,192,20104,1,0,0:0:0:0:
64,192,20296,1,0,0:0:0:0:
320,192,20393,1,0,0:0:0:0:
192,192,20585,1,2,0:0:0:0:
448,192,20681,1,0,0:0:0:0:
320,192,20777,1,0,0:0:0:0:
192,192,20873,1,0,0:0:0:0:
64,192,20970,128,2,21354:0:0:0:0:
448,192,21354,1,2,0:0:0:0:
192,192,21546,1,0,0:0:0:0:
320,192,21643,1,0,0:0:0:0:
448,192,21931,1,0,0:0:0:0:
64,192,22123,1,2,0:0:0:0:
192,192,22316,1,0,0:0:0:0:
320,192,22412,1,0,0:0:0:0:
448,192,22508,1,2,0:0:0:0:
192,192,22604,1,0,0:0:0:0:
64,192,22700,1,0,0:0:0:0:
192,192,22893,1,2,0:0:0:0:
320,192,22989,1,0,0:0:0:0:
448,192,23085,1,0,0:0:0:0:
64,192,23181,1,0,0:0:0:0:
320,192,23277,1,2,0:0:0:0:
64,192,23470,1,0,0:0:0:0:
192,192,23566,1,0,0:0:0:0:
320,192,23662,1,2,0:0:0:0:
64,192,23758,1,0,0:0:0:0:
448,192,23854,1,0,0:0:0:0:
320,192,24046,1,2,0:0:0:0:
192,192,24239,1,2,0:0:0:0:
64,192,24431,1,4,0:0:0:0:
448,192,24431,1,2,0:0:0:0:
192,192,24623,1,0,0:0:0:0:
448,192,24816,1,2,0:0:0:0:
320,192,25008,1,0,0:0:0:0:
192,192,25104,1,0,0:0:0:0:
448,192,25296,1,0,0:0:0:0:
320,192,25393,1,0,0:0:0:0:
192,192,25489,1,0,0:0:0:0:
64,192,25585,1,2,0:0:0:0:
448,192,25777,1,0,0:0:0:0:
64,192,25970,1,2,0:0:0:0:
192,192,26162,1,0,0:0:0:0:
320,192,26354,1,2,0:0:0:0:
64,192,26546,1,0,0:0:0:0:
320,192,26643,1,0,0:0:0:0:
192,192,26739,1,2,0:0:0:0:
448,192,26835,1,0,0:0:0:0:
192,192,27123,1,2,0:0:0:0:
320,192,27220,1,0,0:0:0:0:
64,192,27316,1,0,0:0:0:0:
448,192,27508,1,2,0:0:0:0:
64,192,27700,1,0,0:0:0:0:
320,192,27893,1,2,0:0:0:0:
64,192,28085,1,0,0:0:0:0:
192,192,28277,1,2,0:0:0:0:
320,192,28470,1,0,0:0:0:0:
448,192,28662,128,2,29046:0:0:0:0:
64,192,29046,128,2,29431:0:0:0:0:
320,192,29239,1,0,0:0:0:0:
192,192,29431,128,2,29816:0:0:0:0:
448,192,29623,1,0,0:0:0:0:
320,192,29816,128,2,30200:0:0:0:0:
64,192,30008,1,0,0:0:0:0:
448,192,30200,128,0,30585:0:0:0:0:
192,192,30393,1,2,0:0:0:0:
320,192,30585,1,0,0:0:0:0:
192,192,30777,1,0,0:0:0:0:
64,192,30970,1,4,0:0:0:0:
448,192,30970,1,2,0:0:0:0:
320,192,31162,1,0,0:0:0:0:
192,192,31258,1,0,0:0:0:0:
64,192,31450,1,0,0:0:0:0:
320,192,31546,1,0,0:0:0:0:
448,192,31739,1,2,0:0:0:0:
64,192,31931,1,0,0:0:0:0:
192,192,32123,1,2,0:0:0:0:
320,192,32316,1,0,0:0:0:0:
448,192,32508,1,2,0:0:0:0:
320,192,32700,1,0,0:0:0:0:
64,192,32796,1,0,0:0:0:0:
192,192,32989,1,0,0:0:0:0:
320,192,33085,1,0,0:0:0:0:
448,192,33277,1,2,0:0:0:0:
64,192,33470,1,0,0:0:0:0:
320,192,33662,1,2,0:0:0:0:
192,192,33854,1,0,0:0:0:0:
448,192,34046,1,2,0:0:0:0:
64,192,34239,1,0,0:0:0:0:
320,192,34335,1,0,0:0:0:0:
192,192,34527,1,0,0:0:0:0:
448,192,34623,1,0,0:0:0:0:
192,192,34816,1,2,0:0:0:0:
64,192,35008,1,0,0:0:0:0:
320,192,35200,1,2,0:0:0:0:
192,192,35393,1,0,0:0:0:0:
448,192,35585,1,2,0:0:0:0:
64,192,35777,1,0,0:0:0:0:
320,192,35873,1,0,0:0:0:0:
448,192,36066,1,0,0:0:0:0:
192,192,36162,1,0,0:0:0:0:
320,192,36354,1,2,0:0:0:0:
192,192,36546,1,2,0:0:0:0:
448,192,36739,1,6,0:0:0:0:
320,192,36867,1,6,0:0:0:0:
192,192,36995,1,6,0:0:0:0:
64,192,37123,1,6,0:0:0:0:
448,192,37316,1,0,0:0:0:0:
192,192,37412,1,0,0:0:0:0:
64,192,37604,1,0,0:0:0:0:
192,192,37700,1,0,0:0:0:0:
448,192,37893,1,2,0:0:0:0:
192,192,38085,1,0,0:0:0:0:
64,192,38277,1,2,0:0:0:0:
192,192,38470,1,0,0:0:0:0:
448,192,38662,1,2,0:0:0:0:
320,192,38854,1,0,0:0:0:0:
192,192,38950,1,0,0:0:0:0:
64,192,39143,1,0,0:0:0:0:
448,192,39239,1,0,0:0:0:0:
320,192,39431,1,2,0:0:0:0:
192,192,39623,1,0,0:0:0:0:
64,192,39816,1,2,0:0:0:0:
448,192,40008,1,2,0:0:0:0:
192,192,40200,1,2,0:0:0:0:
448,192,40393,1,2,0:0:0:0:
64,192,40489,1,0,0:0:0:0:
320,192,40585,1,2,0:0:0:0:
192,192,40681,1,0,0:0:0:0:
448,192,40777,1,2,0:0:0:0:
192,192,40970,1,2,0:0:0:0:
320,192,41162,1,2,0:0:0:0:
64,192,41354,1,2,0:0:0:0:
448,192,41546,1,2,0:0:0:0:
64,192,41739,1,2,0:0:0:0:
192,192,41931,128,0,42508:0:0:0:0:
320,192,42508,128,0,42893:0:0:0:0:
448,192,42893,128,6,43470:0:0:0:0:
320,192,43854,128,0,44239:0:0:0:0:
448,192,44239,128,0,44431:0:0:0:0:
192,192,44431,128,0,45008:0:0:0:0:
448,192,45393,128,0,45777:0:0:0:0:
192,192,45777,128,0,45970:0:0:0:0:
320,192,45970,128,0,46354:0:0:0:0:
448,192,46354,128,0,46739:0:0:0:0:
64,192,46739,128,0,46931:0:0:0:0:
192,192,46931,128,0,47123:0:0:0:0:
448,192,47123,128,0,47316:0:0:0:0:
64,192,47316,128,0,48854:0:0:0:0:
192,192,48854,1,0,0:0:0:0:
320,192,48950,1,0,0:0:0:0:
448,192,49046,128,0,49623:0:0:0:0:
64,192,49623,128,0,50200:0:0:0:0:
320,192,50200,128,0,50585:0:0:0:0:
192,192,50585,128,0,50970:0:0:0:0:
320,192,50970,128,0,51354:0:0:0:0:
448,192,51354,128,0,51643:0:0:0:0:
64,192,51643,128,0,51931:0:0:0:0:
192,192,51931,1,0,0:0:0:0:
320,192,52027,1,0,0:0:0:0:
448,192,52123,128,0,52700:0:0:0:0:
320,192,52700,1,0,0:0:0:0:
192,192,52796,1,0,0:0:0:0:
64,192,52893,128,0,53181:0:0:0:0:
192,192,53181,128,0,53470:0:0:0:0:
320,192,53470,128,0,53662:0:0:0:0:
64,192,53662,128,0,54239:0:0:0:0:
320,192,54046,1,0,0:0:0:0:
448,192,54239,128,0,54816:0:0:0:0:
64,192,55008,128,0,55200:0:0:0:0:
320,192,55200,1,2,0:0:0:0:
448,192,55200,1,4,0:0:0:0:
64,192,55970,1,8,0:0:0:0:
448,192,55970,1,0,0:0:0:0:
192,192,56162,1,0,0:0:0:0:
448,192,56546,1,0,0:0:0:0:
64,192,56739,1,2,0:0:0:0:
192,192,56739,1,0,0:0:0:0:
64,192,57508,1,8,0:0:0:0:
448,192,57508,1,0,0:0:0:0:
320,192,57700,1,0,0:0:0:0:
192,192,58085,1,2,0:0:0:0:
320,192,58277,1,2,0:0:0:0:
448,192,58277,1,0,0:0:0:0:
192,192,58662,1,0,0:0:0:0:
64,192,59046,1,8,0:0:0:0:
448,192,59046,1,0,0:0:0:0:
192,192,59239,1,0,0:0:0:0:
320,192,59431,1,0,0:0:0:0:
64,192,59623,1,0,0:0:0:0:
320,192,59816,1,2,0:0:0:0:
448,192,59816,1,0,0:0:0:0:
192,192,60393,1,0,0:0:0:0:
64,192,60585,1,8,0:0:0:0:
448,192,60585,1,0,0:0:0:0:
448,192,60970,1,2,0:0:0:0:
320,192,61098,1,2,0:0:0:0:
192,192,61226,1,2,0:0:0:0:
64,192,61354,1,2,0:0:0:0:
448,192,61354,1,0,0:0:0:0:
192,192,61931,1,0,0:0:0:0:
64,192,62123,1,8,0:0:0:0:
448,192,62123,1,0,0:0:0:0:
192,192,62508,1,2,0:0:0:0:
448,192,62636,1,0,0:0:0:0:
320,192,62764,1,0,0:0:0:0:
64,192,62893,1,2,0:0:0:0:
192,192,62893,1,0,0:0:0:0:
320,192,63277,1,2,0:0:0:0:
448,192,63277,1,0,0:0:0:0:
192,192,63470,1,0,0:0:0:0:
64,192,63662,1,8,0:0:0:0:
448,192,63662,1,0,0:0:0:0:
192,192,64046,1,0,0:0:0:0:
64,192,64239,1,0,0:0:0:0:
320,192,64431,1,2,0:0:0:0:
448,192,64431,1,0,0:0:0:0:
192,192,64816,1,0,0:0:0:0:
64,192,65200,1,8,0:0:0:0:
448,192,65200,1,0,0:0:0:0:
192,192,65393,1,0,0:0:0:0:
320,192,65585,1,0,0:0:0:0:
64,192,65777,1,0,0:0:0:0:
448,192,65970,1,6,0:0:0:0:
64,192,66354,1,0,0:0:0:0:
320,192,66643,1,0,0:0:0:0:
192,192,67123,1,0,0:0:0:0:
64,192,67508,1,6,0:0:0:0:
320,192,67604,1,0,0:0:0:0:
192,192,67796,1,0,0:0:0:0:
64,192,67893,1,2,0:0:0:0:
448,192,67989,1,0,0:0:0:0:
320,192,68181,1,0,0:0:0:0:
192,192,68277,1,2,0:0:0:0:
64,192,68373,1,0,0:0:0:0:
448,192,68470,1,0,0:0:0:0:
192,192,68662,1,2,0:0:0:0:
320,192,68854,1,0,0:0:0:0:
64,192,69046,1,2,0:0:0:0:
448,192,69143,1,0,0:0:0:0:
320,192,69335,1,0,0:0:0:0:
64,192,69431,1,2,0:0:0:0:
448,192,69527,1,0,0:0:0:0:
192,192,69720,1,0,0:0:0:0:
448,192,69816,128,0,70200:0:0:0:0:
64,192,70200,128,0,70585:0:0:0:0:
448,192,70585,1,2,0:0:0:0:
192,192,70681,1,0,0:0:0:0:
64,192,70873,1,0,0:0:0:0:
448,192,70970,1,2,0:0:0:0:
320,192,71066,1,0,0:0:0:0:
192,192,71258,1,0,0:0:0:0:
448,192,71354,1,2,0:0:0:0:
320,192,71450,1,0,0:0:0:0:
64,192,71546,1,0,0:0:0:0:
192,192,71739,1,2,0:0:0:0:
448,192,71931,1,0,0:0:0:0:
320,192,72123,1,2,0:0:0:0:
64,192,72220,1,0,0:0:0:0:
448,192,72316,1,2,0:0:0:0:
192,192,72412,1,0,0:0:0:0:
320,192,72604,1,0,0:0:0:0:
64,192,72796,1,0,0:0:0:0:
448,192,72989,1,0,0:0:0:0:
192,192,73085,1,0,0:0:0:0:
64,192,73277,1,0,0:0:0:0:
320,192,73470,1,2,0:0:0:0:
64,192,73662,1,2,0:0:0:0:
192,192,73662,1,4,0:0:0:0:
320,192,73758,1,0,0:0:0:0:
192,192,73950,1,0,0:0:0:0:
448,192,74046,1,2,0:0:0:0:
320,192,74143,1,0,0:0:0:0:
64,192,74335,1,0,0:0:0:0:
192,192,74431,1,2,0:0:0:0:
448,192,74527,1,0,0:0:0:0:
64,192,74623,1,0,0:0:0:0:
320,192,74816,1,2,0:0:0:0:
448,192,75008,1,0,0:0:0:0:
192,192,75200,1,2,0:0:0:0:
448,192,75296,1,0,0:0:0:0:
64,192,75489,1,0,0:0:0:0:
320,192,75585,1,2,0:0:0:0:
448,192,75681,1,0,0:0:0:0:
192,192,75873,1,0,0:0:0:0:
448,192,75970,128,0,76162:0:0:0:0:
320,192,76162,128,0,76354:0:0:0:0:
192,192,76354,128,0,76546:0:0:0:0:
64,192,76546,128,0,76739:0:0:0:0:
448,192,76739,1,2,0:0:0:0:
192,192,76835,1,0,0:0:0:0:
64,192,77027,1,0,0:0:0:0:
320,192,77123,1,2,0:0:0:0:
448,192,77220,1,0,0:0:0:0:
192,192,77412,1,0,0:0:0:0:
64,192,77508,1,2,0:0:0:0:
448,192,77604,1,0,0:0:0:0:
192,192,77700,1,0,0:0:0:0:
320,192,77893,1,2,0:0:0:0:
64,192,78085,1,0,0:0:0:0:
192,192,78277,1,0,0:0:0:0:
448,192,78373,1,0,0:0:0:0:
64,192,78566,1,0,0:0:0:0:
192,192,78758,1,0,0:0:0:0:
320,192,78950,1,0,0:0:0:0:
448,192,79143,1,0,0:0:0:0:
64,192,79239,1,0,0:0:0:0:
448,192,79431,128,0,79816:0:0:0:0:
64,192,79816,1,4,0:0:0:0:
320,192,79816,1,2,0:0:0:0:
192,192,80008,1,2,0:0:0:0:
448,192,80008,1,4,0:0:0:0:
320,192,80296,1,4,0:0:0:0:
448,192,80296,1,2,0:0:0:0:
64,192,80585,1,2,0:0:0:0:
192,192,80585,1,4,0:0:0:0:
320,192,80777,1,4,0:0:0:0:
448,192,80777,1,2,0:0:0:0:
64,192,81066,1,6,0:0:0:0:
192,192,81162,1,6,0:0:0:0:
320,192,81354,1,4,0:0:0:0:
448,192,81354,1,2,0:0:0:0:
64,192,81546,1,2,0:0:0:0:
192,192,81546,1,4,0:0:0:0:
320,192,81835,1,4,0:0:0:0:
448,192,81835,1,2,0:0:0:0:
64,192,82123,1,2,0:0:0:0:
192,192,82123,1,4,0:0:0:0:
320,192,82316,1,4,0:0:0:0:
448,192,82316,1,2,0:0:0:0:
64,192,82604,1,6,0:0:0:0:
320,192,82700,1,6,0:0:0:0:
448,192,82796,1,6,0:0:0:0:
64,192,82893,1,4,0:0:0:0:
192,192,82893,1,2,0:0:0:0:
320,192,83085,1,2,0:0:0:0:
448,192,83085,1,4,0:0:0:0:
64,192,83373,1,6,0:0:0:0:
448,192,83470,1,6,0:0:0:0:
64,192,83662,1,2,0:0:0:0:
192,192,83662,1,4,0:0:0:0:
320,192,83854,1,4,0:0:0:0:
448,192,83854,1,2,0:0:0:0:
192,192,84046,1,6,0:0:0:0:
320,192,84175,1,6,0:0:0:0:
192,192,84303,1,6,0:0:0:0:
320,192,84431,1,4,0:0:0:0:
448,192,84431,1,2,0:0:0:0:
64,192,84623,1,2,0:0:0:0:
192,192,84623,1,4,0:0:0:0:
448,192,84912,1,6,0:0:0:0:
64,192,85008,1,6,0:0:0:0:
192,192,85200,1,6,0:0:0:0:
320,192,85328,1,6,0:0:0:0:
192,192,85457,1,6,0:0:0:0:
320,192,85585,1,2,0:0:0:0:
448,192,85585,1,4,0:0:0:0:
64,192,85970,1,4,0:0:0:0:
192,192,85970,1,2,0:0:0:0:
320,192,86162,1,2,0:0:0:0:
448,192,86162,1,4,0:0:0:0:
64,192,86450,1,4,0:0:0:0:
192,192,86450,1,2,0:0:0:0:
320,192,86739,1,2,0:0:0:0:
448,192,86739,1,4,0:0:0:0:
64,192,86931,1,4,0:0:0:0:
192,192,86931,1,2,0:0:0:0:
448,192,87220,1,6,0:0:0:0:
64,192,87316,1,6,0:0:0:0:
320,192,87508,1,4,0:0:0:0:
448,192,87508,1,2,0:0:0:0:
64,192,87700,1,2,0:0:0:0:
192,192,87700,1,4,0:0:0:0:
320,192,87989,1,4,0:0:0:0:
448,192,87989,1,2,0:0:0:0:
64,192,88277,1,2,0:0:0:0:
192,192,88277,1,4,0:0:0:0:
320,192,88470,1,4,0:0:0:0:
448,192,88470,1,2,0:0:0:0:
64,192,88758,1,6,0:0:0:0:
192,192,88854,1,6,0:0:0:0:
320,192,88950,1,6,0:0:0:0:
448,192,89046,1,6,0:0:0:0:
192,192,89239,1,6,0:0:0:0:
320,192,89335,1,2,0:0:0:0:
448,192,89431,1,2,0:0:0:0:
64,192,89527,1,2,0:0:0:0:
192,192,89623,1,6,0:0:0:0:
320,192,89816,1,6,0:0:0:0:
192,192,89912,1,2,0:0:0:0:
64,192,90008,1,2,0:0:0:0:
448,192,90104,1,2,0:0:0:0:
320,192,90200,1,6,0:0:0:0:
192,192,90393,1,6,0:0:0:0:
320,192,90489,1,6,0:0:0:0:
64,192,90585,1,6,0:0:0:0:
448,192,90713,1,6,0:0:0:0:
64,192,90841,1,6,0:0:0:0:
320,192,90970,1,6,0:0:0:0:
192,192,91098,1,6,0:0:0:0:
320,192,91226,1,6,0:0:0:0:
64,192,91354,1,6,0:0:0:0:
448,192,91482,1,6,0:0:0:0:
64,192,91611,1,6,0:0:0:0:
192,192,91739,1,2,0:0:0:0:
320,192,91739,1,4,0:0:0:0:
64,192,92123,1,2,0:0:0:0:
448,192,92123,1,4,0:0:0:0:
320,192,92220,1,0,0:0:0:0:
192,192,92316,1,0,0:0:0:0:
448,192,92412,1,0,0:0:0:0:
320,192,92508,1,0,0:0:0:0:
64,192,92700,1,0,0:0:0:0:
320,192,92796,1,0,0:0:0:0:
192,192,92989,1,0,0:0:0:0:
448,192,93085,1,0,0:0:0:0:
64,192,93277,1,0,0:0:0:0:
320,192,93405,1,0,0:0:0:0:
192,192,93534,1,0,0:0:0:0:
64,192,93662,1,0,0:0:0:0:
320,192,93854,1,0,0:0:0:0:
448,192,94046,1,0,0:0:0:0:
192,192,94239,1,0,0:0:0:0:
64,192,94431,1,0,0:0:0:0:
320,192,94623,1,0,0:0:0:0:
64,192,94816,128,0,95200:0:0:0:0:
448,192,95200,1,0,0:0:0:0:
64,192,95393,1,0,0:0:0:0:
320,192,95489,1,0,0:0:0:0:
192,192,95681,1,0,0:0:0:0:
448,192,95777,1,0,0:0:0:0:
320,192,95970,1,0,0:0:0:0:
64,192,96162,1,0,0:0:0:0:
192,192,96258,1,0,0:0:0:0:
448,192,96354,1,0,0:0:0:0:
320,192,96450,1,0,0:0:0:0:
192,192,96546,1,0,0:0:0:0:
320,192,96739,1,0,0:0:0:0:
448,192,96835,1,0,0:0:0:0:
64,192,96931,1,0,0:0:0:0:
192,192,97027,1,0,0:0:0:0:
320,192,97123,1,0,0:0:0:0:
64,192,97316,1,0,0:0:0:0:
448,192,97412,1,0,0:0:0:0:
192,192,97508,1,0,0:0:0:0:
320,192,97604,1,0,0:0:0:0:
448,192,97700,1,0,0:0:0:0:
192,192,97893,1,0,0:0:0:0:
320,192,98021,1,0,0:0:0:0:
64,192,98149,1,0,0:0:0:0:
320,192,98277,1,2,0:0:0:0:
192,192,98470,1,0,0:0:0:0:
448,192,98662,1,0,0:0:0:0:
320,192,98854,1,0,0:0:0:0:
192,192,98950,1,0,0:0:0:0:
448,192,99046,1,2,0:0:0:0:
64,192,99143,1,0,0:0:0:0:
320,192,99335,1,0,0:0:0:0:
192,192,99431,1,0,0:0:0:0:
448,192,99623,1,0,0:0:0:0:
64,192,99816,1,2,0:0:0:0:
192,192,100008,1,0,0:0:0:0:
320,192,100200,1,0,0:0:0:0:
64,192,100393,1,0,0:0:0:0:
192,192,100489,1,0,0:0:0:0:
320,192,100585,1,2,0:0:0:0:
448,192,100681,1,0,0:0:0:0:
192,192,100873,1,0,0:0:0:0:
64,192,100970,1,0,0:0:0:0:
320,192,101162,1,0,0:0:0:0:
64,192,101354,1,2,0:0:0:0:
192,192,101354,1,4,0:0:0:0:
192,192,101739,1,4,0:0:0:0:
320,192,101739,1,2,0:0:0:0:
320,192,102123,1,2,0:0:0:0:
448,192,102123,1,4,0:0:0:0:
64,192,102412,1,4,0:0:0:0:
448,192,102412,1,2,0:0:0:0:
64,192,102700,1,2,0:0:0:0:
192,192,102700,1,4,0:0:0:0:
448,192,102893,128,2,103662:0:0:0:0:
320,192,103662,1,2,0:0:0:0:
64,192,103790,1,2,0:0:0:0:
320,192,103918,1,2,0:0:0:0:
192,192,104046,1,2,0:0:0:0:
448,192,104175,1,2,0:0:0:0:
192,192,104303,1,2,0:0:0:0:
320,192,104431,1,2,0:0:0:0:
448,192,104431,1,4,0:0:0:0:
192,192,104623,1,0,0:0:0:0:
64,192,104816,1,2,0:0:0:0:
448,192,105008,1,0,0:0:0:0:
192,192,105104,1,0,0:0:0:0:
64,192,105296,1,0,0:0:0:0:
320,192,105393,1,0,0:0:0:0:
448,192,105585,1,2,0:0:0:0:
192,192,105777,1,0,0:0:0:0:
320,192,105970,1,2,0:0:0:0:
64,192,106162,1,0,0:0:0:0:
448,192,106354,1,2,0:0:0:0:
320,192,106546,1,0,0:0:0:0:
64,192,106643,1,0,0:0:0:0:
192,192,106835,1,0,0:0:0:0:
448,192,106931,1,0,0:0:0:0:
320,192,107123,1,2,0:0:0:0:
320,192,107316,1,2,0:0:0:0:
64,192,107508,1,2,0:0:0:0:
192,192,107700,1,0,0:0:0:0:
320,192,107893,1,2,0:0:0:0:
64,192,108085,1,0,0:0:0:0:
448,192,108181,1,0,0:0:0:0:
192,192,108373,1,0,0:0:0:0:
448,192,108470,1,0,0:0:0:0:
320,192,108662,1,2,0:0:0:0:
192,192,108854,1,0,0:0:0:0:
64,192,109046,1,2,0:0:0:0:
448,192,109239,1,0,0:0:0:0:
320,192,109431,1,2,0:0:0:0:
64,192,109623,1,0,0:0:0:0:
192,192,109720,1,0,0:0:0:0:
448,192,109912,1,0,0:0:0:0:
64,192,110008,1,0,0:0:0:0:
320,192,110200,1,0,0:0:0:0:
192,192,110393,1,2,0:0:0:0:
64,192,110585,1,4,0:0:0:0:
448,192,110585,1,2,0:0:0:0:
320,192,110713,1,6,0:0:0:0:
192,192,110841,1,6,0:0:0:0:
448,192,110970,1,6,0:0:0:0:
320,192,111162,1,2,0:0:0:0:
64,192,111258,1,0,0:0:0:0:
448,192,111354,1,2,0:0:0:0:
192,192,111450,1,0,0:0:0:0:
320,192,111546,1,2,0:0:0:0:
448,192,111739,1,2,0:0:0:0:
64,192,111931,1,2,0:0:0:0:
320,192,112123,1,2,0:0:0:0:
64,192,112220,1,2,0:0:0:0:
192,192,112316,1,2,0:0:0:0:
448,192,112508,1,2,0:0:0:0:
320,192,112700,1,2,0:0:0:0:
64,192,112796,1,0,0:0:0:0:
448,192,112893,1,2,0:0:0:0:
192,192,112989,1,0,0:0:0:0:
320,192,113085,1,2,0:0:0:0:
448,192,113277,1,2,0:0:0:0:
64,192,113470,1,2,0:0:0:0:
320,192,113662,1,2,0:0:0:0:
448,192,113662,1,0,0:0:0:0:
192,192,113854,1,2,0:0:0:0:
64,192,114046,1,2,0:0:0:0:
448,192,114046,1,0,0:0:0:0:
320,192,114239,1,2,0:0:0:0:
64,192,114335,1,2,0:0:0:0:
448,192,114431,1,2,0:0:0:0:
192,192,114527,1,2,0:0:0:0:
320,192,114623,1,2,0:0:0:0:
64,192,114816,1,2,0:0:0:0:
448,192,114816,1,0,0:0:0:0:
192,192,115008,1,2,0:0:0:0:
448,192,115200,1,2,0:0:0:0:
320,192,115296,1,2,0:0:0:0:
192,192,115393,1,2,0:0:0:0:
64,192,115489,1,0,0:0:0:0:
448,192,115585,1,2,0:0:0:0:
192,192,115777,1,2,0:0:0:0:
320,192,115873,1,2,0:0:0:0:
64,192,115970,1,2,0:0:0:0:
320,192,116098,1,2,0:0:0:0:
192,192,116226,1,2,0:0:0:0:
448,192,116354,1,2,0:0:0:0:
192,192,116482,1,2,0:0:0:0:
320,192,116611,1,2,0:0:0:0:
64,192,116739,128,0,117123:0:0:0:0:
320,192,117123,1,2,0:0:0:0:
448,192,117123,1,4,0:0:0:0:
