osu file format v14

[General]
AudioFilename: audio.mp3
AudioLeadIn: 0
PreviewTime: 12403
Countdown: 0
SampleSet: Soft
StackLeniency: 0.7
Mode: 3
LetterboxInBreaks: 0
SpecialStyle: 0
WidescreenStoryboard: 1

[Editor]
Bookmarks: 12570,23674,29223,34773,40322,45865,57316,62518,68061,68067,79160,90264,112454,118010,123559,129108,134651
DistanceSpacing: 0.5
BeatDivisor: 4
GridSize: 32
TimelineZoom: 1.8

[Metadata]
Title:Sun Goes Down (BMS edit)
TitleUnicode:Sun Goes Down (BMS edit)
Artist:void
ArtistUnicode:void
Creator:Peter
Version:Sunset
Source:
Tags:Electronic English dnb drum n' and bass Altanaphixx OUTERSIDE #03 everclusion Comiket C79 Liquid Funk KeppSado Scotty BMS (edit)
BeatmapID:2328967
BeatmapSetID:1114900

[Difficulty]
HPDrainRate:8
CircleSize:4
OverallDifficulty:8
ApproachRate:5
SliderMultiplier:1.4
SliderTickRate:1

[Events]
//Background and Video events
0,0,"79300529_p0.jpg",0,0
//Break Periods
//Storyboard Layer 0 (Background)
//Storyboard Layer 1 (Fail)
//Storyboard Layer 2 (Pass)
//Storyboard Layer 3 (Foreground)
//Storyboard Layer 4 (Overlay)
//Storyboard Sound Samples

[TimingPoints]
91,346.820809248555,4,2,1,50,1,0
1478,-100,4,2,1,60,0,0
23674,-100,4,2,1,75,0,0
45871,-100,4,2,1,65,0,0
62518,-100,4,2,1,70,0,0
69455,-100,4,2,1,60,0,0
79166,-100,4,2,1,75,0,0
90264,-100,4,2,1,80,0,1
112460,-100,4,2,1,75,0,0

[HitObjects]
64,192,119,128,2,669:0:0:0:0:
192,192,669,128,2,1304:0:0:0:0:
320,192,1131,128,2,1304:0:0:0:0:
64,192,1478,128,2,2085:0:0:0:0:
192,192,1478,1,4,0:0:0:0:
448,192,1478,128,0,1911:0:0:0:0:
320,192,1651,1,0,0:0:0:0:
192,192,1825,128,2,1911:0:0:0:0:
320,192,1998,128,2,2085:0:0:0:0:
448,192,1998,1,0,0:0:0:0:
64,192,2171,1,0,0:0:0:0:
320,192,2345,1,0,0:0:0:0:
192,192,2518,128,0,2692:0:0:0:0:
448,192,2692,1,0,0:0:0:0:
64,192,2865,128,2,3472:0:0:0:0:
192,192,2865,1,0,0:0:0:0:
320,192,2865,128,0,3299:0:0:0:0:
448,192,3038,1,0,0:0:0:0:
192,192,3212,128,2,3299:0:0:0:0:
320,192,3385,1,2,0:0:0:0:
448,192,3385,128,0,3472:0:0:0:0:
192,192,3472,1,0,0:0:0:0:
448,192,3559,1,0,0:0:0:0:
64,192,3732,1,0,0:0:0:0:
320,192,3906,128,0,4079:0:0:0:0:
64,192,4079,1,0,0:0:0:0:
64,192,4252,128,2,4859:0:0:0:0:
192,192,4252,128,0,4686:0:0:0:0:
448,192,4252,1,0,0:0:0:0:
320,192,4426,1,0,0:0:0:0:
320,192,4599,128,2,4686:0:0:0:0:
192,192,4773,1,2,0:0:0:0:
448,192,4773,128,0,4859:0:0:0:0:
64,192,4946,1,0,0:0:0:0:
192,192,5119,1,0,0:0:0:0:
320,192,5293,128,0,5466:0:0:0:0:
448,192,5466,1,0,0:0:0:0:
64,192,5640,128,2,6247:0:0:0:0:
192,192,5640,1,0,0:0:0:0:
320,192,5813,1,0,0:0:0:0:
192,192,5986,128,2,6073:0:0:0:0:
320,192,6160,128,2,6247:0:0:0:0:
448,192,6160,1,0,0:0:0:0:
192,192,6247,1,0,0:0:0:0:
64,192,6333,1,0,0:0:0:0:
320,192,6507,1,0,0:0:0:0:
64,192,6680,128,2,7027:0:0:0:0:
192,192,6680,128,0,6854:0:0:0:0:
320,192,7027,128,2,7374:0:0:0:0:
448,192,7027,128,0,7200:0:0:0:0:
64,192,7200,1,0,0:0:0:0:
448,192,7374,128,2,7460:0:0:0:0:
64,192,7547,128,2,8067:0:0:0:0:
320,192,7547,128,0,7894:0:0:0:0:
448,192,7721,1,0,0:0:0:0:
192,192,7894,128,0,8067:0:0:0:0:
448,192,8067,1,2,0:0:0:0:
64,192,8241,128,0,8414:0:0:0:0:
192,192,8414,1,2,0:0:0:0:
320,192,8414,128,0,8761:0:0:0:0:
448,192,8588,1,0,0:0:0:0:
64,192,8761,1,2,0:0:0:0:
192,192,8761,128,0,8934:0:0:0:0:
320,192,8934,128,2,9455:0:0:0:0:
448,192,8934,1,0,0:0:0:0:
192,192,9108,1,0,0:0:0:0:
448,192,9281,1,0,0:0:0:0:
64,192,9455,128,2,9801:0:0:0:0:
192,192,9455,1,0,0:0:0:0:
448,192,9628,1,0,0:0:0:0:
192,192,9801,128,2,10148:0:0:0:0:
320,192,9801,1,0,0:0:0:0:
64,192,10148,128,2,10322:0:0:0:0:
448,192,10148,128,0,10669:0:0:0:0:
192,192,10322,1,2,0:0:0:0:
320,192,10322,128,0,10669:0:0:0:0:
64,192,10495,1,0,0:0:0:0:
192,192,10669,1,0,0:0:0:0:
448,192,10842,1,0,0:0:0:0:
320,192,11015,1,0,0:0:0:0:
192,192,11189,128,2,11536:0:0:0:0:
448,192,11362,1,0,0:0:0:0:
64,192,11536,1,2,0:0:0:0:
320,192,11709,128,2,12403:0:0:0:0:
448,192,11709,1,0,0:0:0:0:
192,192,11882,1,0,0:0:0:0:
64,192,12056,1,0,0:0:0:0:
192,192,12229,128,2,12403:0:0:0:0:
64,192,12576,1,4,0:3:0:0:
320,192,12576,128,2,12923:0:0:0:0:
448,192,12576,128,4,13356:0:0:0:0:
192,192,12923,128,2,13010:0:0:0:0:
64,192,13096,1,8,0:0:0:0:
192,192,13096,1,2,0:0:0:0:
320,192,13096,128,0,13356:0:0:0:0:
320,192,13443,1,4,0:3:0:0:
448,192,13443,1,0,0:0:0:0:
64,192,13617,1,8,0:0:0:0:
192,192,13617,1,0,0:0:0:0:
320,192,13617,1,0,0:0:0:0:
448,192,13790,128,0,13963:0:0:0:0:
64,192,13963,1,8,0:0:0:0:
192,192,13963,1,2,0:0:0:0:
320,192,13963,128,0,14397:0:0:0:0:
448,192,14137,1,0,0:0:0:0:
64,192,14310,128,2,14397:0:0:0:0:
64,192,14484,1,8,0:0:0:0:
192,192,14484,1,2,0:0:0:0:
320,192,14484,128,0,14744:0:0:0:0:
448,192,14657,1,0,0:0:0:0:
320,192,14830,1,4,0:3:0:0:
448,192,14830,1,0,0:0:0:0:
64,192,15004,1,8,0:0:0:0:
192,192,15004,1,0,0:0:0:0:
320,192,15004,1,0,0:0:0:0:
64,192,15351,1,8,0:0:0:0:
192,192,15351,1,2,0:0:0:0:
448,192,15351,1,0,0:0:0:0:
320,192,15524,1,4,0:3:0:0:
448,192,15524,1,0,0:0:0:0:
320,192,15697,1,4,0:3:0:0:
448,192,15697,1,2,0:0:0:0:
64,192,15871,1,8,0:0:0:0:
192,192,15871,1,2,0:0:0:0:
448,192,15871,1,0,0:0:0:0:
320,192,16044,1,4,0:3:0:0:
448,192,16044,1,0,0:0:0:0:
320,192,16218,1,4,0:3:0:0:
448,192,16218,1,0,0:0:0:0:
64,192,16391,1,8,0:0:0:0:
192,192,16391,1,0,0:0:0:0:
448,192,16391,1,0,0:0:0:0:
320,192,16564,1,4,0:3:0:0:
448,192,16564,1,0,0:0:0:0:
64,192,16738,1,8,0:0:0:0:
320,192,16738,1,2,0:0:0:0:
448,192,16738,1,0,0:0:0:0:
64,192,16911,1,4,0:3:0:0:
192,192,16911,1,0,0:0:0:0:
64,192,17085,1,4,0:3:0:0:
192,192,17085,1,2,0:0:0:0:
64,192,17258,1,8,0:0:0:0:
320,192,17258,1,2,0:0:0:0:
448,192,17258,1,0,0:0:0:0:
64,192,17432,1,4,0:3:0:0:
192,192,17432,1,0,0:0:0:0:
64,192,17605,1,4,0:3:0:0:
192,192,17605,1,0,0:0:0:0:
64,192,17778,1,8,0:0:0:0:
320,192,17778,1,0,0:0:0:0:
448,192,17778,1,0,0:0:0:0:
64,192,17952,1,4,0:3:0:0:
192,192,17952,1,0,0:0:0:0:
64,192,18125,1,8,0:0:0:0:
192,192,18125,1,2,0:0:0:0:
448,192,18125,1,0,0:0:0:0:
320,192,18299,1,4,0:3:0:0:
448,192,18299,1,0,0:0:0:0:
64,192,18472,1,8,0:0:0:0:
192,192,18472,1,2,0:0:0:0:
320,192,18472,1,0,0:0:0:0:
64,192,18645,1,4,0:3:0:0:
192,192,18645,1,2,0:0:0:0:
192,192,18819,1,8,0:0:0:0:
320,192,18819,1,0,0:0:0:0:
448,192,18819,1,0,0:0:0:0:
320,192,18992,1,4,0:3:0:0:
448,192,18992,1,0,0:0:0:0:
64,192,19166,1,8,0:0:0:0:
192,192,19166,1,0,0:0:0:0:
320,192,19166,1,0,0:0:0:0:
64,192,19339,1,4,0:3:0:0:
192,192,19339,1,0,0:0:0:0:
192,192,19512,1,8,0:0:0:0:
320,192,19512,1,2,0:0:0:0:
448,192,19512,1,0,0:0:0:0:
320,192,19686,1,4,0:3:0:0:
448,192,19686,1,0,0:0:0:0:
64,192,19859,1,8,0:0:0:0:
192,192,19859,1,2,0:0:0:0:
448,192,19859,1,0,0:0:0:0:
64,192,20033,1,4,0:3:0:0:
192,192,20033,1,2,0:0:0:0:
64,192,20206,1,8,0:0:0:0:
320,192,20206,1,0,0:0:0:0:
448,192,20206,1,0,0:0:0:0:
320,192,20380,1,4,0:3:0:0:
448,192,20380,1,0,0:0:0:0:
64,192,20553,1,8,0:0:0:0:
192,192,20553,1,0,0:0:0:0:
448,192,20553,1,0,0:0:0:0:
64,192,20726,1,4,0:3:0:0:
192,192,20726,1,0,0:0:0:0:
192,192,20900,1,8,0:0:0:0:
320,192,20900,1,2,0:0:0:0:
448,192,20900,1,0,0:0:0:0:
64,192,21073,1,8,0:0:0:0:
320,192,21073,1,0,0:0:0:0:
448,192,21073,1,0,0:0:0:0:
64,192,21247,1,8,0:0:0:0:
192,192,21247,1,2,0:0:0:0:
448,192,21247,1,0,0:0:0:0:
64,192,21420,1,8,0:0:0:0:
192,192,21420,1,2,0:0:0:0:
320,192,21420,1,0,0:0:0:0:
320,192,21593,1,8,0:0:0:0:
448,192,21593,1,0,0:0:0:0:
64,192,21680,1,8,0:0:0:0:
192,192,21680,1,0,0:0:0:0:
320,192,21767,1,8,0:0:0:0:
448,192,21767,1,0,0:0:0:0:
64,192,21854,1,8,0:0:0:0:
192,192,21854,1,0,0:0:0:0:
320,192,21940,1,8,0:0:0:0:
448,192,21940,1,0,0:0:0:0:
64,192,22027,1,8,0:0:0:0:
192,192,22027,1,0,0:0:0:0:
320,192,22114,1,8,0:0:0:0:
448,192,22114,1,0,0:0:0:0:
192,192,22200,1,8,0:0:0:0:
64,192,22287,1,4,0:3:0:0:
320,192,22287,1,4,0:0:0:0:
448,192,22287,1,2,0:0:0:0:
64,192,22460,1,4,0:3:0:0:
192,192,22460,1,0,0:0:0:0:
192,192,22634,1,8,0:0:0:0:
320,192,22634,1,0,0:0:0:0:
448,192,22634,1,0,0:0:0:0:
64,192,22807,1,0,0:0:0:0:
320,192,22894,1,0,1:0:0:60:normal-hitnormal.wav
448,192,22894,1,0,0:0:0:0:
64,192,22981,1,0,0:0:0:0:
320,192,23067,1,0,1:0:0:60:normal-hitnormal.wav
448,192,23067,1,0,0:0:0:0:
64,192,23154,1,4,0:3:0:0:
192,192,23154,1,0,0:0:0:0:
320,192,23262,1,4,0:3:0:0:
64,192,23327,1,8,0:0:0:0:
192,192,23327,1,0,0:0:0:0:
448,192,23327,1,0,0:0:0:0:
320,192,23501,1,0,0:0:0:0:
192,192,23588,1,0,0:0:0:0:
64,192,23674,1,4,0:3:0:0:
320,192,23674,1,2,0:0:0:0:
448,192,23674,128,4,23934:0:0:0:0:
192,192,23848,1,0,0:0:0:0:
64,192,24021,128,2,24108:0:0:0:0:
320,192,24021,1,8,0:0:0:0:
448,192,24021,1,0,0:0:0:0:
192,192,24195,1,2,0:0:0:0:
448,192,24195,128,0,24541:0:0:0:0:
320,192,24281,1,0,0:0:0:0:
192,192,24368,1,0,0:0:0:0:
320,192,24455,1,0,0:0:0:0:
64,192,24541,1,4,0:3:0:0:
192,192,24541,1,0,0:0:0:0:
64,192,24715,128,2,24888:0:0:0:0:
320,192,24715,1,8,0:0:0:0:
448,192,24715,1,0,0:0:0:0:
192,192,24888,1,8,0:3:0:0:
320,192,24888,1,0,0:0:0:0:
64,192,25062,1,2,0:0:0:0:
192,192,25062,128,4,25322:0:3:0:0:
320,192,25235,1,0,0:0:0:0:
64,192,25408,128,8,25495:0:0:0:0:
192,192,25408,1,2,0:0:0:0:
448,192,25408,1,0,0:0:0:0:
320,192,25582,1,2,0:0:0:0:
448,192,25582,128,0,25755:0:0:0:0:
192,192,25669,1,0,0:0:0:0:
320,192,25755,1,0,0:0:0:0:
192,192,25842,1,0,0:0:0:0:
320,192,25885,128,0,25972:0:0:0:0:
64,192,25929,1,4,0:3:0:0:
448,192,25929,128,2,26015:0:0:0:0:
64,192,26102,1,8,0:0:0:0:
448,192,26102,1,0,0:0:0:0:
192,192,26189,128,2,26275:0:0:0:0:
320,192,26189,128,0,26275:0:0:0:0:
64,192,26449,128,2,26709:0:0:0:0:
192,192,26449,128,4,26536:0:3:0:0:
192,192,26622,1,0,0:0:0:0:
64,192,26796,1,8,0:0:0:0:
320,192,26796,1,2,0:0:0:0:
448,192,26796,1,0,0:0:0:0:
192,192,26969,1,2,0:0:0:0:
448,192,26969,128,0,27316:0:0:0:0:
64,192,27056,1,0,0:0:0:0:
320,192,27143,1,0,0:0:0:0:
64,192,27229,1,0,0:0:0:0:
192,192,27316,1,4,0:3:0:0:
320,192,27316,1,0,0:0:0:0:
64,192,27489,1,8,0:0:0:0:
192,192,27489,1,0,0:0:0:0:
448,192,27489,1,0,0:0:0:0:
320,192,27663,1,2,0:0:0:0:
448,192,27663,128,8,27836:0:3:0:0:
192,192,27836,128,2,27923:0:0:0:0:
320,192,27836,1,4,0:3:0:0:
64,192,28010,128,2,28096:0:0:0:0:
192,192,28010,1,0,0:0:0:0:
64,192,28183,1,8,0:0:0:0:
320,192,28183,1,2,0:0:0:0:
448,192,28183,128,0,28270:0:0:0:0:
192,192,28356,1,2,0:0:0:0:
320,192,28356,128,0,28443:0:0:0:0:
64,192,28443,1,0,0:0:0:0:
448,192,28530,1,2,0:0:0:0:
192,192,28530,128,0,28617:0:0:0:0:
320,192,28617,1,0,0:0:0:0:
64,192,28703,128,2,28790:0:0:0:0:
192,192,28703,1,4,0:3:0:0:
64,192,28877,1,2,0:0:0:0:
448,192,28877,1,8,0:0:0:0:
320,192,28877,128,0,28963:0:0:0:0:
320,192,29050,1,2,0:0:0:0:
192,192,29050,128,0,29137:0:0:0:0:
192,192,29223,1,2,0:0:0:0:
64,192,29223,128,4,29484:0:3:0:0:
320,192,29397,1,0,0:0:0:0:
64,192,29570,1,8,0:0:0:0:
192,192,29570,1,2,0:0:0:0:
448,192,29570,128,0,29657:0:0:0:0:
64,192,29744,128,2,30091:0:0:0:0:
320,192,29744,1,0,0:0:0:0:
192,192,29830,1,0,0:0:0:0:
320,192,29917,1,0,0:0:0:0:
192,192,30004,1,0,0:0:0:0:
320,192,30091,1,4,0:3:0:0:
448,192,30091,1,0,0:0:0:0:
64,192,30264,1,8,0:0:0:0:
192,192,30264,1,0,0:0:0:0:
448,192,30264,128,0,30437:0:0:0:0:
192,192,30437,1,8,0:3:0:0:
320,192,30437,1,0,0:0:0:0:
64,192,30611,128,2,30871:0:0:0:0:
448,192,30611,1,4,0:3:0:0:
192,192,30784,1,0,0:0:0:0:
64,192,30958,1,8,0:0:0:0:
320,192,30958,128,2,31044:0:0:0:0:
448,192,30958,1,0,0:0:0:0:
192,192,31131,1,2,0:0:0:0:
448,192,31131,128,0,31304:0:0:0:0:
320,192,31218,1,0,0:0:0:0:
192,192,31304,1,0,0:0:0:0:
320,192,31391,1,0,0:0:0:0:
64,192,31434,128,0,31521:0:0:0:0:
192,192,31478,128,4,31564:0:3:0:0:
448,192,31478,1,2,0:0:0:0:
64,192,31651,1,8,0:0:0:0:
448,192,31651,1,0,0:0:0:0:
192,192,31738,128,2,31825:0:0:0:0:
320,192,31738,128,0,31825:0:0:0:0:
64,192,31998,128,2,32085:0:0:0:0:
448,192,31998,128,4,32258:0:3:0:0:
192,192,32171,1,0,0:0:0:0:
64,192,32345,1,8,0:0:0:0:
320,192,32345,1,2,0:0:0:0:
448,192,32345,1,0,0:0:0:0:
64,192,32518,128,2,32865:0:0:0:0:
192,192,32518,1,0,0:0:0:0:
320,192,32605,1,0,0:0:0:0:
192,192,32692,1,0,0:0:0:0:
320,192,32778,1,0,0:0:0:0:
192,192,32865,1,4,0:3:0:0:
448,192,32865,1,0,0:0:0:0:
64,192,33038,1,8,0:0:0:0:
320,192,33038,1,0,0:0:0:0:
448,192,33038,1,0,0:0:0:0:
64,192,33212,128,2,33385:0:0:0:0:
192,192,33212,1,8,0:3:0:0:
192,192,33385,128,2,33472:0:0:0:0:
448,192,33385,1,4,0:3:0:0:
192,192,33559,1,2,0:0:0:0:
320,192,33559,128,0,33645:0:0:0:0:
64,192,33732,1,2,0:0:0:0:
320,192,33732,1,8,0:0:0:0:
448,192,33732,128,0,33819:0:0:0:0:
64,192,33906,128,2,33992:0:0:0:0:
192,192,33906,1,0,0:0:0:0:
320,192,33992,1,0,0:0:0:0:
192,192,34079,128,2,34166:0:0:0:0:
448,192,34079,1,0,0:0:0:0:
64,192,34166,1,0,0:0:0:0:
320,192,34252,128,2,34339:0:0:0:0:
448,192,34252,1,4,0:3:0:0:
64,192,34426,1,2,0:0:0:0:
192,192,34426,1,8,0:0:0:0:
448,192,34426,128,0,34512:0:0:0:0:
64,192,34599,128,2,34686:0:0:0:0:
320,192,34599,1,0,0:0:0:0:
64,192,34773,1,2,0:0:0:0:
192,192,34773,1,4,0:3:0:0:
448,192,34773,128,4,35033:0:0:0:0:
320,192,34946,1,0,0:0:0:0:
64,192,35119,128,8,35206:0:0:0:0:
192,192,35119,1,2,0:0:0:0:
448,192,35119,1,0,0:0:0:0:
320,192,35293,1,2,0:0:0:0:
448,192,35293,128,0,35640:0:0:0:0:
192,192,35380,1,0,0:0:0:0:
320,192,35466,1,0,0:0:0:0:
192,192,35553,1,0,0:0:0:0:
64,192,35640,1,4,0:3:0:0:
320,192,35640,1,0,0:0:0:0:
64,192,35813,128,8,35986:0:0:0:0:
192,192,35813,1,2,0:0:0:0:
448,192,35813,1,0,0:0:0:0:
320,192,35986,1,8,0:3:0:0:
448,192,35986,1,2,0:0:0:0:
64,192,36160,1,2,0:0:0:0:
320,192,36160,128,4,36333:0:3:0:0:
192,192,36333,1,0,0:0:0:0:
64,192,36507,1,8,0:0:0:0:
192,192,36507,128,2,36593:0:0:0:0:
448,192,36507,1,0,0:0:0:0:
320,192,36680,1,2,0:0:0:0:
448,192,36680,128,0,36854:0:0:0:0:
192,192,36767,1,0,0:0:0:0:
320,192,36854,1,0,0:0:0:0:
192,192,36940,1,0,0:0:0:0:
320,192,36984,128,0,37070:0:0:0:0:
64,192,37027,1,4,0:3:0:0:
448,192,37027,128,2,37114:0:0:0:0:
64,192,37200,1,8,0:0:0:0:
448,192,37200,1,0,0:0:0:0:
192,192,37287,128,2,37374:0:0:0:0:
320,192,37287,128,0,37374:0:0:0:0:
64,192,37547,128,2,37807:0:0:0:0:
192,192,37547,128,4,37634:0:3:0:0:
192,192,37721,1,0,0:0:0:0:
64,192,37894,1,8,0:0:0:0:
320,192,37894,1,2,0:0:0:0:
448,192,37894,1,0,0:0:0:0:
192,192,38067,1,2,0:0:0:0:
448,192,38067,128,0,38414:0:0:0:0:
320,192,38154,1,0,0:0:0:0:
192,192,38241,1,0,0:0:0:0:
320,192,38327,1,0,0:0:0:0:
64,192,38414,1,4,0:3:0:0:
192,192,38414,1,0,0:0:0:0:
64,192,38588,1,8,0:0:0:0:
320,192,38588,1,0,0:0:0:0:
448,192,38588,1,0,0:0:0:0:
192,192,38761,1,2,0:0:0:0:
448,192,38761,128,8,38934:0:3:0:0:
192,192,38934,128,2,39021:0:0:0:0:
320,192,38934,1,4,0:3:0:0:
64,192,39108,128,2,39195:0:0:0:0:
192,192,39108,1,0,0:0:0:0:
64,192,39281,1,8,0:0:0:0:
320,192,39281,1,2,0:0:0:0:
448,192,39281,128,0,39368:0:0:0:0:
192,192,39455,1,2,0:0:0:0:
320,192,39455,128,0,39541:0:0:0:0:
448,192,39541,1,0,0:0:0:0:
64,192,39628,1,2,0:0:0:0:
192,192,39628,128,0,39715:0:0:0:0:
448,192,39715,1,0,0:0:0:0:
64,192,39801,128,4,39888:0:3:0:0:
320,192,39801,1,2,0:0:0:0:
64,192,39975,1,8,0:0:0:0:
192,192,39975,128,2,40062:0:0:0:0:
448,192,39975,1,0,0:0:0:0:
192,192,40148,1,2,0:0:0:0:
320,192,40148,128,0,40235:0:0:0:0:
320,192,40322,1,4,0:3:0:0:
448,192,40322,128,2,40582:0:0:0:0:
64,192,40582,1,2,0:0:0:0:
192,192,40582,128,0,40669:0:0:0:0:
320,192,40669,1,8,0:0:0:0:
448,192,40669,1,0,0:0:0:0:
192,192,40842,1,2,0:0:0:0:
320,192,40842,128,0,40929:0:0:0:0:
64,192,40929,1,0,0:0:0:0:
320,192,41015,1,2,0:0:0:0:
448,192,41015,128,0,41102:0:0:0:0:
64,192,41102,1,0,0:0:0:0:
192,192,41189,1,4,0:3:0:0:
448,192,41189,1,0,0:0:0:0:
64,192,41362,1,8,0:0:0:0:
320,192,41362,1,0,0:0:0:0:
448,192,41362,1,0,0:0:0:0:
192,192,41536,128,8,41709:0:3:0:0:
448,192,41536,1,2,0:0:0:0:
64,192,41709,128,4,41969:0:3:0:0:
320,192,41709,1,2,0:0:0:0:
320,192,41969,128,2,42056:0:0:0:0:
448,192,41969,1,0,0:0:0:0:
64,192,42056,1,8,0:0:0:0:
192,192,42056,1,0,0:0:0:0:
192,192,42229,128,2,42316:0:0:0:0:
448,192,42229,1,0,0:0:0:0:
320,192,42316,1,0,0:0:0:0:
64,192,42403,128,2,42489:0:0:0:0:
448,192,42403,1,0,0:0:0:0:
192,192,42489,1,0,0:0:0:0:
64,192,42576,1,4,0:3:0:0:
320,192,42576,1,0,0:0:0:0:
64,192,42749,1,8,0:0:0:0:
192,192,42749,1,0,0:0:0:0:
448,192,42749,1,0,0:0:0:0:
192,192,42923,1,2,0:0:0:0:
320,192,42923,128,0,43010:0:0:0:0:
320,192,43096,1,2,0:0:0:0:
448,192,43096,128,4,43356:0:3:0:0:
64,192,43356,1,2,0:0:0:0:
192,192,43356,128,0,43443:0:0:0:0:
320,192,43443,1,8,0:0:0:0:
448,192,43443,1,0,0:0:0:0:
64,192,43617,128,2,43703:0:0:0:0:
192,192,43617,1,0,0:0:0:0:
448,192,43703,1,0,0:0:0:0:
192,192,43790,1,2,0:0:0:0:
320,192,43790,128,0,43877:0:0:0:0:
448,192,43877,1,0,0:0:0:0:
192,192,43963,1,4,0:3:0:0:
320,192,43963,1,0,0:0:0:0:
64,192,44137,1,8,0:0:0:0:
320,192,44137,1,2,0:0:0:0:
448,192,44137,128,0,44310:0:0:0:0:
64,192,44310,1,8,0:3:0:0:
192,192,44310,1,0,0:0:0:0:
192,192,44484,1,2,0:0:0:0:
320,192,44484,128,0,44570:0:0:0:0:
64,192,44657,1,2,0:0:0:0:
192,192,44657,128,0,44744:0:0:0:0:
64,192,44830,128,8,44917:0:0:0:0:
320,192,44830,1,2,0:0:0:0:
448,192,44830,1,0,0:0:0:0:
192,192,45004,1,0,0:0:0:0:
64,192,45091,1,0,0:0:0:0:
320,192,45177,1,2,0:0:0:0:
448,192,45177,128,0,45264:0:0:0:0:
64,192,45264,1,0,0:0:0:0:
192,192,45351,1,2,0:0:0:0:
320,192,45351,128,0,45437:0:0:0:0:
64,192,45524,1,8,0:0:0:0:
192,192,45524,128,2,45611:0:0:0:0:
448,192,45524,1,0,0:0:0:0:
64,192,45697,128,2,45784:0:0:0:0:
320,192,45697,1,0,0:0:0:0:
64,192,45871,1,4,0:0:0:0:
192,192,45871,1,4,0:3:0:0:
448,192,45871,128,2,46131:0:0:0:0:
320,192,46044,1,0,0:0:0:0:
64,192,46218,1,8,0:0:0:0:
192,192,46218,1,0,0:0:0:0:
448,192,46218,1,0,0:0:0:0:
320,192,46391,1,0,0:0:0:0:
448,192,46564,1,0,0:0:0:0:
64,192,46738,1,4,0:3:0:0:
192,192,46738,1,0,0:0:0:0:
64,192,46911,1,8,0:0:0:0:
320,192,46911,128,2,47171:0:0:0:0:
448,192,46911,1,0,0:0:0:0:
192,192,47085,1,0,0:0:0:0:
320,192,47258,1,4,0:3:0:0:
448,192,47258,1,0,0:0:0:0:
192,192,47432,1,0,0:0:0:0:
64,192,47605,1,8,0:0:0:0:
320,192,47605,1,0,0:0:0:0:
448,192,47605,1,0,0:0:0:0:
192,192,47778,1,0,0:0:0:0:
320,192,47952,1,2,0:0:0:0:
64,192,48125,1,4,0:3:0:0:
192,192,48125,1,0,0:0:0:0:
64,192,48299,1,8,0:0:0:0:
320,192,48299,1,0,0:0:0:0:
448,192,48299,1,0,0:0:0:0:
192,192,48472,1,0,0:0:0:0:
320,192,48645,1,4,0:3:0:0:
448,192,48645,1,2,0:0:0:0:
64,192,48819,1,0,0:0:0:0:
64,192,48992,1,8,0:0:0:0:
192,192,48992,1,0,0:0:0:0:
448,192,48992,1,0,0:0:0:0:
320,192,49166,1,0,0:0:0:0:
64,192,49339,1,2,0:0:0:0:
320,192,49512,1,4,0:3:0:0:
448,192,49512,1,2,0:0:0:0:
64,192,49686,1,8,0:0:0:0:
192,192,49686,1,2,0:0:0:0:
448,192,49686,1,0,0:0:0:0:
320,192,49859,1,0,0:0:0:0:
64,192,50033,1,2,0:0:0:0:
192,192,50033,128,4,50293:0:3:0:0:
320,192,50206,1,0,0:0:0:0:
64,192,50380,1,8,0:0:0:0:
192,192,50380,1,0,0:0:0:0:
448,192,50380,1,0,0:0:0:0:
320,192,50553,128,0,50813:0:0:0:0:
64,192,50726,1,0,0:0:0:0:
320,192,50900,1,4,0:3:0:0:
448,192,50900,1,0,0:0:0:0:
64,192,51073,1,8,0:0:0:0:
192,192,51073,1,0,0:0:0:0:
448,192,51073,128,0,51333:0:0:0:0:
64,192,51247,1,4,0:3:0:0:
320,192,51247,1,0,0:0:0:0:
320,192,51420,128,2,51680:0:0:0:0:
448,192,51420,1,4,0:3:0:0:
192,192,51593,1,0,0:0:0:0:
64,192,51767,1,8,0:0:0:0:
320,192,51767,1,0,0:0:0:0:
448,192,51767,1,0,0:0:0:0:
192,192,51940,1,0,0:0:0:0:
448,192,52114,128,2,52374:0:0:0:0:
64,192,52287,1,4,0:3:0:0:
320,192,52287,1,2,0:0:0:0:
64,192,52460,1,8,0:0:0:0:
192,192,52460,1,2,0:0:0:0:
448,192,52460,128,0,52721:0:0:0:0:
320,192,52634,1,0,0:0:0:0:
64,192,52807,1,4,0:3:0:0:
192,192,52807,1,0,0:0:0:0:
448,192,52981,1,0,0:0:0:0:
192,192,53154,1,8,0:0:0:0:
320,192,53154,1,0,0:0:0:0:
448,192,53154,1,0,0:0:0:0:
64,192,53327,1,0,0:0:0:0:
192,192,53501,1,2,0:0:0:0:
320,192,53674,1,4,0:3:0:0:
448,192,53674,1,0,0:0:0:0:
64,192,53848,1,8,0:0:0:0:
192,192,53848,1,0,0:0:0:0:
448,192,53848,1,0,0:0:0:0:
320,192,54021,1,0,0:0:0:0:
64,192,54195,1,4,0:3:0:0:
192,192,54195,1,2,0:0:0:0:
448,192,54368,1,0,0:0:0:0:
64,192,54541,1,8,0:0:0:0:
320,192,54541,1,0,0:0:0:0:
448,192,54541,1,0,0:0:0:0:
192,192,54715,1,0,0:0:0:0:
320,192,54888,1,2,0:0:0:0:
64,192,55062,1,4,0:3:0:0:
192,192,55062,1,2,0:0:0:0:
64,192,55235,1,8,0:0:0:0:
320,192,55235,1,2,0:0:0:0:
448,192,55235,1,0,0:0:0:0:
192,192,55408,1,0,0:0:0:0:
320,192,55582,1,4,0:3:0:0:
448,192,55582,128,2,55842:0:0:0:0:
192,192,55755,1,0,0:0:0:0:
64,192,55929,1,8,0:0:0:0:
320,192,55929,1,0,0:0:0:0:
448,192,55929,1,0,0:0:0:0:
192,192,56102,1,0,0:0:0:0:
320,192,56275,128,2,56536:0:0:0:0:
64,192,56449,1,4,0:3:0:0:
192,192,56449,1,0,0:0:0:0:
64,192,56622,1,8,0:0:0:0:
320,192,56622,1,0,0:0:0:0:
448,192,56622,128,0,56882:0:0:0:0:
192,192,56796,1,4,0:3:0:0:
64,192,56969,128,2,57229:0:0:0:0:
448,192,56969,1,0,0:0:0:0:
320,192,57229,128,0,57316:0:0:0:0:
64,192,57316,1,4,0:3:0:0:
192,192,57316,1,4,0:0:0:0:
448,192,57316,1,0,0:0:0:0:
320,192,57489,1,0,0:0:0:0:
448,192,57576,1,0,0:0:0:0:
192,192,57663,1,2,0:0:0:0:
64,192,57749,1,0,0:0:0:0:
320,192,57836,1,4,0:3:0:0:
448,192,57836,1,2,0:0:0:0:
64,192,58010,128,8,58270:0:0:0:0:
192,192,58010,1,2,0:0:0:0:
448,192,58010,1,0,0:0:0:0:
320,192,58183,1,0,0:0:0:0:
64,192,58356,1,4,0:3:0:0:
192,192,58356,1,0,0:0:0:0:
320,192,58530,1,0,0:0:0:0:
64,192,58703,1,8,0:0:0:0:
192,192,58703,1,0,0:0:0:0:
448,192,58703,1,0,0:0:0:0:
320,192,58877,1,0,0:0:0:0:
448,192,58963,1,0,0:0:0:0:
192,192,59050,1,2,0:0:0:0:
64,192,59137,1,0,0:0:0:0:
320,192,59223,1,4,0:3:0:0:
448,192,59223,1,0,0:0:0:0:
64,192,59397,1,8,0:0:0:0:
192,192,59397,1,0,0:0:0:0:
448,192,59397,1,0,0:0:0:0:
320,192,59570,1,0,0:0:0:0:
64,192,59744,1,4,0:3:0:0:
448,192,59744,1,2,0:0:0:0:
192,192,59917,1,0,0:0:0:0:
64,192,60091,1,8,0:0:0:0:
320,192,60091,1,0,0:0:0:0:
448,192,60091,1,0,0:0:0:0:
448,192,60264,1,0,0:0:0:0:
320,192,60351,1,0,0:0:0:0:
64,192,60437,1,0,0:0:0:0:
192,192,60524,1,0,0:0:0:0:
320,192,60611,1,4,0:3:0:0:
448,192,60611,1,0,0:0:0:0:
64,192,60784,1,8,0:0:0:0:
192,192,60784,128,2,61044:0:0:0:0:
448,192,60784,1,0,0:0:0:0:
320,192,60958,1,0,0:0:0:0:
192,192,61131,1,4,0:3:0:0:
448,192,61131,128,2,61391:0:0:0:0:
320,192,61304,1,0,0:0:0:0:
64,192,61478,1,8,0:0:0:0:
192,192,61478,1,0,0:0:0:0:
448,192,61478,1,0,0:0:0:0:
192,192,61651,1,2,0:0:0:0:
320,192,61651,128,0,61911:0:0:0:0:
64,192,61738,1,0,0:0:0:0:
448,192,61825,1,0,0:0:0:0:
64,192,61911,1,0,0:0:0:0:
192,192,61998,1,4,0:3:0:0:
320,192,61998,1,0,0:0:0:0:
64,192,62171,1,8,0:0:0:0:
192,192,62171,128,2,62432:0:0:0:0:
448,192,62171,1,0,0:0:0:0:
320,192,62345,1,8,0:3:0:0:
448,192,62345,1,0,0:0:0:0:
64,192,62518,128,6,62778:0:0:0:0:
192,192,62518,1,4,0:3:0:0:
448,192,62692,1,0,0:0:0:0:
192,192,62778,1,0,0:0:0:0:
64,192,62865,1,8,0:0:0:0:
320,192,62865,1,4,0:3:0:0:
448,192,62865,1,0,0:0:0:0:
320,192,63038,1,0,0:0:0:0:
448,192,63125,1,0,0:0:0:0:
192,192,63212,1,4,0:3:0:0:
64,192,63212,1,0,0:0:0:0:
320,192,63385,1,0,0:0:0:0:
192,192,63472,1,0,0:0:0:0:
64,192,63559,1,8,0:0:0:0:
320,192,63559,1,2,0:0:0:0:
448,192,63559,128,4,63819:0:3:0:0:
192,192,63732,1,0,0:0:0:0:
64,192,63819,1,0,0:0:0:0:
320,192,63906,1,4,0:3:0:0:
448,192,63906,1,2,0:0:0:0:
192,192,64079,1,0,0:0:0:0:
320,192,64166,1,0,0:0:0:0:
64,192,64252,1,8,0:0:0:0:
192,192,64252,1,4,0:3:0:0:
448,192,64252,1,0,0:0:0:0:
192,192,64426,1,2,0:0:0:0:
64,192,64512,1,0,0:0:0:0:
320,192,64599,1,4,0:3:0:0:
448,192,64599,1,0,0:0:0:0:
192,192,64773,1,0,0:0:0:0:
320,192,64859,1,0,0:0:0:0:
64,192,64946,1,8,0:0:0:0:
192,192,64946,1,4,0:3:0:0:
448,192,64946,1,0,0:0:0:0:
320,192,65119,1,0,0:0:0:0:
448,192,65206,1,0,0:0:0:0:
64,192,65293,1,4,0:3:0:0:
192,192,65293,1,2,0:0:0:0:
64,192,65466,1,4,0:3:0:0:
192,192,65466,1,0,0:0:0:0:
320,192,65553,1,0,0:0:0:0:
64,192,65640,1,8,0:0:0:0:
192,192,65640,1,4,0:3:0:0:
448,192,65640,1,0,0:0:0:0:
64,192,65813,1,4,0:3:0:0:
192,192,65813,1,0,0:0:0:0:
320,192,65986,1,4,0:3:0:0:
448,192,65986,1,2,0:0:0:0:
320,192,66160,1,4,0:3:0:0:
448,192,66160,1,0,0:0:0:0:
192,192,66247,1,0,0:0:0:0:
64,192,66333,1,8,0:0:0:0:
320,192,66333,1,4,0:3:0:0:
448,192,66333,1,0,0:0:0:0:
320,192,66507,1,4,0:3:0:0:
448,192,66507,1,0,0:0:0:0:
64,192,66680,1,4,0:3:0:0:
448,192,66680,1,2,0:0:0:0:
64,192,66796,1,4,0:3:0:0:
320,192,66796,1,0,0:0:0:0:
320,192,66911,1,4,0:3:0:0:
448,192,66911,1,0,0:0:0:0:
64,192,67027,1,4,0:3:0:0:
192,192,67027,1,8,0:0:0:0:
192,192,67143,1,4,0:3:0:0:
448,192,67143,1,0,0:0:0:0:
320,192,67258,1,4,0:3:0:0:
448,192,67258,1,0,0:0:0:0:
64,192,67374,128,4,67634:0:3:0:0:
192,192,67374,1,0,0:0:0:0:
320,192,67547,1,0,0:0:0:0:
64,192,67721,1,8,0:0:0:0:
192,192,67721,1,0,0:0:0:0:
448,192,67721,1,0,0:0:0:0:
320,192,67894,1,4,0:3:0:0:
448,192,67894,1,0,0:0:0:0:
64,192,68067,1,2,0:0:0:0:
192,192,68067,1,4,0:0:0:0:
320,192,68067,1,8,0:0:0:0:
448,192,68067,128,0,69455:0:3:0:70:drum-hitfinish.wav
320,192,69455,128,2,70842:0:0:0:0:
192,192,70842,128,2,72229:0:0:0:0:
64,192,73270,128,2,73617:0:0:0:0:
320,192,73617,128,2,74137:0:0:0:0:
448,192,74137,128,2,74657:0:0:0:0:
192,192,74657,128,2,75004:0:0:0:0:
64,192,75004,128,2,75524:0:0:0:0:
320,192,75524,128,2,76044:0:0:0:0:
448,192,76044,128,2,76738:0:0:0:0:
192,192,76738,128,2,77778:0:0:0:0:
448,192,77778,128,2,78299:0:0:0:0:
64,192,78299,128,2,78819:0:0:0:0:
192,192,78819,128,2,79166:0:0:0:0:
320,192,79166,128,2,79512:0:0:0:0:
448,192,79166,128,8,79946:0:0:0:0:
64,192,79166,1,4,0:0:0:0:
192,192,79512,128,2,79599:0:0:0:0:
64,192,79686,1,2,0:0:0:0:
192,192,79686,1,8,0:0:0:0:
320,192,79686,128,0,79946:0:0:0:0:
320,192,80033,1,4,0:3:0:0:
448,192,80033,1,0,0:0:0:0:
64,192,80206,1,8,0:0:0:0:
192,192,80206,1,0,0:0:0:0:
320,192,80206,1,0,0:0:0:0:
448,192,80380,128,8,80553:0:3:0:0:
64,192,80553,1,8,0:0:0:0:
192,192,80553,1,2,0:0:0:0:
320,192,80553,128,0,80986:0:0:0:0:
448,192,80726,1,2,0:0:0:0:
64,192,80900,128,2,80986:0:0:0:0:
64,192,81073,1,2,0:0:0:0:
192,192,81073,1,8,0:0:0:0:
320,192,81073,128,0,81333:0:0:0:0:
448,192,81247,1,0,0:0:0:0:
320,192,81420,1,4,0:3:0:0:
448,192,81420,1,0,0:0:0:0:
64,192,81593,1,8,0:0:0:0:
192,192,81593,1,0,0:0:0:0:
320,192,81593,1,0,0:0:0:0:
64,192,81940,1,8,0:0:0:0:
320,192,81940,1,2,0:0:0:0:
448,192,81940,1,0,0:0:0:0:
64,192,82114,1,4,0:3:0:0:
192,192,82114,1,0,0:0:0:0:
64,192,82287,1,4,0:3:0:0:
192,192,82287,1,2,0:0:0:0:
64,192,82460,1,2,0:0:0:0:
320,192,82460,1,8,0:0:0:0:
448,192,82460,1,0,0:0:0:0:
64,192,82634,1,4,0:3:0:0:
192,192,82634,1,0,0:0:0:0:
64,192,82807,1,4,0:3:0:0:
192,192,82807,1,0,0:0:0:0:
64,192,82981,1,8,0:0:0:0:
320,192,82981,1,0,0:0:0:0:
448,192,82981,1,0,0:0:0:0:
64,192,83154,1,8,0:3:0:0:
192,192,83154,1,4,0:3:0:0:
64,192,83327,1,8,0:0:0:0:
192,192,83327,1,2,0:0:0:0:
448,192,83327,1,0,0:0:0:0:
320,192,83501,1,4,0:3:0:0:
448,192,83501,1,0,0:0:0:0:
320,192,83674,1,4,0:3:0:0:
448,192,83674,1,2,0:0:0:0:
64,192,83848,1,8,0:0:0:0:
192,192,83848,1,2,0:0:0:0:
448,192,83848,1,0,0:0:0:0:
320,192,84021,1,4,0:3:0:0:
448,192,84021,1,0,0:0:0:0:
320,192,84195,1,4,0:3:0:0:
448,192,84195,1,0,0:0:0:0:
64,192,84368,1,8,0:0:0:0:
192,192,84368,1,0,0:0:0:0:
448,192,84368,1,0,0:0:0:0:
320,192,84541,1,4,0:3:0:0:
448,192,84541,1,0,0:0:0:0:
64,192,84715,1,8,0:0:0:0:
320,192,84715,1,2,0:0:0:0:
448,192,84715,1,0,0:0:0:0:
64,192,84888,1,4,0:3:0:0:
192,192,84888,1,0,0:0:0:0:
192,192,85062,1,8,0:0:0:0:
320,192,85062,1,2,0:0:0:0:
448,192,85062,1,0,0:0:0:0:
320,192,85235,1,4,0:3:0:0:
448,192,85235,1,2,0:0:0:0:
64,192,85408,1,8,0:0:0:0:
192,192,85408,1,0,0:0:0:0:
320,192,85408,1,0,0:0:0:0:
64,192,85582,1,4,0:3:0:0:
192,192,85582,1,0,0:0:0:0:
192,192,85755,1,8,0:0:0:0:
320,192,85755,1,0,0:0:0:0:
448,192,85755,1,0,0:0:0:0:
320,192,85929,1,4,0:3:0:0:
448,192,85929,1,0,0:0:0:0:
64,192,86102,1,8,0:0:0:0:
192,192,86102,1,2,0:0:0:0:
320,192,86102,1,0,0:0:0:0:
64,192,86275,1,8,0:0:0:0:
320,192,86275,1,0,0:0:0:0:
448,192,86275,1,0,0:0:0:0:
64,192,86449,1,8,0:0:0:0:
192,192,86449,1,2,0:0:0:0:
448,192,86449,1,0,0:0:0:0:
64,192,86622,1,8,0:0:0:0:
192,192,86622,1,2,0:0:0:0:
320,192,86622,1,0,0:0:0:0:
64,192,86796,1,8,0:0:0:0:
320,192,86796,1,0,0:0:0:0:
448,192,86796,1,0,0:0:0:0:
192,192,86969,1,8,0:0:0:0:
320,192,86969,1,0,0:0:0:0:
448,192,86969,1,0,0:0:0:0:
64,192,87143,1,8,0:0:0:0:
192,192,87143,1,0,0:0:0:0:
448,192,87143,1,0,0:0:0:0:
192,192,87316,1,8,0:0:0:0:
320,192,87316,1,0,0:0:0:0:
448,192,87316,1,0,0:0:0:0:
64,192,87489,1,8,0:0:0:0:
320,192,87489,1,2,0:0:0:0:
448,192,87489,1,0,0:0:0:0:
64,192,87663,1,8,0:0:0:0:
192,192,87663,1,0,0:0:0:0:
320,192,87663,1,0,0:0:0:0:
64,192,87836,1,8,0:0:0:0:
320,192,87836,1,2,0:0:0:0:
448,192,87836,1,0,0:0:0:0:
64,192,88010,1,8,0:0:0:0:
192,192,88010,1,2,0:0:0:0:
448,192,88010,1,0,0:0:0:0:
320,192,88183,1,8,0:0:0:0:
448,192,88183,1,0,0:0:0:0:
64,192,88270,1,8,0:0:0:0:
192,192,88270,1,0,0:0:0:0:
320,192,88356,1,8,0:0:0:0:
448,192,88356,1,0,0:0:0:0:
64,192,88443,1,8,0:0:0:0:
192,192,88443,1,0,0:0:0:0:
320,192,88530,1,8,0:0:0:0:
448,192,88530,1,0,0:0:0:0:
64,192,88617,1,8,0:0:0:0:
192,192,88617,1,0,0:0:0:0:
320,192,88703,1,8,0:0:0:0:
448,192,88703,1,0,0:0:0:0:
192,192,88790,1,8,0:0:0:0:
64,192,88877,1,4,0:3:0:0:
320,192,88877,1,4,0:0:0:0:
448,192,88877,1,2,0:0:0:0:
64,192,89050,1,4,0:3:0:0:
192,192,89050,1,0,0:0:0:0:
64,192,89223,1,8,0:0:0:0:
320,192,89223,1,2,0:0:0:0:
448,192,89223,1,0,0:0:0:0:
192,192,89397,1,2,0:0:0:0:
320,192,89484,1,0,1:0:0:75:normal-hitnormal.wav
448,192,89484,1,0,0:0:0:0:
192,192,89570,1,0,0:0:0:0:
320,192,89657,1,0,1:0:0:75:normal-hitnormal.wav
448,192,89657,1,0,0:0:0:0:
64,192,89744,1,4,0:3:0:0:
192,192,89744,1,2,0:0:0:0:
320,192,89852,1,4,0:3:0:0:
64,192,89917,1,8,0:0:0:0:
192,192,89917,1,2,0:0:0:0:
448,192,89917,1,0,0:0:0:0:
64,192,90091,1,0,0:0:0:0:
192,192,90177,1,0,0:0:0:0:
64,192,90264,1,4,0:3:0:0:
320,192,90264,128,2,90351:0:0:0:0:
448,192,90264,128,4,90524:0:0:0:0:
320,192,90437,1,0,0:0:0:0:
64,192,90611,1,2,0:0:0:0:
192,192,90611,1,8,0:0:0:0:
448,192,90611,1,0,0:0:0:0:
320,192,90784,128,2,90871:0:0:0:0:
448,192,90784,128,0,90871:0:0:0:0:
64,192,90871,1,0,0:0:0:0:
192,192,90958,1,0,0:0:0:0:
320,192,91044,1,0,0:0:0:0:
64,192,91131,1,4,0:3:0:0:
192,192,91131,1,0,0:0:0:0:
64,192,91304,1,8,0:0:0:0:
320,192,91304,1,2,0:0:0:0:
448,192,91304,1,0,0:0:0:0:
192,192,91478,1,8,0:3:0:0:
448,192,91478,128,0,91651:0:0:0:0:
192,192,91651,128,2,91738:0:0:0:0:
320,192,91651,128,4,91911:0:3:0:0:
192,192,91825,1,0,0:0:0:0:
64,192,91998,1,8,0:0:0:0:
320,192,91998,1,2,0:0:0:0:
448,192,91998,1,0,0:0:0:0:
192,192,92171,128,2,92258:0:0:0:0:
320,192,92171,128,0,92258:0:0:0:0:
448,192,92258,1,0,0:0:0:0:
64,192,92345,1,0,0:0:0:0:
192,192,92432,1,0,0:0:0:0:
320,192,92518,1,4,0:3:0:0:
448,192,92518,1,0,0:0:0:0:
64,192,92692,1,8,0:0:0:0:
192,192,92692,1,8,0:3:0:0:
448,192,92692,1,0,0:0:0:0:
320,192,92865,1,0,0:0:0:0:
64,192,93038,128,2,93125:0:0:0:0:
192,192,93038,128,4,93299:0:3:0:0:
64,192,93212,1,0,0:0:0:0:
192,192,93385,1,8,0:0:0:0:
320,192,93385,1,2,0:0:0:0:
448,192,93385,1,0,0:0:0:0:
64,192,93559,128,2,93645:0:0:0:0:
192,192,93559,128,0,93645:0:0:0:0:
320,192,93645,1,0,0:0:0:0:
64,192,93732,1,0,0:0:0:0:
192,192,93819,1,0,0:0:0:0:
320,192,93906,1,4,0:3:0:0:
448,192,93906,1,0,0:0:0:0:
64,192,94079,1,8,0:0:0:0:
192,192,94079,1,0,0:0:0:0:
448,192,94079,1,0,0:0:0:0:
64,192,94252,128,8,94426:0:3:0:0:
320,192,94252,1,0,0:0:0:0:
320,192,94426,128,2,94512:0:0:0:0:
448,192,94426,128,4,94512:0:3:0:0:
192,192,94599,1,0,0:0:0:0:
64,192,94773,1,8,0:0:0:0:
320,192,94773,128,2,94859:0:0:0:0:
448,192,94773,1,0,0:0:0:0:
192,192,94946,1,2,0:0:0:0:
320,192,94946,128,0,95033:0:0:0:0:
64,192,95033,1,0,0:0:0:0:
448,192,95119,1,0,0:0:0:0:
320,192,95206,1,0,0:0:0:0:
64,192,95293,1,4,0:3:0:0:
192,192,95293,1,0,0:0:0:0:
64,192,95466,1,8,0:0:0:0:
320,192,95466,1,2,0:0:0:0:
448,192,95466,1,0,0:0:0:0:
192,192,95640,1,0,0:0:0:0:
320,192,95813,128,2,95900:0:0:0:0:
448,192,95813,128,4,96073:0:3:0:0:
320,192,95986,1,0,0:0:0:0:
64,192,96160,1,8,0:0:0:0:
192,192,96160,1,2,0:0:0:0:
448,192,96160,1,0,0:0:0:0:
320,192,96333,128,2,96420:0:0:0:0:
448,192,96333,128,0,96420:0:0:0:0:
64,192,96420,1,0,0:0:0:0:
192,192,96507,1,0,0:0:0:0:
320,192,96593,1,0,0:0:0:0:
64,192,96680,1,4,0:3:0:0:
192,192,96680,1,0,0:0:0:0:
64,192,96854,1,2,0:0:0:0:
320,192,96854,1,8,0:0:0:0:
448,192,96854,1,0,0:0:0:0:
192,192,97027,1,8,0:3:0:0:
448,192,97027,128,0,97200:0:0:0:0:
192,192,97200,128,2,97287:0:0:0:0:
320,192,97200,128,4,97460:0:3:0:0:
192,192,97374,1,0,0:0:0:0:
64,192,97547,1,8,0:0:0:0:
320,192,97547,1,2,0:0:0:0:
448,192,97547,1,0,0:0:0:0:
192,192,97721,128,2,97807:0:0:0:0:
320,192,97721,128,0,97807:0:0:0:0:
448,192,97807,1,0,0:0:0:0:
64,192,97894,1,0,0:0:0:0:
192,192,97981,1,0,0:0:0:0:
320,192,98067,1,4,0:3:0:0:
448,192,98067,1,0,0:0:0:0:
64,192,98241,1,8,0:0:0:0:
192,192,98241,1,8,0:3:0:0:
448,192,98241,1,0,0:0:0:0:
320,192,98414,1,0,0:0:0:0:
64,192,98588,128,2,98674:0:0:0:0:
192,192,98588,128,4,98848:0:3:0:0:
64,192,98761,1,0,0:0:0:0:
192,192,98934,1,2,0:0:0:0:
320,192,98934,1,8,0:0:0:0:
448,192,98934,1,0,0:0:0:0:
64,192,99108,128,2,99195:0:0:0:0:
192,192,99108,128,0,99195:0:0:0:0:
320,192,99195,1,0,0:0:0:0:
64,192,99281,1,0,0:0:0:0:
192,192,99368,1,0,0:0:0:0:
320,192,99455,1,4,0:3:0:0:
448,192,99455,1,0,0:0:0:0:
64,192,99628,1,8,0:0:0:0:
192,192,99628,1,0,0:0:0:0:
448,192,99628,1,0,0:0:0:0:
64,192,99801,128,8,99975:0:3:0:0:
320,192,99801,1,0,0:0:0:0:
320,192,99975,128,4,100062:0:3:0:0:
448,192,99975,128,2,100062:0:0:0:0:
192,192,100148,1,0,0:0:0:0:
64,192,100322,1,2,0:0:0:0:
320,192,100322,128,8,100408:0:0:0:0:
448,192,100322,1,0,0:0:0:0:
192,192,100495,1,2,0:0:0:0:
320,192,100495,128,0,100582:0:0:0:0:
448,192,100582,1,0,0:0:0:0:
64,192,100669,1,0,0:0:0:0:
192,192,100755,1,0,0:0:0:0:
320,192,100842,1,4,0:3:0:0:
448,192,100842,1,0,0:0:0:0:
64,192,101015,1,8,0:0:0:0:
192,192,101015,1,2,0:0:0:0:
448,192,101015,1,0,0:0:0:0:
320,192,101189,1,0,0:0:0:0:
192,192,101362,128,6,101622:0:0:0:0:
320,192,101362,128,4,101449:0:3:0:0:
320,192,101536,1,0,0:0:0:0:
64,192,101709,1,8,0:0:0:0:
192,192,101709,1,2,0:0:0:0:
448,192,101709,1,0,0:0:0:0:
320,192,101882,128,2,101969:0:0:0:0:
448,192,101882,128,0,101969:0:0:0:0:
64,192,101969,1,0,0:0:0:0:
192,192,102056,1,0,0:0:0:0:
320,192,102143,1,0,0:0:0:0:
64,192,102229,1,4,0:3:0:0:
192,192,102229,1,0,0:0:0:0:
64,192,102403,1,8,0:0:0:0:
320,192,102403,1,0,0:0:0:0:
448,192,102403,1,0,0:0:0:0:
192,192,102576,128,8,102749:0:3:0:0:
448,192,102576,1,0,0:0:0:0:
320,192,102749,128,2,102836:0:0:0:0:
448,192,102749,128,4,103010:0:3:0:0:
320,192,102923,1,0,0:0:0:0:
64,192,103096,1,8,0:0:0:0:
192,192,103096,1,2,0:0:0:0:
448,192,103096,1,0,0:0:0:0:
192,192,103270,128,2,103356:0:0:0:0:
320,192,103270,128,0,103356:0:0:0:0:
448,192,103356,1,0,0:0:0:0:
64,192,103443,1,0,0:0:0:0:
192,192,103530,1,0,0:0:0:0:
320,192,103617,1,4,0:3:0:0:
448,192,103617,1,0,0:0:0:0:
64,192,103790,1,8,0:0:0:0:
192,192,103790,1,8,0:3:0:0:
448,192,103790,1,0,0:0:0:0:
320,192,103963,1,0,0:0:0:0:
64,192,104137,128,2,104223:0:0:0:0:
192,192,104137,128,4,104397:0:3:0:0:
64,192,104310,1,2,0:0:0:0:
192,192,104484,1,8,0:0:0:0:
320,192,104484,1,2,0:0:0:0:
448,192,104484,1,0,0:0:0:0:
64,192,104657,128,2,104744:0:0:0:0:
192,192,104657,128,0,104744:0:0:0:0:
320,192,104744,1,0,0:0:0:0:
64,192,104830,1,0,0:0:0:0:
192,192,104917,1,0,0:0:0:0:
320,192,105004,1,4,0:3:0:0:
448,192,105004,1,0,0:0:0:0:
64,192,105177,1,8,0:0:0:0:
192,192,105177,1,0,0:0:0:0:
448,192,105177,1,0,0:0:0:0:
64,192,105351,128,8,105524:0:3:0:0:
320,192,105351,1,0,0:0:0:0:
320,192,105524,128,2,105611:0:0:0:0:
448,192,105524,128,4,105611:0:3:0:0:
192,192,105697,1,0,0:0:0:0:
64,192,105871,1,8,0:0:0:0:
320,192,105871,128,2,105958:0:0:0:0:
448,192,105871,1,0,0:0:0:0:
192,192,106044,1,2,0:0:0:0:
320,192,106044,128,0,106131:0:0:0:0:
64,192,106131,1,0,0:0:0:0:
448,192,106218,1,0,0:0:0:0:
320,192,106304,1,0,0:0:0:0:
64,192,106391,1,4,0:3:0:0:
192,192,106391,1,0,0:0:0:0:
64,192,106564,1,8,0:0:0:0:
320,192,106564,1,2,0:0:0:0:
448,192,106564,1,0,0:0:0:0:
192,192,106738,1,0,0:0:0:0:
320,192,106911,128,4,106998:0:3:0:0:
448,192,106911,128,2,107171:0:0:0:0:
320,192,107085,1,0,0:0:0:0:
64,192,107258,1,8,0:0:0:0:
192,192,107258,1,2,0:0:0:0:
448,192,107258,1,0,0:0:0:0:
320,192,107432,128,2,107518:0:0:0:0:
448,192,107432,128,0,107518:0:0:0:0:
64,192,107518,1,0,0:0:0:0:
192,192,107605,1,0,0:0:0:0:
320,192,107692,1,0,0:0:0:0:
64,192,107778,1,4,0:3:0:0:
192,192,107778,1,0,0:0:0:0:
64,192,107952,1,8,0:0:0:0:
320,192,107952,1,0,0:0:0:0:
448,192,107952,1,0,0:0:0:0:
192,192,108125,1,8,0:3:0:0:
448,192,108125,128,0,108299:0:0:0:0:
192,192,108299,128,4,108385:0:3:0:0:
320,192,108299,128,2,108559:0:0:0:0:
192,192,108472,1,0,0:0:0:0:
64,192,108645,1,2,0:0:0:0:
320,192,108645,1,8,0:0:0:0:
448,192,108645,1,0,0:0:0:0:
192,192,108819,128,2,108906:0:0:0:0:
320,192,108819,128,0,108906:0:0:0:0:
448,192,108906,1,0,0:0:0:0:
64,192,108992,1,0,0:0:0:0:
192,192,109079,1,0,0:0:0:0:
320,192,109166,1,4,0:3:0:0:
448,192,109166,1,0,0:0:0:0:
64,192,109339,1,8,0:0:0:0:
192,192,109339,1,8,0:3:0:0:
448,192,109339,1,0,0:0:0:0:
320,192,109512,1,0,0:0:0:0:
64,192,109686,128,2,109773:0:0:0:0:
192,192,109686,128,4,109946:0:3:0:0:
64,192,109859,1,0,0:0:0:0:
192,192,110033,1,2,0:0:0:0:
320,192,110033,1,8,0:0:0:0:
448,192,110033,1,0,0:0:0:0:
64,192,110206,128,2,110293:0:0:0:0:
192,192,110206,128,0,110293:0:0:0:0:
320,192,110293,1,0,0:0:0:0:
64,192,110380,1,0,0:0:0:0:
192,192,110466,1,0,0:0:0:0:
320,192,110553,1,4,0:3:0:0:
448,192,110553,1,0,0:0:0:0:
64,192,110726,1,8,0:0:0:0:
192,192,110726,1,0,0:0:0:0:
448,192,110726,1,0,0:0:0:0:
64,192,110900,128,8,111073:0:3:0:0:
320,192,110900,1,0,0:0:0:0:
192,192,111073,128,2,111247:0:0:0:0:
320,192,111247,128,2,111420:0:0:0:0:
64,192,111420,1,8,0:0:0:0:
192,192,111420,1,2,0:0:0:0:
448,192,111420,128,0,111593:0:0:0:0:
64,192,111593,128,2,111767:0:0:0:0:
320,192,111680,1,0,0:0:0:0:
192,192,111767,128,2,111940:0:0:0:0:
448,192,111854,1,0,0:0:0:0:
320,192,111940,128,2,112114:0:0:0:0:
64,192,112114,1,8,0:0:0:0:
192,192,112114,1,2,0:0:0:0:
448,192,112114,128,0,112287:0:0:0:0:
192,192,112287,128,2,112460:0:0:0:0:
64,192,112460,1,4,0:3:0:0:
320,192,112460,1,2,0:0:0:0:
448,192,112460,128,4,112721:0:0:0:0:
192,192,112634,1,0,0:0:0:0:
64,192,112807,128,2,112894:0:0:0:0:
320,192,112807,1,8,0:0:0:0:
448,192,112807,1,0,0:0:0:0:
192,192,112981,1,2,0:0:0:0:
448,192,112981,128,0,113327:0:0:0:0:
320,192,113067,1,0,0:0:0:0:
192,192,113154,1,0,0:0:0:0:
320,192,113241,1,0,0:0:0:0:
64,192,113327,1,4,0:3:0:0:
192,192,113327,1,0,0:0:0:0:
64,192,113501,128,8,113674:0:0:0:0:
320,192,113501,1,2,0:0:0:0:
448,192,113501,1,0,0:0:0:0:
192,192,113674,1,8,0:3:0:0:
320,192,113674,1,0,0:0:0:0:
64,192,113848,1,2,0:0:0:0:
192,192,113848,128,4,114108:0:3:0:0:
320,192,114021,1,0,0:0:0:0:
64,192,114195,128,8,114281:0:0:0:0:
192,192,114195,1,2,0:0:0:0:
448,192,114195,1,0,0:0:0:0:
320,192,114368,1,2,0:0:0:0:
448,192,114368,128,0,114541:0:0:0:0:
192,192,114455,1,0,0:0:0:0:
320,192,114541,1,0,0:0:0:0:
192,192,114628,1,0,0:0:0:0:
320,192,114671,128,0,114758:0:0:0:0:
64,192,114715,1,4,0:3:0:0:
448,192,114715,128,2,114801:0:0:0:0:
64,192,114888,1,8,0:0:0:0:
448,192,114888,1,0,0:0:0:0:
192,192,114975,128,2,115062:0:0:0:0:
320,192,114975,128,0,115062:0:0:0:0:
64,192,115235,128,2,115495:0:0:0:0:
192,192,115235,128,4,115322:0:3:0:0:
192,192,115408,1,0,0:0:0:0:
64,192,115582,1,8,0:0:0:0:
320,192,115582,1,0,0:0:0:0:
448,192,115582,1,0,0:0:0:0:
192,192,115755,1,2,0:0:0:0:
448,192,115755,128,0,116102:0:0:0:0:
64,192,115842,1,0,0:0:0:0:
320,192,115929,1,0,0:0:0:0:
64,192,116015,1,0,0:0:0:0:
192,192,116102,1,4,0:3:0:0:
320,192,116102,1,0,0:0:0:0:
64,192,116275,1,8,0:0:0:0:
192,192,116275,1,0,0:0:0:0:
448,192,116275,1,0,0:0:0:0:
320,192,116449,1,2,0:0:0:0:
448,192,116449,128,8,116622:0:3:0:0:
192,192,116622,128,2,116709:0:0:0:0:
320,192,116622,1,4,0:3:0:0:
64,192,116796,128,2,116882:0:0:0:0:
192,192,116796,1,0,0:0:0:0:
64,192,116969,1,8,0:0:0:0:
320,192,116969,1,2,0:0:0:0:
448,192,116969,128,0,117056:0:0:0:0:
192,192,117143,1,2,0:0:0:0:
320,192,117143,128,0,117229:0:0:0:0:
64,192,117229,1,0,0:0:0:0:
448,192,117316,1,2,0:0:0:0:
192,192,117316,128,0,117403:0:0:0:0:
320,192,117403,1,0,0:0:0:0:
64,192,117489,128,2,117576:0:0:0:0:
192,192,117489,1,4,0:3:0:0:
64,192,117663,1,2,0:0:0:0:
448,192,117663,1,8,0:0:0:0:
320,192,117663,128,0,117749:0:0:0:0:
320,192,117836,1,2,0:0:0:0:
192,192,117836,128,0,117923:0:0:0:0:
192,192,118010,1,2,0:0:0:0:
64,192,118010,128,4,118270:0:3:0:0:
320,192,118183,1,0,0:0:0:0:
64,192,118356,1,8,0:0:0:0:
192,192,118356,1,2,0:0:0:0:
448,192,118356,128,0,118443:0:0:0:0:
64,192,118530,128,2,118877:0:0:0:0:
320,192,118530,1,0,0:0:0:0:
192,192,118617,1,0,0:0:0:0:
320,192,118703,1,0,0:0:0:0:
192,192,118790,1,0,0:0:0:0:
320,192,118877,1,4,0:3:0:0:
448,192,118877,1,0,0:0:0:0:
64,192,119050,1,2,0:0:0:0:
192,192,119050,1,8,0:0:0:0:
448,192,119050,128,0,119223:0:0:0:0:
192,192,119223,1,8,0:3:0:0:
320,192,119223,1,0,0:0:0:0:
64,192,119397,128,2,119657:0:0:0:0:
448,192,119397,1,4,0:3:0:0:
192,192,119570,1,0,0:0:0:0:
64,192,119744,1,8,0:0:0:0:
320,192,119744,128,2,119830:0:0:0:0:
448,192,119744,1,0,0:0:0:0:
192,192,119917,1,2,0:0:0:0:
448,192,119917,128,0,120091:0:0:0:0:
320,192,120004,1,0,0:0:0:0:
192,192,120091,1,0,0:0:0:0:
320,192,120177,1,0,0:0:0:0:
64,192,120221,128,0,120307:0:0:0:0:
192,192,120264,128,4,120351:0:3:0:0:
448,192,120264,1,2,0:0:0:0:
64,192,120437,1,8,0:0:0:0:
448,192,120437,1,0,0:0:0:0:
192,192,120524,128,2,120611:0:0:0:0:
320,192,120524,128,0,120611:0:0:0:0:
64,192,120784,128,2,120871:0:0:0:0:
448,192,120784,128,4,121044:0:3:0:0:
192,192,120958,1,0,0:0:0:0:
64,192,121131,1,8,0:0:0:0:
320,192,121131,1,0,0:0:0:0:
448,192,121131,1,0,0:0:0:0:
64,192,121304,128,2,121651:0:0:0:0:
192,192,121304,1,0,0:0:0:0:
320,192,121391,1,0,0:0:0:0:
192,192,121478,1,0,0:0:0:0:
320,192,121564,1,0,0:0:0:0:
192,192,121651,1,4,0:3:0:0:
448,192,121651,1,0,0:0:0:0:
64,192,121825,1,8,0:0:0:0:
320,192,121825,1,0,0:0:0:0:
448,192,121825,1,0,0:0:0:0:
64,192,121998,128,2,122171:0:0:0:0:
192,192,121998,1,8,0:3:0:0:
192,192,122171,128,2,122258:0:0:0:0:
448,192,122171,1,4,0:3:0:0:
192,192,122345,1,2,0:0:0:0:
320,192,122345,128,0,122432:0:0:0:0:
64,192,122518,1,2,0:0:0:0:
320,192,122518,1,8,0:0:0:0:
448,192,122518,128,0,122605:0:0:0:0:
64,192,122692,128,2,122778:0:0:0:0:
192,192,122692,1,0,0:0:0:0:
320,192,122778,1,0,0:0:0:0:
192,192,122865,128,2,122952:0:0:0:0:
448,192,122865,1,0,0:0:0:0:
64,192,122952,1,0,0:0:0:0:
320,192,123038,128,2,123125:0:0:0:0:
448,192,123038,1,4,0:3:0:0:
64,192,123212,1,2,0:0:0:0:
192,192,123212,1,8,0:0:0:0:
448,192,123212,128,0,123299:0:0:0:0:
64,192,123385,128,2,123472:0:0:0:0:
320,192,123385,1,0,0:0:0:0:
64,192,123559,1,2,0:0:0:0:
192,192,123559,1,0,0:0:0:0:
448,192,123559,128,0,123819:0:0:0:0:
320,192,123819,128,0,123906:0:0:0:0:
64,192,123906,128,4,123992:0:0:0:0:
192,192,123906,1,4,0:3:0:0:
448,192,123906,1,2,0:0:0:0:
320,192,124079,1,2,0:0:0:0:
448,192,124079,128,0,124426:0:0:0:0:
192,192,124166,1,0,0:0:0:0:
320,192,124252,1,0,0:0:0:0:
192,192,124339,1,0,0:0:0:0:
64,192,124426,1,4,0:3:0:0:
320,192,124426,1,0,0:0:0:0:
64,192,124599,128,8,124773:0:0:0:0:
192,192,124599,1,2,0:0:0:0:
448,192,124599,1,0,0:0:0:0:
320,192,124773,1,8,0:3:0:0:
448,192,124773,1,0,0:0:0:0:
64,192,124946,1,2,0:0:0:0:
320,192,124946,128,4,125119:0:3:0:0:
192,192,125119,1,0,0:0:0:0:
64,192,125293,1,8,0:0:0:0:
192,192,125293,128,2,125380:0:0:0:0:
448,192,125293,1,0,0:0:0:0:
320,192,125466,1,2,0:0:0:0:
448,192,125466,128,0,125640:0:0:0:0:
192,192,125553,1,0,0:0:0:0:
320,192,125640,1,0,0:0:0:0:
192,192,125726,1,0,0:0:0:0:
320,192,125770,128,0,125856:0:0:0:0:
64,192,125813,1,4,0:3:0:0:
448,192,125813,128,2,125900:0:0:0:0:
64,192,125986,1,8,0:0:0:0:
448,192,125986,1,0,0:0:0:0:
192,192,126073,128,2,126160:0:0:0:0:
320,192,126073,128,0,126160:0:0:0:0:
64,192,126333,128,2,126593:0:0:0:0:
192,192,126333,128,4,126420:0:3:0:0:
192,192,126507,1,0,0:0:0:0:
64,192,126680,1,8,0:0:0:0:
320,192,126680,1,0,0:0:0:0:
448,192,126680,1,0,0:0:0:0:
192,192,126854,1,2,0:0:0:0:
448,192,126854,128,0,127200:0:0:0:0:
320,192,126940,1,0,0:0:0:0:
192,192,127027,1,0,0:0:0:0:
320,192,127114,1,0,0:0:0:0:
64,192,127200,1,4,0:3:0:0:
192,192,127200,1,0,0:0:0:0:
64,192,127374,1,8,0:0:0:0:
320,192,127374,1,0,0:0:0:0:
448,192,127374,1,0,0:0:0:0:
192,192,127547,1,2,0:0:0:0:
448,192,127547,128,8,127721:0:3:0:0:
192,192,127721,128,2,127807:0:0:0:0:
320,192,127721,1,4,0:3:0:0:
64,192,127894,128,2,127981:0:0:0:0:
192,192,127894,1,0,0:0:0:0:
64,192,128067,1,8,0:0:0:0:
320,192,128067,1,2,0:0:0:0:
448,192,128067,128,0,128154:0:0:0:0:
192,192,128241,1,2,0:0:0:0:
320,192,128241,128,0,128327:0:0:0:0:
448,192,128327,1,0,0:0:0:0:
64,192,128414,1,2,0:0:0:0:
192,192,128414,128,0,128501:0:0:0:0:
448,192,128501,1,0,0:0:0:0:
64,192,128588,128,4,128674:0:3:0:0:
320,192,128588,1,2,0:0:0:0:
64,192,128761,1,8,0:0:0:0:
192,192,128761,128,2,128848:0:0:0:0:
448,192,128761,1,0,0:0:0:0:
192,192,128934,1,2,0:0:0:0:
320,192,128934,128,0,129021:0:0:0:0:
320,192,129108,1,4,0:3:0:0:
448,192,129108,128,2,129368:0:0:0:0:
64,192,129368,1,2,0:0:0:0:
192,192,129368,128,0,129455:0:0:0:0:
320,192,129455,1,8,0:0:0:0:
448,192,129455,1,4,0:3:0:0:
192,192,129628,1,2,0:0:0:0:
320,192,129628,128,0,129715:0:0:0:0:
64,192,129715,1,0,0:0:0:0:
320,192,129801,1,2,0:0:0:0:
448,192,129801,128,4,129888:0:3:0:0:
192,192,129888,1,0,0:0:0:0:
64,192,129975,1,0,0:0:0:0:
64,192,130148,1,8,0:0:0:0:
192,192,130148,1,4,0:3:0:0:
448,192,130148,1,0,0:0:0:0:
192,192,130322,128,8,130495:0:3:0:0:
320,192,130322,1,2,0:0:0:0:
64,192,130495,128,4,130755:0:3:0:0:
448,192,130495,1,2,0:0:0:0:
320,192,130755,1,2,0:0:0:0:
448,192,130755,128,0,130842:0:0:0:0:
64,192,130842,1,8,0:0:0:0:
192,192,130842,1,4,0:3:0:0:
192,192,131015,1,2,0:0:0:0:
320,192,131015,128,0,131102:0:0:0:0:
448,192,131102,1,0,0:0:0:0:
64,192,131189,1,2,0:0:0:0:
192,192,131189,128,4,131275:0:3:0:0:
320,192,131275,1,0,0:0:0:0:
448,192,131362,1,0,0:0:0:0:
64,192,131536,1,8,0:0:0:0:
192,192,131536,1,4,0:3:0:0:
448,192,131536,1,0,0:0:0:0:
192,192,131709,1,2,0:0:0:0:
320,192,131709,128,0,131796:0:0:0:0:
320,192,131882,1,2,0:0:0:0:
448,192,131882,1,4,0:3:0:0:
320,192,132056,1,4,0:3:0:0:
448,192,132056,1,0,0:0:0:0:
64,192,132229,1,8,0:0:0:0:
320,192,132229,1,4,0:3:0:0:
448,192,132229,1,0,0:0:0:0:
320,192,132403,1,2,0:0:0:0:
448,192,132403,1,4,0:3:0:0:
64,192,132576,1,2,0:0:0:0:
192,192,132576,1,4,0:3:0:0:
64,192,132749,1,4,0:3:0:0:
192,192,132749,1,0,0:0:0:0:
64,192,132923,1,8,0:0:0:0:
192,192,132923,1,2,0:0:0:0:
448,192,132923,1,4,0:3:0:0:
64,192,133096,1,8,0:3:0:0:
192,192,133096,1,4,0:3:0:0:
64,192,133270,1,2,0:0:0:0:
448,192,133270,1,4,0:3:0:0:
192,192,133385,1,4,0:3:0:0:
448,192,133385,1,0,0:0:0:0:
64,192,133501,1,4,0:3:0:0:
192,192,133501,1,0,0:0:0:0:
320,192,133617,1,10,0:0:0:0:
448,192,133617,1,4,0:3:0:0:
64,192,133732,1,4,0:3:0:0:
320,192,133732,1,0,0:0:0:0:
64,192,133848,1,4,0:3:0:0:
192,192,133848,1,0,0:0:0:0:
320,192,133963,128,2,134050:0:0:0:0:
448,192,133963,1,4,0:3:0:0:
192,192,134137,128,2,134223:0:0:0:0:
64,192,134310,1,8,0:0:0:0:
192,192,134310,1,2,0:0:0:0:
448,192,134310,1,0,0:0:0:0:
320,192,134484,1,2,0:0:0:0:
448,192,134484,1,4,0:3:0:0:
64,192,134657,1,4,0:0:0:0:
192,192,134657,1,2,0:0:0:0:
320,192,134657,1,8,0:0:0:0:
448,192,134657,1,0,0:0:0:75:drum-hitfinish.wav
