osu file format v14

[General]
AudioFilename: 03. Sudden Romance.mp3
AudioLeadIn: 0
PreviewTime: 75760
Countdown: 1
SampleSet: Soft
StackLeniency: 0.7
Mode: 0
LetterboxInBreaks: 0
WidescreenStoryboard: 0

[Editor]
Bookmarks: 25629,98522,101417,126682,177209,202472,227730
DistanceSpacing: 2.9
BeatDivisor: 3
GridSize: 8
TimelineZoom: 2

[Metadata]
Title:Sudden Romance
TitleUnicode:Sudden Romance
Artist:void
ArtistUnicode:void
Creator:rustbell
Version:Intelligence
Source:
Tags:Artifiction AD:PIANO2 electronic instrumental
BeatmapID:880496
BeatmapSetID:405011

[Difficulty]
HPDrainRate:6
CircleSize:5
OverallDifficulty:8
ApproachRate:9.4
SliderMultiplier:1.5
SliderTickRate:1

[Events]
//Background and Video events
0,0,"ewrt.jpg",0,0
//Break Periods
2,130038,151402
//Storyboard Layer 0 (Background)
//Storyboard Layer 1 (Fail)
//Storyboard Layer 2 (Pass)
//Storyboard Layer 3 (Foreground)
//Storyboard Layer 4 (Overlay)
//Storyboard Sound Samples

[TimingPoints]
367,394.729051400301,4,2,0,80,1,0
19313,-100,4,1,0,80,0,0
74576,-200,4,1,0,80,0,0
76154,-100,4,1,0,80,0,0
88786,-100,4,1,0,80,0,1
101549,-100,4,2,0,80,0,0
120364,-100,4,1,0,10,0,0
120759,-100,4,1,0,20,0,0
121154,-100,4,1,0,30,0,0
121548,-100,4,1,0,40,0,0
121943,-100,4,1,0,50,0,0
122338,-100,4,1,0,60,0,0
122732,-100,4,1,0,70,0,0
123127,-100,4,1,0,80,0,0
126811,-100,4,2,0,5,0,0
151548,-100,4,2,0,80,0,0
177205,-100,4,1,0,80,0,0
227730,-100,4,1,0,80,0,1
252993,-100,4,1,0,80,0,0
271940,-100,4,1,0,10,0,0
272335,-100,4,1,0,20,0,0
272730,-100,4,1,0,30,0,0
273124,-100,4,1,0,40,0,0
273519,-100,4,1,0,50,0,0
273914,-100,4,1,0,60,0,0
274308,-100,4,1,0,70,0,0
274703,-100,4,1,0,80,0,0

[HitObjects]
336,304,367,5,4,0:0:0:0:
302,301,498,1,0,0:0:0:0:
269,298,630,1,0,0:0:0:0:
236,296,761,1,0,0:0:0:0:
120,112,1156,6,0,B|96:168|96:168|112:256,1,150,2|0,0:0|0:0,0:0:0:0:
128,328,1682,1,2,0:0:0:0:
128,328,1814,1,0,0:0:0:0:
224,296,1945,5,2,0:0:0:0:
257,293,2076,1,0,0:0:0:0:
290,290,2208,1,0,0:0:0:0:
323,288,2340,2,0,B|400:304|392:320|360:376,1,100,2|0,0:0|0:0,0:0:0:0:
288,216,2735,2,0,L|304:104,1,100,2|0,0:0|0:0,0:0:0:0:
184,160,3130,1,2,0:0:0:0:
192,192,3261,1,0,0:0:0:0:
128,112,3393,1,0,0:0:0:0:
120,80,3524,6,0,L|104:24,3,50,2|0|0|0,0:0|0:0|0:0|0:0,0:0:0:0:
32,232,4314,2,0,L|136:224,1,100,2|0,0:0|0:0,0:0:0:0:
192,264,4709,1,0,0:0:0:0:
232,64,4972,1,2,0:0:0:0:
256,128,5103,6,0,L|312:120,2,50
368,80,5498,1,2,0:0:0:0:
256,320,5893,1,2,0:0:0:0:
144,80,6287,1,2,0:0:0:0:
480,208,6682,5,2,0:0:0:0:
448,200,6814,1,0,0:0:0:0:
416,192,6945,1,0,0:0:0:0:
384,184,7077,1,0,0:0:0:0:
112,312,7472,2,0,L|224:296,1,100,2|0,0:0|0:0,0:0:0:0:
280,312,7866,1,0,0:0:0:0:
288,240,7998,1,2,0:0:0:0:
296,264,8130,1,0,0:0:0:0:
304,176,8261,5,2,0:0:0:0:
299,208,8392,1,0,0:0:0:0:
294,241,8524,1,0,0:0:0:0:
289,274,8656,2,0,L|184:256,1,100,2|0,0:0|0:0,0:0:0:0:
0,176,9051,2,0,L|105:157,1,100,2|0,0:0|0:0,0:0:0:0:
256,80,9445,1,2,0:0:0:0:
248,112,9577,1,0,0:0:0:0:
240,144,9708,1,0,0:0:0:0:
200,120,9840,5,2,0:0:0:0:
232,114,9971,1,0,0:0:0:0:
265,109,10103,1,0,0:0:0:0:
298,104,10234,1,0,0:0:0:0:
504,272,10629,1,0,0:0:0:0:
360,256,10893,1,2,0:0:0:0:
424,384,11156,1,0,0:0:0:0:
112,352,11419,5,2,0:0:0:0:
145,347,11550,1,0,0:0:0:0:
178,342,11682,1,0,0:0:0:0:
211,336,11813,1,0,0:0:0:0:
232,104,12208,5,2,0:0:0:0:
272,160,12340,1,0,0:0:0:0:
256,224,12472,1,0,0:0:0:0:
104,224,12603,1,2,0:0:0:0:
136,216,12735,1,0,0:0:0:0:
168,208,12866,1,0,0:0:0:0:
368,144,12998,6,0,L|384:40,1,100,0|0,1:0|0:0,0:0:0:0:
408,208,13393,1,0,1:0:0:0:
144,144,13787,2,0,L|128:40,1,100,0|0,1:0|0:0,0:0:0:0:
104,208,14182,1,0,1:0:0:0:
488,264,14577,6,0,P|440:248|384:256,1,100,0|0,1:0|0:0,0:0:0:0:
336,352,14971,2,0,L|232:368,1,100,0|0,1:0|0:0,0:0:0:0:
0,296,15366,2,0,L|104:312,1,100,0|0,1:0|0:0,0:0:0:0:
168,324,15761,1,0,1:0:0:0:
384,232,16156,6,0,P|416:184|424:144,1,100,0|0,1:0|0:0,0:0:0:0:
416,64,16550,1,0,1:0:0:0:
128,152,16945,2,0,P|96:200|88:240,1,100,0|0,1:0|0:0,0:0:0:0:
96,320,17339,1,0,1:0:0:0:
408,216,17735,6,0,B|424:168|424:168|416:112,1,100,0|0,1:0|0:0,0:0:0:0:
352,272,18129,2,0,B|336:320|336:320|344:376,1,100,0|0,1:0|0:0,0:0:0:0:
240,224,18524,2,0,L|128:208,1,100,0|0,1:0|0:0,0:0:0:0:
56,195,18919,1,0,1:0:0:0:
472,128,19313,5,0,0:0:0:0:
456,224,19577,1,0,0:0:0:0:
440,320,19840,1,0,0:0:0:0:
360,224,20103,1,0,0:0:0:0:
344,128,20367,1,0,0:0:0:0:
328,32,20630,1,0,0:0:0:0:
232,136,20892,6,0,L|168:128,2,50
8,192,21287,2,0,L|72:184,2,50
208,264,21682,1,0,0:0:0:0:
200,313,21813,1,0,0:0:0:0:
192,362,21945,1,0,0:0:0:0:
288,184,22077,1,0,0:0:0:0:
295,134,22208,1,0,0:0:0:0:
303,85,22340,1,0,0:0:0:0:
464,208,22471,5,0,0:0:0:0:
450,224,22536,1,0,0:0:0:0:
436,239,22602,1,0,0:0:0:0:
421,253,22668,1,0,0:0:0:0:
404,265,22734,1,0,0:0:0:0:
386,276,22799,1,0,0:0:0:0:
366,282,22865,5,0,0:0:0:0:
345,283,22931,1,0,0:0:0:0:
325,279,22997,1,0,0:0:0:0:
306,272,23063,1,0,0:0:0:0:
288,261,23128,1,0,0:0:0:0:
271,249,23194,1,0,0:0:0:0:
254,236,23260,5,0,0:0:0:0:
238,223,23326,1,0,0:0:0:0:
222,210,23392,1,0,0:0:0:0:
204,199,23457,1,0,0:0:0:0:
186,189,23523,1,0,0:0:0:0:
167,182,23589,1,0,0:0:0:0:
146,178,23655,5,0,0:0:0:0:
125,179,23720,1,0,0:0:0:0:
105,185,23786,1,0,0:0:0:0:
86,193,23852,1,0,0:0:0:0:
68,203,23918,1,0,0:0:0:0:
51,216,23984,1,0,0:0:0:0:
35,229,24050,6,0,L|48:128,1,100,4|0,0:0|0:0,0:0:0:0:
128,256,24445,5,0,0:0:0:0:
112,360,24577,1,0,0:0:0:0:
8,336,24708,1,0,0:0:0:0:
224,280,24840,6,0,L|232:216,1,50
256,56,25103,1,0,0:0:0:0:
272,184,25234,1,0,0:0:0:0:
144,144,25366,1,0,0:0:0:0:
416,112,25498,5,0,0:0:0:0:
416,112,25563,1,0,0:0:0:0:
416,112,25629,2,0,P|456:160|448:248,1,150,4|0,0:0|0:0,0:0:0:0:
104,368,26419,2,0,P|64:320|72:232,1,150
344,48,27208,6,0,B|368:96|368:96|360:144,1,100
344,216,27603,1,0,0:0:0:0:
168,336,27866,1,0,0:0:0:0:
168,336,27998,2,0,B|144:288|144:288|152:240,1,100
168,168,28393,1,0,0:0:0:0:
352,296,28655,5,0,0:0:0:0:
352,296,28787,2,0,L|416:288,2,50
304,248,29182,2,0,P|248:248|208:272,1,100
96,200,29576,2,0,L|32:192,2,50
144,152,29971,2,0,P|200:152|240:176,1,100
344,144,30366,5,0,0:0:0:0:
256,336,30629,1,0,0:0:0:0:
256,336,30761,1,0,0:0:0:0:
168,144,31024,1,0,0:0:0:0:
168,144,31155,1,0,0:0:0:0:
424,304,31419,1,0,0:0:0:0:
424,304,31551,1,0,0:0:0:0:
480,256,31682,1,0,0:0:0:0:
448,192,31814,1,0,0:0:0:0:
360,272,31945,6,0,P|320:304|272:304,1,100
84,256,32340,2,0,L|184:264,1,100
264,168,32734,1,0,0:0:0:0:
200,112,32866,1,0,0:0:0:0:
288,72,32997,1,0,0:0:0:0:
264,168,33129,2,0,L|368:160,1,100
464,152,33524,5,0,0:0:0:0:
424,304,33787,1,0,0:0:0:0:
424,304,33918,1,0,0:0:0:0:
336,56,34182,1,0,0:0:0:0:
336,56,34313,1,0,0:0:0:0:
296,208,34576,1,0,0:0:0:0:
296,208,34708,1,0,0:0:0:0:
53,159,34971,5,0,0:0:0:0:
53,159,35103,2,0,L|152:144,1,100
304,296,35497,1,0,0:0:0:0:
456,208,35761,5,0,0:0:0:0:
456,208,35893,2,0,L|357:192,1,100
205,344,36287,1,0,0:0:0:0:
40,264,36550,5,0,0:0:0:0:
40,264,36682,2,0,L|32:200,2,50
80,328,37076,2,0,L|72:392,2,50
168,192,37471,5,0,0:0:0:0:
248,200,37603,1,0,0:0:0:0:
216,120,37734,1,0,0:0:0:0:
240,296,37866,5,0,0:0:0:0:
368,272,37997,1,0,0:0:0:0:
464,384,38129,1,0,0:0:0:0:
512,224,38260,6,0,L|504:120,1,100,4|0,0:0|0:0,0:0:0:0:
496,48,38655,1,0,0:0:0:0:
0,160,38918,1,0,0:0:0:0:
0,160,39049,2,0,L|8:264,1,100
16,336,39444,1,0,0:0:0:0:
456,232,39839,6,0,L|464:176,2,50
376,320,40234,2,0,L|264:304,1,100
64,272,40629,1,0,0:0:0:0:
152,240,40760,1,0,0:0:0:0:
96,344,40892,1,0,0:0:0:0:
120,168,41024,1,0,0:0:0:0:
424,280,41418,6,0,B|472:232|472:232|480:136,1,150
88,104,42208,2,0,B|40:152|40:152|32:248,1,150
488,352,42997,5,0,0:0:0:0:
416,344,43129,1,0,0:0:0:0:
344,336,43260,1,0,0:0:0:0:
272,328,43392,1,0,0:0:0:0:
24,176,43655,1,0,0:0:0:0:
24,176,43787,1,0,0:0:0:0:
96,168,43919,1,0,0:0:0:0:
168,160,44050,1,0,0:0:0:0:
240,152,44182,1,0,0:0:0:0:
512,256,44576,6,0,L|456:248,2,50
400,288,44971,2,0,L|288:304,1,100
0,240,45366,1,0,0:0:0:0:
64,256,45497,1,0,0:0:0:0:
128,232,45629,1,0,0:0:0:0:
192,256,45760,1,0,0:0:0:0:
328,0,46155,6,0,L|312:104,1,100
80,184,46550,2,0,L|184:168,1,100
320,272,46945,1,0,0:0:0:0:
416,296,47076,1,0,0:0:0:0:
328,368,47208,1,0,0:0:0:0:
408,200,47339,1,0,0:0:0:0:
88,328,47734,5,0,0:0:0:0:
160,320,47866,1,0,0:0:0:0:
192,256,47997,1,0,0:0:0:0:
132,220,48129,1,0,0:0:0:0:
116,252,48260,1,0,0:0:0:0:
80,256,48392,1,0,0:0:0:0:
248,192,48523,5,0,0:0:0:0:
320,208,48655,1,0,0:0:0:0:
392,224,48787,1,0,0:0:0:0:
384,152,48918,2,0,L|280:128,1,100
480,304,49576,5,0,0:0:0:0:
32,304,49971,1,0,0:0:0:0:
480,304,50366,1,0,0:0:0:0:
496,232,50497,1,0,0:0:0:0:
408,320,50629,5,0,0:0:0:0:
390,337,50694,1,0,0:0:0:0:
368,349,50760,1,0,0:0:0:0:
343,354,50826,1,0,0:0:0:0:
319,353,50892,5,4,0:0:0:0:
256,328,51023,1,0,0:0:0:0:
192,344,51155,1,0,0:0:0:0:
80,304,51287,2,0,L|144:312,1,50
48,232,51550,1,0,0:0:0:0:
128,64,51681,5,0,0:0:0:0:
120,136,51813,1,0,0:0:0:0:
112,208,51944,1,0,0:0:0:0:
232,136,52076,1,0,0:0:0:0:
208,152,52208,1,0,0:0:0:0:
184,168,52339,1,0,0:0:0:0:
320,152,52471,6,0,L|312:88,2,50
368,216,52865,1,0,0:0:0:0:
416,144,52997,1,0,0:0:0:0:
424,176,53129,1,0,0:0:0:0:
368,288,53260,5,0,0:0:0:0:
192,232,53392,1,0,0:0:0:0:
80,384,53523,1,0,0:0:0:0:
0,232,53655,1,0,0:0:0:0:
73,235,53786,1,0,0:0:0:0:
120,290,53918,1,0,0:0:0:0:
144,112,54050,6,0,L|140:176,2,50
224,80,54444,1,0,0:0:0:0:
240,104,54576,1,0,0:0:0:0:
256,24,54708,1,0,0:0:0:0:
456,72,54839,5,0,0:0:0:0:
384,88,54971,1,0,0:0:0:0:
312,104,55102,1,0,0:0:0:0:
384,168,55234,1,0,0:0:0:0:
408,176,55365,1,0,0:0:0:0:
432,184,55497,1,0,0:0:0:0:
304,224,55629,5,0,0:0:0:0:
384,280,55760,1,0,0:0:0:0:
344,368,55892,1,0,0:0:0:0:
224,336,56023,1,0,0:0:0:0:
184,208,56155,1,0,0:0:0:0:
152,280,56286,1,0,0:0:0:0:
48,312,56418,6,0,L|40:256,1,50
24,168,56681,1,0,0:0:0:0:
208,24,56813,1,0,0:0:0:0:
184,128,56944,1,0,0:0:0:0:
160,232,57076,1,0,0:0:0:0:
256,192,57207,6,0,L|312:184,2,50
382,94,57602,2,0,L|376:144,1,50
440,40,57865,1,0,0:0:0:0:
416,200,57997,5,0,0:0:0:0:
440,280,58129,1,0,0:0:0:0:
464,360,58260,1,0,0:0:0:0:
368,264,58392,1,0,0:0:0:0:
360,288,58523,1,0,0:0:0:0:
352,312,58655,1,0,0:0:0:0:
160,272,58786,5,0,0:0:0:0:
240,240,58918,1,0,0:0:0:0:
224,320,59050,1,0,0:0:0:0:
96,328,59181,1,0,0:0:0:0:
176,192,59313,1,0,0:0:0:0:
296,368,59444,1,0,0:0:0:0:
424,280,59576,5,0,0:0:0:0:
456,192,59707,1,0,0:0:0:0:
488,104,59839,1,0,0:0:0:0:
368,32,59971,1,0,0:0:0:0:
376,64,60102,1,0,0:0:0:0:
384,96,60234,1,0,0:0:0:0:
264,192,60365,6,0,L|200:184,1,50
136,176,60628,1,0,0:0:0:0:
56,104,60760,1,0,0:0:0:0:
64,128,60892,1,0,0:0:0:0:
104,48,61023,1,0,0:0:0:0:
208,128,61155,5,0,0:0:0:0:
184,232,61286,1,0,0:0:0:0:
160,336,61418,1,0,0:0:0:0:
360,312,61550,1,0,0:0:0:0:
296,320,61681,1,0,0:0:0:0:
232,328,61813,1,0,0:0:0:0:
304,200,61944,6,0,L|312:256,1,50
292,128,62207,1,0,0:0:0:0:
368,168,62339,1,0,0:0:0:0:
456,56,62471,1,0,0:0:0:0:
440,136,62602,1,0,0:0:0:0:
304,104,62734,5,0,0:0:0:0:
192,96,62865,2,0,L|132:92,1,50
32,216,63128,1,0,0:0:0:0:
64,220,63193,1,0,0:0:0:0:
96,231,63259,1,0,0:0:0:0:
125,248,63325,1,0,0:0:0:0:
150,270,63391,1,0,0:0:0:0:
170,296,63456,1,0,0:0:0:0:
184,326,63522,5,4,0:0:0:0:
272,344,63655,1,0,0:0:0:0:
128,368,63786,1,0,0:0:0:0:
336,256,63918,5,0,0:0:0:0:
248,273,64051,1,0,0:0:0:0:
392,297,64182,1,0,0:0:0:0:
464,144,64313,5,0,0:0:0:0:
376,200,64444,1,0,0:0:0:0:
512,264,64576,1,0,0:0:0:0:
280,232,64707,5,0,0:0:0:0:
284,248,64839,1,0,0:0:0:0:
288,264,64970,1,0,0:0:0:0:
200,240,65102,5,0,0:0:0:0:
152,168,65234,1,0,0:0:0:0:
128,304,65365,1,0,0:0:0:0:
232,176,65497,5,0,0:0:0:0:
280,104,65629,1,0,0:0:0:0:
304,240,65760,1,0,0:0:0:0:
176,232,65892,5,0,0:0:0:0:
344,176,66023,1,0,0:0:0:0:
376,0,66155,1,0,0:0:0:0:
296,32,66286,5,0,0:0:0:0:
212,60,66417,1,0,0:0:0:0:
196,148,66549,1,0,0:0:0:0:
280,120,66681,5,0,0:0:0:0:
128,88,66813,1,0,0:0:0:0:
168,240,66944,1,0,0:0:0:0:
296,208,67076,6,0,L|344:188,1,50
448,144,67339,1,0,0:0:0:0:
232,136,67470,5,0,0:0:0:0:
48,168,67602,1,0,0:0:0:0:
168,200,67734,1,0,0:0:0:0:
112,264,67865,5,0,0:0:0:0:
116,288,67996,1,0,0:0:0:0:
120,312,68128,1,0,0:0:0:0:
240,264,68260,5,0,0:0:0:0:
208,336,68391,1,0,0:0:0:0:
200,184,68523,1,0,0:0:0:0:
320,272,68655,5,0,0:0:0:0:
448,216,68786,1,0,0:0:0:0:
432,360,68918,1,0,0:0:0:0:
400,288,69049,5,0,0:0:0:0:
272,256,69181,1,0,0:0:0:0:
144,224,69313,1,0,0:0:0:0:
264,128,69444,5,0,0:0:0:0:
62,184,69576,1,0,0:0:0:0:
201,341,69707,1,0,0:0:0:0:
328,272,69839,6,0,L|336:216,1,50
344,144,70102,1,0,0:0:0:0:
264,216,70234,5,0,0:0:0:0:
200,80,70365,1,0,0:0:0:0:
192,160,70497,1,0,0:0:0:0:
304,16,70628,5,0,0:0:0:0:
296,128,70760,1,0,0:0:0:0:
288,240,70891,1,0,0:0:0:0:
376,112,71023,5,0,0:0:0:0:
372,151,71155,1,0,0:0:0:0:
370,191,71286,1,0,0:0:0:0:
240,224,71418,5,0,0:0:0:0:
120,192,71549,1,0,0:0:0:0:
168,232,71681,1,0,0:0:0:0:
208,352,71812,5,0,0:0:0:0:
320,224,71944,1,0,0:0:0:0:
328,336,72076,1,0,0:0:0:0:
224,184,72207,5,0,0:0:0:0:
72,248,72339,1,0,0:0:0:0:
96,88,72470,1,0,0:0:0:0:
322,180,72602,5,0,0:0:0:0:
403,119,72734,1,0,0:0:0:0:
418,220,72865,1,0,0:0:0:0:
248,192,72997,6,0,L|184:184,1,50
88,172,73260,1,0,0:0:0:0:
256,76,73391,5,0,0:0:0:0:
193,110,73522,1,0,0:0:0:0:
96,48,73654,1,0,0:0:0:0:
336,24,73786,5,0,0:0:0:0:
448,136,73918,1,0,0:0:0:0:
376,272,74049,1,0,0:0:0:0:
152,352,74181,5,0,0:0:0:0:
80,280,74313,1,0,0:0:0:0:
126,194,74444,1,0,0:0:0:0:
224,200,74576,6,0,L|256:24,1,150
384,296,75760,5,0,2:0:0:0:
456,208,75891,1,2,2:0:0:0:
448,272,76023,1,0,2:0:0:0:
152,232,76154,5,4,0:0:0:0:
152,232,76418,1,0,0:0:0:0:
152,232,76549,1,0,0:0:0:0:
56,312,76681,2,0,P|72:296|80:264,1,50
104,120,76944,6,0,L|88:16,1,100
280,56,77339,1,0,0:0:0:0:
356,64,77470,1,0,0:0:0:0:
420,104,77602,1,0,0:0:0:0:
496,96,77733,6,0,P|440:88|392:104,1,100
304,112,78128,2,0,L|192:104,1,100
128,120,78523,1,0,0:0:0:0:
221,95,78654,1,0,0:0:0:0:
193,179,78786,1,0,0:0:0:0:
164,263,78918,1,0,0:0:0:0:
400,336,79181,5,0,0:0:0:0:
440,280,79312,2,0,L|448:224,1,50
456,160,79575,1,0,0:0:0:0:
360,240,79707,2,0,L|358:183,1,50
354,119,79970,1,0,0:0:0:0:
272,216,80102,5,0,0:0:0:0:
264,128,80233,1,0,0:0:0:0:
256,40,80365,1,0,0:0:0:0:
104,8,80496,1,0,0:0:0:0:
140,107,80628,1,0,0:0:0:0:
176,207,80760,1,0,0:0:0:0:
48,192,80891,5,0,0:0:0:0:
208,96,81023,1,0,0:0:0:0:
184,168,81154,1,0,0:0:0:0:
120,240,81286,5,0,0:0:0:0:
303,204,81418,1,0,0:0:0:0:
256,263,81549,1,0,0:0:0:0:
56,296,81681,5,0,0:0:0:0:
240,324,81813,1,0,0:0:0:0:
184,264,81944,1,0,0:0:0:0:
336,264,82075,5,0,0:0:0:0:
392,208,82207,1,0,0:0:0:0:
368,376,82339,1,0,0:0:0:0:
472,344,82470,5,0,0:0:0:0:
480,264,82602,1,0,0:0:0:0:
488,184,82733,1,0,0:0:0:0:
360,72,82865,2,0,P|339:117|338:166,1,100
392,328,83260,5,0,0:0:0:0:
400,248,83392,1,0,0:0:0:0:
408,168,83523,1,0,0:0:0:0:
216,16,83655,2,0,L|224:120,1,100
232,216,84049,5,0,0:0:0:0:
96,184,84312,2,0,L|80:128,1,50
152,48,84575,1,0,0:0:0:0:
352,288,84839,1,0,0:0:0:0:
360,48,85102,1,0,0:0:0:0:
160,288,85366,1,0,0:0:0:0:
464,216,85628,5,0,0:0:0:0:
448,296,85760,1,0,0:0:0:0:
464,216,85891,1,0,0:0:0:0:
384,88,86023,1,0,0:0:0:0:
400,160,86154,1,0,0:0:0:0:
336,320,86286,1,0,0:0:0:0:
352,240,86417,2,0,P|304:256|248:256,1,100
56,216,86812,5,0,0:0:0:0:
128,256,86944,1,0,0:0:0:0:
112,336,87075,1,0,0:0:0:0:
112,160,87207,6,0,L|120:96,2,50
192,144,87602,1,0,0:0:0:0:
224,80,87733,1,0,0:0:0:0:
217,55,87791,1,0,0:0:0:0:
211,31,87857,1,0,0:0:0:0:
295,83,87996,5,0,0:0:0:0:
299,107,88062,1,0,0:0:0:0:
308,130,88128,1,0,0:0:0:0:
323,150,88194,1,0,0:0:0:0:
341,167,88260,1,0,0:0:0:0:
363,179,88325,1,0,0:0:0:0:
387,186,88391,5,0,0:0:0:0:
464,96,88523,1,0,0:0:0:0:
432,320,88654,1,0,0:0:0:0:
208,256,88786,1,4,0:0:0:0:
208,256,89049,5,0,0:0:0:0:
208,256,89181,1,0,0:0:0:0:
72,328,89312,1,0,0:0:0:0:
144,304,89444,1,0,0:0:0:0:
24,264,89575,2,0,P|5:217|5:168,1,100
96,32,89970,1,0,0:0:0:0:
123,101,90101,1,0,0:0:0:0:
123,175,90233,1,0,0:0:0:0:
192,152,90365,6,0,L|304:144,1,100
216,296,90759,2,0,L|328:288,1,100
440,216,91154,1,0,0:0:0:0:
352,240,91286,1,0,0:0:0:0:
456,224,91417,1,0,0:0:0:0:
416,64,91549,1,0,0:0:0:0:
400,384,91812,1,0,0:0:0:0:
312,344,91944,5,0,0:0:0:0:
296,264,92075,1,0,0:0:0:0:
280,184,92207,1,0,0:0:0:0:
224,288,92338,5,0,0:0:0:0:
194,211,92469,1,0,0:0:0:0:
164,135,92601,1,0,0:0:0:0:
128,256,92733,5,0,0:0:0:0:
40,176,92865,1,0,0:0:0:0:
80,48,92996,1,0,0:0:0:0:
200,240,93128,1,0,0:0:0:0:
192,288,93259,1,0,0:0:0:0:
184,336,93391,1,0,0:0:0:0:
272,200,93523,5,0,0:0:0:0:
360,56,93654,1,0,0:0:0:0:
392,152,93786,1,0,0:0:0:0:
232,272,93917,5,0,0:0:0:0:
144,128,94048,1,0,0:0:0:0:
112,224,94180,1,0,0:0:0:0:
304,328,94312,5,0,0:0:0:0:
432,296,94444,1,0,0:0:0:0:
232,280,94575,1,0,0:0:0:0:
56,248,94707,5,0,0:0:0:0:
152,184,94838,1,0,0:0:0:0:
8,96,94970,1,0,0:0:0:0:
24,336,95101,5,0,0:0:0:0:
488,336,95496,1,0,0:0:0:0:
24,336,95891,1,0,0:0:0:0:
101,307,96022,1,0,0:0:0:0:
147,240,96154,1,0,0:0:0:0:
146,158,96285,1,0,0:0:0:0:
256,376,96680,5,0,0:0:0:0:
432,280,97075,1,0,0:0:0:0:
440,160,97207,1,0,0:0:0:0:
472,344,97338,1,0,0:0:0:0:
480,224,97470,1,0,0:0:0:0:
256,24,97865,1,0,0:0:0:0:
32,192,98128,5,0,0:0:0:0:
88,240,98259,2,0,L|144:248,1,50
216,136,98522,2,0,L|160:144,1,50
216,296,98786,2,0,L|272:288,1,50
480,256,99049,5,0,0:0:0:0:
472,328,99180,1,0,0:0:0:0:
440,144,99312,2,0,L|448:208,1,50
344,136,99575,2,0,L|336:72,1,50
272,208,99838,5,0,0:0:0:0:
160,128,99970,1,0,0:0:0:0:
191,246,100101,5,0,0:0:0:0:
240,89,100233,1,0,0:0:0:0:
105,168,100365,5,0,0:0:0:0:
326,167,100497,1,0,0:0:0:0:
48,264,100628,5,0,0:0:0:0:
80,257,100693,1,0,0:0:0:0:
113,255,100759,1,0,0:0:0:0:
147,259,100825,1,0,0:0:0:0:
178,270,100891,1,0,0:0:0:0:
207,286,100956,1,0,0:0:0:0:
237,302,101022,5,0,0:0:0:0:
267,316,101088,1,0,0:0:0:0:
298,327,101154,1,0,0:0:0:0:
331,333,101220,1,0,0:0:0:0:
364,335,101285,1,0,0:0:0:0:
397,333,101351,1,0,0:0:0:0:
430,328,101417,6,0,L|480:336,1,50,4|0,0:0|0:0,0:0:0:0:
384,376,101680,1,0,0:0:0:0:
392,200,101812,1,2,0:0:0:0:
400,264,101944,1,0,0:0:0:0:
450,224,102075,1,0,0:0:0:0:
328,232,102207,5,0,0:0:0:0:
264,248,102338,1,0,0:0:0:0:
200,264,102470,1,0,0:0:0:0:
168,208,102601,1,2,0:0:0:0:
232,224,102732,1,0,0:0:0:0:
296,240,102864,1,0,0:0:0:0:
344,192,102996,5,0,0:0:0:0:
368,248,103128,1,0,0:0:0:0:
392,304,103259,1,0,0:0:0:0:
416,168,103391,1,2,0:0:0:0:
392,224,103523,1,0,0:0:0:0:
368,280,103654,1,0,0:0:0:0:
304,248,103786,5,0,0:0:0:0:
240,224,103917,1,0,0:0:0:0:
176,200,104049,1,0,0:0:0:0:
232,160,104180,1,2,0:0:0:0:
240,232,104312,1,0,0:0:0:0:
248,304,104443,1,0,0:0:0:0:
312,272,104575,6,0,L|368:280,1,50
428,292,104838,1,0,0:0:0:0:
472,236,104970,1,2,0:0:0:0:
408,256,105101,1,0,0:0:0:0:
400,188,105233,1,0,0:0:0:0:
392,120,105364,6,0,L|384:56,2,50
360,184,105759,2,0,L|352:248,2,50,2|0|0,0:0|0:0|0:0,0:0:0:0:
296,152,106154,5,0,0:0:0:0:
304,224,106285,1,0,0:0:0:0:
224,168,106417,1,0,0:0:0:0:
224,240,106549,1,2,0:0:0:0:
152,144,106680,1,0,0:0:0:0:
136,216,106812,1,0,0:0:0:0:
120,288,106943,6,0,L|80:256,1,50
8,200,107206,1,0,0:0:0:0:
152,48,107338,2,0,L|144:104,1,50,2|0,0:0|0:0,0:0:0:0:
128,176,107601,1,0,0:0:0:0:
184,240,107733,6,0,L|240:232,2,50
336,184,108128,2,0,L|280:176,2,50,2|0|0,0:0|0:0|0:0,0:0:0:0:
136,80,108522,6,0,L|144:136,1,50
152,192,108785,1,0,0:0:0:0:
224,176,108917,2,0,L|216:232,1,50,2|0,0:0|0:0,0:0:0:0:
208,288,109180,1,0,0:0:0:0:
272,272,109312,6,0,L|328:264,1,50
424,216,109575,2,0,L|368:208,1,50,0|2,0:0|0:0,0:0:0:0:
312,104,109838,2,0,L|319:153,1,50
256,184,110101,5,0,0:0:0:0:
184,168,110233,1,0,0:0:0:0:
136,116,110364,1,0,0:0:0:0:
96,184,110496,1,2,0:0:0:0:
104,216,110627,1,0,0:0:0:0:
112,248,110759,1,0,0:0:0:0:
64,296,110891,6,0,L|8:288,2,50
120,336,111285,2,0,L|169:343,2,50,2|0|0,0:0|0:0|0:0,0:0:0:0:
256,240,111680,5,0,0:0:0:0:
248,304,111812,1,0,0:0:0:0:
240,368,111943,1,0,0:0:0:0:
320,288,112075,1,2,0:0:0:0:
316,316,112206,1,0,0:0:0:0:
312,344,112338,1,0,0:0:0:0:
392,320,112470,6,0,L|448:312,1,50
368,232,112733,2,0,L|312:224,1,50,0|2,0:0|0:0,0:0:0:0:
216,184,112996,1,0,0:0:0:0:
232,256,113127,1,0,0:0:0:0:
152,232,113259,5,0,0:0:0:0:
80,224,113391,1,0,0:0:0:0:
8,216,113522,1,0,0:0:0:0:
144,80,113654,1,2,0:0:0:0:
157,90,113719,1,0,0:0:0:0:
167,103,113785,1,0,0:0:0:0:
175,117,113851,1,0,0:0:0:0:
179,134,113917,1,0,0:0:0:0:
179,150,113982,1,0,0:0:0:0:
176,166,114048,5,4,0:0:0:0:
240,160,114180,1,0,0:0:0:0:
304,152,114312,1,0,0:0:0:0:
368,144,114443,1,2,0:0:0:0:
144,232,115627,5,4,0:0:0:0:
208,226,115759,1,0,0:0:0:0:
272,218,115891,1,0,0:0:0:0:
336,210,116022,1,2,0:0:0:0:
152,224,117206,5,4,0:0:0:0:
160,288,117338,1,0,0:0:0:0:
96,264,117469,1,0,0:0:0:0:
88,200,117601,1,2,0:0:0:0:
360,280,118785,5,4,0:0:0:0:
352,344,118917,1,0,0:0:0:0:
416,320,119048,1,0,0:0:0:0:
424,256,119180,1,2,0:0:0:0:
250,176,120364,5,4,0:0:0:0:
245,204,120495,1,0,0:0:0:0:
272,194,120627,1,0,0:0:0:0:
243,176,120759,5,0,0:0:0:0:
249,210,120890,1,0,0:0:0:0:
275,188,121022,1,0,0:0:0:0:
235,179,121154,5,0,0:0:0:0:
255,216,121285,1,0,0:0:0:0:
276,179,121417,1,0,0:0:0:0:
227,186,121548,5,0,0:0:0:0:
265,219,121679,1,0,0:0:0:0:
274,169,121811,1,0,0:0:0:0:
219,198,121943,5,4,0:0:0:0:
280,220,122074,1,0,0:0:0:0:
268,156,122206,1,0,0:0:0:0:
210,218,122338,5,0,0:0:0:0:
301,218,122469,1,0,0:0:0:0:
255,139,122601,1,0,0:0:0:0:
205,252,122733,5,0,0:0:0:0:
333,205,122864,1,0,0:0:0:0:
229,117,122996,1,0,0:0:0:0:
212,310,123127,5,0,0:0:0:0:
380,170,123258,1,0,0:0:0:0:
174,95,123390,1,0,0:0:0:0:
256,368,123522,5,4,0:0:0:0:
400,304,123654,1,0,0:0:0:0:
240,288,123785,1,0,0:0:0:0:
384,224,123917,1,0,0:0:0:0:
224,208,124048,1,0,0:0:0:0:
368,144,124180,1,0,0:0:0:0:
160,240,124311,5,0,0:0:0:0:
16,176,124443,1,0,0:0:0:0:
176,160,124574,1,0,0:0:0:0:
32,96,124706,1,0,0:0:0:0:
192,80,124837,1,0,0:0:0:0:
48,16,124969,1,0,0:0:0:0:
224,152,125101,5,0,0:0:0:0:
215,184,125166,1,0,0:0:0:0:
214,217,125232,1,0,0:0:0:0:
220,250,125298,1,0,0:0:0:0:
234,280,125364,1,0,0:0:0:0:
254,306,125429,1,0,0:0:0:0:
279,328,125495,5,0,0:0:0:0:
309,313,125561,1,0,0:0:0:0:
341,305,125627,1,0,0:0:0:0:
375,305,125693,1,0,0:0:0:0:
407,311,125758,1,0,0:0:0:0:
437,325,125824,1,0,0:0:0:0:
463,346,125890,5,4,0:0:0:0:
441,183,126021,1,4,0:0:0:0:
323,70,126153,1,0,0:0:0:0:
160,53,126284,1,4,0:0:0:0:
80,64,126680,5,4,0:0:0:0:
256,192,126811,12,0,129838,0:0:0:0:
256,288,151942,5,0,0:0:0:0:
304,280,152074,1,0,0:0:0:0:
352,272,152206,1,0,0:0:0:0:
400,264,152337,1,0,0:0:0:0:
184,104,152732,6,0,B|128:128|88:144|168:232,1,150,2|0,0:0|0:0,0:0:0:0:
188,272,153258,1,2,0:0:0:0:
188,272,153389,1,0,0:0:0:0:
240,216,153521,5,2,0:0:0:0:
192,208,153653,1,0,0:0:0:0:
144,200,153785,1,0,0:0:0:0:
96,192,153916,2,0,B|80:296,1,100,2|0,0:0|0:0,0:0:0:0:
56,128,154311,2,0,B|72:24,1,100
184,176,154706,5,2,0:0:0:0:
232,192,154837,1,0,0:0:0:0:
264,152,154969,1,0,0:0:0:0:
296,112,155100,2,0,L|352:104,3,50,2|0|0|0,0:0|0:0|0:0|0:0,0:0:0:0:
456,272,155890,6,0,P|400:272|368:304,1,100,2|0,0:0|0:0,0:0:0:0:
344,368,156284,1,0,0:0:0:0:
136,336,156548,1,2,0:0:0:0:
72,344,156679,2,0,L|16:360,2,50
80,184,157074,6,0,L|96:288,1,100,2|0,0:0|0:0,0:0:0:0:
160,128,157469,2,0,L|176:24,1,100,2|0,0:0|0:0,0:0:0:0:
216,272,157863,2,0,L|200:376,1,100,2|0,0:0|0:0,0:0:0:0:
272,224,158258,5,2,0:0:0:0:
328,258,158389,1,0,0:0:0:0:
394,265,158521,1,0,0:0:0:0:
457,244,158652,1,0,0:0:0:0:
320,104,159048,2,0,L|216:120,1,100,2|0,0:0|0:0,0:0:0:0:
184,176,159442,1,0,0:0:0:0:
336,88,159574,1,2,0:0:0:0:
296,264,159705,1,0,0:0:0:0:
240,224,159837,5,2,0:0:0:0:
183,258,159968,1,0,0:0:0:0:
117,265,160100,1,0,0:0:0:0:
54,244,160231,1,2,0:0:0:0:
256,24,160626,1,2,0:0:0:0:
457,244,161021,1,2,0:0:0:0:
448,312,161153,1,0,0:0:0:0:
440,376,161284,1,0,0:0:0:0:
376,344,161416,6,0,L|320:344,3,50,2|0|0|0,0:0|0:0|0:0|0:0,0:0:0:0:
192,288,162205,1,0,0:0:0:0:
480,224,162469,1,2,0:0:0:0:
32,160,162732,1,0,0:0:0:0:
320,96,162996,1,2,0:0:0:0:
312,160,163126,1,0,0:0:0:0:
304,224,163258,1,0,0:0:0:0:
296,288,163390,1,0,0:0:0:0:
80,216,163784,5,2,0:0:0:0:
40,296,163916,1,0,0:0:0:0:
96,368,164047,1,0,0:0:0:0:
176,324,164179,1,0,0:0:0:0:
143,282,164310,1,0,0:0:0:0:
166,236,164442,1,0,0:0:0:0:
256,304,164574,6,0,L|360:288,1,100,4|0,1:0|0:0,0:0:0:0:
448,272,164969,1,0,1:0:0:0:
64,112,165363,2,0,P|32:160|32:216,1,100,0|0,1:0|0:0,0:0:0:0:
72,336,165758,1,0,1:0:0:0:
144,196,165890,1,0,0:0:0:0:
140,264,166021,1,0,0:0:0:0:
188,312,166153,5,0,1:0:0:0:
252,304,166284,1,0,0:0:0:0:
316,296,166416,1,0,0:0:0:0:
380,288,166547,2,0,L|408:184,1,100,0|0,1:0|0:0,0:0:0:0:
312,24,166942,2,0,L|340:128,1,100,0|0,1:0|0:0,0:0:0:0:
240,176,167337,1,0,1:0:0:0:
280,240,167468,1,0,0:0:0:0:
208,232,167600,1,0,0:0:0:0:
136,224,167732,6,0,L|72:216,2,50,0|0|0,1:0|0:0|0:0,0:0:0:0:
200,256,168126,2,0,L|304:248,1,100,0|0,1:0|0:0,0:0:0:0:
432,240,168521,1,0,1:0:0:0:
40,192,168916,1,0,1:0:0:0:
152,112,169179,1,0,0:0:0:0:
152,112,169311,6,0,L|96:120,2,50,0|0|0,1:0|0:0|0:0,0:0:0:0:
216,152,169705,2,0,L|320:136,1,100,0|0,1:0|0:0,0:0:0:0:
496,80,170100,2,0,L|392:64,1,100,0|0,1:0|0:0,0:0:0:0:
280,232,170495,1,0,1:0:0:0:
32,168,170758,5,0,1:0:0:0:
32,168,170889,1,4,1:0:0:0:
256,376,171284,1,0,1:0:0:0:
480,168,171679,1,0,1:0:0:0:
188,48,172074,5,0,1:0:0:0:
220,112,172205,1,0,0:0:0:0:
292,112,172337,1,0,0:0:0:0:
324,48,172468,1,0,1:0:0:0:
208,288,172863,1,0,1:0:0:0:
64,176,173258,1,0,1:0:0:0:
304,288,173653,5,0,1:0:0:0:
376,272,173784,1,0,0:0:0:0:
456,104,173916,1,0,0:0:0:0:
448,176,174048,1,0,1:0:0:0:
336,360,174442,1,0,1:0:0:0:
224,176,174837,5,0,1:0:0:0:
48,208,175100,2,0,L|64:272,1,50,0|0,0:0|1:0,0:0:0:0:
80,336,175364,1,0,0:0:0:0:
256,80,175626,5,0,1:0:0:0:
321,67,175757,1,0,0:0:0:0:
386,79,175889,1,0,0:0:0:0:
442,114,176020,1,0,1:0:0:0:
256,336,176416,5,0,1:0:0:0:
69,301,176679,1,0,1:0:0:0:
69,301,176810,1,0,1:0:0:0:
112,368,176942,1,0,1:0:0:0:
104,216,177074,1,0,1:0:0:0:
144,288,177205,5,4,0:0:0:0:
272,288,177468,1,0,0:0:0:0:
400,288,177731,1,0,0:0:0:0:
248,216,177995,1,0,0:0:0:0:
168,352,178258,1,0,0:0:0:0:
200,112,178521,1,0,0:0:0:0:
48,288,178784,5,0,0:0:0:0:
176,288,179047,1,0,0:0:0:0:
288,224,179310,1,0,0:0:0:0:
464,48,179573,1,0,0:0:0:0:
432,296,179836,1,0,0:0:0:0:
216,184,180099,1,0,0:0:0:0:
144,288,180363,5,0,0:0:0:0:
272,288,180626,1,0,0:0:0:0:
400,288,180889,1,0,0:0:0:0:
240,216,181152,1,0,0:0:0:0:
328,352,181416,1,0,0:0:0:0:
304,96,181679,1,0,0:0:0:0:
168,288,181942,5,0,0:0:0:0:
296,288,182205,1,0,0:0:0:0:
408,224,182468,1,0,0:0:0:0:
232,96,182731,1,0,0:0:0:0:
312,344,182994,1,0,0:0:0:0:
480,144,183258,1,0,0:0:0:0:
40,232,183521,5,0,0:0:0:0:
168,232,183784,1,0,0:0:0:0:
296,232,184047,1,0,0:0:0:0:
424,232,184310,1,0,0:0:0:0:
472,112,184573,1,0,0:0:0:0:
112,176,184837,5,0,0:0:0:0:
112,176,184902,1,0,0:0:0:0:
112,176,184968,1,0,0:0:0:0:
112,176,185034,1,0,0:0:0:0:
112,176,185100,1,0,0:0:0:0:
240,176,185363,1,0,0:0:0:0:
288,56,185626,1,0,0:0:0:0:
304,328,185889,1,0,0:0:0:0:
352,208,186152,1,0,0:0:0:0:
480,208,186415,1,0,0:0:0:0:
344,112,186679,5,0,0:0:0:0:
368,296,186942,1,0,0:0:0:0:
344,112,187205,1,0,0:0:0:0:
368,296,187468,1,0,0:0:0:0:
248,48,187731,1,0,0:0:0:0:
152,376,187994,1,0,0:0:0:0:
56,232,188258,5,0,0:0:0:0:
256,184,188521,1,0,0:0:0:0:
456,232,188784,1,0,0:0:0:0:
8,288,189047,1,0,0:0:0:0:
256,48,189310,1,0,0:0:0:0:
504,288,189573,1,0,0:0:0:0:
96,160,189836,5,0,0:0:0:0:
256,160,190100,1,0,0:0:0:0:
416,160,190363,1,0,0:0:0:0:
160,128,190626,1,0,0:0:0:0:
256,352,190889,1,0,0:0:0:0:
352,128,191152,1,0,0:0:0:0:
128,256,191415,5,0,0:0:0:0:
384,256,191679,1,0,0:0:0:0:
256,96,191942,1,0,0:0:0:0:
416,64,192205,1,0,0:0:0:0:
96,64,192469,1,0,0:0:0:0:
256,320,192732,1,0,0:0:0:0:
416,224,192994,5,0,0:0:0:0:
256,224,193258,1,0,0:0:0:0:
96,224,193521,1,0,0:0:0:0:
352,128,193784,1,0,0:0:0:0:
256,352,194047,1,0,0:0:0:0:
160,128,194310,1,0,0:0:0:0:
384,256,194573,5,0,0:0:0:0:
128,256,194837,1,0,0:0:0:0:
256,96,195100,1,0,0:0:0:0:
96,64,195363,5,0,0:0:0:0:
256,320,195627,1,0,0:0:0:0:
416,64,195890,1,0,0:0:0:0:
48,192,196152,5,0,0:0:0:0:
176,224,196415,1,0,0:0:0:0:
176,224,196547,1,0,0:0:0:0:
176,224,196678,1,0,0:0:0:0:
304,192,196942,1,0,0:0:0:0:
432,224,197205,2,0,L|448:160,1,50
464,320,197468,5,0,0:0:0:0:
464,320,197534,1,0,0:0:0:0:
464,320,197599,1,0,0:0:0:0:
464,320,197665,1,0,0:0:0:0:
464,320,197731,5,0,0:0:0:0:
400,304,197863,1,0,0:0:0:0:
336,288,197994,1,0,0:0:0:0:
272,320,198126,1,0,0:0:0:0:
208,336,198257,1,0,0:0:0:0:
144,352,198389,1,0,0:0:0:0:
80,320,198520,5,0,0:0:0:0:
64,256,198652,1,0,0:0:0:0:
48,192,198784,1,0,0:0:0:0:
160,96,198915,1,0,0:0:0:0:
144,160,199047,1,0,0:0:0:0:
128,224,199179,1,0,0:0:0:0:
176,288,199310,5,0,0:0:0:0:
192,309,199375,1,0,0:0:0:0:
212,327,199441,1,0,0:0:0:0:
235,342,199507,1,0,0:0:0:0:
259,353,199573,1,0,0:0:0:0:
286,360,199638,1,0,0:0:0:0:
313,362,199704,5,0,0:0:0:0:
340,361,199770,1,0,0:0:0:0:
366,355,199836,1,0,0:0:0:0:
391,344,199902,1,0,0:0:0:0:
414,330,199967,1,0,0:0:0:0:
434,312,200033,1,0,0:0:0:0:
452,292,200099,5,0,0:0:0:0:
466,268,200165,1,0,0:0:0:0:
475,243,200231,1,0,0:0:0:0:
481,217,200296,1,0,0:0:0:0:
482,190,200362,1,0,0:0:0:0:
479,163,200428,1,0,0:0:0:0:
472,137,200494,5,0,0:0:0:0:
461,112,200559,1,0,0:0:0:0:
446,90,200625,1,0,0:0:0:0:
427,70,200691,1,0,0:0:0:0:
405,54,200757,1,0,0:0:0:0:
381,41,200823,1,0,0:0:0:0:
356,33,200889,6,0,L|328:80,1,50,0|0,0:0|2:0,0:0:0:0:
155,350,201152,2,0,L|184:304,1,50,0|0,0:0|2:0,0:0:0:0:
484,192,201415,2,0,L|434:192,1,50,0|0,0:0|2:0,0:0:0:0:
28,192,201679,2,0,L|78:192,1,50,0|0,0:0|2:0,0:0:0:0:
356,350,201942,2,0,L|328:304,1,50,0|0,0:0|2:0,0:0:0:0:
155,33,202205,2,0,L|184:80,1,50,0|0,0:0|2:0,0:0:0:0:
256,192,202468,5,4,0:0:0:0:
456,216,202731,1,0,0:0:0:0:
376,248,202863,1,0,0:0:0:0:
400,104,202994,2,0,L|392:160,1,50
360,344,203257,5,0,0:0:0:0:
88,320,203520,1,0,0:0:0:0:
200,368,203651,1,0,0:0:0:0:
200,264,203783,2,0,L|152:288,1,50
8,360,204047,5,0,0:0:0:0:
40,176,204310,1,0,0:0:0:0:
128,248,204441,1,0,0:0:0:0:
0,288,204573,2,0,L|16:240,1,50
80,72,204836,5,0,0:0:0:0:
336,40,205099,1,0,0:0:0:0:
288,176,205231,1,0,0:0:0:0:
184,16,205362,2,0,L|240:24,1,50
432,56,205626,5,0,0:0:0:0:
472,304,205889,1,0,0:0:0:0:
392,176,206020,1,0,0:0:0:0:
296,336,206152,2,0,L|348:328,1,50
408,316,206415,5,0,0:0:0:0:
248,152,206678,1,0,0:0:0:0:
152,280,206810,1,0,0:0:0:0:
88,68,206941,2,0,L|136:92,1,50
188,120,207205,5,0,0:0:0:0:
0,256,207468,1,0,0:0:0:0:
80,384,207599,1,0,0:0:0:0:
192,192,207731,2,0,L|144:208,1,50
80,228,207994,5,0,0:0:0:0:
340,320,208257,1,0,0:0:0:0:
480,224,208388,1,0,0:0:0:0:
264,56,208520,2,0,L|280:112,1,50
296,168,208783,5,0,0:0:0:0:
192,152,209047,1,0,0:0:0:0:
216,264,209178,1,0,0:0:0:0:
88,136,209310,2,0,L|24:128,1,50
192,152,209573,5,0,0:0:0:0:
296,136,209836,1,0,0:0:0:0:
152,264,209967,1,0,0:0:0:0:
256,224,210099,1,0,0:0:0:0:
256,224,210165,1,0,0:0:0:0:
256,224,210231,1,0,0:0:0:0:
256,224,210297,1,0,0:0:0:0:
256,224,210362,5,0,0:0:0:0:
344,184,210626,1,0,0:0:0:0:
256,304,210757,1,0,0:0:0:0:
176,184,210889,2,0,L|160:128,1,50
256,72,211152,5,0,0:0:0:0:
120,248,211415,1,0,0:0:0:0:
256,368,211546,1,0,0:0:0:0:
392,248,211678,2,0,L|408:192,1,50
448,64,211941,5,0,0:0:0:0:
496,232,212204,1,0,0:0:0:0:
344,296,212336,1,0,0:0:0:0:
376,208,212468,2,0,L|392:152,1,50
272,240,212731,5,0,0:0:0:0:
320,72,212994,1,0,0:0:0:0:
168,8,213126,1,0,0:0:0:0:
200,96,213258,2,0,L|216:152,1,50
424,240,213520,6,0,L|366:240,1,50
84,240,213783,2,0,L|129:204,1,50
359,40,214046,2,0,L|342:96,1,50
254,363,214310,2,0,L|238:312,1,50
150,40,214573,2,0,L|196:72,1,50
424,240,214836,1,0,0:0:0:0:
320,312,214968,5,0,0:0:0:0:
352,64,215099,2,0,L|360:120,1,50
288,216,215362,1,0,0:0:0:0:
456,192,215494,2,0,L|408:168,1,50
48,208,215889,6,0,L|97:200,1,50
200,272,216152,1,0,0:0:0:0:
176,104,216284,2,0,L|153:148,1,50
312,320,216678,6,0,L|368:312,1,50
440,304,216941,1,0,0:0:0:0:
240,296,217073,2,0,L|176:288,1,50
64,216,217467,6,0,L|72:160,1,50
80,88,217730,1,0,0:0:0:0:
96,280,217862,2,0,L|88:344,1,50
320,240,218257,5,0,0:0:0:0:
312,312,218389,1,0,0:0:0:0:
404,264,218521,2,0,L|396:320,1,50
484,292,218784,1,0,0:0:0:0:
188,160,219046,5,0,0:0:0:0:
196,232,219178,1,0,0:0:0:0:
112,228,219310,2,0,L|104:178,1,50
24,220,219573,1,0,0:0:0:0:
480,144,219836,5,0,0:0:0:0:
416,192,219967,1,0,0:0:0:0:
432,80,220099,2,0,L|440:24,1,50
456,264,220362,1,0,0:0:0:0:
32,216,220625,6,0,L|88:224,1,50
184,328,220888,2,0,L|128:344,1,50
248,120,221152,1,0,0:0:0:0:
472,256,221415,5,0,0:0:0:0:
352,304,221546,1,0,0:0:0:0:
392,160,221678,2,0,L|384:224,1,50
312,192,221941,2,0,L|304:256,1,50
232,224,222204,5,0,0:0:0:0:
72,112,222467,2,0,L|128:120,1,50
0,296,222731,1,0,0:0:0:0:
0,296,222796,1,0,0:0:0:0:
0,296,222862,1,0,0:0:0:0:
0,296,222928,1,0,0:0:0:0:
0,296,222994,5,0,0:0:0:0:
120,344,223125,1,0,0:0:0:0:
80,200,223257,2,0,L|88:264,1,50
144,136,223520,2,0,L|137:86,1,50
360,24,223783,6,0,L|304:16,1,50
328,136,224046,2,0,L|272:120,1,50
264,240,224309,2,0,L|216:208,1,50
424,104,224573,5,0,0:0:0:0:
472,224,224836,2,0,L|464:288,1,50
320,280,225099,2,0,L|312:344,1,50
256,144,225362,5,0,0:0:0:0:
40,240,225625,2,0,L|48:176,1,50
192,320,225888,2,0,L|184:376,1,50
144,240,226152,5,0,0:0:0:0:
368,240,226415,1,0,0:0:0:0:
16,304,226678,1,0,0:0:0:0:
496,304,226941,1,0,0:0:0:0:
256,16,227204,1,0,0:0:0:0:
208,200,227336,5,0,2:0:0:0:
128,144,227467,1,2,2:0:0:0:
136,168,227599,1,0,2:0:0:0:
480,96,227730,5,4,0:0:0:0:
432,216,227994,1,0,0:0:0:0:
432,216,228125,1,0,0:0:0:0:
456,296,228257,2,0,P|472:280|504:272,1,50
352,256,228520,6,0,L|248:240,1,100
160,208,228915,1,0,0:0:0:0:
176,280,229046,1,0,0:0:0:0:
192,352,229178,1,0,0:0:0:0:
264,320,229309,6,0,P|272:264|256:216,1,100
200,72,229704,2,0,L|208:184,1,100
296,152,230099,1,0,0:0:0:0:
389,127,230230,1,0,0:0:0:0:
361,211,230362,1,0,0:0:0:0:
332,295,230494,1,0,0:0:0:0:
112,336,230757,5,0,0:0:0:0:
72,280,230888,2,0,L|64:224,1,50
56,160,231151,1,0,0:0:0:0:
152,240,231283,2,0,L|154:183,1,50
158,119,231546,1,0,0:0:0:0:
240,216,231678,5,0,0:0:0:0:
248,128,231809,1,0,0:0:0:0:
256,40,231941,1,0,0:0:0:0:
392,0,232072,1,0,0:0:0:0:
376,72,232204,1,0,0:0:0:0:
360,144,232336,1,0,0:0:0:0:
408,56,232467,5,0,0:0:0:0:
216,8,232599,1,0,0:0:0:0:
240,80,232730,1,0,0:0:0:0:
48,128,232862,5,0,0:0:0:0:
240,80,232994,1,0,0:0:0:0:
216,152,233125,1,0,0:0:0:0:
288,288,233257,5,0,0:0:0:0:
216,152,233388,1,0,0:0:0:0:
192,224,233520,1,0,0:0:0:0:
264,256,233651,5,0,0:0:0:0:
288,184,233783,1,0,0:0:0:0:
280,360,233915,1,0,0:0:0:0:
352,336,234046,5,0,0:0:0:0:
416,296,234178,1,0,0:0:0:0:
456,232,234309,1,0,0:0:0:0:
360,72,234441,2,0,P|339:117|338:166,1,100
352,336,234836,5,0,0:0:0:0:
396,263,234968,1,0,0:0:0:0:
405,179,235099,1,0,0:0:0:0:
280,16,235231,2,0,L|288:120,1,100
232,216,235625,5,0,0:0:0:0:
96,184,235888,2,0,L|80:128,1,50
152,48,236151,2,0,L|144:104,1,50
256,288,236415,1,0,0:0:0:0:
360,48,236678,2,0,L|367:97,1,50
416,184,236941,2,0,L|429:135,1,50
352,224,237204,5,0,0:0:0:0:
320,304,237336,1,0,0:0:0:0:
264,240,237467,1,0,0:0:0:0:
144,112,237599,1,0,0:0:0:0:
160,184,237730,1,0,0:0:0:0:
312,256,237862,1,0,0:0:0:0:
328,176,237993,2,0,L|440:192,1,100
216,240,238388,5,0,0:0:0:0:
232,312,238520,1,0,0:0:0:0:
248,384,238651,1,0,0:0:0:0:
160,352,238783,6,0,L|96:344,1,50
32,336,239046,1,0,0:0:0:0:
128,264,239178,1,0,0:0:0:0:
112,192,239309,1,0,0:0:0:0:
105,167,239367,1,0,0:0:0:0:
99,143,239433,1,0,0:0:0:0:
248,40,239572,5,0,0:0:0:0:
267,55,239638,1,0,0:0:0:0:
282,74,239704,1,0,0:0:0:0:
293,96,239770,1,0,0:0:0:0:
299,120,239836,1,0,0:0:0:0:
298,146,239901,1,0,0:0:0:0:
293,170,239967,5,0,0:0:0:0:
368,24,240099,1,0,0:0:0:0:
336,344,240230,1,0,0:0:0:0:
32,224,240362,1,4,0:0:0:0:
56,136,240625,5,0,0:0:0:0:
56,136,240757,1,0,0:0:0:0:
88,296,240888,1,0,0:0:0:0:
160,264,241020,1,0,0:0:0:0:
232,152,241151,2,0,B|248:104|248:104|240:40,1,100
304,160,241546,1,0,0:0:0:0:
280,232,241677,1,0,0:0:0:0:
256,304,241809,1,0,0:0:0:0:
336,280,241941,6,0,L|448:272,1,100
152,264,242335,2,0,L|264:256,1,100
152,120,242730,1,0,0:0:0:0:
184,200,242862,1,0,0:0:0:0:
16,200,242993,1,0,0:0:0:0:
136,8,243125,1,0,0:0:0:0:
120,368,243388,1,0,0:0:0:0:
208,336,243520,5,0,0:0:0:0:
248,264,243651,1,0,0:0:0:0:
232,184,243783,1,0,0:0:0:0:
288,296,243914,5,0,0:0:0:0:
304,216,244045,1,0,0:0:0:0:
320,136,244177,1,0,0:0:0:0:
336,216,244309,5,0,0:0:0:0:
416,144,244441,1,0,0:0:0:0:
368,32,244572,1,0,0:0:0:0:
408,240,244704,1,0,0:0:0:0:
416,288,244835,1,0,0:0:0:0:
424,336,244967,1,0,0:0:0:0:
240,200,245099,5,0,0:0:0:0:
120,56,245230,1,0,0:0:0:0:
144,144,245362,1,0,0:0:0:0:
264,216,245493,5,0,0:0:0:0:
368,128,245624,1,0,0:0:0:0:
336,304,245756,1,0,0:0:0:0:
184,264,245888,5,0,0:0:0:0:
80,336,246020,1,0,0:0:0:0:
248,320,246151,1,0,0:0:0:0:
96,224,246283,5,0,0:0:0:0:
312,176,246414,1,0,0:0:0:0:
168,24,246546,1,0,0:0:0:0:
160,280,246677,6,0,L|216:272,1,50
256,224,246941,2,0,L|312:216,1,50
360,176,247204,2,0,L|416:168,1,50
56,120,247467,6,0,L|105:127,1,50
160,168,247730,2,0,L|209:175,1,50
264,216,247994,1,0,0:0:0:0:
288,219,248059,1,0,0:0:0:0:
313,223,248125,1,0,0:0:0:0:
338,227,248191,1,0,0:0:0:0:
362,231,248256,6,0,L|352:176,1,50,4|0,0:0|0:0,0:0:0:0:
424,272,248519,1,0,0:0:0:0:
376,360,248651,1,0,0:0:0:0:
248,312,248783,2,0,L|303:301,1,50
152,120,249046,6,0,L|141:175,1,50
104,344,249309,1,0,0:0:0:0:
0,248,249441,1,0,0:0:0:0:
192,216,249572,2,0,L|256:200,1,50
360,176,249835,5,4,0:0:0:0:
352,280,249967,1,0,0:0:0:0:
368,128,250098,5,4,0:0:0:0:
376,256,250230,1,0,0:0:0:0:
336,88,250362,5,4,0:0:0:0:
384,232,250493,1,0,0:0:0:0:
240,216,250625,5,4,0:0:0:0:
432,176,250756,1,0,0:0:0:0:
192,160,250888,5,4,0:0:0:0:
448,248,251019,1,0,0:0:0:0:
152,320,251151,5,4,0:0:0:0:
152,320,251217,1,0,0:0:0:0:
152,320,251283,1,0,0:0:0:0:
152,320,251348,1,0,0:0:0:0:
152,320,251414,5,4,0:0:0:0:
184,88,251546,1,0,0:0:0:0:
64,312,251677,5,4,0:0:0:0:
272,104,251809,1,0,0:0:0:0:
8,248,251940,5,4,0:0:0:0:
304,176,252072,1,0,0:0:0:0:
120,24,252204,5,4,0:0:0:0:
192,296,252335,1,0,0:0:0:0:
384,48,252467,5,4,0:0:0:0:
104,240,252598,1,0,0:0:0:0:
488,280,252730,5,4,0:0:0:0:
488,280,252796,1,0,0:0:0:0:
488,280,252862,1,0,0:0:0:0:
488,280,252927,1,0,0:0:0:0:
488,280,252993,5,4,0:0:0:0:
424,264,253125,1,0,0:0:0:0:
368,296,253256,1,0,0:0:0:0:
304,280,253388,1,0,0:0:0:0:
128,264,253783,6,0,L|120:200,2,50
176,312,254177,2,0,L|168:376,2,50
16,240,254572,5,0,0:0:0:0:
80,224,254704,1,0,0:0:0:0:
136,256,254835,1,0,0:0:0:0:
200,240,254967,1,0,0:0:0:0:
384,176,255361,6,0,P|432:160|480:176,1,100
480,264,255756,2,0,P|432:280|384:264,1,100
336,136,256151,5,0,0:0:0:0:
288,72,256283,1,0,0:0:0:0:
264,168,256414,1,0,0:0:0:0:
312,232,256546,1,0,0:0:0:0:
136,312,256940,6,0,L|144:248,1,50
88,192,257204,1,0,0:0:0:0:
88,192,257335,2,0,L|80:248,2,50
208,256,257730,5,0,0:0:0:0:
256,192,257862,1,0,0:0:0:0:
280,288,257993,1,0,0:0:0:0:
232,352,258125,1,0,0:0:0:0:
408,272,258519,6,0,L|512:264,1,100
448,192,258914,2,0,L|344:200,1,100
304,272,259309,6,0,P|264:304|216:304,1,100
48,256,259704,2,0,L|148:264,1,100
336,360,260098,1,0,0:0:0:0:
224,192,260361,1,0,0:0:0:0:
224,192,260493,2,0,L|120:184,1,100
296,144,260888,5,0,0:0:0:0:
272,288,261151,1,0,0:0:0:0:
272,288,261282,1,0,0:0:0:0:
416,240,261677,5,0,0:0:0:0:
136,200,261940,1,0,0:0:0:0:
136,200,262072,1,0,0:0:0:0:
352,40,262467,6,0,P|360:88|337:139,1,100
272,160,262861,1,0,0:0:0:0:
56,208,263125,5,0,0:0:0:0:
56,208,263257,2,0,L|155:192,1,100
256,336,263651,1,0,0:0:0:0:
408,280,263914,5,0,0:0:0:0:
408,280,264046,2,0,L|416:216,2,50
400,344,264440,1,0,0:0:0:0:
288,192,264703,5,0,0:0:0:0:
288,192,264835,2,0,L|280:128,2,50
296,256,265229,1,0,0:0:0:0:
88,352,265493,1,0,0:0:0:0:
80,192,265624,5,4,0:0:0:0:
200,192,266019,1,0,0:0:0:0:
288,128,266282,1,0,0:0:0:0:
320,192,266414,1,0,0:0:0:0:
440,192,266809,1,0,0:0:0:0:
80,192,267203,5,0,0:0:0:0:
200,264,267598,1,0,0:0:0:0:
320,96,267993,1,0,0:0:0:0:
440,192,268388,1,0,0:0:0:0:
80,192,268782,5,0,0:0:0:0:
200,192,269177,1,0,0:0:0:0:
288,128,269440,1,0,0:0:0:0:
320,192,269572,1,0,0:0:0:0:
440,192,269967,1,0,0:0:0:0:
80,192,270361,5,0,0:0:0:0:
200,272,270756,1,0,0:0:0:0:
320,192,271151,1,0,0:0:0:0:
440,112,271546,1,0,0:0:0:0:
262,176,271940,5,4,0:0:0:0:
267,204,272071,1,0,0:0:0:0:
240,194,272203,1,0,0:0:0:0:
269,176,272335,5,0,0:0:0:0:
263,210,272466,1,0,0:0:0:0:
237,188,272598,1,0,0:0:0:0:
277,179,272730,5,0,0:0:0:0:
257,216,272861,1,0,0:0:0:0:
236,179,272993,1,0,0:0:0:0:
285,186,273124,5,0,0:0:0:0:
247,219,273255,1,0,0:0:0:0:
238,169,273387,1,0,0:0:0:0:
293,198,273519,5,4,0:0:0:0:
232,220,273650,1,0,0:0:0:0:
244,156,273782,1,0,0:0:0:0:
302,218,273914,5,0,0:0:0:0:
211,218,274045,1,0,0:0:0:0:
257,139,274177,1,0,0:0:0:0:
307,252,274309,5,0,0:0:0:0:
179,205,274440,1,0,0:0:0:0:
283,117,274572,1,0,0:0:0:0:
300,310,274703,5,0,0:0:0:0:
132,170,274834,1,0,0:0:0:0:
338,95,274966,1,0,0:0:0:0:
248,360,275098,5,4,0:0:0:0:
408,328,275229,1,0,0:0:0:0:
296,208,275361,1,0,0:0:0:0:
248,360,275493,1,0,0:0:0:0:
408,328,275624,1,0,0:0:0:0:
296,208,275756,1,0,0:0:0:0:
72,144,275887,5,4,0:0:0:0:
179,21,276018,1,0,0:0:0:0:
227,178,276150,1,0,0:0:0:0:
72,144,276282,1,0,0:0:0:0:
179,21,276413,1,0,0:0:0:0:
227,178,276545,1,0,0:0:0:0:
464,128,276677,6,0,P|458:116|458:99,1,25
438,217,276808,2,0,P|434:204|437:188,1,25
384,294,276940,2,0,P|382:281|388:265,1,25
307,348,277072,6,0,P|307:335|316:320,1,25
216,371,277203,2,0,P|218:358|229:345,1,25
123,362,277335,2,0,P|128:350|141:339,1,25
38,323,277466,5,4,0:0:0:0:
201,301,277597,1,4,0:0:0:0:
314,183,277729,1,0,0:0:0:0:
331,20,277860,1,4,0:0:0:0:
352,328,278256,5,4,0:0:0:0:
