osu file format v14

[General]
AudioFilename: audio.mp3
AudioLeadIn: 0
PreviewTime: 115226
Countdown: 0
SampleSet: Normal
StackLeniency: 0.7
Mode: 0
LetterboxInBreaks: 0
WidescreenStoryboard: 1

[Editor]
Bookmarks: 110423,115909
DistanceSpacing: 1
BeatDivisor: 4
GridSize: 4
TimelineZoom: 2.000001

[Metadata]
Title:Seasons come around
TitleUnicode:Seasons come around
Artist:void
ArtistUnicode:void
Creator:Van246
Version:Normal
Source:Japen 12th "Twelve Moments"
Tags:Mournfinale Mesmerised 5th Album JapEn12th DnB Drum and Bass
BeatmapID:2033164
BeatmapSetID:970968

[Difficulty]
HPDrainRate:4
CircleSize:3
OverallDifficulty:4
ApproachRate:5
SliderMultiplier:1.2
SliderTickRate:1

[Events]
//Background and Video events
0,0,"Screenshot_20190428-120648_YouTube.jpg",0,0
Video,0,"JapEn12th_TM.avi"
//Break Periods
2,110626,114026
//Storyboard Layer 0 (Background)
//Storyboard Layer 1 (Fail)
//Storyboard Layer 2 (Pass)
//Storyboard Layer 3 (Foreground)
//Storyboard Sound Samples

[TimingPoints]
712,342.857142857143,4,1,0,70,1,0
55569,-100,4,1,0,70,0,1
88483,-100,4,1,0,45,0,0
98683,-100,4,1,0,70,0,0
121397,-100,4,1,0,70,0,1
143340,-100,4,1,0,70,0,0

[Colours]
Combo1 : 221,221,221
Combo2 : 255,191,255
Combo3 : 146,254,254
Combo4 : 188,48,51

[HitObjects]
40,84,711,6,0,P|152:60|275:80,1,240,2|2,2:0|2:0,2:0:0:0:
387,122,1740,1,2,2:0:0:0:
481,194,2083,2,0,P|506:239|486:360,2,180,2|2|2,2:0|2:0|2:0,2:0:0:0:
400,282,3454,6,0,L|277:282,1,120,2|0,2:0|2:0,2:0:0:0:
211,379,4140,2,0,P|162:351|136:296,1,120,2|0,2:0|2:0,2:0:0:0:
80,188,4826,1,2,2:0:0:0:
89,68,5169,2,0,L|172:67,1,60,2|2,2:0|2:0,2:0:0:0:
328,68,5854,1,2,2:0:0:0:
435,122,6197,6,0,P|401:166|322:186,1,120,2|0,2:0|2:0,2:0:0:0:
242,119,6883,2,0,P|188:126|117:176,1,120,2|0,2:0|2:0,2:0:0:0:
32,226,7569,2,0,P|81:275|190:311,1,180,2|2,2:0|2:0,2:0:0:0:
362,311,8597,1,2,2:0:0:0:
466,251,8940,6,0,P|478:226|299:223,1,360,2|12,2:0|2:0,2:0:0:0:
362,311,10312,2,0,P|284:331|184:313,2,180,4|4|4,0:0|0:0|0:0,0:0:0:0:
466,251,11683,5,4,0:0:0:0:
506,138,12026,1,12,0:0:0:0:
431,43,12369,1,4,0:0:0:0:
321,92,12712,1,12,0:0:0:0:
319,211,13054,1,4,0:0:0:0:
267,318,13397,2,0,P|231:342|98:335,1,180,12|8,0:0|0:0,0:0:0:0:
39,240,14254,1,8,0:0:0:0:
39,240,14426,6,0,P|161:205|277:211,1,240,12|4,0:0|0:0,0:0:0:0:
383,256,15454,1,12,0:0:0:0:
436,363,15797,1,4,0:0:0:0:
488,255,16140,2,0,P|482:209|363:151,1,180,12|8,0:0|0:0,0:0:0:0:
268,204,16997,1,8,0:0:0:0:
268,204,17169,5,4,0:0:0:0:
192,297,17512,2,0,P|141:277|85:212,1,120,12|4,1:0|1:0,1:0:0:0:
71,113,18197,2,0,P|121:132|177:197,1,120,12|4,1:0|1:0,1:0:0:0:
192,297,18883,1,12,0:0:0:0:
369,323,19397,1,12,0:0:0:0:
446,231,19740,1,12,0:0:0:0:
446,231,19912,6,2,P|499:196|389:210,1,360,4|0,0:0|0:0,0:0:0:0:
423,315,21283,2,0,P|344:341|246:320,2,180,4|4|4,0:0|0:0|0:0,0:0:0:0:
478,206,22654,5,4,0:0:0:0:
387,126,22997,1,0,0:0:0:0:
348,239,23340,2,0,L|288:189,2,60,6|2|2,0:0|0:0|0:0,0:0:0:0:
390,281,23854,1,2,0:0:0:0:
390,281,24026,1,4,0:0:0:0:
296,347,24369,1,0,0:0:0:0:
181,311,24712,1,4,0:0:0:0:
181,311,24883,2,0,P|120:272|100:212,1,120,8|8,0:0|0:0,0:0:0:0:
68,179,25397,6,2,B|31:131|31:131|130:129|207:44,1,240,6|4,0:0|0:0,0:0:0:0:
247,40,26254,1,8,0:0:0:0:
247,40,26426,2,0,L|310:42,1,60,8|0,0:0|0:0,0:0:0:0:
366,47,26769,2,0,P|395:63|420:164,1,120,12|0,0:0|0:0,0:0:0:0:
390,254,27454,2,0,P|361:238|336:137,1,120,12|0,0:0|0:0,0:0:0:0:
366,47,28140,6,0,P|336:30|237:63,1,120,4|0,0:0|0:0,0:0:0:0:
141,84,28826,2,0,L|73:47,2,60,6|2|2,0:0|0:0|0:0,0:0:0:0:
188,121,29340,1,2,0:0:0:0:
188,121,29512,2,0,P|224:177|235:241,1,120,4|0,0:0|0:0,0:0:0:0:
189,339,30197,1,12,0:0:0:0:
189,339,30369,2,0,P|155:290|142:232,1,120,8|8,0:0|0:0,0:0:0:0:
130,172,30883,6,2,B|82:135|82:135|80:234|-5:311,1,240,6|4,0:0|0:0,0:0:0:0:
19,360,31740,1,8,0:0:0:0:
19,360,31912,2,0,L|86:359,1,60,8|0,0:0|0:0,0:0:0:0:
138,358,32254,2,0,P|207:336|265:288,1,120,12|0,0:0|0:0,0:0:0:0:
347,245,32940,1,12,0:0:0:0:
406,140,33283,1,8,0:0:0:0:
352,32,33626,6,0,P|342:85|310:151,1,120,4|0,0:0|0:0,0:0:0:0:
260,252,34312,2,0,L|335:282,2,60,6|2|2,0:0|0:0|0:0,0:0:0:0:
208,221,34826,1,2,0:0:0:0:
208,221,34997,2,0,P|147:199|110:156,1,120,4|0,0:0|0:0,0:0:0:0:
152,45,35683,1,12,0:0:0:0:
152,45,35854,2,0,P|211:69|246:114,1,120,8|8,0:0|0:0,0:0:0:0:
267,168,36369,6,2,B|315:205|315:205|317:106|402:29,1,240,6|4,0:0|0:0,0:0:0:0:
441,21,37226,1,8,0:0:0:0:
441,21,37397,2,0,L|468:104,1,60,8|0,0:0|0:0,0:0:0:0:
468,137,37740,2,0,P|462:208|428:264,1,120,12|0,0:0|0:0,0:0:0:0:
320,270,38426,2,0,P|326:199|360:143,1,120,12|0,0:0|0:0,0:0:0:0:
415,56,39112,1,12,0:0:0:0:
186,112,39797,5,6,0:0:0:0:
186,112,39969,2,0,L|240:71,1,60,2|2,0:0|0:0,0:0:0:0:
288,49,40312,1,2,0:0:0:0:
288,49,40483,2,0,P|324:105|335:169,1,120,4|0,0:0|0:0,0:0:0:0:
277,262,41169,1,12,0:0:0:0:
277,262,41340,2,0,P|228:296|170:309,1,120,8|8,0:0|0:0,0:0:0:0:
113,286,41854,6,2,B|76:238|76:238|175:236|252:151,1,240,6|4,0:0|0:0,0:0:0:0:
288,137,42712,1,8,0:0:0:0:
288,137,42883,2,0,L|355:136,1,60,8|0,0:0|0:0,0:0:0:0:
407,140,43226,2,0,P|385:209|343:269,1,120,12|0,0:0|0:0,0:0:0:0:
262,319,43912,1,12,0:0:0:0:
146,288,44254,1,12,0:0:0:0:
111,173,44597,6,0,P|169:181|230:215,1,120,12|0,0:0|0:0,0:0:0:0:
257,324,45283,2,0,P|303:297|350:238,1,120,12|0,0:0|0:0,0:0:0:0:
413,147,45969,1,12,0:0:0:0:
326,63,46312,1,0,0:0:0:0:
285,175,46654,2,0,P|225:167|173:139,1,120,12|0,0:0|0:0,0:0:0:0:
111,35,47340,6,0,P|164:41|230:77,1,120,12|0,0:0|0:0,0:0:0:0:
285,175,48026,2,0,P|271:226|227:288,1,120,12|0,0:0|0:0,0:0:0:0:
137,352,48712,1,12,0:0:0:0:
37,285,49054,1,0,0:0:0:0:
53,166,49397,2,0,L|-15:135,2,60,12|8|8,0:0|0:0|0:0,0:0:0:0:
126,261,50083,6,0,P|166:174|166:141,1,120,12|0,0:0|0:0,0:0:0:0:
89,57,50769,2,0,P|146:41|206:46,1,120,12|0,0:0|0:0,0:0:0:0:
314,98,51454,1,12,0:0:0:0:
418,38,51797,1,0,0:0:0:0:
467,146,52140,2,0,P|463:206|438:260,1,120,12|0,0:0|0:0,0:0:0:0:
372,360,52826,6,0,P|319:351|255:311,1,120,12|0,0:0|0:0,0:0:0:0:
240,199,53512,2,0,P|194:226|147:285,1,120,12|0,0:0|0:0,0:0:0:0:
89,380,54197,1,8,0:0:0:0:
15,284,54540,1,0,0:0:0:0:
69,177,54883,2,0,L|-9:143,2,60,8|8|8,0:0|0:0|0:0,0:0:0:0:
125,198,55397,1,8,0:0:0:0:
182,179,55569,6,0,P|229:146|278:73,1,120,12|4,0:0|0:0,0:0:0:0:
218,62,56083,2,0,P|264:37|391:61,1,180,8|4,0:0|0:0,0:0:0:0:
427,99,56769,1,8,0:0:0:0:
427,99,56940,2,0,P|439:173|426:224,1,120,12|12,0:0|0:0,0:0:0:0:
337,293,57626,2,0,P|325:219|338:168,1,120,12|12,0:0|0:0,0:0:0:0:
353,56,58312,5,12,0:0:0:0:
353,56,58483,1,8,0:0:0:0:
260,132,58826,1,8,0:0:0:0:
195,31,59169,1,8,0:0:0:0:
109,113,59512,1,8,0:0:0:0:
109,113,59683,2,0,P|69:163|46:221,1,120,12|0,0:0|0:0,0:0:0:0:
61,333,60369,6,0,P|120:319|189:277,1,120,12|12,0:0|0:0,0:0:0:0:
200,238,60883,1,8,0:0:0:0:
200,238,61054,2,4,P|259:252|328:294,1,120,12|4,0:0|0:0,0:0:0:0:
352,324,61569,2,0,P|427:278|459:196,1,180,8|4,0:0|0:0,0:0:0:0:
434,141,62254,1,8,0:0:0:0:
434,141,62426,2,0,P|388:157|335:211,1,120,12|12,0:0|0:0,0:0:0:0:
240,277,63112,1,12,0:0:0:0:
166,184,63454,1,12,0:0:0:0:
52,222,63797,5,12,0:0:0:0:
52,222,63969,1,8,0:0:0:0:
120,320,64312,1,8,0:0:0:0:
231,364,64654,1,8,0:0:0:0:
349,344,64997,1,8,0:0:0:0:
349,344,65169,2,0,P|389:294|412:236,1,120,12|4,0:0|0:0,0:0:0:0:
436,125,65854,6,0,P|377:139|308:181,1,120,12|12,0:0|0:0,0:0:0:0:
305,223,66369,1,8,0:0:0:0:
305,223,66540,2,0,P|291:282|249:351,1,120,12|12,0:0|0:0,0:0:0:0:
215,371,67054,2,0,P|190:325|214:198,1,180,8|4,0:0|0:0,0:0:0:0:
253,162,67740,1,0,0:0:0:0:
253,162,67912,1,12,0:0:0:0:
337,76,68254,2,0,P|258:66|200:89,1,120,12|12,0:0|0:0,0:0:0:0:
116,136,68940,1,12,0:0:0:0:
67,245,69283,5,12,0:0:0:0:
67,245,69454,1,8,0:0:0:0:
142,338,69797,1,8,0:0:0:0:
194,230,70140,1,8,0:0:0:0:
116,136,70483,1,8,0:0:0:0:
116,136,70654,2,0,P|166:96|224:73,1,120,12|4,0:0|0:0,0:0:0:0:
327,27,71340,6,0,P|371:68|414:134,1,120,12|12,0:0|0:0,0:0:0:0:
437,167,71854,1,8,0:0:0:0:
437,167,72026,2,0,P|382:189|337:252,1,120,12|4,0:0|0:0,0:0:0:0:
331,293,72540,2,0,P|238:279|179:203,1,180,8|4,0:0|0:0,0:0:0:0:
208,162,73226,1,0,0:0:0:0:
208,162,73397,2,0,P|140:98|88:90,1,120,12|4,0:0|0:0,0:0:0:0:
1,127,74083,1,12,0:0:0:0:
108,180,74426,1,12,0:0:0:0:
36,276,74769,5,12,0:0:0:0:
36,276,74940,1,8,0:0:0:0:
154,254,75283,1,8,0:0:0:0:
225,350,75626,1,8,0:0:0:0:
347,342,75969,1,8,0:0:0:0:
347,342,76140,2,0,P|387:292|410:234,1,120,12|4,0:0|0:0,0:0:0:0:
447,126,76826,2,0,P|485:191|491:207,2,90,12|12|12,0:0|0:0|0:0,0:0:0:0:
405,82,77512,5,4,0:0:0:0:
293,37,77854,1,4,0:0:0:0:
181,81,78197,2,0,P|122:51|92:47,2,90,4|4|4,0:0|0:0|0:0,0:0:0:0:
273,157,79054,1,4,0:0:0:0:
273,157,79226,1,4,0:0:0:0:
368,229,79569,2,0,P|398:184|412:148,2,90,4|4|4,0:0|0:0|0:0,0:0:0:0:
334,278,80254,5,4,0:0:0:0:
231,339,80597,1,4,0:0:0:0:
123,284,80940,2,0,P|74:328|59:354,2,90,4|4|4,0:0|0:0|0:0,0:0:0:0:
219,211,81797,1,4,0:0:0:0:
219,211,81969,1,4,0:0:0:0:
271,102,82312,2,0,P|236:60|206:36,2,90,4|4|4,0:0|0:0|0:0,0:0:0:0:
310,147,82997,5,4,0:0:0:0:
276,262,83340,1,4,0:0:0:0:
190,177,83683,2,0,P|126:160|96:162,2,90,4|4|4,0:0|0:0|0:0,0:0:0:0:
306,206,84540,1,4,0:0:0:0:
306,206,84712,1,4,0:0:0:0:
396,127,85054,2,0,P|437:92|461:62,2,90,4|4|4,0:0|0:0|0:0,0:0:0:0:
341,151,85740,5,4,0:0:0:0:
234,205,86083,1,4,0:0:0:0:
138,132,86426,2,0,P|73:143|47:158,2,90,4|4|4,0:0|0:0|0:0,0:0:0:0:
257,121,87283,1,4,0:0:0:0:
257,121,87454,1,4,0:0:0:0:
368,76,87797,2,0,P|328:37|296:17,2,90,4|4|4,0:0|0:0|0:0,0:0:0:0:
405,122,88483,5,8,0:0:0:0:
444,235,88826,1,8,2:0:0:0:
444,235,88997,1,12,2:0:0:0:
343,300,89340,1,8,2:0:0:0:
167,340,89854,2,0,P|116:319|83:262,1,120,12|8,2:0|2:0,2:0:0:0:
59,209,90369,1,12,2:0:0:0:
110,100,90712,1,8,2:0:0:0:
277,33,91226,5,12,2:0:0:0:
378,97,91569,1,8,2:0:0:0:
378,97,91740,1,12,2:0:0:0:
264,136,92083,1,8,2:0:0:0:
104,219,92597,2,0,P|125:270|182:303,1,120,12|8,2:0|2:0,2:0:0:0:
237,317,93112,1,12,2:0:0:0:
347,269,93454,1,8,2:0:0:0:
198,167,93969,5,12,2:0:0:0:
318,170,94312,1,8,2:0:0:0:
318,170,94483,1,12,2:0:0:0:
405,88,94826,1,8,2:0:0:0:
231,38,95340,2,0,P|173:53|137:99,1,120,12|8,2:0|2:0,2:0:0:0:
119,157,95854,1,12,2:0:0:0:
161,269,96197,1,8,2:0:0:0:
288,142,96712,5,12,2:0:0:0:
377,222,97054,1,8,2:0:0:0:
377,222,97226,1,12,2:0:0:0:
280,293,97569,1,8,2:0:0:0:
122,379,98083,2,0,P|102:327|121:264,1,120,12|8,2:0|2:0,2:0:0:0:
212,189,98769,2,0,P|250:254|256:270,2,90,8|8|8,0:0|0:0|0:0,0:0:0:0:
162,155,99454,6,0,P|174:100|243:56,1,120,2|0,2:0|2:0,2:0:0:0:
340,76,100140,2,0,P|328:131|271:183,1,120,2|0,2:0|2:0,2:0:0:0:
184,242,100826,1,2,2:0:0:0:
252,341,101169,1,2,2:0:0:0:
340,260,101512,2,0,P|390:218|422:151,1,120,2|2,2:0|2:0,2:0:0:0:
436,52,102197,6,0,B|406:0|406:0|365:89|257:127,1,240,2|0,2:0|2:0,2:0:0:0:
235,160,103054,1,2,2:0:0:0:
215,216,103226,2,0,L|260:280,1,60,2|0,2:0|2:0,2:0:0:0:
245,325,103569,2,0,P|190:350|120:340,1,120,2|0,2:0|2:0,2:0:0:0:
71,242,104254,2,0,P|33:177|27:161,2,90,8|8|8,0:0|0:0|0:0,0:0:0:0:
116,281,104940,6,0,P|171:269|215:200,1,120,2|0,2:0|2:0,2:0:0:0:
253,109,105626,2,0,P|294:66|351:51,1,120,2|0,2:0|2:0,2:0:0:0:
458,107,106312,1,2,2:0:0:0:
397,210,106654,1,2,2:0:0:0:
472,303,106997,2,0,P|381:324|341:311,1,120,2|2,2:0|2:0,2:0:0:0:
238,304,107683,6,0,B|201:256|201:256|300:254|377:169,1,240,2|0,2:0|2:0,2:0:0:0:
396,136,108540,1,2,2:0:0:0:
363,85,108712,2,0,P|311:105|285:124,1,60,2|0,2:0|2:0,2:0:0:0:
261,145,109054,2,0,P|205:161|134:148,1,120,2|0,2:0|2:0,2:0:0:0:
42,89,109740,2,0,P|4:24|-2:8,2,90,8|8|8,0:0|0:0|0:0,0:0:0:0:
75,138,110426,5,12,0:0:0:0:
50,123,115226,6,0,P|12:58|6:42,2,90,8|8|8,0:0|0:0|0:0,0:0:0:0:
82,173,115912,6,0,P|137:161|181:92,1,120,4|4,1:0|1:0,1:0:0:0:
199,58,116426,2,0,P|242:99|253:215,1,180,4|4,1:0|1:0,1:0:0:0:
208,325,117283,1,12,1:0:0:0:
97,276,117626,1,12,1:0:0:0:
116,158,117969,2,0,P|177:169|232:211,1,120,12|12,1:0|1:0,1:0:0:0:
314,280,118654,6,0,B|362:317|362:317|364:218|449:141,1,240,12|4,1:0|1:0,1:0:0:0:
444,98,119512,1,12,1:0:0:0:
421,42,119683,2,0,L|345:41,1,60,12|4,1:0|1:0,1:0:0:0:
301,40,120026,2,0,P|209:46|125:89,2,180,12|8|0,0:0|0:0|0:0,0:0:0:0:
408,94,121397,6,0,L|334:123,1,60,2|2,2:0|2:0,2:0:0:0:
344,175,121740,2,0,L|281:198,2,60,2|2|0,2:0|2:0|2:0,2:0:0:0:
463,187,122426,2,0,L|385:220,1,60,2|2,2:0|2:0,2:0:0:0:
384,266,122769,2,0,L|322:291,2,60,2|2|0,2:0|2:0|2:0,2:0:0:0:
501,290,123454,2,0,L|436:313,1,60,2|2,2:0|2:0,2:0:0:0:
396,345,123797,2,0,L|326:365,1,60,2|2,2:0|2:0,2:0:0:0:
278,363,124140,6,0,L|206:348,1,60,2|2,2:0|2:0,2:0:0:0:
166,322,124483,2,0,L|124:378,2,60,2|2|2,2:0|2:0|2:0,2:0:0:0:
200,272,124997,1,2,2:0:0:0:
200,272,125169,2,0,P|273:265|325:221,1,120,2|0,2:0|2:0,2:0:0:0:
257,131,125854,2,0,B|224:83|224:83|172:167|59:189,1,240,2|0,2:0|2:0,2:0:0:0:
66,305,126883,5,2,2:0:0:0:
180,341,127226,1,2,2:0:0:0:
298,323,127569,2,0,P|387:291|414:264,1,120,2|2,2:0|2:0,2:0:0:0:
471,173,128254,1,2,2:0:0:0:
388,86,128597,1,2,2:0:0:0:
279,33,128940,2,0,P|226:25|158:34,1,120,2|2,2:0|2:0,2:0:0:0:
59,95,129626,6,0,P|59:152|91:219,1,120,2|0,2:0|2:0,2:0:0:0:
65,318,130312,2,0,P|122:318|180:269,1,120,2|0,2:0|2:0,2:0:0:0:
281,330,130997,2,0,L|262:265,1,60,2|0,2:0|2:0,2:0:0:0:
324,268,131340,2,0,L|305:211,1,60,2|0,2:0|2:0,2:0:0:0:
364,205,131683,2,0,L|347:147,1,60,2|0,2:0|2:0,2:0:0:0:
407,146,132026,2,0,L|393:86,1,60,2|0,2:0|2:0,2:0:0:0:
348,47,132369,6,0,L|212:47,1,120,2|2,2:0|2:0,2:0:0:0:
167,47,132883,1,0,2:0:0:0:
37,171,133397,2,0,L|91:240,1,60,2|2,2:0|2:0,2:0:0:0:
107,268,133740,2,0,L|44:291,2,60,2|2|0,2:0|2:0|2:0,2:0:0:0:
223,300,134426,2,0,L|288:277,1,60,2|2,2:0|2:0,2:0:0:0:
245,230,134769,2,0,L|315:210,1,60,2|2,2:0|2:0,2:0:0:0:
270,162,135112,6,0,L|338:143,1,60,2|2,2:0|2:0,2:0:0:0:
384,127,135454,1,2,2:0:0:0:
384,127,135626,1,2,2:0:0:0:
489,183,135969,1,2,2:0:0:0:
489,183,136140,2,0,P|471:256|426:309,1,120,2|0,2:0|2:0,2:0:0:0:
328,307,136826,2,0,B|292:355|292:355|262:261|159:210,1,240,2|0,2:0|2:0,2:0:0:0:
81,150,137854,5,2,2:0:0:0:
175,76,138197,1,2,2:0:0:0:
295,76,138540,2,0,P|358:98|408:158,1,120,2|2,2:0|2:0,2:0:0:0:
466,233,139226,1,2,2:0:0:0:
381,318,139569,1,2,2:0:0:0:
262,334,139912,2,0,P|179:330|123:305,1,120,2|2,2:0|2:0,2:0:0:0:
41,258,140597,6,0,P|41:201|90:138,1,120,2|0,2:0|2:0,2:0:0:0:
60,29,141283,2,0,P|116:32|174:81,1,120,2|0,2:0|2:0,2:0:0:0:
284,49,141969,2,0,L|303:114,1,60,2|0,2:0|2:0,2:0:0:0:
240,109,142312,2,0,L|259:166,1,60,2|0,2:0|2:0,2:0:0:0:
199,171,142654,2,0,L|216:229,1,60,2|0,2:0|2:0,2:0:0:0:
155,231,142997,2,0,L|169:291,1,60,2|0,2:0|2:0,2:0:0:0:
108,286,143340,5,0,2:0:0:0:
199,364,143683,1,0,2:0:0:0:
310,319,144026,2,0,P|342:293|385:225,1,120,2|0,2:0|2:0,2:0:0:0:
323,123,144712,2,0,P|269:184|249:241,1,120,2|0,2:0|2:0,2:0:0:0:
243,277,145226,1,2,2:0:0:0:
84,361,145740,1,2,2:0:0:0:
75,241,146083,6,0,P|77:181|124:108,1,120,2|0,2:0|2:0,2:0:0:0:
202,59,146769,2,0,P|200:119|165:195,1,120,2|0,2:0|2:0,2:0:0:0:
142,292,147454,1,2,2:0:0:0:
250,344,147797,1,2,2:0:0:0:
250,344,147969,2,0,P|297:341|372:292,1,120,2|0,2:0|2:0,2:0:0:0:
379,249,148483,2,0,L|444:247,1,60,2|2,2:0|2:0,2:0:0:0:
493,222,148826,6,0,P|487:175|449:99,1,120,2|0,2:0|2:0,2:0:0:0:
348,58,149512,2,0,P|354:105|392:181,1,120,2|0,2:0|2:0,2:0:0:0:
493,222,150197,2,0,P|464:262|339:313,1,180,2|2,2:0|2:0,2:0:0:0:
167,300,151226,1,2,2:0:0:0:
70,228,151569,6,0,P|39:219|117:188,1,240,2|0,2:0|2:0,2:0:0:0:
216,251,152597,2,0,L|284:251,1,60,2|2,2:0|2:0,2:0:0:0:
329,279,152940,2,0,P|360:255|394:178,1,120,2|2,2:0|2:0,2:0:0:0:
396,123,153454,1,2,2:0:0:0:
242,28,153969,1,2,2:0:0:0:
131,74,154312,6,0,B|29:103|114:235|-4:250,1,240,2|2,2:0|2:0,2:0:0:0:
216,351,155683,2,0,P|287:297|327:217,1,180,2|2,2:0|2:0,2:0:0:0:
458,93,156712,1,2,2:0:0:0:
347,46,157054,5,2,2:0:0:0:
182,120,157569,1,2,2:0:0:0:
182,120,157740,1,2,2:0:0:0:
235,354,158426,1,2,2:0:0:0:
344,304,158769,1,2,2:0:0:0:
344,304,158940,1,2,2:0:0:0:
471,176,159454,2,0,L|414:136,1,60,2|2,2:0|2:0,2:0:0:0:
372,107,159797,5,2,2:0:0:0:
203,41,160312,1,2,2:0:0:0:
203,41,160483,1,2,2:0:0:0:
55,230,161169,1,2,2:0:0:0:
211,317,161683,1,2,2:0:0:0:
382,263,162197,1,2,2:0:0:0:
382,263,162540,5,2,2:0:0:0:
107,29,163569,2,0,L|67:86,1,60,2|2,2:0|2:0,2:0:0:0:
45,132,163912,1,2,2:0:0:0:
69,249,164254,1,2,2:0:0:0:
69,249,164426,1,2,2:0:0:0:
219,346,164940,1,2,2:0:0:0:
219,346,165283,5,2,2:0:0:0:
