osu file format v14

[General]
AudioFilename: audio.mp3
AudioLeadIn: 0
PreviewTime: 115226
Countdown: 0
SampleSet: Normal
StackLeniency: 0.3
Mode: 0
LetterboxInBreaks: 0
WidescreenStoryboard: 1

[Editor]
Bookmarks: 65423,70909,110423,115909
DistanceSpacing: 1.1
BeatDivisor: 4
GridSize: 4
TimelineZoom: 2.200001

[Metadata]
Title:Seasons come around
TitleUnicode:Seasons come around
Artist:void
ArtistUnicode:void
Creator:Van246
Version:Insane
Source:Japen 12th "Twelve Moments"
Tags:Mournfinale Mesmerised 5th Album JapEn12th DnB Drum and Bass
BeatmapID:2039023
BeatmapSetID:970968

[Difficulty]
HPDrainRate:5.5
CircleSize:4
OverallDifficulty:7
ApproachRate:9
SliderMultiplier:1.4
SliderTickRate:1

[Events]
//Background and Video events
0,0,"Screenshot_20190428-120648_YouTube.jpg",0,0
Video,0,"JapEn12th_TM.avi"
//Break Periods
2,110626,114626
//Storyboard Layer 0 (Background)
//Storyboard Layer 1 (Fail)
//Storyboard Layer 2 (Pass)
//Storyboard Layer 3 (Foreground)
//Storyboard Sound Samples

[TimingPoints]
712,342.857142857143,4,1,0,70,1,0
55569,-100,4,1,0,70,0,1
76954,-100,4,1,0,30,0,1
77040,-100,4,1,0,70,0,1
77212,-100,4,1,0,30,0,1
77297,-100,4,1,0,70,0,1
78326,-100,4,1,0,30,0,1
78412,-100,4,1,0,70,0,1
78583,-100,4,1,0,30,0,1
78669,-100,4,1,0,70,0,1
79697,-100,4,1,0,30,0,1
79783,-100,4,1,0,70,0,1
79954,-100,4,1,0,30,0,1
80040,-100,4,1,0,70,0,1
81069,-100,4,1,0,30,0,1
81154,-100,4,1,0,70,0,1
81326,-100,4,1,0,30,0,1
81412,-100,4,1,0,70,0,1
82440,-100,4,1,0,30,0,1
82526,-100,4,1,0,70,0,1
82697,-100,4,1,0,30,0,1
82783,-100,4,1,0,70,0,1
83812,-100,4,1,0,30,0,1
83897,-100,4,1,0,70,0,1
84083,-100,4,1,0,30,0,1
84154,-100,4,1,0,70,0,1
85183,-100,4,1,0,30,0,1
85269,-100,4,1,0,70,0,1
85440,-100,4,1,0,30,0,1
85526,-100,4,1,0,70,0,1
86554,-100,4,1,0,30,0,1
86640,-100,4,1,0,70,0,1
86812,-100,4,1,0,30,0,1
86897,-100,4,1,0,70,0,1
87926,-100,4,1,0,30,0,1
88012,-100,4,1,0,70,0,1
88183,-100,4,1,0,30,0,1
88269,-100,4,1,0,70,0,1
88483,-100,4,1,0,45,0,0
98726,-100,4,1,0,70,0,0
98897,-100,4,1,0,30,0,0
98983,-100,4,1,0,70,0,0
99154,-100,4,1,0,30,0,0
99240,-100,4,1,0,70,0,0
104383,-100,4,1,0,30,0,0
104469,-100,4,1,0,70,0,0
104640,-100,4,1,0,30,0,0
104726,-100,4,1,0,70,0,0
109869,-100,4,1,0,30,0,0
109954,-100,4,1,0,70,0,0
110126,-100,4,1,0,30,0,0
110212,-100,4,1,0,70,0,0
115354,-100,4,1,0,30,0,0
115440,-100,4,1,0,70,0,0
115612,-100,4,1,0,30,0,0
115697,-100,4,1,0,70,0,0
121397,-100,4,1,0,70,0,1
143340,-100,4,1,0,70,0,0

[Colours]
Combo1 : 221,221,221
Combo2 : 255,191,255
Combo3 : 146,254,254
Combo4 : 188,48,51

[HitObjects]
94,71,711,6,0,P|167:61|234:75,1,140,2|0,2:0|2:0,2:0:0:0:
326,113,1226,1,0,2:0:0:0:
326,113,1397,1,2,2:0:0:0:
431,239,1740,1,2,2:0:0:0:
313,328,2083,5,2,2:0:0:0:
313,328,2254,1,0,2:0:0:0:
163,333,2597,1,2,2:0:0:0:
81,219,3112,1,0,2:0:0:0:
35,136,3454,6,0,P|108:134|170:188,1,140,2|0,2:2|2:2,2:2:0:0:
253,271,3969,1,0,2:0:0:0:
253,271,4140,1,2,2:0:0:0:
401,342,4483,1,0,2:0:0:0:
382,184,4826,5,2,2:0:0:0:
382,184,4997,1,0,2:0:0:0:
425,117,5169,1,2,2:0:0:0:
425,117,5340,1,0,2:0:0:0:
297,65,5854,5,0,2:0:0:0:
217,30,6026,1,0,2:0:0:0:
138,65,6197,2,8,P|73:146|83:248,1,210,2|0,2:0|2:0,2:0:0:0:
122,317,6883,1,2,2:0:0:0:
261,367,7226,1,0,2:0:0:0:
391,321,7569,2,0,P|303:262|195:257,1,210,2|2,2:0|2:0,2:0:0:0:
13,257,8597,1,2,2:0:0:0:
256,192,8940,12,12,9969,1:0:0:0:
203,238,10312,5,4,0:0:0:0:
203,238,10397,1,0,0:0:0:0:
203,238,10483,1,0,0:0:0:0:
203,238,10569,2,0,L|180:266,1,35,0|4,0:0|0:0,0:0:0:0:
256,119,10826,5,4,0:0:0:0:
256,119,10912,1,0,0:0:0:0:
256,119,10997,1,0,0:0:0:0:
256,119,11083,2,0,L|254:75,1,35,0|4,0:0|0:0,0:0:0:0:
329,234,11340,6,0,L|380:272,1,35,4|0,0:0|0:0,0:0:0:0:
441,313,11512,1,8,0:0:0:0:
441,313,11683,5,4,0:0:0:0:
462,117,12026,1,12,0:0:0:0:
329,234,12369,1,4,0:0:0:0:
512,276,12712,1,12,0:0:0:0:
366,156,13054,1,4,0:0:0:0:
378,348,13397,1,12,0:0:0:0:
501,99,13740,5,0,0:0:0:0:
501,99,13912,1,8,0:0:0:0:
366,156,14083,1,0,0:0:0:0:
366,156,14254,1,8,0:0:0:0:
302,99,14426,5,4,0:0:0:0:
117,163,14769,1,12,0:0:0:0:
294,250,15112,1,4,0:0:0:0:
194,75,15454,1,12,0:0:0:0:
165,257,15797,1,4,0:0:0:0:
317,151,16140,1,12,0:0:0:0:
239,314,16483,5,0,0:0:0:0:
239,314,16654,1,8,0:0:0:0:
362,233,16826,1,0,0:0:0:0:
362,233,16997,1,8,0:0:0:0:
445,134,17169,6,0,L|396:81,1,70,4|4,0:0|0:0,0:0:0:0:
251,63,17512,2,0,L|308:123,1,70,12|4,0:0|0:0,0:0:0:0:
267,235,17854,2,0,L|209:177,1,70,4|4,0:0|0:0,0:0:0:0:
83,160,18197,2,0,L|134:218,1,70,12|4,0:0|0:0,0:0:0:0:
152,336,18540,5,4,0:0:0:0:
162,344,18625,1,4,0:0:0:0:
173,353,18711,1,4,0:0:0:0:
185,360,18797,1,4,0:0:0:0:
199,365,18883,6,0,L|236:380,5,35,12|4|4|4|4|4,0:0|0:0|0:0|0:0|0:0|0:0,0:0:0:0:
305,311,19397,6,0,L|348:281,3,35,12|4|4|4,0:0|0:0|0:0|0:0,0:0:0:0:
351,179,19740,6,0,L|311:152,2,35,12|4|4,0:0|0:0|0:0,0:0:0:0:
256,192,19997,12,8,21112,0:0:0:0:
259,70,21283,6,0,P|323:69|408:101,1,140,4|0,0:0|0:0,0:0:0:0:
259,70,21797,2,0,P|195:71|110:39,1,140,4|0,0:0|0:0,0:0:0:0:
110,142,22312,5,4,0:0:0:0:
106,166,22397,1,0,0:0:0:0:
108,190,22483,1,0,0:0:0:0:
117,213,22569,1,0,0:0:0:0:
131,233,22654,6,0,P|163:270|250:299,1,140
445,260,23340,1,2,0:0:0:0:
418,153,23512,1,2,0:0:0:0:
315,219,23683,1,2,0:0:0:0:
253,298,23854,5,2,0:0:0:0:
253,298,23940,1,0,0:0:0:0:
251,297,24026,1,4,0:0:0:0:
172,219,24197,1,0,0:0:0:0:
64,190,24369,2,0,P|86:135|164:103,1,140
279,74,24883,1,8,0:0:0:0:
369,157,25054,1,0,0:0:0:0:
249,182,25226,1,8,0:0:0:0:
156,102,25397,5,6,0:0:0:0:
139,114,25482,1,2,0:0:0:0:
124,129,25568,1,2,0:0:0:0:
111,146,25654,1,2,0:0:0:0:
101,164,25739,1,2,0:0:0:0:
93,183,25825,1,2,0:0:0:0:
87,204,25911,1,2,0:0:0:0:
84,224,25997,1,2,0:0:0:0:
84,245,26082,1,4,0:0:0:0:
140,319,26254,5,8,0:0:0:0:
260,234,26426,1,0,0:0:0:0:
238,332,26597,2,0,L|314:331,1,70,0|12,0:0|0:0,0:0:0:0:
415,325,26940,1,0,0:0:0:0:
415,325,27112,1,0,0:0:0:0:
455,223,27283,1,8,0:0:0:0:
366,157,27454,2,0,L|312:214,1,70,4|0,0:0|0:0,0:0:0:0:
199,210,27797,2,0,L|147:154,1,70,8|0,0:0|0:0,0:0:0:0:
216,47,28140,5,4,0:0:0:0:
240,43,28225,1,0,0:0:0:0:
264,45,28311,1,0,0:0:0:0:
287,54,28397,1,0,0:0:0:0:
307,68,28483,2,0,P|336:90|358:120,1,70
428,214,28826,5,6,0:0:0:0:
263,204,28997,1,2,0:0:0:0:
356,116,29169,1,2,0:0:0:0:
360,278,29340,1,2,0:0:0:0:
265,343,29512,1,4,0:0:0:0:
265,343,29683,1,0,0:0:0:0:
170,278,29854,6,0,B|96:247|55:172,1,140,4|4,0:0|0:0,0:0:0:0:
0,79,30369,1,8,0:0:0:0:
114,25,30540,1,0,0:0:0:0:
178,135,30712,1,8,0:0:0:0:
64,188,30883,5,6,0:0:0:0:
72,206,30968,1,2,0:0:0:0:
84,224,31054,1,2,0:0:0:0:
98,240,31140,1,2,0:0:0:0:
114,253,31225,1,2,0:0:0:0:
131,265,31311,1,2,0:0:0:0:
150,275,31397,1,2,0:0:0:0:
170,281,31483,1,2,0:0:0:0:
190,285,31568,1,4,0:0:0:0:
304,297,31740,5,8,0:0:0:0:
380,224,31912,2,0,L|437:160,1,70
445,47,32254,5,12,0:0:0:0:
326,91,32426,2,0,L|269:151,1,70
196,234,32769,1,8,0:0:0:0:
196,234,32940,1,12,1:1:0:0:
96,174,33283,1,12,0:0:0:0:
0,147,33626,6,0,P|49:97|142:92,1,140,4|0,0:0|0:0,0:0:0:0:
243,87,34140,1,0,0:0:0:0:
209,211,34312,1,2,0:0:0:0:
323,138,34483,1,2,0:0:0:0:
173,138,34654,1,2,0:0:0:0:
292,218,34826,5,2,0:0:0:0:
292,218,34912,1,0,0:0:0:0:
292,218,34997,1,4,0:0:0:0:
358,299,35169,1,0,0:0:0:0:
465,265,35340,2,0,B|495:170|474:127,1,140,4|0,0:0|0:0,0:0:0:0:
432,34,35854,1,8,0:0:0:0:
432,34,36026,1,0,0:0:0:0:
352,105,36197,1,8,0:0:0:0:
474,128,36369,5,6,0:0:0:0:
466,146,36454,1,2,0:0:0:0:
454,164,36540,1,2,0:0:0:0:
440,180,36626,1,2,0:0:0:0:
424,193,36711,1,2,0:0:0:0:
407,205,36797,1,2,0:0:0:0:
388,215,36883,1,2,0:0:0:0:
368,221,36969,1,2,0:0:0:0:
348,225,37054,1,4,0:0:0:0:
235,176,37226,5,8,0:0:0:0:
335,105,37398,1,0,0:0:0:0:
236,45,37569,2,0,L|161:46,1,70,0|12,0:0|0:0,0:0:0:0:
62,92,37912,1,0,0:0:0:0:
134,197,38084,1,0,0:0:0:0:
157,119,38255,1,8,0:0:0:0:
50,188,38426,2,0,L|49:263,1,70,4|0,0:0|0:0,0:0:0:0:
123,333,38769,2,0,L|123:246,1,70,8|0,0:0|0:0,0:0:0:0:
132,85,39112,5,12,0:0:0:0:
56,226,39797,5,6,0:0:0:0:
179,175,39969,1,2,0:0:0:0:
67,150,40140,1,2,0:0:0:0:
162,263,40312,1,2,0:0:0:0:
280,340,40483,5,4,0:0:0:0:
280,340,40654,1,0,0:0:0:0:
399,295,40826,2,0,B|353:236|275:231,1,140,4|4,0:0|0:0,0:0:0:0:
146,305,41340,1,8,0:0:0:0:
255,323,41512,1,0,0:0:0:0:
172,199,41683,1,8,0:0:0:0:
279,231,41854,5,6,0:0:0:0:
294,243,41939,1,2,0:0:0:0:
313,253,42025,1,2,0:0:0:0:
333,260,42111,1,2,0:0:0:0:
353,264,42196,1,2,0:0:0:0:
374,267,42282,1,2,0:0:0:0:
395,267,42368,1,2,0:0:0:0:
416,263,42454,1,2,0:0:0:0:
435,257,42539,1,4,0:0:0:0:
510,175,42712,5,8,0:0:0:0:
440,106,42883,2,0,L|381:146,1,70
279,231,43226,5,12,0:0:0:0:
174,167,43397,2,0,L|109:217,1,70
18,297,43740,1,8,0:0:0:0:
18,297,43912,2,0,B|54:337|146:335,1,105,4|0,0:0|0:0,0:0:0:0:
136,336,44254,1,0,0:0:0:0:
160,335,44339,1,0,0:0:0:0:
183,328,44425,1,0,0:0:0:0:
204,315,44511,1,0,0:0:0:0:
221,298,44597,6,0,P|272:249|312:177,1,140,4|8,0:0|0:0,0:0:0:0:
334,66,45112,1,0,0:0:0:0:
232,110,45284,2,0,L|160:153,1,70,4|0,0:0|0:0,0:0:0:0:
92,203,45627,1,8,0:0:0:0:
92,203,45798,1,0,0:0:0:0:
82,313,45970,6,0,L|153:272,1,70,4|0,0:0|0:0,0:0:0:0:
256,211,46312,2,0,L|309:278,1,70,8|0,0:0|0:0,0:0:0:0:
373,332,46655,1,8,0:0:0:0:
495,286,46827,1,0,0:0:0:0:
459,376,46998,1,8,0:0:0:0:
406,236,47170,1,8,0:0:0:0:
364,113,47340,6,0,P|309:69|241:55,1,140,4|8,0:0|0:0,0:0:0:0:
104,79,47854,1,0,0:0:0:0:
36,193,48026,2,0,L|85:251,1,70,4|0,0:0|0:0,0:0:0:0:
183,318,48369,1,8,0:0:0:0:
183,318,48540,1,0,0:0:0:0:
196,187,48712,6,0,L|257:256,1,70,4|0,0:0|0:0,0:0:0:0:
388,255,49054,2,0,L|322:194,1,70,8|0,0:0|0:0,0:0:0:0:
250,92,49397,1,8,0:0:0:0:
357,126,49569,1,0,0:0:0:0:
258,169,49740,1,8,0:0:0:0:
353,50,49912,1,8,0:0:0:0:
459,147,50083,6,0,P|467:198|448:290,1,140,4|8,0:0|0:0,0:0:0:0:
366,370,50597,1,0,0:0:0:0:
265,338,50769,2,0,L|178:292,1,70,4|0,0:0|0:0,0:0:0:0:
97,248,51112,1,8,0:0:0:0:
97,248,51283,1,0,0:0:0:0:
25,146,51455,6,0,L|96:113,1,70,4|0,0:0|0:0,0:0:0:0:
223,53,51797,2,0,L|267:116,1,70,8|0,0:0|0:0,0:0:0:0:
339,207,52140,1,8,0:0:0:0:
276,311,52312,1,0,0:0:0:0:
231,209,52483,1,8,0:0:0:0:
383,291,52655,1,8,0:0:0:0:
448,177,52826,6,0,P|402:127|327:99,1,140,4|8,0:0|0:0,0:0:0:0:
212,64,53340,1,0,0:0:0:0:
99,109,53512,2,0,L|98:179,1,70,4|0,0:0|0:0,0:0:0:0:
102,290,53855,1,8,0:0:0:0:
102,290,54026,1,0,0:0:0:0:
194,222,54197,5,0,0:0:0:0:
282,304,54369,1,0,0:0:0:0:
269,166,54540,1,8,0:0:0:0:
206,325,54712,1,8,0:0:0:0:
341,254,54883,5,8,0:0:0:0:
363,245,54968,1,0,0:0:0:0:
383,230,55054,1,0,0:0:0:0:
398,211,55140,1,8,0:0:0:0:
408,189,55225,1,0,0:0:0:0:
391,58,55397,1,12,0:0:0:0:
391,58,55569,6,0,P|339:49|244:65,1,140,12|12,0:0|0:0,0:0:0:0:
155,117,56083,1,8,0:0:0:0:
83,208,56254,1,4,0:0:0:0:
83,208,56340,1,0,0:0:0:0:
83,208,56426,1,0,0:0:0:0:
120,304,56597,1,4,0:0:0:0:
120,304,56769,1,8,0:0:0:0:
215,346,56940,6,0,P|267:355|363:347,1,140,12|12,0:0|0:0,0:0:0:0:
457,304,57454,1,0,0:0:0:0:
358,256,57626,2,0,P|307:244|215:258,1,140,12|12,0:0|0:0,0:0:0:0:
120,304,58140,1,8,0:0:0:0:
51,239,58312,1,12,0:0:0:0:
51,239,58397,1,0,0:0:0:0:
51,239,58483,1,8,0:0:0:0:
150,161,58654,5,12,0:0:0:0:
56,98,58826,1,0,0:0:0:0:
56,98,58912,1,0,0:0:0:0:
56,98,58997,1,8,0:0:0:0:
143,32,59169,2,0,L|223:33,1,70,8|4,0:0|0:0,0:0:0:0:
337,40,59512,1,8,0:0:0:0:
337,40,59683,1,12,0:0:0:0:
427,131,60026,5,12,0:0:0:0:
427,131,60197,1,0,0:0:0:0:
350,223,60369,1,12,0:0:0:0:
336,242,60454,1,0,0:0:0:0:
318,259,60540,1,0,0:0:0:0:
296,270,60626,1,8,0:0:0:0:
273,276,60711,1,0,0:0:0:0:
165,263,60883,1,8,0:0:0:0:
95,196,61054,6,0,P|145:181|235:201,1,140,12|12,0:0|0:0,0:0:0:0:
318,259,61569,1,8,0:0:0:0:
415,331,61740,1,12,0:0:0:0:
415,331,61825,1,0,0:0:0:0:
415,331,61911,1,8,0:0:0:0:
415,205,62083,1,4,0:0:0:0:
415,205,62254,1,8,0:0:0:0:
479,135,62426,6,0,P|415:117|335:139,1,140,12|12,0:0|0:0,0:0:0:0:
246,181,62940,1,0,0:0:0:0:
170,116,63112,2,0,P|151:184|173:250,1,140,12|12,0:0|0:0,0:0:0:0:
255,323,63626,1,0,0:0:0:0:
333,244,63797,1,12,0:0:0:0:
333,244,63882,1,0,0:0:0:0:
333,244,63968,1,8,0:0:0:0:
402,323,64139,5,12,0:0:0:0:
481,244,64311,1,8,0:0:0:0:
481,244,64397,1,0,0:0:0:0:
481,244,64482,1,0,0:0:0:0:
399,166,64654,2,0,L|326:167,1,70,12|4,0:0|0:0,0:0:0:0:
200,170,64997,1,8,0:0:0:0:
200,170,65169,1,12,0:0:0:0:
51,260,65512,5,0,0:0:0:0:
51,260,65683,1,0,0:0:0:0:
164,336,65854,1,12,0:0:0:0:
187,336,65939,1,0,0:0:0:0:
212,332,66025,1,0,0:0:0:0:
234,321,66111,1,8,0:0:0:0:
252,306,66196,1,0,0:0:0:0:
338,226,66369,1,12,0:0:0:0:
418,161,66540,6,0,P|436:227|416:293,1,140,12|12,0:0|0:0,0:0:0:0:
335,364,67054,1,8,0:0:0:0:
252,306,67226,1,12,0:0:0:0:
252,306,67311,1,0,0:0:0:0:
252,306,67397,1,8,0:0:0:0:
137,303,67569,1,4,0:0:0:0:
137,303,67740,1,8,0:0:0:0:
62,359,67912,6,0,P|42:309|71:226,1,140,12|12,0:0|0:0,0:0:0:0:
142,151,68426,1,0,0:0:0:0:
74,82,68597,2,0,P|139:58|211:80,1,140,12|12,0:0|0:0,0:0:0:0:
283,149,69112,1,8,0:0:0:0:
211,231,69283,1,12,0:0:0:0:
211,231,69368,1,0,0:0:0:0:
211,231,69454,1,8,0:0:0:0:
142,151,69625,5,12,0:0:0:0:
68,231,69797,1,8,0:0:0:0:
68,231,69883,1,0,0:0:0:0:
68,231,69969,1,4,0:0:0:0:
11,330,70140,2,0,L|88:332,1,70,8|4,0:0|0:0,0:0:0:0:
209,334,70483,1,8,0:0:0:0:
209,334,70654,1,12,0:0:0:0:
320,278,70997,5,0,0:0:0:0:
320,278,71169,1,0,0:0:0:0:
412,183,71340,1,12,0:0:0:0:
393,168,71425,1,0,0:0:0:0:
371,156,71511,1,0,0:0:0:0:
347,151,71597,1,8,0:0:0:0:
324,152,71682,1,0,0:0:0:0:
209,156,71854,1,12,0:0:0:0:
146,86,72026,6,0,P|123:144|150:226,1,140,12|12,0:0|0:0,0:0:0:0:
215,291,72540,1,8,0:0:0:0:
312,352,72712,1,4,0:0:0:0:
312,352,72797,1,0,0:0:0:0:
312,352,72883,1,0,0:0:0:0:
401,291,73054,1,4,0:0:0:0:
401,291,73226,1,8,0:0:0:0:
463,220,73397,6,0,P|397:198|327:217,1,140,12|12,0:0|0:0,0:0:0:0:
258,276,73912,1,0,0:0:0:0:
328,344,74083,2,0,P|249:367|188:349,1,140,12|4,0:0|0:0,0:0:0:0:
94,300,74597,1,8,0:0:0:0:
36,219,74769,1,12,0:0:0:0:
36,219,74854,1,0,0:0:0:0:
36,219,74940,1,8,0:0:0:0:
94,120,75111,5,12,0:0:0:0:
160,219,75283,1,8,0:0:0:0:
160,219,75369,1,0,0:0:0:0:
160,219,75455,1,4,0:0:0:0:
94,300,75626,2,0,L|165:330,1,70,8|4,0:0|0:0,0:0:0:0:
248,347,75969,1,8,0:0:0:0:
357,345,76140,2,0,P|319:281|232:244,1,140,12|0,0:0|0:0,0:0:0:0:
93,164,76826,6,0,P|102:120|147:101,1,70,12|0,0:0|0:0,0:0:0:0:
170,65,77083,2,0,P|130:83|121:131,1,70,12|0,0:0|0:0,0:0:0:0:
170,200,77340,1,12,0:0:0:0:
140,336,77512,5,4,0:0:0:0:
345,283,77854,1,4,0:0:0:0:
389,103,78197,6,0,P|346:119|335:167,1,70,4|0,0:0|0:0,0:0:0:0:
292,187,78454,2,0,P|328:162|328:113,1,70,4|0,0:0|0:0,0:0:0:0:
325,30,78711,1,4,0:0:0:0:
145,94,79054,5,4,0:0:0:0:
91,213,79226,1,4,0:0:0:0:
239,293,79569,6,0,P|282:305|298:351,1,70,4|0,0:0|0:0,0:0:0:0:
341,368,79826,2,0,P|303:347|298:299,1,70,4|0,0:0|0:0,0:0:0:0:
269,206,80083,1,4,0:0:0:0:
317,85,80254,5,4,0:0:0:0:
498,203,80597,1,4,0:0:0:0:
325,302,80940,6,0,P|291:294|269:268,1,70,4|0,0:0|0:0,0:0:0:0:
223,224,81197,2,0,P|255:237|269:268,1,70,4|0,0:0|0:0,0:0:0:0:
254,370,81454,1,4,0:0:0:0:
134,230,81797,5,4,0:0:0:0:
265,158,81969,1,4,0:0:0:0:
129,105,82312,6,0,P|92:130|92:179,1,70,4|0,0:0|0:0,0:0:0:0:
55,209,82569,2,0,P|84:177|74:130,1,70,4|0,0:0|0:0,0:0:0:0:
44,53,82826,1,4,0:0:0:0:
176,25,82997,5,4,0:0:0:0:
365,150,83340,1,4,0:0:0:0:
210,109,83683,6,0,P|165:117|145:162,1,70,4|0,0:0|0:0,0:0:0:0:
100,175,83940,2,0,P|139:157|149:109,1,70,4|0,0:0|0:0,0:0:0:0:
166,31,84197,1,4,0:0:0:0:
368,87,84540,5,4,0:0:0:0:
455,203,84712,1,4,0:0:0:0:
321,306,85054,6,0,P|289:274|297:226,1,70,4|0,0:0|0:0,0:0:0:0:
265,190,85311,2,0,P|289:226|271:272,1,70,4|0,0:0|0:0,0:0:0:0:
240,352,85568,1,4,0:0:0:0:
124,306,85740,5,4,0:0:0:0:
7,144,86083,1,4,0:0:0:0:
176,56,86426,6,0,P|213:81|215:129,1,70,4|0,0:0|0:0,0:0:0:0:
252,159,86683,2,0,P|221:127|229:79,1,70,4|0,0:0|0:0,0:0:0:0:
280,14,86940,1,4,0:0:0:0:
438,90,87283,5,4,0:0:0:0:
395,239,87454,1,4,0:0:0:0:
229,171,87797,6,0,P|186:183|171:229,1,70,4|0,0:0|0:0,0:0:0:0:
128,248,88054,2,0,P|165:226|169:177,1,70,4|0,0:0|0:0,0:0:0:0:
194,104,88311,1,4,0:0:0:0:
276,242,88483,5,12,0:0:0:0:
276,242,88654,1,0,2:0:0:0:
367,303,88826,1,8,2:0:0:0:
461,242,88997,2,0,L|396:183,1,70,12|4,2:0|2:0,2:0:0:0:
332,114,89340,2,0,L|274:171,1,70,8|0,2:0|2:0,2:0:0:0:
202,248,89683,1,4,2:0:0:0:
124,333,89854,5,12,2:0:0:0:
124,333,90026,1,0,2:0:0:0:
19,284,90197,1,8,2:0:0:0:
71,180,90369,2,0,L|111:117,1,70,12|4,2:0|2:0,2:0:0:0:
165,24,90712,2,0,L|236:73,1,70,8|0,2:0|2:0,2:0:0:0:
304,118,91054,1,4,2:0:0:0:
385,46,91226,5,12,2:0:0:0:
385,46,91397,1,0,2:0:0:0:
466,118,91569,1,8,2:0:0:0:
435,226,91740,2,0,L|360:164,1,70,12|4,2:0|2:0,2:0:0:0:
304,118,92083,2,0,L|259:171,1,70,8|0,2:0|2:0,2:0:0:0:
206,246,92426,1,4,2:0:0:0:
98,272,92597,5,12,2:0:0:0:
204,369,92769,1,0,2:0:0:0:
92,342,92940,1,8,2:0:0:0:
247,298,93112,1,12,2:0:0:0:
371,231,93283,5,4,2:0:0:0:
269,179,93454,1,8,2:0:0:0:
319,287,93626,1,0,2:0:0:0:
341,124,93797,1,4,2:0:0:0:
264,51,93969,5,12,2:0:0:0:
167,87,94140,1,0,2:0:0:0:
167,87,94312,1,8,2:0:0:0:
96,166,94483,2,0,L|165:222,1,70,12|4,2:0|2:0,2:0:0:0:
244,272,94826,2,0,L|244:194,1,70,8|0,2:0|2:0,2:0:0:0:
244,100,95169,1,4,2:0:0:0:
321,29,95340,5,12,2:0:0:0:
321,29,95512,1,0,2:0:0:0:
398,100,95683,1,8,2:0:0:0:
398,205,95854,2,0,L|344:260,1,70,12|4,2:0|2:0,2:0:0:0:
244,272,96197,2,0,L|243:199,1,70,8|0,2:0|2:0,2:0:0:0:
244,100,96540,1,4,2:0:0:0:
143,51,96712,5,12,2:0:0:0:
28,109,96884,1,0,2:0:0:0:
56,25,97055,1,8,2:0:0:0:
109,154,97227,1,12,2:0:0:0:
206,229,97398,5,4,2:0:0:0:
310,283,97569,1,8,2:0:0:0:
224,316,97741,1,0,2:0:0:0:
321,195,97912,1,4,2:0:0:0:
406,105,98084,5,12,2:0:0:0:
272,57,98255,1,0,2:0:0:0:
369,37,98427,1,8,2:0:0:0:
277,133,98597,1,12,0:0:0:0:
188,219,98769,6,0,P|156:252|167:299,1,70,12|0,0:0|0:0,0:0:0:0:
145,345,99026,2,0,P|182:366|225:346,1,70,12|0,0:0|0:0,0:0:0:0:
277,343,99283,1,12,0:0:0:0:
371,293,99454,5,0,3:0:0:0:
371,293,99626,1,0,3:0:0:0:
419,200,99797,1,2,3:0:0:0:
367,108,99969,1,0,3:0:0:0:
347,122,100054,1,0,3:0:0:0:
329,139,100140,1,0,3:0:0:0:
318,161,100226,1,0,3:0:0:0:
313,184,100311,1,0,3:0:0:0:
303,292,100483,1,2,3:0:0:0:
303,292,100654,1,2,3:0:0:0:
214,346,100826,5,0,3:0:0:0:
214,346,100997,1,0,3:0:0:0:
120,315,101169,2,0,P|140:281|239:252,1,140,2|0,3:0|3:0,3:0:0:0:
338,269,101683,1,0,2:0:0:0:
421,333,101854,1,2,3:0:0:0:
505,269,102026,1,2,3:0:0:0:
505,164,102197,6,0,P|465:96|405:78,1,140,0|2,3:0|3:0,3:0:0:0:
318,25,102712,2,0,P|263:54|250:85,1,70,2|0,3:0|3:0,3:0:0:0:
187,142,103054,1,0,3:0:0:0:
296,220,103226,1,2,3:0:0:0:
253,125,103397,1,0,3:0:0:0:
185,249,103569,6,0,P|114:280|168:209,1,210,0|0,3:0|3:0,3:0:0:0:
253,125,104254,6,0,P|289:96|334:112,1,70,12|0,0:0|0:0,0:0:0:0:
382,94,104511,2,0,P|399:132|374:173,1,70,12|0,0:0|0:0,0:0:0:0:
365,225,104768,1,12,0:0:0:0:
305,312,104940,5,0,3:0:0:0:
305,312,105112,1,0,3:0:0:0:
206,348,105283,1,2,3:0:0:0:
108,312,105454,1,0,3:0:0:0:
106,287,105539,1,0,3:0:0:0:
109,262,105625,1,0,3:0:0:0:
119,240,105711,1,0,3:0:0:0:
134,222,105796,1,0,3:0:0:0:
217,157,105969,1,2,3:0:0:0:
217,157,106140,1,2,3:0:0:0:
303,226,106312,5,0,3:0:0:0:
303,226,106483,1,0,3:0:0:0:
217,273,106654,2,0,P|248:299|349:311,1,140,2|0,3:0|3:0,3:0:0:0:
445,312,107169,1,0,2:0:0:0:
504,227,107340,1,2,3:0:0:0:
504,227,107512,1,2,3:0:0:0:
487,137,107683,5,2,3:0:0:0:
487,137,107854,1,0,3:0:0:0:
368,94,108026,1,0,3:0:0:0:
322,198,108197,5,2,3:0:0:0:
322,198,108369,1,0,3:0:0:0:
388,305,108540,1,0,3:0:0:0:
432,201,108712,5,2,3:0:0:0:
432,201,108883,1,0,3:0:0:0:
326,269,109054,1,0,3:0:0:0:
222,227,109226,5,2,3:0:0:0:
222,227,109397,1,0,3:0:0:0:
133,137,109569,1,0,3:0:0:0:
218,65,109740,6,0,P|263:56|295:91,1,70,12|0,0:0|0:0,0:0:0:0:
346,98,109997,2,0,P|343:139|301:163,1,70,12|0,0:0|0:0,0:0:0:0:
269,205,110254,1,12,0:0:0:0:
182,253,110426,5,0,3:0:0:0:
89,156,115226,6,0,P|95:110|139:92,1,70,12|0,0:0|0:0,0:0:0:0:
163,46,115483,2,0,P|200:62|208:110,1,70,12|0,0:0|0:0,0:0:0:0:
237,155,115740,1,12,0:0:0:0:
268,264,115912,5,0,3:0:0:0:
268,264,116083,1,4,0:0:0:0:
319,149,116254,1,4,0:0:0:0:
426,114,116426,5,12,0:0:0:0:
426,114,116597,1,4,0:0:0:0:
506,211,116769,1,4,0:0:0:0:
430,293,116940,5,12,0:0:0:0:
430,293,117112,1,4,0:0:0:0:
328,339,117283,5,12,0:0:0:0:
328,339,117454,1,4,0:0:0:0:
365,219,117626,1,4,0:0:0:0:
310,122,117797,5,12,0:0:0:0:
310,122,117969,1,4,0:0:0:0:
199,181,118140,1,4,0:0:0:0:
294,274,118312,5,12,0:0:0:0:
294,274,118483,1,4,0:0:0:0:
418,246,118654,5,12,0:0:0:0:
305,189,118826,1,4,0:0:0:0:
220,106,118997,5,12,0:0:0:0:
333,49,119169,1,4,0:0:0:0:
405,125,119340,5,12,0:0:0:0:
355,241,119512,1,4,0:0:0:0:
416,326,119683,5,12,0:0:0:0:
297,285,119854,1,4,0:0:0:0:
192,326,120026,6,0,P|139:281|95:193,1,140,12|0,0:0|0:0,0:0:0:0:
44,134,120540,1,0,0:0:0:0:
108,50,120712,6,0,L|159:39,3,35,2|0|0|0,2:0|2:0|2:0|2:0,2:0:0:0:
169,110,121054,2,0,L|219:121,3,35,2|0|0|0,2:0|2:0|2:0|2:0,2:0:0:0:
265,40,121397,5,2,2:0:0:0:
265,40,121569,1,2,2:0:0:0:
362,87,121740,1,2,2:0:0:0:
436,162,121912,2,0,P|340:179|294:161,1,140,2|0,2:0|2:0,2:0:0:0:
203,117,122426,5,2,2:0:0:0:
203,117,122597,1,2,2:0:0:0:
110,173,122769,1,2,2:0:0:0:
148,260,122940,2,0,P|102:268|53:250,2,70,2|0|0,2:0|2:0|2:0,2:0:0:0:
246,208,123454,6,0,L|312:157,1,70,2|2,2:0|2:0,2:0:0:0:
436,162,123797,2,0,L|377:223,1,70,2|2,2:0|2:0,2:0:0:0:
332,282,124140,5,2,2:0:0:0:
332,282,124312,1,2,2:0:0:0:
216,285,124483,1,2,2:0:0:0:
125,350,124654,2,0,L|95:285,1,70,2|0,2:0|2:0,2:0:0:0:
57,188,124997,5,2,2:0:0:0:
75,172,125083,1,0,2:0:0:0:
93,157,125168,2,0,L|130:125,3,35,2|0|0|0,2:0|2:0|2:0|2:0,2:0:0:0:
139,119,125512,6,0,P|201:96|260:116,1,105,2|0,2:0|2:0,2:0:0:0:
314,108,125854,6,0,L|364:83,3,35,2|0|0|0,2:0|2:0|2:0|2:0,2:0:0:0:
375,158,126197,2,0,L|434:148,3,35,2|0|0|0,2:0|2:0|2:0|2:0,2:0:0:0:
426,220,126539,1,2,2:0:0:0:
511,299,126712,5,0,2:0:0:0:
511,299,126797,1,0,2:0:0:0:
511,299,126883,1,2,2:0:0:0:
426,360,127054,1,0,2:0:0:0:
322,281,127226,6,0,L|353:256,2,35,2|0|0,2:0|2:0|2:0,2:0:0:0:
181,324,127569,2,0,L|153:378,2,35,2|0|0,2:0|2:0|2:0,2:0:0:0:
204,178,127912,2,0,L|180:141,2,35,2|0|0,2:0|2:0|2:0,2:0:0:0:
322,281,128254,5,2,2:0:0:0:
204,178,128597,6,0,L|181:142,2,35,2|0|0,2:0|2:0|2:0,2:0:0:0:
181,324,128940,2,0,L|153:378,2,35,2|0|0,2:0|2:0|2:0,2:0:0:0:
322,281,129283,2,0,L|356:254,2,35,2|0|0,2:0|2:0|2:0,2:0:0:0:
323,158,129626,6,0,P|352:158|395:159,2,46.6666666666667,2|0|0,2:0|2:0|2:0,2:0:0:0:
203,84,129969,2,0,L|139:85,2,46.6666666666667,2|0|0,2:0|2:0|2:0,2:0:0:0:
323,158,130312,2,0,L|382:159,2,46.6666666666667,2|0|0,2:0|2:0|2:0,2:0:0:0:
203,84,130654,2,0,L|146:83,2,46.6666666666667,2|0|0,2:0|2:0|2:0,2:0:0:0:
319,100,130997,6,0,L|373:86,3,35,2|0|0|0,2:0|2:0|2:0|2:0,2:0:0:0:
369,158,131340,2,0,L|421:168,3,35,2|0|0|0,2:0|2:0|2:0|2:0,2:0:0:0:
387,232,131683,2,0,L|427:261,3,35,2|0|0|0,2:0|2:0|2:0|2:0,2:0:0:0:
363,302,132026,2,0,L|384:344,3,35,2|0|0|0,2:0|2:0|2:0|2:0,2:0:0:0:
318,367,132369,5,2,2:0:0:0:
318,367,132540,1,2,2:0:0:0:
213,327,132712,1,2,2:0:0:0:
147,254,132883,2,0,P|119:291|118:345,2,70,2|0|0,2:0|2:0|2:0,2:0:0:0:
226,184,133397,5,2,2:0:0:0:
226,184,133569,1,2,2:0:0:0:
336,203,133740,1,2,2:0:0:0:
404,292,133912,2,0,P|381:321|341:334,2,70,2|0|0,2:0|2:0|2:0,2:0:0:0:
469,201,134426,6,0,L|410:132,1,70,2|2,2:0|2:0,2:0:0:0:
349,64,134769,2,0,L|269:119,1,70,2|2,2:0|2:0,2:0:0:0:
200,175,135112,5,2,2:0:0:0:
200,175,135284,1,2,2:0:0:0:
112,106,135455,1,2,2:0:0:0:
46,196,135626,2,0,L|100:242,1,70,2|0,2:0|2:0,2:0:0:0:
180,299,135969,5,2,2:0:0:0:
199,313,136055,1,0,2:0:0:0:
219,326,136140,2,0,L|259:353,3,35,2|0|0|0,2:0|2:0|2:0|2:0,2:0:0:0:
268,359,136484,6,0,P|332:375|388:349,1,105,2|0,2:0|2:0,2:0:0:0:
436,333,136826,6,0,L|486:308,3,35,2|0|0|0,2:0|2:0|2:0|2:0,2:0:0:0:
445,248,137169,2,0,L|494:217,3,35,2|0|0|0,2:0|2:0|2:0|2:0,2:0:0:0:
462,161,137511,1,2,2:0:0:0:
384,94,137684,5,0,2:0:0:0:
384,94,137769,1,0,2:0:0:0:
384,94,137855,1,2,2:0:0:0:
295,162,138026,1,0,2:0:0:0:
205,87,138198,6,0,L|215:48,2,35,2|0|0,2:0|2:0|2:0,2:0:0:0:
117,204,138541,6,0,L|126:264,2,35,2|0|0,2:0|2:0|2:0,2:0:0:0:
49,73,138884,2,0,L|7:57,2,35,2|0|0,2:0|2:0|2:0,2:0:0:0:
205,87,139226,5,2,2:0:0:0:
49,73,139569,6,0,L|9:57,2,35,2|0|0,2:0|2:0|2:0,2:0:0:0:
117,204,139912,2,0,L|126:264,2,35,2|0|0,2:0|2:0|2:0,2:0:0:0:
205,87,140255,2,0,L|216:45,2,35,2|0|0,2:0|2:0|2:0,2:0:0:0:
188,208,140598,6,0,L|242:246,2,46.6666666666667,2|0|0,2:0|2:0|2:0,2:0:0:0:
80,137,140941,2,0,L|37:183,2,46.6666666666667,2|0|0,2:0|2:0|2:0,2:0:0:0:
173,48,141284,2,0,L|128:9,2,46.6666666666667,2|0|0,2:0|2:0|2:0,2:0:0:0:
261,141,141626,2,0,L|186:142,2,46.6666666666667,2|0|0,2:0|2:0|2:0,2:0:0:0:
329,75,141969,6,0,L|380:112,3,35,2|0|0|0,2:0|2:0|2:0|2:0,2:0:0:0:
338,168,142312,2,0,L|339:217,3,35,2|0|0|0,2:0|2:0|2:0|2:0,2:0:0:0:
404,240,142655,2,0,L|436:271,3,35,2|0|0|0,2:0|2:0|2:0|2:0,2:0:0:0:
370,313,142998,2,0,L|371:365,3,35,2|0|0|0,2:0|2:0|2:0|2:0,2:0:0:0:
303,377,143341,5,2,2:0:0:0:
184,260,143683,1,0,2:0:0:0:
321,240,144026,1,2,2:0:0:0:
180,346,144369,1,0,2:0:0:0:
47,232,144712,6,0,P|98:172|177:161,1,140,2|0,2:0|2:0,2:0:0:0:
243,158,145226,1,2,2:0:0:0:
243,158,145397,1,0,2:0:0:0:
409,285,145740,1,2,2:0:0:0:
436,382,146083,2,0,P|488:335|499:259,1,140,2|0,2:0|2:0,2:0:0:0:
486,93,146769,2,0,P|426:87|341:137,1,140,2|0,2:0|2:0,2:0:0:0:
261,223,147454,5,2,2:0:0:0:
115,261,147797,1,2,2:0:0:0:
115,261,147969,2,0,P|118:214|180:129,1,140,2|0,2:0|2:0,2:0:0:0:
242,96,148483,1,2,2:0:0:0:
242,96,148654,1,2,2:0:0:0:
328,23,148826,5,4,3:0:0:0:
435,54,148997,1,4,3:0:0:0:
512,126,149169,5,4,3:0:0:0:
403,152,149340,1,4,3:0:0:0:
328,226,149512,5,4,3:0:0:0:
435,255,149683,1,4,3:0:0:0:
512,322,149854,5,4,3:0:0:0:
403,353,150026,1,4,3:0:0:0:
403,353,150197,5,4,3:0:0:0:
512,322,150369,1,4,3:0:0:0:
435,255,150540,5,4,3:0:0:0:
328,226,150712,1,4,3:0:0:0:
403,152,150883,5,4,3:0:0:0:
512,126,151054,1,4,3:0:0:0:
435,54,151226,5,4,3:0:0:0:
328,23,151397,1,4,3:0:0:0:
224,86,151569,5,4,3:0:0:0:
212,86,151654,1,4,3:0:0:0:
199,86,151740,1,4,3:0:0:0:
186,86,151826,1,4,3:0:0:0:
174,86,151912,2,0,L|140:86,3,35,4|4|4|4,3:0|3:0|3:0|3:0,3:0:0:0:
127,86,152254,5,4,3:0:0:0:
114,86,152340,1,4,3:0:0:0:
101,86,152426,1,4,3:0:0:0:
88,86,152512,1,4,3:0:0:0:
76,86,152597,2,0,P|54:128|70:159,1,70,2|2,2:0|2:0,2:0:0:0:
121,241,152940,5,2,2:0:0:0:
278,329,153283,1,2,2:0:0:0:
278,329,153454,1,2,2:0:0:0:
491,176,153969,1,2,2:0:0:0:
358,63,154312,6,0,B|198:74|324:210|183:255,1,280,2|2,2:0|2:0,2:0:0:0:
74,237,155683,6,0,P|118:321|229:358,1,210,2|2,2:0|2:0,2:0:0:0:
374,331,156712,5,2,2:0:0:0:
263,226,157054,1,2,2:0:0:0:
378,76,157569,1,2,2:0:0:0:
378,76,157740,1,2,2:0:0:0:
199,39,158426,5,2,2:0:0:0:
105,144,158769,1,2,2:0:0:0:
105,144,158940,1,2,2:0:0:0:
251,309,159454,5,2,2:0:0:0:
251,309,159626,1,2,2:0:0:0:
251,309,159797,1,2,2:0:0:0:
414,176,160312,1,2,2:0:0:0:
414,176,160483,1,2,2:0:0:0:
253,75,161169,5,2,2:0:0:0:
101,189,161683,1,2,2:0:0:0:
216,338,162197,1,2,2:0:0:0:
216,338,162540,1,2,2:0:0:0:
402,243,163569,5,2,2:0:0:0:
402,243,163740,1,2,2:0:0:0:
402,243,163912,1,2,2:0:0:0:
358,116,164254,1,2,2:0:0:0:
358,116,164426,1,2,2:0:0:0:
256,192,164940,5,2,2:0:0:0:
256,192,165283,1,2,2:0:0:0:
