osu file format v14

[General]
AudioFilename: audio.mp3
AudioLeadIn: 0
PreviewTime: 115226
Countdown: 0
SampleSet: Normal
StackLeniency: 0.7
Mode: 0
LetterboxInBreaks: 0
WidescreenStoryboard: 1

[Editor]
Bookmarks: 110423,115909
DistanceSpacing: 1.2
BeatDivisor: 4
GridSize: 4
TimelineZoom: 2.200001

[Metadata]
Title:Seasons come around
TitleUnicode:Seasons come around
Artist:void
ArtistUnicode:void
Creator:Van246
Version:Hard
Source:Japen 12th "Twelve Moments"
Tags:Mournfinale Mesmerised 5th Album JapEn12th DnB Drum and Bass
BeatmapID:2033162
BeatmapSetID:970968

[Difficulty]
HPDrainRate:5
CircleSize:3.5
OverallDifficulty:6
ApproachRate:7
SliderMultiplier:1.2
SliderTickRate:1

[Events]
//Background and Video events
0,0,"Screenshot_20190428-120648_YouTube.jpg",0,0
Video,0,"JapEn12th_TM.avi"
//Break Periods
2,110625,114326
//Storyboard Layer 0 (Background)
//Storyboard Layer 1 (Fail)
//Storyboard Layer 2 (Pass)
//Storyboard Layer 3 (Foreground)
//Storyboard Sound Samples

[TimingPoints]
712,342.857142857143,4,1,0,70,1,0
10140,-80,4,1,0,70,0,0
19826,-80,4,1,0,30,0,0
21026,-80,4,1,0,70,0,0
55569,-80,4,1,0,70,0,1
88483,-100,4,1,0,45,0,0
98683,-100,4,1,0,70,0,0
115140,-80,4,1,0,70,0,0
121397,-80,4,1,0,70,0,1
143340,-80,4,1,0,70,0,0
154226,-100,4,1,0,70,0,0

[Colours]
Combo1 : 221,221,221
Combo2 : 255,191,255
Combo3 : 146,254,254
Combo4 : 188,48,51

[HitObjects]
51,85,711,6,0,P|163:61|185:66,1,120,2|2,2:0|2:0,2:0:0:0:
238,64,1226,1,0,2:0:0:0:
238,64,1397,1,2,2:0:0:0:
367,126,1740,1,2,2:0:0:0:
360,271,2083,2,0,P|315:296|182:272,2,180,2|2|2,2:0|2:0|2:0,2:0:0:0:
436,149,3454,6,0,L|291:152,1,120,2|0,2:0|2:0,2:0:0:0:
219,44,4140,2,0,P|170:72|133:126,1,120,2|0,2:0|2:0,2:0:0:0:
86,260,4826,1,2,2:0:0:0:
218,316,5169,1,2,2:0:0:0:
218,316,5340,1,2,2:0:0:0:
413,225,5854,1,2,2:0:0:0:
494,106,6197,6,0,P|417:51|387:54,1,120,2|0,2:0|2:0,2:0:0:0:
309,168,6883,2,0,P|365:163|426:113,1,120,2|0,2:0|2:0,2:0:0:0:
298,43,7569,6,0,P|230:57|140:129,1,180,2|2,2:0|2:0,2:0:0:0:
38,312,8597,1,2,2:0:0:0:
256,192,8940,12,8,9969,0:0:0:0:
195,40,10312,6,0,P|144:69|91:144,1,150,4|4,0:0|0:0,0:0:0:0:
98,232,10826,2,0,P|127:283|202:336,1,150,4|4,0:0|0:0,0:0:0:0:
295,337,11340,1,0,0:0:0:0:
295,337,11512,1,8,0:0:0:0:
367,284,11683,5,4,0:0:0:0:
492,155,12026,1,12,0:0:0:0:
317,112,12369,1,4,0:0:0:0:
367,284,12712,1,12,0:0:0:0:
492,155,13054,1,4,0:0:0:0:
317,112,13397,2,0,B|268:73|268:73|286:191|212:248,1,225,12|8,0:0|0:0,0:0:0:0:
130,373,14254,5,8,0:0:0:0:
50,329,14426,2,0,B|11:280|11:280|130:253|197:293,1,225,12|8,0:0|0:0,0:0:0:0:
255,314,15112,1,4,0:0:0:0:
415,232,15454,1,12,0:0:0:0:
262,136,15797,1,4,0:0:0:0:
255,314,16140,2,0,B|304:353|304:353|286:235|360:178,1,225,12|8,0:0|0:0,0:0:0:0:
445,55,16997,5,8,0:0:0:0:
445,55,17169,1,4,0:0:0:0:
266,82,17512,2,0,P|215:102|150:175,1,150,12|4,1:0|1:0,1:0:0:0:
66,329,18197,2,0,P|116:310|180:235,1,150,12|4,1:0|1:0,1:0:0:0:
266,82,18883,1,12,0:0:0:0:
432,294,19397,5,12,0:0:0:0:
274,206,19740,1,12,0:0:0:0:
256,192,19912,12,0,20940,0:0:0:0:
402,141,21283,6,0,P|351:161|286:234,1,150,4|0,1:0|1:0,1:0:0:0:
291,320,21797,2,0,P|240:300|175:227,1,150,4|0,1:0|1:0,1:0:0:0:
136,149,22312,1,0,0:0:0:0:
260,19,22654,5,4,0:0:0:0:
428,82,22997,1,0,0:0:0:0:
280,185,23340,2,0,L|191:145,2,75,6|2|2,0:0|0:0|0:0,0:0:0:0:
359,228,23854,1,2,0:0:0:0:
434,177,24026,1,4,0:0:0:0:
300,55,24369,1,0,0:0:0:0:
135,127,24712,1,4,0:0:0:0:
67,185,24883,2,0,P|93:252|158:298,1,150,8|8,0:0|0:0,0:0:0:0:
236,334,25397,6,2,L|291:315,3,37.5,6|2|2|2,0:0|0:0|0:0|0:0,0:0:0:0:
301,288,25740,2,2,L|349:273,3,37.5
381,283,26083,1,4,0:0:0:0:
450,226,26254,1,8,0:0:0:0:
400,150,26426,2,0,L|400:76,1,75,8|0,0:0|0:0,0:0:0:0:
350,0,26769,2,0,P|321:16|291:129,1,150,12|0,0:0|0:0,0:0:0:0:
380,275,27454,2,0,P|364:304|254:337,1,150,12|0,0:0|0:0,0:0:0:0:
86,286,28140,6,0,P|69:256|75:134,1,150,4|0,0:0|0:0,0:0:0:0:
212,32,28826,1,2,0:0:0:0:
291,73,28997,1,2,0:0:0:0:
368,26,29169,1,2,0:0:0:0:
440,78,29340,1,2,0:0:0:0:
440,78,29512,2,0,P|476:134|487:222,1,150,4|0,0:0|0:0,0:0:0:0:
379,359,30197,1,12,0:0:0:0:
379,359,30369,2,0,P|345:310|338:214,1,150,8|8,0:0|0:0,0:0:0:0:
346,132,30883,6,2,L|286:94,3,37.5,6|2|2|2,0:0|0:0|0:0|0:0,0:0:0:0:
269,113,31226,2,2,L|229:88,3,37.5
216,52,31569,1,4,0:0:0:0:
128,73,31740,1,8,0:0:0:0:
128,73,31912,2,0,L|112:149,1,75,8|0,0:0|0:0,0:0:0:0:
24,160,32254,2,0,P|46:229|100:294,1,150,12|0,0:0|0:0,0:0:0:0:
258,363,32940,1,12,0:0:0:0:
396,247,33283,1,8,0:0:0:0:
462,79,33626,5,4,0:0:0:0:
291,19,33969,1,0,0:0:0:0:
320,196,34312,2,0,L|397:225,2,75,6|2|2,0:0|0:0|0:0,0:0:0:0:
233,171,34826,1,2,0:0:0:0:
182,245,34997,2,0,P|166:120|186:99,1,150,4|0,0:0|0:0,0:0:0:0:
324,11,35683,1,12,0:0:0:0:
390,71,35854,2,0,P|426:124|430:211,1,150,8|8,0:0|0:0,0:0:0:0:
400,293,36369,6,2,L|340:318,3,37.5,6|2|2|2,0:0|0:0|0:0|0:0,0:0:0:0:
320,307,36712,2,2,L|280:282,3,37.5
246,304,37054,1,4,0:0:0:0:
158,284,37226,1,8,0:0:0:0:
82,332,37397,2,0,L|48:261,1,75,8|0,0:0|0:0,0:0:0:0:
5,185,37740,2,0,P|75:179|160:212,1,150,12|0,0:0|0:0,0:0:0:0:
293,313,38426,2,0,P|299:242|341:172,1,150,12|0,0:0|0:0,0:0:0:0:
463,44,39112,1,12,0:0:0:0:
113,130,39797,5,6,0:0:0:0:
203,135,39969,2,0,L|304:90,1,75,2|2,0:0|0:0,0:0:0:0:
335,40,40312,1,2,0:0:0:0:
424,44,40483,2,0,P|460:100|471:189,1,150,4|0,0:0|0:0,0:0:0:0:
326,287,41169,1,12,0:0:0:0:
302,374,41340,2,0,P|251:333|252:237,1,150,8|8,0:0|0:0,0:0:0:0:
283,171,41854,6,2,L|318:120,3,37.5,6|2|2|2,0:0|0:0|0:0|0:0,0:0:0:0:
314,96,42197,2,2,L|340:60,3,37.5
376,46,42540,1,4,0:0:0:0:
448,99,42712,1,8,0:0:0:0:
395,172,42883,2,0,L|398:256,1,75,8|0,0:0|0:0,0:0:0:0:
487,233,43226,2,0,P|466:305|399:340,1,150,12|0,0:0|0:0,0:0:0:0:
225,362,43912,1,12,0:0:0:0:
74,262,44254,1,12,0:0:0:0:
94,83,44597,5,12,0:0:0:0:
265,29,44940,1,8,0:0:0:0:
433,91,45283,1,12,0:0:0:0:
433,91,45454,1,0,0:0:0:0:
376,161,45626,1,8,0:0:0:0:
412,337,45969,5,12,0:0:0:0:
299,196,46312,1,8,0:0:0:0:
202,347,46654,1,12,0:0:0:0:
202,347,46826,1,0,0:0:0:0:
133,288,46997,1,8,0:0:0:0:
52,126,47340,6,0,P|111:128|198:166,1,150,12|0,0:0|0:0,0:0:0:0:
337,272,48026,1,12,0:0:0:0:
337,272,48197,1,0,0:0:0:0:
268,330,48369,1,8,0:0:0:0:
94,282,48712,5,12,0:0:0:0:
9,123,49054,1,8,0:0:0:0:
161,27,49397,1,12,0:0:0:0:
161,27,49569,1,0,0:0:0:0:
237,74,49740,1,0,0:0:0:0:
109,201,50083,6,0,P|155:228|253:241,1,150,12|0,0:0|0:0,0:0:0:0:
430,246,50769,1,12,0:0:0:0:
430,246,50940,1,0,0:0:0:0:
491,179,51112,1,8,0:0:0:0:
392,29,51454,6,0,P|369:75|352:177,1,150,12|0,0:0|0:0,0:0:0:0:
402,344,52140,1,12,0:0:0:0:
402,344,52312,1,0,0:0:0:0:
461,276,52483,1,8,0:0:0:0:
292,212,52826,5,12,0:0:0:0:
209,372,53169,1,8,0:0:0:0:
73,253,53512,1,12,0:0:0:0:
73,253,53683,1,0,0:0:0:0:
20,180,53854,1,8,0:0:0:0:
143,49,54197,5,12,0:0:0:0:
252,192,54540,1,0,0:0:0:0:
210,271,54712,1,0,0:0:0:0:
131,314,54883,6,0,L|93:267,3,37.5,8|0|0|8,0:0|0:0|0:0|0:0,0:0:0:0:
82,247,55226,1,8,0:0:0:0:
41,166,55397,1,0,0:0:0:0:
98,96,55569,6,0,P|138:130|235:165,1,150,12|12,0:0|0:0,0:0:0:0:
316,144,56083,1,8,0:0:0:0:
384,86,56254,1,4,0:0:0:0:
384,86,56426,1,0,0:0:0:0:
460,132,56597,2,0,L|462:208,1,75,4|8,0:0|0:0,0:0:0:0:
442,295,56940,6,0,P|399:253|390:154,1,150,12|12,0:0|0:0,0:0:0:0:
383,76,57454,1,0,0:0:0:0:
317,138,57626,2,0,P|296:186|224:251,1,150,12|4,0:0|0:0,0:0:0:0:
140,280,58140,1,8,0:0:0:0:
67,240,58312,5,12,0:0:0:0:
67,240,58483,2,0,L|60:137,1,75,8|12,0:0|0:0,0:0:0:0:
65,79,58826,1,8,0:0:0:0:
65,79,58997,1,4,0:0:0:0:
150,48,59169,2,0,L|240:47,1,75,8|4,0:0|0:0,0:0:0:0:
315,47,59512,1,8,0:0:0:0:
404,48,59683,5,12,0:0:0:0:
484,209,60026,2,0,L|409:168,1,75,12|0,0:0|0:0,0:0:0:0:
340,131,60369,2,0,L|296:165,3,37.5,12|0|0|8,0:0|0:0|0:0|0:0,0:0:0:0:
272,178,60712,1,0,0:0:0:0:
268,89,60883,1,8,0:0:0:0:
180,70,61054,6,0,P|146:110|100:196,1,150,12|12,0:0|0:0,0:0:0:0:
86,285,61569,1,8,0:0:0:0:
143,354,61740,1,4,0:0:0:0:
143,354,61912,1,8,0:0:0:0:
233,357,62083,2,0,L|318:359,1,75,4|8,0:0|0:0,0:0:0:0:
395,335,62426,6,0,P|352:295|262:273,1,150,12|12,0:0|0:0,0:0:0:0:
176,258,62940,1,0,0:0:0:0:
90,228,63112,2,0,P|127:190|229:181,1,150,12|12,0:0|0:0,0:0:0:0:
306,202,63626,1,0,0:0:0:0:
376,266,63797,5,12,0:0:0:0:
376,266,63969,2,0,L|456:292,1,75,8|4,0:0|0:0,0:0:0:0:
477,204,64312,1,8,0:0:0:0:
477,204,64483,1,4,0:0:0:0:
396,174,64654,2,0,L|325:139,1,75,12|4,0:0|0:0,0:0:0:0:
246,104,64997,1,8,0:0:0:0:
155,104,65169,5,12,0:0:0:0:
265,246,65512,2,0,L|349:228,1,75,4|0,0:0|0:0,0:0:0:0:
426,246,65854,2,0,L|386:283,3,37.5,12|0|0|8,0:0|0:0|0:0|0:0,0:0:0:0:
365,302,66197,1,0,0:0:0:0:
285,344,66369,1,12,0:0:0:0:
198,321,66540,6,0,P|153:282|117:181,1,150,12|12,0:0|0:0,0:0:0:0:
85,116,67054,1,8,0:0:0:0:
140,44,67226,1,4,0:0:0:0:
140,44,67397,1,0,0:0:0:0:
219,86,67569,2,0,L|286:41,1,75,4|8,0:0|0:0,0:0:0:0:
368,18,67912,6,0,P|356:94|277:147,1,150,12|12,0:0|0:0,0:0:0:0:
224,183,68426,1,0,0:0:0:0:
144,223,68597,2,0,P|156:147|234:93,1,150,12|12,0:0|0:0,0:0:0:0:
299,98,69112,1,8,0:0:0:0:
372,149,69283,5,12,0:0:0:0:
372,149,69454,2,0,L|423:212,1,75,8|12,0:0|0:0,0:0:0:0:
410,297,69797,1,8,0:0:0:0:
410,297,69969,1,4,0:0:0:0:
334,343,70140,2,0,L|252:345,1,75,8|4,0:0|0:0,0:0:0:0:
168,346,70483,1,8,0:0:0:0:
95,293,70654,5,12,0:0:0:0:
76,113,70997,2,0,L|166:114,1,75,4|0,0:0|0:0,0:0:0:0:
215,179,71340,2,0,L|264:179,3,37.5,12|0|0|8,0:0|0:0|0:0|0:0,0:0:0:0:
297,180,71683,1,0,0:0:0:0:
386,178,71854,1,12,0:0:0:0:
425,96,72026,6,0,P|465:136|446:244,1,150,12|12,0:0|0:0,0:0:0:0:
408,297,72540,1,8,0:0:0:0:
338,355,72712,1,4,0:0:0:0:
338,355,72883,1,0,0:0:0:0:
248,353,73054,2,0,L|145:352,1,75,4|8,0:0|0:0,0:0:0:0:
83,342,73397,6,12,P|119:293|213:277,1,150
293,277,73912,1,0,0:0:0:0:
382,274,74083,2,0,P|344:218|246:212,1,150,12|0,0:0|0:0,0:0:0:0:
176,207,74597,1,8,0:0:0:0:
96,164,74769,5,12,0:0:0:0:
96,164,74940,2,0,L|51:97,1,75,8|12,0:0|0:0,0:0:0:0:
119,39,75283,1,8,0:0:0:0:
119,39,75454,1,4,0:0:0:0:
209,33,75626,2,0,L|289:33,1,75,8|4,0:0|0:0,0:0:0:0:
350,94,75969,1,8,0:0:0:0:
378,8,76140,6,0,P|427:59|438:149,1,150,12|0,0:0|0:0,0:0:0:0:
337,283,76826,2,0,P|272:321|232:333,2,112.5,12|12|12,0:0|0:0|0:0,0:0:0:0:
408,228,77512,5,4,0:0:0:0:
317,72,77854,1,4,0:0:0:0:
185,195,78197,2,0,P|155:254|151:301,2,112.5,4|4|4,0:0|0:0|0:0,0:0:0:0:
304,60,79054,1,4,0:0:0:0:
337,144,79226,1,4,0:0:0:0:
252,303,79569,2,0,P|297:333|352:352,2,112.5,4|4|4,0:0|0:0|0:0,0:0:0:0:
180,249,80254,5,4,0:0:0:0:
33,144,80597,1,4,0:0:0:0:
202,83,80940,2,0,P|158:34|107:13,2,112.5,4|4|4,0:0|0:0|0:0,0:0:0:0:
253,255,81797,1,4,0:0:0:0:
328,304,81969,1,4,0:0:0:0:
378,131,82312,2,0,P|343:89|291:52,2,112.5,4|4|4,0:0|0:0|0:0,0:0:0:0:
416,212,82997,5,4,0:0:0:0:
307,355,83340,1,4,0:0:0:0:
146,272,83683,2,0,P|82:255|32:261,2,112.5,4|4|4,0:0|0:0|0:0,0:0:0:0:
321,311,84540,1,4,0:0:0:0:
397,263,84712,1,4,0:0:0:0:
259,147,85054,2,0,P|213:118|154:100,2,112.5,4|4|4,0:0|0:0|0:0,0:0:0:0:
331,199,85740,5,4,0:0:0:0:
237,353,86083,1,4,0:0:0:0:
99,236,86426,2,0,P|38:257|-5:293,2,112.5,4|4|4,0:0|0:0|0:0,0:0:0:0:
272,188,87283,1,4,0:0:0:0:
359,212,87454,1,4,0:0:0:0:
215,320,87797,2,0,P|255:359|312:386,2,112.5,4|4|4,0:0|0:0|0:0,0:0:0:0:
160,248,88483,5,8,0:0:0:0:
75,131,88826,1,8,2:0:0:0:
130,85,88997,1,12,2:0:0:0:
260,146,89340,1,8,2:0:0:0:
93,283,89854,6,0,P|114:232|150:177,1,120,12|8,2:0|2:0,2:0:0:0:
187,115,90369,1,12,2:0:0:0:
313,45,90712,1,8,2:0:0:0:
481,179,91226,5,12,2:0:0:0:
343,134,91569,1,8,2:0:0:0:
284,175,91740,1,12,2:0:0:0:
156,107,92083,1,8,2:0:0:0:
93,313,92597,6,0,P|158:291|206:249,1,120,12|8,2:0|2:0,2:0:0:0:
254,214,93112,1,12,2:0:0:0:
127,144,93454,1,8,2:0:0:0:
221,337,93969,5,12,2:0:0:0:
323,236,94312,1,8,2:0:0:0:
283,176,94483,1,12,2:0:0:0:
375,65,94826,1,8,2:0:0:0:
508,234,95340,6,0,P|463:274|397:289,1,120,12|8,2:0|2:0,2:0:0:0:
334,285,95854,1,12,2:0:0:0:
191,261,96197,1,8,2:0:0:0:
263,57,96712,5,12,2:0:0:0:
345,175,97054,1,8,2:0:0:0:
412,149,97226,1,12,2:0:0:0:
493,267,97569,1,8,2:0:0:0:
297,354,98083,6,0,P|245:374|182:355,1,120,12|8,2:0|2:0,2:0:0:0:
124,317,98597,1,0,0:0:0:0:
95,250,98769,2,0,P|64:271|51:331,2,90,8|8|8,0:0|0:0|0:0,0:0:0:0:
162,225,99454,6,0,P|222:190|263:136,1,120,0|2,3:0|3:0,3:0:0:0:
412,4,100311,5,0,3:0:0:0:
412,4,100482,2,0,L|402:63,1,60,0|0,3:0|3:0,3:0:0:0:
373,129,100825,2,0,P|339:178|282:194,1,120,0|0,3:0|3:0,3:0:0:0:
140,212,101511,2,0,P|133:270|166:319,1,120,0|0,3:0|3:0,3:0:0:0:
230,351,102025,1,0,3:0:0:0:
295,319,102197,6,0,B|346:287|346:287|255:250|213:143,1,240,2|0,3:0|3:0,3:0:0:0:
182,103,103053,1,2,3:0:0:0:
182,103,103225,1,2,3:0:0:0:
114,147,103396,1,2,3:0:0:0:
114,147,103568,2,0,B|122:185|122:185|157:213|157:213|175:308,1,180,2|0,3:0|3:0,3:0:0:0:
224,359,104253,2,0,P|264:342|290:306,2,90,8|8|8,1:0|1:0|1:0,1:0:0:0:
151,368,104940,6,0,P|91:333|50:279,1,120,0|2,3:0|3:0,3:0:0:0:
7,85,105796,5,0,3:0:0:0:
7,85,105967,2,0,L|87:122,1,60,0|0,3:0|3:0,3:0:0:0:
126,141,106310,2,0,P|179:166|204:219,1,120,0|0,3:0|3:0,3:0:0:0:
239,359,106996,2,0,P|297:366|346:333,1,120,0|0,3:0|3:0,3:0:0:0:
394,279,107510,1,0,3:0:0:0:
417,210,107682,6,0,B|385:159|385:159|348:250|241:292,1,240,2|0,3:0|3:0,3:0:0:0:
195,311,108538,1,0,3:0:0:0:
195,311,108710,1,0,3:0:0:0:
138,266,108881,1,0,3:0:0:0:
138,266,109053,2,0,B|161:234|161:234|204:224|204:224|261:145,1,180,0|0,3:0|3:0,3:0:0:0:
301,86,109738,2,0,P|341:103|367:139,2,90,0|0|0,3:0|3:0|3:0,3:0:0:0:
228,76,110425,1,0,3:0:0:0:
192,100,115226,6,0,P|257:62|296:52,2,112.5,8|8|8,0:0|0:0|0:0,0:0:0:0:
133,168,115912,6,0,L|57:188,2,75,8|4|4,0:0|0:0|0:0,0:0:0:0:
213,208,116426,2,0,L|288:178,2,75,12|4|4,0:0|0:0|0:0,0:0:0:0:
152,275,116940,1,12,0:0:0:0:
152,275,117112,1,4,0:0:0:0:
238,299,117283,6,0,L|316:268,2,75,8|4|4,0:0|0:0|0:0,0:0:0:0:
152,275,117797,2,0,L|76:305,2,75,12|4|4,0:0|0:0|0:0,0:0:0:0:
208,204,118312,1,12,0:0:0:0:
208,204,118483,1,4,0:0:0:0:
129,161,118654,6,0,L|189:94,1,75,12|4,0:0|0:0,0:0:0:0:
237,36,118997,2,0,L|308:80,1,75,12|4,0:0|0:0,0:0:0:0:
364,139,119340,2,0,L|310:202,1,75,12|4,0:0|0:0,0:0:0:0:
255,264,119683,2,0,L|192:210,1,75,12|4,0:0|0:0,0:0:0:0:
130,155,120026,6,0,B|81:116|81:116|99:234|25:291,1,225,12|8,0:0|0:0,0:0:0:0:
12,352,120712,2,0,L|75:347,3,37.5
92,336,121054,2,0,L|155:328,3,37.5
170,312,121397,6,0,L|249:298,1,75,2|2,2:0|2:0,2:0:0:0:
299,227,121740,2,0,L|221:202,1,75,2|2,2:0|2:0,2:0:0:0:
35,24,122426,6,0,L|110:63,1,75,2|2,2:0|2:0,2:0:0:0:
177,107,122769,2,0,L|110:155,1,75,2|2,2:0|2:0,2:0:0:0:
155,345,123454,6,0,L|223:306,1,75,2|2,2:0|2:0,2:0:0:0:
299,265,123797,2,0,L|249:187,1,75,2|2,2:0|2:0,2:0:0:0:
214,122,124140,6,0,L|126:172,1,75,2|2,2:0|2:0,2:0:0:0:
69,202,124483,2,0,L|122:286,1,75,2|2,2:0|2:0,2:0:0:0:
252,341,124997,2,0,L|218:381,4,37.5,2|0|0|0|0,2:0|2:0|2:0|2:0|2:0,2:0:0:0:
314,275,125512,6,0,L|377:206,1,75,2|0,2:0|2:0,2:0:0:0:
362,129,125854,2,0,L|311:167,3,37.5,2|0|0|0,2:0|2:0|2:0|2:0,2:0:0:0:
296,179,126197,2,0,L|245:218,3,37.5,2|0|0|0,2:0|2:0|2:0|2:0,2:0:0:0:
233,232,126540,1,2,2:0:0:0:
102,355,126883,5,2,2:0:0:0:
287,331,127226,1,2,2:0:0:0:
287,331,127312,1,0,2:0:0:0:
287,331,127397,1,0,2:0:0:0:
353,270,127569,2,0,L|388:284,2,37.5,2|0|0,2:0|2:0|2:0,2:0:0:0:
397,191,127912,1,2,2:0:0:0:
397,191,127997,1,0,2:0:0:0:
397,191,128083,1,0,2:0:0:0:
419,104,128254,5,2,2:0:0:0:
248,45,128597,1,2,2:0:0:0:
248,45,128683,1,0,2:0:0:0:
248,45,128769,1,0,2:0:0:0:
196,118,128940,2,0,L|136:81,2,37.5,2|0|0,2:0|2:0|2:0,2:0:0:0:
182,207,129283,1,2,2:0:0:0:
182,207,129369,1,0,2:0:0:0:
182,207,129455,1,0,2:0:0:0:
95,187,129626,6,0,L|11:155,2,50,2|0|0,2:0|2:0|2:0,2:0:0:0:
125,135,129969,2,0,L|68:93,2,50,2|0|0,2:0|2:0|2:0,2:0:0:0:
173,96,130312,2,0,L|133:32,2,50,2|0|0,2:0|2:0|2:0,2:0:0:0:
228,74,130654,2,0,L|217:14,2,50,2|0|0,2:0|2:0|2:0,2:0:0:0:
285,91,130997,6,0,L|313:126,3,37.5,2|0|0|0,2:0|2:0|2:0|2:0,2:0:0:0:
333,157,131340,2,0,L|363:197,3,37.5,2|0|0|0,2:0|2:0|2:0|2:0,2:0:0:0:
380,224,131683,2,0,L|387:271,3,37.5,2|0|0|0,2:0|2:0|2:0|2:0,2:0:0:0:
383,306,132026,2,0,L|370:357,3,37.5,2|0|0|0,2:0|2:0|2:0|2:0,2:0:0:0:
335,365,132369,6,0,L|253:341,1,75,2|2,2:0|2:0,2:0:0:0:
241,256,132712,2,0,L|161:225,1,75,2|2,2:0|2:0,2:0:0:0:
118,155,133054,1,0,2:0:0:0:
236,16,133397,6,0,L|297:61,1,75,2|2,2:0|2:0,2:0:0:0:
349,133,133740,2,0,L|261:161,1,75,2|2,2:0|2:0,2:0:0:0:
19,126,134426,6,0,L|87:87,1,75,2|2,2:0|2:0,2:0:0:0:
168,57,134769,2,0,L|218:135,1,75,2|2,2:0|2:0,2:0:0:0:
247,201,135112,6,0,L|159:251,1,75,2|2,2:0|2:0,2:0:0:0:
98,272,135454,2,0,L|47:188,1,75,2|2,2:0|2:0,2:0:0:0:
94,77,135969,2,0,L|42:36,4,37.5,2|0|0|0|0,2:0|2:0|2:0|2:0|2:0,2:0:0:0:
168,127,136483,6,0,L|257:120,1,75,2|0,2:0|2:0,2:0:0:0:
321,172,136826,2,0,L|268:195,3,37.5,2|0|0|0,2:0|2:0|2:0|2:0,2:0:0:0:
245,204,137169,2,0,L|192:228,3,37.5,2|0|0|0,2:0|2:0|2:0|2:0,2:0:0:0:
171,242,137512,1,2,2:0:0:0:
10,322,137854,5,2,2:0:0:0:
88,164,138197,1,2,2:0:0:0:
88,164,138283,1,0,2:0:0:0:
88,164,138369,1,0,2:0:0:0:
135,87,138540,2,0,L|104:58,2,37.5,2|0|0,2:0|2:0|2:0,2:0:0:0:
222,65,138883,1,2,2:0:0:0:
222,65,138969,1,0,2:0:0:0:
222,65,139054,1,0,2:0:0:0:
311,63,139226,5,2,2:0:0:0:
391,224,139569,2,0,L|438:249,2,37.5,2|0|0,2:0|2:0|2:0,2:0:0:0:
301,212,139912,1,2,2:0:0:0:
301,212,139997,1,0,2:0:0:0:
301,212,140083,1,0,2:0:0:0:
211,211,140254,2,0,L|164:183,2,37.5,2|0|0,2:0|2:0|2:0,2:0:0:0:
148,276,140597,6,0,L|80:310,2,50,2|0|0,2:0|2:0|2:0,2:0:0:0:
191,317,140940,2,0,L|165:360,2,50,2|0|0,2:0|2:0|2:0,2:0:0:0:
248,334,141283,2,0,L|244:404,2,50,2|0|0,2:0|2:0|2:0,2:0:0:0:
307,338,141626,2,0,L|338:402,2,50,2|0|0,2:0|2:0|2:0,2:0:0:0:
360,309,141969,6,0,L|379:257,3,37.5,2|0|0|0,2:0|2:0|2:0|2:0,2:0:0:0:
390,232,142312,2,0,L|406:167,3,37.5,2|0|0|0,2:0|2:0|2:0|2:0,2:0:0:0:
401,150,142654,2,0,L|392:96,3,37.5,2|0|0|0,2:0|2:0|2:0|2:0,2:0:0:0:
378,71,142997,2,0,L|334:22,3,37.5,2|0|0|0,2:0|2:0|2:0|2:0,2:0:0:0:
311,25,143340,5,0,2:0:0:0:
143,90,143683,1,0,2:0:0:0:
51,245,144026,2,0,P|77:277|175:327,1,150,2|0,2:0|2:0,2:0:0:0:
339,258,144712,6,0,P|299:193|223:151,1,150,2|0,2:0|2:0,2:0:0:0:
156,115,145226,1,2,2:0:0:0:
26,240,145740,1,2,2:0:0:0:
182,329,146083,2,0,P|242:327|327:269,1,150,2|0,2:0|2:0,2:0:0:0:
426,137,146769,2,0,P|366:139|281:182,1,150,2|0,2:0|2:0,2:0:0:0:
135,277,147454,5,2,2:0:0:0:
299,350,147797,1,2,2:0:0:0:
340,269,147969,2,0,P|282:264|206:327,1,150,2|0,2:0|2:0,2:0:0:0:
143,376,148483,2,0,L|72:310,1,75,2|2,2:0|2:0,2:0:0:0:
43,247,148826,6,0,L|45:142,1,75,4|4,3:0|3:0,3:0:0:0:
74,86,149169,2,0,L|154:34,1,75,4|4,3:0|3:0,3:0:0:0:
225,27,149512,2,0,L|316:27,1,75,4|4,3:0|3:0,3:0:0:0:
389,37,149854,2,0,L|454:91,1,75,4|4,3:0|3:0,3:0:0:0:
492,162,150197,2,0,L|494:243,1,75,4|4,3:0|3:0,3:0:0:0:
450,316,150540,2,0,L|385:357,1,75,4|4,3:0|3:0,3:0:0:0:
297,368,150883,2,0,L|204:369,1,75,4|4,3:0|3:0,3:0:0:0:
132,357,151226,2,0,L|56:298,1,75,4|4,3:0|3:0,3:0:0:0:
44,225,151569,6,0,L|93:199,3,37.5,4|4|4|4,3:0|3:0|3:0|3:0,3:0:0:0:
118,188,151912,2,0,L|168:163,3,37.5,4|4|4|4,3:0|3:0|3:0|3:0,3:0:0:0:
192,153,152254,2,0,L|242:128,3,37.5,4|4|4|4,3:0|3:0|3:0|3:0,3:0:0:0:
266,117,152597,2,0,L|316:92,3,37.5,4|4|4|4,3:0|3:0|3:0|3:0,3:0:0:0:
342,85,152940,2,0,P|373:109|427:209,1,150,2|2,2:0|2:0,2:0:0:0:
418,294,153454,1,2,2:0:0:0:
156,360,153969,1,2,2:0:0:0:
17,321,154312,6,2,B|31:205|163:290|192:188,1,240,2|2,2:0|2:0,2:0:0:0:
450,317,155683,6,2,P|365:253|325:168,1,180,2|2,2:0|2:0,2:0:0:0:
178,31,156712,5,2,2:0:0:0:
315,72,157054,1,2,2:0:0:0:
432,253,157569,1,2,2:0:0:0:
432,253,157740,1,2,2:0:0:0:
157,339,158426,5,2,2:0:0:0:
70,223,158769,1,2,2:0:0:0:
70,223,158940,1,2,2:0:0:0:
187,41,159454,2,0,L|251:41,1,60,2|2,2:0|2:0,2:0:0:0:
319,43,159797,5,2,2:0:0:0:
477,190,160312,1,2,2:0:0:0:
477,190,160483,1,2,2:0:0:0:
229,337,161169,5,2,2:0:0:0:
47,220,161683,1,2,2:0:0:0:
179,51,162197,1,2,2:0:0:0:
323,49,162540,1,2,2:0:0:0:
420,242,163569,2,0,L|380:299,1,60,2|2,2:0|2:0,2:0:0:0:
339,346,163912,5,2,2:0:0:0:
206,290,164254,1,2,2:0:0:0:
206,290,164426,1,2,2:0:0:0:
168,77,164940,5,2,2:0:0:0:
255,191,165283,1,2,2:0:0:0:
