osu file format v14

[General]
AudioFilename: audio.mp3
AudioLeadIn: 0
PreviewTime: 115226
Countdown: 0
SampleSet: Normal
StackLeniency: 0.7
Mode: 0
LetterboxInBreaks: 0
WidescreenStoryboard: 1

[Editor]
Bookmarks: 65423,70909,110423,115909
DistanceSpacing: 1.1
BeatDivisor: 4
GridSize: 4
TimelineZoom: 3.399999

[Metadata]
Title:Seasons come around
TitleUnicode:Seasons come around
Artist:void
ArtistUnicode:void
Creator:Van246
Version:Extra
Source:Japen 12th "Twelve Moments"
Tags:Mournfinale Mesmerised 5th Album JapEn12th DnB Drum and Bass
BeatmapID:2033161
BeatmapSetID:970968

[Difficulty]
HPDrainRate:6
CircleSize:4
OverallDifficulty:8
ApproachRate:9.2
SliderMultiplier:1.4
SliderTickRate:1

[Events]
//Background and Video events
0,0,"Screenshot_20190428-120648_YouTube.jpg",0,0
Video,0,"JapEn12th_TM.avi"
//Break Periods
2,110626,114656
//Storyboard Layer 0 (Background)
//Storyboard Layer 1 (Fail)
//Storyboard Layer 2 (Pass)
//Storyboard Layer 3 (Foreground)
//Storyboard Sound Samples

[TimingPoints]
712,342.857142857143,4,1,0,70,1,0
21254,-50,4,1,0,70,0,0
21512,-50,4,1,0,30,0,0
21569,-50,4,1,0,70,0,0
22026,-50,4,1,0,30,0,0
22083,-50,4,1,0,70,0,0
23312,-133.333333333333,4,1,0,70,0,0
23797,-50,4,1,0,70,0,0
24254,-50,4,1,0,30,0,0
24312,-50,4,1,0,70,0,0
24597,-50,4,1,0,30,0,0
24654,-50,4,1,0,70,0,0
28797,-133.333333333333,4,1,0,70,0,0
29283,-50,4,1,0,70,0,0
29740,-50,4,1,0,30,0,0
29797,-50,4,1,0,70,0,0
30083,-50,4,1,0,30,0,0
30140,-50,4,1,0,70,0,0
33854,-50,4,1,0,70,0,0
33912,-50,4,1,0,70,0,0
34197,-50,4,1,0,70,0,0
34254,-50,4,1,0,70,0,0
34283,-133.333333333333,4,1,0,70,0,0
34797,-50,4,1,0,70,0,0
35226,-50,4,1,0,30,0,0
35283,-50,4,1,0,70,0,0
35569,-50,4,1,0,30,0,0
35626,-50,4,1,0,70,0,0
39769,-133.333333333333,4,1,0,70,0,0
40254,-50,4,1,0,70,0,0
40712,-50,4,1,0,30,0,0
40769,-50,4,1,0,70,0,0
41054,-50,4,1,0,70,0,0
41112,-50,4,1,0,70,0,0
44569,-100,4,1,0,70,0,0
55569,-100,4,1,0,70,0,1
76797,-50,4,1,0,70,0,1
76969,-50,4,1,0,30,0,1
77026,-50,4,1,0,70,0,1
77226,-50,4,1,0,30,0,1
77283,-50,4,1,0,70,0,1
78340,-50,4,1,0,30,0,1
78397,-50,4,1,0,70,0,1
78597,-50,4,1,0,30,0,1
78654,-50,4,1,0,70,0,1
82454,-50,4,1,0,30,0,1
82512,-50,4,1,0,70,0,1
82712,-50,4,1,0,30,0,1
82769,-50,4,1,0,70,0,1
87940,-50,4,1,0,30,0,1
87997,-50,4,1,0,70,0,1
88197,-50,4,1,0,30,0,1
88254,-50,4,1,0,70,0,1
88483,-100,4,1,0,45,0,0
98683,-50,4,1,0,70,0,0
98897,-50,4,1,0,30,0,0
98983,-50,4,1,0,70,0,0
99154,-50,4,1,0,30,0,0
99240,-50,4,1,0,70,0,0
99369,-133.333333333333,4,1,0,70,0,0
101083,-100,4,1,0,70,0,0
101383,-133.333333333333,4,1,0,70,0,0
102112,-100,4,1,0,70,0,0
102626,-133.333333333333,4,1,0,70,0,0
103483,-100,4,1,0,70,0,0
104212,-50,4,1,0,70,0,0
104397,-50,4,1,0,70,0,0
104454,-50,4,1,0,70,0,0
104654,-50,4,1,0,70,0,0
104712,-50,4,1,0,70,0,0
104726,-133.333333333333,4,1,0,70,0,0
106612,-100,4,1,0,70,0,0
106869,-133.333333333333,4,1,0,70,0,0
109654,-50,4,1,0,70,0,0
109883,-50,4,1,0,30,0,0
109940,-50,4,1,0,70,0,0
110140,-50,4,1,0,70,0,0
110197,-50,4,1,0,70,0,0
115369,-50,4,1,0,70,0,0
115426,-50,4,1,0,70,0,0
115626,-50,4,1,0,70,0,0
115683,-50,4,1,0,70,0,0
119940,-100,4,1,0,70,0,0
121397,-50,4,1,0,70,0,1
121826,-100,4,1,0,70,0,1
122340,-133.333333333333,4,1,0,70,0,1
122912,-100,4,1,0,70,0,1
125469,-50,4,1,0,70,0,1
129540,-50,4,1,0,70,0,1
132797,-100,4,1,0,70,0,1
133312,-133.333333333333,4,1,0,70,0,1
133883,-100,4,1,0,70,0,1
135883,-50,4,1,0,70,0,1
143340,-100,4,1,0,70,0,0

[Colours]
Combo1 : 221,221,221
Combo2 : 255,191,255
Combo3 : 146,254,254
Combo4 : 188,48,51

[HitObjects]
141,55,711,22,0,P|214:45|281:59,1,140,2|0,2:0|2:0,2:0:0:0:
372,101,1226,1,0,2:0:0:0:
439,186,1397,1,2,2:0:0:0:
284,234,1740,1,2,2:0:0:0:
471,303,2083,2,0,L|400:314,1,70,2|0,2:0|2:0,2:0:0:0:
281,329,2597,1,2,2:0:0:0:
114,286,3112,1,0,2:0:0:0:
63,133,3454,22,0,P|122:83|194:79,1,140,2|0,2:2|2:2,2:2:0:0:
311,74,3969,1,0,2:0:0:0:
311,74,4140,1,2,2:0:0:0:
207,178,4483,1,0,2:0:0:0:
403,220,4826,1,2,2:0:0:0:
358,305,4997,1,0,2:0:0:0:
265,353,5169,1,2,2:0:0:0:
265,353,5340,1,0,2:0:0:0:
53,273,5854,21,0,2:0:0:0:
3,182,6026,1,0,2:0:0:0:
53,100,6197,2,8,P|119:51|259:47,1,210,2|0,2:0|2:0,2:0:0:0:
347,89,6883,1,2,2:0:0:0:
347,89,7226,1,0,2:0:0:0:
237,176,7569,2,0,P|276:246|402:307,1,210,2|2,2:0|2:0,2:0:0:0:
446,150,8597,1,2,2:0:0:0:
256,192,8940,12,12,9969,1:0:0:0:
99,39,10312,21,4,0:0:0:0:
80,72,10397,1,0,0:0:0:0:
86,110,10483,1,0,0:0:0:0:
109,141,10569,2,0,L|141:157,1,35,0|4,0:0|0:0,0:0:0:0:
413,197,10826,21,4,0:0:0:0:
432,230,10912,1,0,0:0:0:0:
426,268,10997,1,0,0:0:0:0:
403,299,11083,2,0,L|371:315,1,35,0|4,0:0|0:0,0:0:0:0:
111,384,11340,22,0,L|142:339,1,35,4|0,0:0|0:0,0:0:0:0:
193,275,11512,1,8,0:0:0:0:
256,192,11683,1,4,0:0:0:0:
390,89,12026,1,12,0:0:0:0:
97,204,12369,1,4,0:0:0:0:
317,301,12712,1,12,0:0:0:0:
220,41,13054,1,4,0:0:0:0:
256,192,13397,1,12,0:0:0:0:
465,330,13740,21,4,0:0:0:0:
360,261,13912,1,8,0:0:0:0:
360,261,14083,1,4,0:0:0:0:
256,192,14254,1,8,0:0:0:0:
369,115,14426,21,4,0:0:0:0:
256,192,14769,1,12,0:0:0:0:
49,42,15112,1,4,0:0:0:0:
256,192,15454,1,12,0:0:0:0:
49,344,15797,1,4,0:0:0:0:
256,192,16140,1,12,0:0:0:0:
465,330,16483,21,4,0:0:0:0:
397,225,16655,1,8,0:0:0:0:
303,326,16826,1,4,0:0:0:0:
256,192,16997,1,8,0:0:0:0:
369,115,17169,21,4,0:0:0:0:
512,181,17340,1,4,0:0:0:0:
383,247,17512,1,12,0:0:0:0:
450,81,17683,1,4,0:0:0:0:
461,260,17854,21,4,0:0:0:0:
335,179,18026,1,4,0:0:0:0:
461,260,18197,1,12,0:0:0:0:
335,179,18369,1,4,0:0:0:0:
219,106,18540,21,4,0:0:0:0:
187,84,18626,1,4,0:0:0:0:
150,72,18712,1,4,0:0:0:0:
112,70,18797,1,4,0:0:0:0:
81,86,18883,21,12,0:0:0:0:
92,124,18969,1,4,0:0:0:0:
93,164,19054,1,4,0:0:0:0:
86,204,19140,1,4,0:0:0:0:
69,240,19226,1,4,0:0:0:0:
45,272,19312,1,4,0:0:0:0:
14,297,19397,21,12,0:0:0:0:
39,330,19483,1,4,0:0:0:0:
75,352,19569,1,4,0:0:0:0:
116,361,19654,1,4,0:0:0:0:
156,347,19740,1,12,0:0:0:0:
193,326,19826,1,4,0:0:0:0:
236,325,19912,1,4,0:0:0:0:
256,192,19997,12,8,21112,0:0:0:0:
227,89,21283,22,0,B|132:59|69:87|69:87|128:139,1,210,4|0,0:0|0:0,0:0:0:0:
178,174,21626,1,0,0:0:0:0:
283,222,21797,22,0,B|378:192|441:220|441:220|382:272,1,210,4|0,0:0|0:0,0:0:0:0:
329,303,22140,1,0,0:0:0:0:
167,337,22312,21,4,0:0:0:0:
120,312,22397,1,0,0:0:0:0:
85,274,22483,1,0,0:0:0:0:
65,226,22569,1,0,0:0:0:0:
64,173,22654,1,4,0:0:0:0:
147,41,22997,21,0,0:0:0:0:
352,61,23340,2,0,L|323:23,1,26.2500010013581,6|0,0:0|0:0,0:0:0:0:
483,159,23512,2,0,L|519:145,1,26.2500010013581,2|0,0:0|0:0,0:0:0:0:
300,216,23683,2,0,L|264:242,1,26.2500010013581,2|0,0:0|0:0,0:0:0:0:
498,294,23854,21,2,0:0:0:0:
469,332,23940,1,0,0:0:0:0:
429,358,24026,2,0,B|334:388|271:360|271:360|330:308,1,210,4|0,0:0|0:0,0:0:0:0:
371,289,24369,22,0,B|408:257|408:257|345:229|250:259,1,210,4|0,0:0|0:0,0:0:0:0:
208,315,24712,1,4,0:0:0:0:
76,290,24883,22,0,L|-34:237,1,70,8|0,0:0|0:0,0:0:0:0:
306,261,25226,2,0,L|367:307,1,70,8|0,0:0|0:0,0:0:0:0:
402,278,25397,6,2,L|449:301,1,46.6666666666667,6|2,0:0|0:0,0:0:0:0:
419,249,25483,2,2,L|465:258,1,46.6666666666667
430,216,25569,2,2,L|476:222,1,46.6666666666667
436,182,25654,2,2,L|488:183,1,46.6666666666667
433,146,25740,2,2,L|488:142,1,46.6666666666667
426,112,25826,2,2,L|474:102,1,46.6666666666667
410,81,25912,2,2,L|458:57,1,46.6666666666667
390,52,25997,2,2,L|429:16,1,46.6666666666667
366,37,26083,5,4,0:0:0:0:
275,131,26254,1,8,0:0:0:0:
171,77,26426,1,0,0:0:0:0:
309,156,26597,1,0,0:0:0:0:
150,58,26769,21,12,0:0:0:0:
49,219,26940,1,0,0:0:0:0:
228,237,27112,1,0,0:0:0:0:
220,131,27283,1,8,0:0:0:0:
219,337,27454,21,4,0:0:0:0:
324,176,27626,1,0,0:0:0:0:
128,179,27797,1,8,0:0:0:0:
375,175,27969,1,0,0:0:0:0:
72,177,28140,21,4,0:0:0:0:
97,130,28226,1,0,0:0:0:0:
135,95,28312,1,0,0:0:0:0:
183,75,28397,1,0,0:0:0:0:
236,74,28483,1,8,0:0:0:0:
436,111,28826,22,2,L|471:100,1,26.2500010013581,6|2,0:0|0:0,0:0:0:0:
257,185,28997,2,2,L|223:185,1,26.2500010013581
444,217,29169,2,2,L|479:224,1,26.2500010013581
267,332,29340,1,2,0:0:0:0:
322,172,29512,22,0,B|352:77|324:14|324:14|272:73,1,210,4|0,0:0|0:0,0:0:0:0:
255,112,29854,22,0,B|225:207|253:270|253:270|305:211,1,210,4|0,0:0|0:0,0:0:0:0:
322,172,30197,1,12,0:0:0:0:
443,90,30369,1,8,0:0:0:0:
253,39,30540,1,0,0:0:0:0:
253,39,30712,1,8,0:0:0:0:
64,76,30883,6,2,L|16:63,1,46.6666666666667
51,113,30969,2,2,L|5:103,1,46.6666666666667
40,146,31054,2,2,L|-6:140,1,46.6666666666667
34,180,31140,2,2,L|-16:175,1,46.6666666666667
37,216,31226,2,2,L|-18:221,1,46.6666666666667
44,250,31312,2,2,L|-3:263,1,46.6666666666667
60,281,31397,2,2,L|7:307,1,46.6666666666667
80,310,31483,2,2,L|40:346,1,46.6666666666667
104,325,31569,5,4,0:0:0:0:
251,280,31740,1,8,0:0:0:0:
357,199,31912,1,0,0:0:0:0:
198,284,32083,1,0,0:0:0:0:
363,167,32254,21,12,0:0:0:0:
304,329,32426,1,0,0:0:0:0:
229,133,32597,1,0,0:0:0:0:
304,329,32769,1,8,0:0:0:0:
126,194,32940,1,12,1:1:0:0:
341,77,33283,21,12,0:0:0:0:
197,187,33626,2,0,B|108:232|83:297|83:297|57:211,1,210,4|0,0:0|0:0,0:0:0:0:
75,164,33969,2,0,B|163:118|188:53|188:53|214:139,1,210
194,186,34312,22,0,L|215:218,1,26.2500010013581,6|0,0:0|0:0,0:0:0:0:
414,171,34483,2,0,L|447:138,1,26.2500010013581,2|0,0:0|0:0,0:0:0:0:
338,325,34654,2,0,L|307:355,1,26.2500010013581,2|0,0:0|0:0,0:0:0:0:
151,281,34826,21,2,0:0:0:0:
115,259,34912,1,0,0:0:0:0:
91,225,34997,2,0,B|61:130|89:67|89:67|141:126,1,210,4|0,0:0|0:0,0:0:0:0:
166,187,35340,22,0,B|261:217|324:189|324:189|265:137,1,210,4|0,0:0|0:0,0:0:0:0:
221,127,35683,1,0,0:0:0:0:
88,67,35854,1,8,0:0:0:0:
56,94,35940,1,8,0:0:0:0:
42,134,36026,1,0,0:0:0:0:
13,277,36197,1,8,0:0:0:0:
157,313,36369,38,2,L|140:362,1,46.6666666666667,6|2,0:0|0:0,0:0:0:0:
189,324,36454,2,2,L|187:378,1,46.6666666666667
224,328,36540,2,2,L|227:383,1,46.6666666666667
258,327,36626,2,2,L|269:377,1,46.6666666666667
293,318,36712,2,2,L|316:368,1,46.6666666666667
325,304,36797,2,2,L|364:351,1,46.6666666666667
352,283,36883,2,2,L|408:328,1,46.6666666666667
377,258,36969,2,2,L|424:283,1,46.6666666666667
388,230,37054,5,4,0:0:0:0:
343,109,37226,1,8,0:0:0:0:
163,82,37397,1,0,0:0:0:0:
261,206,37569,1,0,0:0:0:0:
274,33,37740,21,12,0:0:0:0:
195,201,37912,1,0,0:0:0:0:
274,33,38083,1,0,0:0:0:0:
351,204,38254,1,8,0:0:0:0:
166,130,38426,21,12,0:0:0:0:
355,127,38597,1,0,0:0:0:0:
166,130,38769,1,0,0:0:0:0:
355,127,38940,1,8,0:0:0:0:
93,130,39112,1,12,0:0:0:0:
204,75,39797,22,0,L|225:46,1,26.2500010013581,6|0,0:0|0:0,0:0:0:0:
273,215,39969,2,0,L|258:242,1,26.2500010013581,2|0,0:0|0:0,0:0:0:0:
386,113,40140,2,0,L|407:87,1,26.2500010013581,2|0,0:0|0:0,0:0:0:0:
443,245,40312,1,2,0:0:0:0:
268,322,40483,22,0,B|181:272|158:207|158:207|237:215,1,210,4|0,0:0|0:0,0:0:0:0:
273,215,40826,22,0,B|322:220|322:220|299:155|213:106,1,210,4|0,0:0|0:0,0:0:0:0:
156,110,41169,1,4,0:0:0:0:
87,245,41340,1,8,0:0:0:0:
56,216,41426,1,8,0:0:0:0:
38,178,41512,1,0,0:0:0:0:
107,64,41683,1,8,0:0:0:0:
270,34,41854,38,2,L|286:-11,1,46.6666666666667,6|2,0:0|0:0,0:0:0:0:
303,37,41940,2,2,L|327:-5,1,46.6666666666667
337,48,42026,2,2,L|364:6,1,46.6666666666667
367,63,42112,2,2,L|401:24,1,46.6666666666667
395,86,42197,2,2,L|431:43,1,46.6666666666667
418,113,42283,2,2,L|456:82,1,46.6666666666667
434,143,42369,2,2,L|481:119,1,46.6666666666667
446,176,42454,2,2,L|493:165,1,46.6666666666667
444,206,42540,5,4,0:0:0:0:
327,303,42712,1,8,0:0:0:0:
182,180,42883,1,0,0:0:0:0:
103,339,43054,1,0,0:0:0:0:
255,229,43226,21,12,0:0:0:0:
123,86,43397,1,0,0:0:0:0:
107,264,43569,1,0,0:0:0:0:
280,165,43740,1,8,0:0:0:0:
107,264,43912,2,0,B|204:282|246:338|246:338|248:248,1,210,4|0,0:0|0:0,0:0:0:0:
293,272,44254,21,4,0:0:0:0:
340,247,44340,1,0,0:0:0:0:
375,209,44426,1,0,0:0:0:0:
395,161,44512,1,0,0:0:0:0:
396,108,44597,22,0,P|347:54|291:29,1,105,4|0,0:0|0:0,0:0:0:0:
272,30,44940,1,8,0:0:0:0:
153,116,45112,1,0,0:0:0:0:
281,172,45283,1,4,0:0:0:0:
179,267,45454,1,0,0:0:0:0:
179,267,45540,1,0,0:0:0:0:
179,267,45626,1,8,0:0:0:0:
281,172,45797,1,0,0:0:0:0:
343,44,45969,21,4,0:0:0:0:
458,167,46140,1,0,0:0:0:0:
458,167,46226,1,0,0:0:0:0:
458,167,46312,1,8,0:0:0:0:
372,318,46483,1,0,0:0:0:0:
372,318,46569,1,0,0:0:0:0:
372,318,46654,1,12,0:0:0:0:
166,298,46826,21,4,0:0:0:0:
147,288,46911,1,0,0:0:0:0:
132,275,46997,1,8,0:0:0:0:
122,256,47083,1,0,0:0:0:0:
117,237,47169,1,8,0:0:0:0:
95,95,47340,22,0,P|134:60|182:40,1,105,4|0,0:0|0:0,0:0:0:0:
289,18,47683,1,8,0:0:0:0:
420,103,47854,1,0,0:0:0:0:
289,18,48026,1,4,0:0:0:0:
420,103,48197,1,0,0:0:0:0:
426,123,48283,1,0,0:0:0:0:
423,143,48369,1,8,0:0:0:0:
325,248,48540,1,0,0:0:0:0:
384,357,48712,21,4,0:0:0:0:
458,255,48883,1,0,0:0:0:0:
465,235,48969,1,0,0:0:0:0:
465,213,49054,1,8,0:0:0:0:
375,135,49226,1,0,0:0:0:0:
370,114,49312,1,0,0:0:0:0:
373,93,49397,1,12,0:0:0:0:
461,22,49569,21,4,0:0:0:0:
470,40,49654,1,0,0:0:0:0:
473,60,49740,1,8,0:0:0:0:
469,80,49826,1,0,0:0:0:0:
461,99,49912,1,8,0:0:0:0:
373,213,50083,22,0,P|333:247|285:267,1,105,4|0,0:0|0:0,0:0:0:0:
134,256,50426,1,8,0:0:0:0:
66,129,50597,1,0,0:0:0:0:
134,256,50769,1,4,0:0:0:0:
255,329,50940,1,0,0:0:0:0:
278,336,51026,1,0,0:0:0:0:
302,333,51112,1,8,0:0:0:0:
440,258,51283,1,0,0:0:0:0:
289,244,51454,21,4,0:0:0:0:
163,185,51626,1,0,0:0:0:0:
144,168,51712,1,0,0:0:0:0:
133,145,51797,1,8,0:0:0:0:
154,36,51969,1,0,0:0:0:0:
175,47,52054,1,0,0:0:0:0:
190,65,52140,1,12,0:0:0:0:
247,152,52312,21,0,0:0:0:0:
260,176,52397,1,0,0:0:0:0:
277,198,52483,1,8,0:0:0:0:
299,216,52569,1,0,0:0:0:0:
323,230,52654,1,8,0:0:0:0:
512,235,52826,21,4,0:0:0:0:
494,204,52912,1,0,0:0:0:0:
470,179,52997,1,8,0:0:0:0:
442,158,53083,1,0,0:0:0:0:
410,144,53169,1,8,0:0:0:0:
247,152,53340,1,8,0:0:0:0:
130,258,53512,1,12,0:0:0:0:
247,152,53683,1,8,0:0:0:0:
130,258,53854,21,0,0:0:0:0:
151,293,53940,1,0,0:0:0:0:
182,322,54026,1,0,0:0:0:0:
219,342,54112,1,0,0:0:0:0:
259,352,54197,1,0,0:0:0:0:
384,292,54369,1,0,0:0:0:0:
266,215,54540,2,0,L|238:200,2,17.5
418,140,54712,1,8,0:0:0:0:
294,34,54883,21,8,0:0:0:0:
240,32,54969,1,0,0:0:0:0:
191,47,55054,1,0,0:0:0:0:
150,79,55140,1,8,0:0:0:0:
122,124,55226,1,0,0:0:0:0:
73,288,55397,1,12,0:0:0:0:
210,178,55569,22,0,P|170:144|122:124,1,105,12|0,0:0|0:0,0:0:0:0:
42,114,55912,1,12,0:0:0:0:
240,32,56083,1,8,0:0:0:0:
210,178,56254,1,4,0:0:0:0:
234,212,56340,1,0,0:0:0:0:
257,246,56426,1,0,0:0:0:0:
373,340,56597,1,4,0:0:0:0:
217,332,56769,1,8,0:0:0:0:
337,214,56940,22,0,P|303:174|283:126,1,105,12|0,0:0|0:0,0:0:0:0:
251,54,57283,1,12,0:0:0:0:
416,131,57454,1,0,0:0:0:0:
236,200,57626,2,0,P|202:240|182:288,1,105,12|0,0:0|0:0,0:0:0:0:
180,356,57969,1,4,0:0:0:0:
400,232,58140,1,8,0:0:0:0:
236,200,58312,21,12,0:0:0:0:
211,175,58397,1,0,0:0:0:0:
186,149,58483,1,8,0:0:0:0:
78,36,58654,1,12,0:0:0:0:
232,80,58826,1,8,0:0:0:0:
265,91,58912,1,0,0:0:0:0:
297,102,58997,1,0,0:0:0:0:
484,158,59169,2,0,P|482:202|453:231,1,70,8|4,0:0|0:0,0:0:0:0:
375,340,59512,1,8,0:0:0:0:
368,209,59683,22,0,P|386:157|421:99,1,105,12|0,0:0|0:0,0:0:0:0:
468,56,60026,1,12,0:0:0:0:
297,102,60197,1,0,0:0:0:0:
447,212,60369,1,12,0:0:0:0:
436,158,60454,1,0,0:0:0:0:
411,114,60540,1,0,0:0:0:0:
370,81,60626,1,8,0:0:0:0:
320,64,60712,1,0,0:0:0:0:
167,84,60883,1,8,0:0:0:0:
209,215,61054,22,0,P|249:249|297:269,1,105,12|0,0:0|0:0,0:0:0:0:
373,307,61397,1,12,0:0:0:0:
512,266,61569,1,8,0:0:0:0:
373,307,61740,1,4,0:0:0:0:
339,316,61826,1,0,0:0:0:0:
305,327,61912,1,8,0:0:0:0:
119,368,62083,1,4,0:0:0:0:
305,327,62254,1,8,0:0:0:0:
361,223,62426,22,0,P|321:189|273:169,1,105,12|0,0:0|0:0,0:0:0:0:
200,134,62769,1,12,0:0:0:0:
397,91,62940,1,0,0:0:0:0:
268,229,63112,2,0,P|228:263|180:283,1,105,12|0,0:0|0:0,0:0:0:0:
104,307,63454,1,12,0:0:0:0:
124,155,63626,1,0,0:0:0:0:
268,229,63797,21,12,0:0:0:0:
293,254,63883,1,0,0:0:0:0:
318,280,63969,1,8,0:0:0:0:
417,363,64140,1,4,0:0:0:0:
467,221,64312,1,8,0:0:0:0:
478,188,64397,1,0,0:0:0:0:
489,156,64483,1,0,0:0:0:0:
486,0,64654,2,0,P|442:2|413:31,1,70,12|4,0:0|0:0,0:0:0:0:
323,160,64997,1,8,0:0:0:0:
435,317,65169,22,0,P|392:326|329:317,1,105,12|0,0:0|0:0,0:0:0:0:
261,294,65512,1,0,0:0:0:0:
261,294,65683,1,0,0:0:0:0:
107,191,65854,21,12,0:0:0:0:
105,137,65940,1,0,0:0:0:0:
120,88,66026,1,0,0:0:0:0:
152,47,66112,1,8,0:0:0:0:
197,19,66197,1,0,0:0:0:0:
281,133,66369,1,12,0:0:0:0:
176,248,66540,22,0,P|133:261|71:243,1,105,12|0,0:0|0:0,0:0:0:0:
0,215,66883,1,12,0:0:0:0:
109,76,67054,1,8,0:0:0:0:
176,248,67226,1,4,0:0:0:0:
200,282,67312,1,0,0:0:0:0:
223,316,67397,1,0,0:0:0:0:
391,288,67569,1,4,0:0:0:0:
223,316,67740,1,8,0:0:0:0:
95,186,67912,22,0,P|114:132|150:91,1,105,12|0,0:0|0:0,0:0:0:0:
214,54,68254,1,12,0:0:0:0:
399,84,68426,1,0,0:0:0:0:
236,140,68597,2,0,P|202:180|182:228,1,105,12|0,0:0|0:0,0:0:0:0:
161,307,68940,1,4,0:0:0:0:
374,272,69112,1,8,0:0:0:0:
181,228,69283,21,12,0:0:0:0:
147,216,69369,1,0,0:0:0:0:
113,204,69454,1,8,0:0:0:0:
3,122,69626,1,12,0:0:0:0:
153,52,69797,1,8,0:0:0:0:
185,40,69883,1,0,0:0:0:0:
217,30,69969,1,4,0:0:0:0:
382,100,70140,2,0,P|380:144|351:173,1,70,8|4,0:0|0:0,0:0:0:0:
248,286,70483,1,8,0:0:0:0:
281,105,70654,22,0,P|309:137|330:208,1,105,12|0,0:0|0:0,0:0:0:0:
349,274,70997,1,0,0:0:0:0:
168,262,71169,1,0,0:0:0:0:
330,196,71340,21,12,0:0:0:0:
372,162,71426,1,0,0:0:0:0:
400,119,71512,1,0,0:0:0:0:
411,68,71597,1,8,0:0:0:0:
403,16,71683,1,0,0:0:0:0:
253,108,71854,1,12,0:0:0:0:
169,269,72026,22,0,P|209:303|257:323,1,105,12|0,0:0|0:0,0:0:0:0:
332,349,72369,1,12,0:0:0:0:
441,219,72540,1,8,0:0:0:0:
285,160,72712,1,4,0:0:0:0:
319,136,72797,1,0,0:0:0:0:
353,113,72883,1,0,0:0:0:0:
512,170,73054,1,4,0:0:0:0:
330,216,73226,1,8,0:0:0:0:
359,168,73312,1,0,0:0:0:0:
353,113,73397,22,0,P|313:79|265:59,1,105,12|0,0:0|0:0,0:0:0:0:
188,36,73740,1,12,0:0:0:0:
312,193,73912,1,0,0:0:0:0:
114,87,74083,2,0,P|80:127|60:175,1,105,12|0,0:0|0:0,0:0:0:0:
58,255,74426,1,4,0:0:0:0:
236,200,74597,1,8,0:0:0:0:
190,363,74769,21,12,0:0:0:0:
215,338,74854,1,0,0:0:0:0:
241,313,74940,1,8,0:0:0:0:
332,142,75112,1,12,0:0:0:0:
202,214,75283,1,8,0:0:0:0:
176,237,75369,1,0,0:0:0:0:
152,261,75454,1,4,0:0:0:0:
190,363,75626,2,0,P|234:361|263:332,1,70,8|4,0:0|0:0,0:0:0:0:
402,290,75969,1,8,0:0:0:0:
202,213,76140,22,0,P|255:169|320:145,1,140,12|0,0:0|0:0,0:0:0:0:
455,87,76826,22,0,B|434:59|414:55|414:55|382:89|401:147,1,140,12|0,0:0|0:0,0:0:0:0:
341,187,77083,2,0,B|361:214|381:218|381:218|413:184|395:127,1,140,12|0,0:0|0:0,0:0:0:0:
273,72,77340,1,12,0:0:0:0:
216,301,77512,21,4,0:0:0:0:
26,106,77854,1,4,0:0:0:0:
356,209,78197,21,4,0:0:0:0:
120,127,78454,1,4,0:0:0:0:
330,28,78712,1,4,0:0:0:0:
195,254,79054,21,4,0:0:0:0:
352,355,79226,1,4,0:0:0:0:
453,170,79569,21,4,0:0:0:0:
230,42,79826,1,4,0:0:0:0:
258,273,80083,1,4,0:0:0:0:
182,232,80254,21,4,0:0:0:0:
509,92,80597,1,4,0:0:0:0:
257,79,80940,21,4,0:0:0:0:
69,253,81197,1,4,0:0:0:0:
309,338,81454,1,4,0:0:0:0:
168,129,81797,21,4,0:0:0:0:
355,72,81969,1,4,0:0:0:0:
485,274,82312,21,0,0:0:0:0:
283,99,82569,1,0,0:0:0:0:
149,316,82826,1,4,0:0:0:0:
34,241,82997,21,4,0:0:0:0:
229,40,83340,1,4,0:0:0:0:
435,96,83683,21,4,0:0:0:0:
174,258,83940,1,4,0:0:0:0:
435,96,84197,1,4,0:0:0:0:
135,154,84540,21,4,0:0:0:0:
453,222,84712,1,4,0:0:0:0:
88,49,85054,21,4,0:0:0:0:
342,183,85312,1,4,0:0:0:0:
130,348,85569,1,4,0:0:0:0:
112,199,85740,21,4,0:0:0:0:
494,127,86083,1,4,0:0:0:0:
197,21,86426,21,4,0:0:0:0:
298,339,86683,1,4,0:0:0:0:
379,17,86940,1,4,0:0:0:0:
122,297,87283,21,4,0:0:0:0:
429,246,87454,1,4,0:0:0:0:
171,24,87797,21,0,0:0:0:0:
451,157,88054,1,0,0:0:0:0:
150,266,88312,1,4,0:0:0:0:
472,318,88483,21,12,0:0:0:0:
354,298,88654,1,0,2:0:0:0:
467,249,88826,1,8,2:0:0:0:
354,298,88997,1,12,2:0:0:0:
423,200,89169,1,4,2:0:0:0:
354,298,89340,1,8,2:0:0:0:
359,178,89512,1,0,2:0:0:0:
354,298,89683,1,4,2:0:0:0:
295,194,89854,21,12,2:0:0:0:
354,298,90026,1,0,2:0:0:0:
359,178,90197,1,8,2:0:0:0:
354,298,90369,1,12,2:0:0:0:
423,200,90540,1,4,2:0:0:0:
354,298,90712,1,8,2:0:0:0:
467,249,90883,1,0,2:0:0:0:
354,298,91054,1,4,2:0:0:0:
480,321,91226,21,12,2:0:0:0:
480,321,91397,1,0,2:0:0:0:
392,220,91569,1,8,2:0:0:0:
456,121,91740,1,12,2:0:0:0:
351,64,91912,21,4,2:0:0:0:
265,44,92083,1,8,2:0:0:0:
246,129,92254,1,0,2:0:0:0:
331,149,92426,1,4,2:0:0:0:
265,193,92597,21,12,2:0:0:0:
190,118,92769,1,0,2:0:0:0:
265,44,92940,1,8,2:0:0:0:
339,118,93112,1,12,2:0:0:0:
291,203,93283,21,4,2:0:0:0:
291,80,93454,1,8,2:0:0:0:
168,80,93626,1,0,2:0:0:0:
168,202,93797,1,4,2:0:0:0:
125,312,93969,21,12,2:0:0:0:
168,202,94140,1,0,2:0:0:0:
125,312,94312,1,8,2:0:0:0:
102,195,94483,1,12,2:0:0:0:
125,312,94654,1,4,2:0:0:0:
53,216,94826,1,8,2:0:0:0:
125,312,94997,1,0,2:0:0:0:
14,266,95169,1,4,2:0:0:0:
125,312,95340,21,12,2:0:0:0:
53,216,95512,1,0,2:0:0:0:
125,312,95683,1,8,2:0:0:0:
116,191,95854,1,12,2:0:0:0:
125,312,96026,1,4,2:0:0:0:
182,206,96197,1,8,2:0:0:0:
125,312,96369,1,0,2:0:0:0:
228,250,96540,1,4,2:0:0:0:
303,342,96712,21,12,2:0:0:0:
303,342,96883,1,0,2:0:0:0:
401,274,97054,1,8,2:0:0:0:
306,201,97226,1,12,2:0:0:0:
229,117,97397,21,4,2:0:0:0:
175,46,97569,1,8,2:0:0:0:
106,99,97740,1,0,2:0:0:0:
159,169,97912,1,4,2:0:0:0:
80,160,98083,21,12,2:0:0:0:
70,54,98254,1,0,2:0:0:0:
175,46,98426,1,8,2:0:0:0:
185,150,98597,1,12,2:0:0:0:
231,253,98769,22,0,B|258:279|262:312|262:312|268:280|304:248,1,140,12|0,0:0|0:0,0:0:0:0:
305,175,99026,2,0,B|337:148|343:116|343:116|347:149|374:175,1,140,12|0,0:0|0:0,0:0:0:0:
398,251,99283,1,12,0:0:0:0:
343,325,99454,21,0,3:0:0:0:
229,283,99626,1,0,3:0:0:0:
127,332,99797,1,2,3:0:0:0:
57,230,99969,1,0,3:0:0:0:
57,202,100054,1,0,3:0:0:0:
56,173,100140,1,0,3:0:0:0:
78,156,100226,1,0,3:0:0:0:
81,128,100312,1,0,3:0:0:0:
84,36,100483,1,2,3:0:0:0:
84,36,100654,1,2,3:0:0:0:
184,48,100826,21,0,3:0:0:0:
186,151,100997,1,0,3:0:0:0:
271,91,101169,2,0,P|311:95|341:117,1,70,2|0,3:0|3:0,3:0:0:0:
396,201,101426,2,0,L|414:167,1,26.2500010013581,0|0,3:0|3:0,3:0:0:0:
512,95,101597,2,0,L|498:136,1,26.2500010013581,0|0,3:0|3:0,3:0:0:0:
450,311,101854,1,2,3:0:0:0:
287,253,102026,1,2,3:0:0:0:
157,337,102197,22,0,P|89:297|71:237,1,140,0|2,3:0|3:0,3:0:0:0:
62,116,102626,2,0,L|86:138,1,26.2500010013581,0|0,3:0|3:0,3:0:0:0:
230,154,102797,2,0,L|192:131,1,26.2500010013581,0|0,3:0|3:0,3:0:0:0:
48,24,103054,1,0,3:0:0:0:
250,27,103226,1,2,3:0:0:0:
403,112,103397,1,0,3:0:0:0:
469,228,103569,22,0,P|504:298|421:247,1,245,0|0,3:0|3:0,3:0:0:0:
396,172,104254,2,0,B|369:146|365:113|365:113|359:145|323:177,1,140,12|0,0:0|0:0,0:0:0:0:
277,280,104512,2,0,B|245:307|239:339|239:339|235:306|208:280,1,140,12|0,0:0|0:0,0:0:0:0:
125,178,104769,1,12,0:0:0:0:
274,17,104940,21,0,3:0:0:0:
125,178,105112,1,0,3:0:0:0:
291,91,105283,1,2,3:0:0:0:
125,178,105454,1,0,3:0:0:0:
154,208,105539,1,0,3:0:0:0:
183,238,105625,1,0,3:0:0:0:
187,277,105711,1,0,3:0:0:0:
216,307,105797,1,0,3:0:0:0:
357,380,105969,1,2,3:0:0:0:
357,380,106140,1,2,3:0:0:0:
462,250,106312,21,0,3:0:0:0:
268,204,106483,1,0,3:0:0:0:
431,83,106654,2,0,P|396:62|359:62,1,70,2|0,3:0|3:0,3:0:0:0:
232,102,106912,2,0,L|214:136,1,26.2500010013581,0|0,3:0|3:0,3:0:0:0:
96,227,107083,2,0,L|116:192,1,26.2500010013581,0|0,3:0|3:0,3:0:0:0:
187,30,107340,1,2,3:0:0:0:
183,314,107512,1,2,3:0:0:0:
430,255,107683,21,2,3:0:0:0:
430,255,107854,1,0,3:0:0:0:
430,255,108026,1,0,3:0:0:0:
400,157,108197,21,2,3:0:0:0:
328,243,108369,1,0,3:0:0:0:
353,71,108540,1,0,3:0:0:0:
293,145,108712,21,2,3:0:0:0:
223,37,108883,1,0,3:0:0:0:
228,253,109054,1,0,3:0:0:0:
153,149,109226,21,2,3:0:0:0:
108,315,109397,1,0,3:0:0:0:
54,38,109569,1,0,3:0:0:0:
0,221,109740,22,0,B|22:250|21:284|21:284|32:253|72:227,1,140,12|0,0:0|0:0,0:0:0:0:
183,92,109997,2,0,B|218:69|229:38|229:38|228:71|250:101,1,140,12|0,0:0|0:0,0:0:0:0:
305,306,110254,1,12,0:0:0:0:
452,48,110426,1,12,0:0:0:0:
474,221,115226,22,0,B|452:250|453:284|453:284|442:253|402:227,1,140,12|0,0:0|0:0,0:0:0:0:
341,139,115483,2,0,B|306:116|295:85|295:85|296:118|274:148,1,140,12|0,0:0|0:0,0:0:0:0:
225,279,115740,1,12,0:0:0:0:
93,53,115912,21,8,0:0:0:0:
93,53,116083,1,4,0:0:0:0:
93,53,116254,1,4,0:0:0:0:
119,158,116426,21,12,0:0:0:0:
197,68,116597,1,4,0:0:0:0:
161,248,116769,1,4,0:0:0:0:
235,167,116940,21,12,0:0:0:0:
235,167,117112,1,4,0:0:0:0:
324,166,117283,21,12,0:0:0:0:
355,274,117454,1,4,0:0:0:0:
384,66,117626,1,4,0:0:0:0:
443,180,117797,21,12,0:0:0:0:
443,180,117969,1,4,0:0:0:0:
443,180,118140,1,4,0:0:0:0:
265,181,118312,21,12,0:0:0:0:
265,181,118483,1,4,0:0:0:0:
183,217,118654,21,12,0:0:0:0:
351,153,118826,1,4,0:0:0:0:
149,275,118997,21,12,0:0:0:0:
369,90,119169,1,4,0:0:0:0:
169,338,119340,21,12,0:0:0:0:
331,39,119512,1,4,0:0:0:0:
225,374,119683,21,12,0:0:0:0:
270,12,119854,1,4,0:0:0:0:
256,192,120026,22,0,P|222:252|151:305,1,140,12|0,0:0|0:0,0:0:0:0:
41,351,120540,1,0,0:0:0:0:
29,178,120712,21,2,2:0:0:0:
40,152,120797,1,0,2:0:0:0:
52,127,120883,1,0,2:0:0:0:
63,101,120969,1,0,2:0:0:0:
75,76,121054,21,2,2:0:0:0:
118,104,121140,1,0,2:0:0:0:
170,110,121226,1,0,2:0:0:0:
219,94,121312,1,0,2:0:0:0:
257,57,121397,22,0,P|335:58|407:59,1,140,2|2,2:0|2:0,2:0:0:0:
470,120,121740,1,2,2:0:0:0:
323,184,121912,2,0,P|346:225|390:253,2,70,2|0|0,2:0|2:0|2:0,2:0:0:0:
233,56,122426,22,0,L|199:25,1,26.2500010013581,2|0,2:0|2:0,2:0:0:0:
240,226,122597,2,0,L|274:259,1,26.2500010013581,2|0,2:0|2:0,2:0:0:0:
50,109,122769,2,0,L|22:74,1,26.2500010013581,2|0,2:0|2:0,2:0:0:0:
89,300,122940,2,0,P|81:346|99:395,2,70,2|0|0,2:0|2:0|2:0,2:0:0:0:
185,62,123454,21,2,2:0:0:0:
377,17,123626,1,2,2:0:0:0:
185,62,123797,1,2,2:0:0:0:
433,152,123969,1,2,2:0:0:0:
302,95,124140,21,2,2:0:0:0:
241,165,124312,1,2,2:0:0:0:
223,255,124483,1,2,2:0:0:0:
249,349,124654,2,0,P|296:376|321:376,1,70,2|0,2:0|2:0,2:0:0:0:
401,329,124997,21,2,2:0:0:0:
419,269,125083,1,0,2:0:0:0:
404,208,125169,1,0,2:0:0:0:
361,164,125254,1,0,2:0:0:0:
300,147,125340,1,0,2:0:0:0:
240,164,125426,1,0,2:0:0:0:
198,206,125512,22,0,L|120:324,1,140,2|0,2:0|2:0,2:0:0:0:
52,187,125854,21,2,2:0:0:0:
80,146,125940,1,0,2:0:0:0:
118,117,126026,1,0,2:0:0:0:
165,102,126112,1,0,2:0:0:0:
214,100,126197,21,2,2:0:0:0:
221,123,126283,1,0,2:0:0:0:
228,146,126369,1,0,2:0:0:0:
236,170,126454,1,0,2:0:0:0:
243,193,126540,1,2,2:0:0:0:
336,230,126712,21,0,2:0:0:0:
386,193,126797,1,0,2:0:0:0:
417,139,126883,2,0,P|373:86|304:68,1,140,2|0,2:0|2:0,2:0:0:0:
123,101,127226,21,2,2:0:0:0:
73,138,127312,1,0,2:0:0:0:
42,192,127397,1,0,2:0:0:0:
118,321,127569,21,2,2:0:0:0:
168,284,127654,1,0,2:0:0:0:
199,230,127740,1,0,2:0:0:0:
154,47,127912,21,2,2:0:0:0:
104,84,127997,1,0,2:0:0:0:
73,138,128083,1,0,2:0:0:0:
168,284,128254,1,2,2:0:0:0:
318,351,128597,21,2,2:0:0:0:
368,314,128683,1,0,2:0:0:0:
399,260,128769,1,0,2:0:0:0:
348,104,128940,21,2,2:0:0:0:
310,153,129026,1,0,2:0:0:0:
295,213,129112,1,0,2:0:0:0:
434,199,129283,21,2,2:0:0:0:
462,143,129369,1,0,2:0:0:0:
466,81,129454,1,0,2:0:0:0:
348,104,129626,6,0,P|303:145|315:245,2,93.3333333333333,2|0|0,2:0|2:0|2:0,2:0:0:0:
466,81,129969,2,0,P|448:123|411:151,2,93.3333333333333,2|0|0,2:0|2:0|2:0,2:0:0:0:
405,45,130312,21,2,2:0:0:0:
340,50,130426,1,0,2:0:0:0:
275,30,130540,1,0,2:0:0:0:
211,49,130654,1,2,2:0:0:0:
150,74,130769,1,0,2:0:0:0:
91,49,130883,1,0,2:0:0:0:
64,109,130997,38,0,L|-11:142,3,70,2|0|0|0,2:0|2:0|2:0|2:0,2:0:0:0:
65,185,131340,2,0,L|24:253,3,70,2|0|0|0,2:0|2:0|2:0|2:0,2:0:0:0:
47,310,131683,21,2,2:0:0:0:
85,351,131769,1,0,2:0:0:0:
138,366,131854,1,0,2:0:0:0:
191,351,131940,1,0,2:0:0:0:
228,310,132026,21,2,2:0:0:0:
176,265,132112,1,0,2:0:0:0:
154,199,132197,1,0,2:0:0:0:
170,132,132283,1,0,2:0:0:0:
219,83,132369,1,2,2:0:0:0:
358,29,132540,21,2,2:0:0:0:
471,128,132712,1,2,2:0:0:0:
323,184,132883,2,0,P|346:225|390:253,2,70,2|0|0,2:0|2:0|2:0,2:0:0:0:
198,63,133397,22,0,L|164:68,1,26.2500010013581,2|0,2:0|2:0,2:0:0:0:
400,58,133569,2,0,L|439:56,1,26.2500010013581,2|0,2:0|2:0,2:0:0:0:
146,117,133740,2,0,L|112:122,1,26.2500010013581,2|0,2:0|2:0,2:0:0:0:
425,114,133912,2,0,P|459:109|493:117,2,70,2|0|0,2:0|2:0|2:0,2:0:0:0:
212,187,134426,21,2,2:0:0:0:
329,7,134597,1,2,2:0:0:0:
147,40,134769,1,2,2:0:0:0:
378,174,134940,1,2,2:0:0:0:
244,45,135112,21,2,2:0:0:0:
197,229,135283,1,2,2:0:0:0:
348,159,135454,1,2,2:0:0:0:
113,120,135626,2,0,P|86:167|86:192,1,70,2|0,2:0|2:0,2:0:0:0:
100,289,135969,21,2,2:0:0:0:
129,344,136054,1,0,2:0:0:0:
183,376,136140,1,0,2:0:0:0:
244,377,136226,1,0,2:0:0:0:
300,346,136312,1,0,2:0:0:0:
330,291,136397,1,0,2:0:0:0:
330,232,136483,22,0,L|276:98,1,140,2|0,2:0|2:0,2:0:0:0:
115,44,136826,21,2,2:0:0:0:
74,73,136912,1,0,2:0:0:0:
47,114,136997,1,0,2:0:0:0:
34,161,137083,1,0,2:0:0:0:
35,211,137169,21,2,2:0:0:0:
59,216,137254,1,0,2:0:0:0:
82,222,137340,1,0,2:0:0:0:
107,229,137426,1,0,2:0:0:0:
130,234,137512,1,2,2:0:0:0:
273,313,137683,21,2,2:0:0:0:
213,329,137769,1,0,2:0:0:0:
151,320,137854,1,0,2:0:0:0:
34,286,138026,1,2,2:0:0:0:
130,234,138197,21,2,2:0:0:0:
190,218,138283,1,0,2:0:0:0:
252,227,138369,1,0,2:0:0:0:
394,305,138540,21,2,2:0:0:0:
335,322,138626,1,0,2:0:0:0:
273,313,138712,1,0,2:0:0:0:
323,219,138883,21,2,2:0:0:0:
383,203,138969,1,0,2:0:0:0:
445,212,139054,1,0,2:0:0:0:
273,313,139226,1,2,2:0:0:0:
40,245,139569,21,2,2:0:0:0:
71,191,139654,1,0,2:0:0:0:
121,154,139740,1,0,2:0:0:0:
303,139,139912,21,2,2:0:0:0:
273,193,139997,1,0,2:0:0:0:
225,232,140083,1,0,2:0:0:0:
183,88,140254,21,2,2:0:0:0:
222,39,140340,1,0,2:0:0:0:
278,11,140426,1,0,2:0:0:0:
407,27,140597,5,2,2:0:0:0:
423,80,140712,1,0,2:0:0:0:
428,136,140826,1,0,2:0:0:0:
418,191,140940,1,2,2:0:0:0:
392,240,141054,1,0,2:0:0:0:
351,277,141169,1,0,2:0:0:0:
300,300,141283,21,2,2:0:0:0:
297,237,141397,1,0,2:0:0:0:
244,202,141512,1,0,2:0:0:0:
185,224,141626,1,2,2:0:0:0:
168,284,141740,1,0,2:0:0:0:
206,334,141854,1,0,2:0:0:0:
333,380,141969,37,2,2:0:0:0:
358,367,142054,1,0,2:0:0:0:
383,354,142140,1,0,2:0:0:0:
408,342,142226,1,0,2:0:0:0:
433,329,142312,21,2,2:0:0:0:
411,293,142397,1,0,2:0:0:0:
405,252,142483,1,0,2:0:0:0:
416,211,142569,1,0,2:0:0:0:
443,179,142654,21,2,2:0:0:0:
466,129,142740,1,0,2:0:0:0:
463,74,142826,1,0,2:0:0:0:
433,27,142912,1,0,2:0:0:0:
385,0,142997,21,2,2:0:0:0:
379,70,143083,1,0,2:0:0:0:
357,136,143169,1,0,2:0:0:0:
318,195,143254,1,0,2:0:0:0:
266,242,143340,1,2,2:0:0:0:
28,335,143683,21,0,2:0:0:0:
258,68,144026,1,2,2:0:0:0:
364,313,144369,1,0,2:0:0:0:
90,222,144712,22,0,P|151:168|230:150,1,140,2|0,2:0|2:0,2:0:0:0:
401,114,145226,1,2,2:0:0:0:
401,114,145397,1,0,2:0:0:0:
166,235,145740,1,2,2:0:0:0:
415,35,146083,2,0,P|467:82|478:158,1,140,2|0,2:0|2:0,2:0:0:0:
362,339,146769,2,0,P|302:345|217:295,1,140,2|0,2:0|2:0,2:0:0:0:
66,194,147454,21,2,2:0:0:0:
246,83,147797,1,2,2:0:0:0:
246,83,147969,2,0,P|293:86|378:148,1,140,2|0,2:0|2:0,2:0:0:0:
453,255,148483,1,2,2:0:0:0:
453,255,148654,1,2,2:0:0:0:
322,384,148826,21,4,3:0:0:0:
188,384,148997,1,4,3:0:0:0:
382,325,149169,21,4,3:0:0:0:
145,253,149340,1,4,3:0:0:0:
377,247,149512,21,4,3:0:0:0:
140,324,149683,1,4,3:0:0:0:
316,202,149854,21,4,3:0:0:0:
205,204,150026,1,4,3:0:0:0:
372,149,150197,21,4,3:0:0:0:
140,76,150369,1,4,3:0:0:0:
372,78,150540,21,4,3:0:0:0:
140,146,150712,1,4,3:0:0:0:
311,24,150883,21,4,3:0:0:0:
204,25,151054,1,4,3:0:0:0:
254,107,151226,21,4,3:0:0:0:
254,107,151397,1,4,3:0:0:0:
256,193,151569,21,4,3:0:0:0:
256,205,151654,1,4,3:0:0:0:
256,218,151740,1,4,3:0:0:0:
256,231,151826,1,4,3:0:0:0:
256,243,151912,1,4,3:0:0:0:
256,256,151997,1,4,3:0:0:0:
256,269,152083,21,4,3:0:0:0:
256,282,152169,1,4,3:0:0:0:
256,294,152254,1,4,3:0:0:0:
256,307,152340,1,4,3:0:0:0:
256,320,152426,1,4,3:0:0:0:
256,333,152512,1,4,3:0:0:0:
255,351,152597,22,0,P|297:373|328:357,1,70,2|2,2:0|2:0,2:0:0:0:
432,331,152940,1,2,2:0:0:0:
296,136,153283,21,2,2:0:0:0:
464,102,153454,1,2,2:0:0:0:
238,54,153969,21,2,2:0:0:0:
90,158,154312,2,0,B|101:318|237:192|282:333,1,280,2|2,2:0|2:0,2:0:0:0:
478,294,155683,22,0,P|434:210|337:150,1,210,2|2,2:0|2:0,2:0:0:0:
124,71,156712,21,2,2:0:0:0:
75,141,157054,1,2,2:0:0:0:
127,282,157569,21,2,2:0:0:0:
127,282,157740,1,2,2:0:0:0:
305,355,158426,21,2,2:0:0:0:
422,239,158769,21,2,2:0:0:0:
422,239,158940,1,2,2:0:0:0:
331,87,159454,21,2,2:0:0:0:
331,87,159626,1,2,2:0:0:0:
331,87,159797,1,2,2:0:0:0:
156,147,160312,1,2,2:0:0:0:
156,147,160483,1,2,2:0:0:0:
193,311,161169,21,2,2:0:0:0:
386,207,161683,1,2,2:0:0:0:
283,102,162197,21,2,2:0:0:0:
283,102,162540,1,2,2:0:0:0:
171,212,163569,21,2,2:0:0:0:
171,212,163740,1,2,2:0:0:0:
171,212,163912,1,2,2:0:0:0:
315,284,164254,21,2,2:0:0:0:
315,284,164426,1,2,2:0:0:0:
256,192,164940,21,2,2:0:0:0:
256,192,165283,1,2,2:0:0:0:
