osu file format v14

[General]
AudioFilename: audio.mp3
AudioLeadIn: 0
PreviewTime: 219468
Countdown: 0
SampleSet: Soft
StackLeniency: 0.7
Mode: 3
LetterboxInBreaks: 0
SpecialStyle: 0
WidescreenStoryboard: 0

[Editor]
Bookmarks: 40,27468,54897,82325,109754,137182,150897,178325,205754,219468,246897,260611,274325,301754,329182,356611,370325,384040,389397
DistanceSpacing: 0.8
BeatDivisor: 8
GridSize: 8
TimelineZoom: 3.050001

[Metadata]
Title:Idealized Romance
TitleUnicode:Idealized Romance
Artist:void
ArtistUnicode:void
Creator:BrosephStalin
Version:Cotton Candy Simulation in a Romantic Stream Buffet
Source:
Tags:
BeatmapID:1099959
BeatmapSetID:517719

[Difficulty]
HPDrainRate:8
CircleSize:4
OverallDifficulty:8.5
ApproachRate:5
SliderMultiplier:1.4
SliderTickRate:1

[Events]
//Background and Video events
0,0,"BG.jpg",0,0
//Break Periods
//Storyboard Layer 0 (Background)
//Storyboard Layer 1 (Fail)
//Storyboard Layer 2 (Pass)
//Storyboard Layer 3 (Foreground)
//Storyboard Sound Samples

[TimingPoints]
40,428.571428571429,4,2,0,20,1,0

[HitObjects]
192,192,40,5,0,0:0:0:0:
320,192,254,1,0,0:0:0:0:
448,192,468,1,0,0:0:0:0:
64,192,682,1,0,0:0:0:0:
320,192,682,1,0,0:0:0:0:
192,192,897,1,0,0:0:0:0:
448,192,1111,1,0,0:0:0:0:
320,192,1325,1,0,0:0:0:0:
448,192,1540,1,0,0:0:0:0:
192,192,1968,1,0,0:0:0:0:
448,192,2397,1,0,0:0:0:0:
64,192,2611,1,0,0:0:0:0:
192,192,2611,1,0,0:0:0:0:
320,192,2772,1,0,0:0:0:0:
448,192,2825,1,0,0:0:0:0:
448,192,3254,1,0,0:0:0:0:
64,192,3468,1,0,0:0:0:0:
320,192,3468,1,0,0:0:0:0:
192,192,3682,1,0,0:0:0:0:
320,192,3897,1,0,0:0:0:0:
448,192,4111,1,0,0:0:0:0:
192,192,4111,1,0,0:0:0:0:
192,192,4486,1,0,0:0:0:0:
320,192,4540,1,0,0:0:0:0:
192,192,4754,1,0,0:0:0:0:
320,192,4968,1,0,0:0:0:0:
64,192,5182,1,0,0:0:0:0:
320,192,6040,1,0,0:0:0:0:
192,192,6040,1,0,0:0:0:0:
320,192,6468,1,0,0:0:0:0:
64,192,6468,1,0,0:0:0:0:
192,192,6897,1,0,0:0:0:0:
64,192,6897,1,0,0:0:0:0:
320,192,7111,1,0,0:0:0:0:
448,192,7325,1,0,0:0:0:0:
320,192,7540,1,0,0:0:0:0:
192,192,7540,1,0,0:0:0:0:
448,192,7754,1,0,0:0:0:0:
320,192,7968,1,0,0:0:0:0:
64,192,8182,1,0,0:0:0:0:
320,192,8397,1,0,0:0:0:0:
192,192,8825,1,0,0:0:0:0:
320,192,9254,1,0,0:0:0:0:
64,192,9468,1,0,0:0:0:0:
448,192,9468,1,0,0:0:0:0:
192,192,9629,1,0,0:0:0:0:
320,192,9682,1,0,0:0:0:0:
192,192,10111,1,0,0:0:0:0:
320,192,10325,1,0,0:0:0:0:
448,192,10325,1,0,0:0:0:0:
448,192,10540,1,0,0:0:0:0:
192,192,10540,1,0,0:0:0:0:
320,192,10754,1,0,0:0:0:0:
64,192,10754,1,0,0:0:0:0:
192,192,10968,1,0,0:0:0:0:
320,192,10968,1,0,0:0:0:0:
64,192,11343,1,0,0:0:0:0:
192,192,11397,1,0,0:0:0:0:
320,192,11611,1,0,0:0:0:0:
448,192,11825,1,0,0:0:0:0:
192,192,12040,1,0,0:0:0:0:
320,192,12897,1,0,0:0:0:0:
64,192,12897,128,0,13754:0:0:0:0:
448,192,13325,1,0,0:0:0:0:
192,192,13325,128,0,13754:0:0:0:0:
448,192,13754,1,0,0:0:0:0:
320,192,13754,1,0,0:0:0:0:
192,192,14397,1,0,0:0:0:0:
320,192,14611,1,0,0:0:0:0:
64,192,14611,1,0,0:0:0:0:
448,192,14825,1,0,0:0:0:0:
192,192,15040,1,0,0:0:0:0:
320,192,15254,1,0,0:0:0:0:
192,192,15468,1,0,0:0:0:0:
64,192,15468,1,0,0:0:0:0:
320,192,15682,1,0,0:0:0:0:
448,192,16111,1,0,0:0:0:0:
320,192,16325,1,0,0:0:0:0:
192,192,16325,1,0,0:0:0:0:
64,192,16540,1,0,0:0:0:0:
192,192,16915,1,0,0:0:0:0:
320,192,16968,1,0,0:0:0:0:
448,192,17182,1,0,0:0:0:0:
192,192,17182,1,0,0:0:0:0:
320,192,17397,1,0,0:0:0:0:
192,192,17825,1,0,0:0:0:0:
320,192,18040,1,0,0:0:0:0:
64,192,18040,1,0,0:0:0:0:
448,192,18254,1,0,0:0:0:0:
320,192,18682,1,0,0:0:0:0:
192,192,18897,1,0,0:0:0:0:
64,192,18897,1,0,0:0:0:0:
320,192,19111,1,0,0:0:0:0:
448,192,19540,1,0,0:0:0:0:
320,192,19754,1,0,0:0:0:0:
192,192,19754,1,0,0:0:0:0:
64,192,19915,1,0,0:0:0:0:
192,192,19968,1,0,0:0:0:0:
320,192,20611,1,0,0:0:0:0:
64,192,20611,1,0,0:0:0:0:
192,192,21040,1,0,0:0:0:0:
320,192,21254,1,0,0:0:0:0:
320,192,21682,1,0,0:0:0:0:
448,192,21682,1,0,0:0:0:0:
192,192,21897,1,0,0:0:0:0:
64,192,21897,1,0,0:0:0:0:
192,192,22111,1,0,0:0:0:0:
448,192,22111,1,0,0:0:0:0:
320,192,22325,1,0,0:0:0:0:
64,192,22325,1,0,0:0:0:0:
192,192,23397,1,0,0:0:0:0:
64,192,23611,1,0,0:0:0:0:
192,192,23825,1,0,0:0:0:0:
448,192,24040,1,0,0:0:0:0:
320,192,24040,1,0,0:0:0:0:
320,192,24468,1,0,0:0:0:0:
448,192,24682,1,0,0:0:0:0:
192,192,25111,1,0,0:0:0:0:
192,192,25432,1,0,0:0:0:0:
320,192,25486,1,0,0:0:0:0:
448,192,25540,1,0,0:0:0:0:
64,192,25754,128,0,26611:0:0:0:0:
320,192,26182,1,0,0:0:0:0:
192,192,26504,1,0,0:0:0:0:
320,192,26557,1,0,0:0:0:0:
448,192,26611,128,0,27254:0:0:0:0:
192,192,26718,1,0,0:0:0:0:
320,192,26825,1,0,0:0:0:0:
64,192,26932,1,0,0:0:0:0:
320,192,27147,1,0,0:0:0:0:
64,192,27254,1,0,0:0:0:0:
192,192,27468,1,0,0:0:0:0:
64,192,27468,1,0,0:0:0:0:
320,192,27468,1,0,0:0:0:0:
448,192,27575,1,0,0:0:0:0:
192,192,27682,1,0,0:0:0:0:
320,192,27790,1,0,0:0:0:0:
64,192,27897,1,0,0:0:0:0:
448,192,27897,1,0,0:0:0:0:
192,192,28004,1,0,0:0:0:0:
320,192,28111,1,0,0:0:0:0:
448,192,28218,1,0,0:0:0:0:
192,192,28325,1,0,0:0:0:0:
64,192,28325,1,0,0:0:0:0:
448,192,28432,1,0,0:0:0:0:
192,192,28540,1,0,0:0:0:0:
320,192,28647,1,0,0:0:0:0:
448,192,28754,1,0,0:0:0:0:
64,192,28754,1,0,0:0:0:0:
192,192,28861,1,0,0:0:0:0:
448,192,28968,1,0,0:0:0:0:
320,192,29075,1,0,0:0:0:0:
192,192,29182,1,0,0:0:0:0:
64,192,29182,1,0,0:0:0:0:
448,192,29290,1,0,0:0:0:0:
320,192,29397,1,0,0:0:0:0:
192,192,29504,1,0,0:0:0:0:
64,192,29611,1,0,0:0:0:0:
448,192,29611,1,0,0:0:0:0:
320,192,29718,1,0,0:0:0:0:
192,192,29825,1,0,0:0:0:0:
320,192,29932,1,0,0:0:0:0:
192,192,30040,1,0,0:0:0:0:
64,192,30040,1,0,0:0:0:0:
448,192,30147,1,0,0:0:0:0:
64,192,30254,1,0,0:0:0:0:
320,192,30361,1,0,0:0:0:0:
192,192,30468,1,0,0:0:0:0:
448,192,30468,1,0,0:0:0:0:
64,192,30575,1,0,0:0:0:0:
320,192,30682,1,0,0:0:0:0:
192,192,30790,1,0,0:0:0:0:
448,192,30897,1,0,0:0:0:0:
320,192,30897,1,0,0:0:0:0:
64,192,31004,1,0,0:0:0:0:
192,192,31111,1,0,0:0:0:0:
320,192,31218,1,0,0:0:0:0:
448,192,31325,1,0,0:0:0:0:
64,192,31325,1,0,0:0:0:0:
192,192,31432,1,0,0:0:0:0:
448,192,31540,1,0,0:0:0:0:
320,192,31647,1,0,0:0:0:0:
192,192,31754,1,0,0:0:0:0:
64,192,31754,1,0,0:0:0:0:
448,192,31861,1,0,0:0:0:0:
192,192,31968,1,0,0:0:0:0:
320,192,32075,1,0,0:0:0:0:
448,192,32182,1,0,0:0:0:0:
192,192,32182,1,0,0:0:0:0:
64,192,32290,1,0,0:0:0:0:
320,192,32397,1,0,0:0:0:0:
192,192,32504,1,0,0:0:0:0:
320,192,32611,1,0,0:0:0:0:
448,192,32611,1,0,0:0:0:0:
64,192,32718,1,0,0:0:0:0:
192,192,32825,1,0,0:0:0:0:
320,192,32932,1,0,0:0:0:0:
448,192,33040,1,0,0:0:0:0:
64,192,33040,1,0,0:0:0:0:
192,192,33147,1,0,0:0:0:0:
448,192,33254,1,0,0:0:0:0:
320,192,33361,1,0,0:0:0:0:
192,192,33468,1,0,0:0:0:0:
64,192,33468,1,0,0:0:0:0:
448,192,33575,1,0,0:0:0:0:
320,192,33682,1,0,0:0:0:0:
192,192,33790,1,0,0:0:0:0:
320,192,33897,1,0,0:0:0:0:
448,192,33897,1,0,0:0:0:0:
64,192,34004,1,0,0:0:0:0:
320,192,34111,1,0,0:0:0:0:
192,192,34218,1,0,0:0:0:0:
448,192,34325,1,0,0:0:0:0:
64,192,34325,1,0,0:0:0:0:
320,192,34432,1,0,0:0:0:0:
64,192,34540,1,0,0:0:0:0:
192,192,34647,1,0,0:0:0:0:
320,192,34754,1,0,0:0:0:0:
448,192,34754,1,0,0:0:0:0:
64,192,34861,1,0,0:0:0:0:
192,192,34968,1,0,0:0:0:0:
320,192,35075,1,0,0:0:0:0:
448,192,35182,1,0,0:0:0:0:
64,192,35182,1,0,0:0:0:0:
192,192,35290,1,0,0:0:0:0:
320,192,35397,1,0,0:0:0:0:
448,192,35504,1,0,0:0:0:0:
320,192,35611,1,0,0:0:0:0:
192,192,35611,1,0,0:0:0:0:
64,192,35718,1,0,0:0:0:0:
320,192,35825,1,0,0:0:0:0:
192,192,35932,1,0,0:0:0:0:
64,192,36040,1,0,0:0:0:0:
448,192,36040,1,0,0:0:0:0:
320,192,36147,1,0,0:0:0:0:
192,192,36254,1,0,0:0:0:0:
64,192,36361,1,0,0:0:0:0:
320,192,36468,1,0,0:0:0:0:
448,192,36468,1,0,0:0:0:0:
192,192,36575,1,0,0:0:0:0:
64,192,36682,1,0,0:0:0:0:
320,192,36790,1,0,0:0:0:0:
64,192,36897,1,0,0:0:0:0:
192,192,36897,1,0,0:0:0:0:
448,192,37004,1,0,0:0:0:0:
192,192,37111,1,0,0:0:0:0:
320,192,37218,1,0,0:0:0:0:
64,192,37325,1,0,0:0:0:0:
448,192,37325,1,0,0:0:0:0:
320,192,37432,1,0,0:0:0:0:
192,192,37540,1,0,0:0:0:0:
64,192,37647,1,0,0:0:0:0:
448,192,37754,1,0,0:0:0:0:
192,192,37754,1,0,0:0:0:0:
320,192,37861,1,0,0:0:0:0:
64,192,37968,1,0,0:0:0:0:
192,192,38075,1,0,0:0:0:0:
320,192,38182,1,0,0:0:0:0:
448,192,38182,1,0,0:0:0:0:
64,192,38290,1,0,0:0:0:0:
192,192,38397,1,0,0:0:0:0:
320,192,38504,1,0,0:0:0:0:
448,192,38611,1,0,0:0:0:0:
64,192,38611,1,0,0:0:0:0:
192,192,38718,1,0,0:0:0:0:
320,192,38825,1,0,0:0:0:0:
448,192,38932,1,0,0:0:0:0:
192,192,39040,1,0,0:0:0:0:
64,192,39040,1,0,0:0:0:0:
320,192,39147,1,0,0:0:0:0:
448,192,39254,1,0,0:0:0:0:
192,192,39361,1,0,0:0:0:0:
320,192,39468,1,0,0:0:0:0:
64,192,39468,1,0,0:0:0:0:
448,192,39575,1,0,0:0:0:0:
192,192,39682,1,0,0:0:0:0:
64,192,39790,1,0,0:0:0:0:
320,192,39897,1,0,0:0:0:0:
448,192,39897,1,0,0:0:0:0:
192,192,40004,1,0,0:0:0:0:
64,192,40111,1,0,0:0:0:0:
448,192,40218,1,0,0:0:0:0:
320,192,40325,1,0,0:0:0:0:
192,192,40325,1,0,0:0:0:0:
64,192,40432,1,0,0:0:0:0:
192,192,40540,1,0,0:0:0:0:
448,192,40647,1,0,0:0:0:0:
320,192,40754,1,0,0:0:0:0:
64,192,40754,1,0,0:0:0:0:
192,192,40861,1,0,0:0:0:0:
448,192,40968,1,0,0:0:0:0:
320,192,41075,1,0,0:0:0:0:
192,192,41182,1,0,0:0:0:0:
64,192,41182,1,0,0:0:0:0:
448,192,41182,1,0,0:0:0:0:
320,192,41290,1,0,0:0:0:0:
64,192,41397,1,0,0:0:0:0:
192,192,41504,1,0,0:0:0:0:
320,192,41611,1,0,0:0:0:0:
448,192,41611,1,0,0:0:0:0:
64,192,41718,1,0,0:0:0:0:
320,192,41825,1,0,0:0:0:0:
192,192,41932,1,0,0:0:0:0:
64,192,42040,1,0,0:0:0:0:
448,192,42040,1,0,0:0:0:0:
320,192,42147,1,0,0:0:0:0:
64,192,42254,1,0,0:0:0:0:
192,192,42361,1,0,0:0:0:0:
320,192,42468,1,0,0:0:0:0:
448,192,42468,1,0,0:0:0:0:
64,192,42575,1,0,0:0:0:0:
448,192,42682,1,0,0:0:0:0:
320,192,42790,1,0,0:0:0:0:
192,192,42897,1,0,0:0:0:0:
64,192,42897,1,0,0:0:0:0:
448,192,43004,1,0,0:0:0:0:
192,192,43111,1,0,0:0:0:0:
320,192,43218,1,0,0:0:0:0:
64,192,43325,1,0,0:0:0:0:
448,192,43325,1,0,0:0:0:0:
192,192,43432,1,0,0:0:0:0:
448,192,43540,1,0,0:0:0:0:
320,192,43647,1,0,0:0:0:0:
192,192,43754,1,0,0:0:0:0:
64,192,43754,1,0,0:0:0:0:
448,192,43861,1,0,0:0:0:0:
192,192,43968,1,0,0:0:0:0:
320,192,44075,1,0,0:0:0:0:
64,192,44182,1,0,0:0:0:0:
448,192,44182,1,0,0:0:0:0:
192,192,44290,1,0,0:0:0:0:
448,192,44397,1,0,0:0:0:0:
320,192,44504,1,0,0:0:0:0:
448,192,44611,1,0,0:0:0:0:
192,192,44611,1,0,0:0:0:0:
64,192,44718,1,0,0:0:0:0:
320,192,44825,1,0,0:0:0:0:
192,192,44932,1,0,0:0:0:0:
320,192,45040,1,0,0:0:0:0:
448,192,45040,1,0,0:0:0:0:
64,192,45147,1,0,0:0:0:0:
320,192,45254,1,0,0:0:0:0:
192,192,45361,1,0,0:0:0:0:
64,192,45468,1,0,0:0:0:0:
320,192,45468,1,0,0:0:0:0:
448,192,45575,1,0,0:0:0:0:
192,192,45682,1,0,0:0:0:0:
320,192,45790,1,0,0:0:0:0:
64,192,45897,1,0,0:0:0:0:
192,192,45897,1,0,0:0:0:0:
448,192,46004,1,0,0:0:0:0:
192,192,46111,1,0,0:0:0:0:
320,192,46218,1,0,0:0:0:0:
64,192,46325,1,0,0:0:0:0:
448,192,46325,1,0,0:0:0:0:
192,192,46432,1,0,0:0:0:0:
448,192,46540,1,0,0:0:0:0:
320,192,46647,1,0,0:0:0:0:
192,192,46754,1,0,0:0:0:0:
64,192,46754,1,0,0:0:0:0:
448,192,46861,1,0,0:0:0:0:
64,192,46968,1,0,0:0:0:0:
192,192,47075,1,0,0:0:0:0:
320,192,47182,1,0,0:0:0:0:
448,192,47182,1,0,0:0:0:0:
64,192,47290,1,0,0:0:0:0:
320,192,47397,1,0,0:0:0:0:
448,192,47504,1,0,0:0:0:0:
192,192,47611,1,0,0:0:0:0:
320,192,47611,1,0,0:0:0:0:
64,192,47718,1,0,0:0:0:0:
320,192,47825,1,0,0:0:0:0:
192,192,47932,1,0,0:0:0:0:
448,192,48040,1,0,0:0:0:0:
64,192,48040,1,0,0:0:0:0:
320,192,48147,1,0,0:0:0:0:
64,192,48254,1,0,0:0:0:0:
448,192,48361,1,0,0:0:0:0:
320,192,48468,1,0,0:0:0:0:
192,192,48468,1,0,0:0:0:0:
64,192,48575,1,0,0:0:0:0:
448,192,48682,1,0,0:0:0:0:
320,192,48790,1,0,0:0:0:0:
192,192,48897,1,0,0:0:0:0:
64,192,48897,1,0,0:0:0:0:
448,192,49004,1,0,0:0:0:0:
192,192,49111,1,0,0:0:0:0:
320,192,49218,1,0,0:0:0:0:
448,192,49325,1,0,0:0:0:0:
64,192,49325,1,0,0:0:0:0:
192,192,49432,1,0,0:0:0:0:
448,192,49540,1,0,0:0:0:0:
64,192,49647,1,0,0:0:0:0:
192,192,49754,1,0,0:0:0:0:
448,192,49754,1,0,0:0:0:0:
320,192,49861,1,0,0:0:0:0:
64,192,49968,1,0,0:0:0:0:
192,192,50075,1,0,0:0:0:0:
320,192,50182,1,0,0:0:0:0:
448,192,50182,1,0,0:0:0:0:
64,192,50290,1,0,0:0:0:0:
320,192,50397,1,0,0:0:0:0:
192,192,50504,1,0,0:0:0:0:
64,192,50611,1,0,0:0:0:0:
448,192,50611,1,0,0:0:0:0:
320,192,50718,1,0,0:0:0:0:
64,192,50825,1,0,0:0:0:0:
448,192,50932,1,0,0:0:0:0:
320,192,51040,1,0,0:0:0:0:
64,192,51040,1,0,0:0:0:0:
192,192,51147,1,0,0:0:0:0:
448,192,51254,1,0,0:0:0:0:
320,192,51361,1,0,0:0:0:0:
192,192,51468,1,0,0:0:0:0:
64,192,51468,1,0,0:0:0:0:
448,192,51575,1,0,0:0:0:0:
64,192,51682,1,0,0:0:0:0:
320,192,51790,1,0,0:0:0:0:
192,192,51897,1,0,0:0:0:0:
64,192,51897,1,0,0:0:0:0:
448,192,52004,1,0,0:0:0:0:
192,192,52111,1,0,0:0:0:0:
320,192,52218,1,0,0:0:0:0:
448,192,52325,1,0,0:0:0:0:
64,192,52325,1,0,0:0:0:0:
192,192,52432,1,0,0:0:0:0:
448,192,52540,1,0,0:0:0:0:
64,192,52647,1,0,0:0:0:0:
192,192,52754,1,0,0:0:0:0:
320,192,52754,1,0,0:0:0:0:
448,192,52861,1,0,0:0:0:0:
192,192,52968,1,0,0:0:0:0:
320,192,53075,1,0,0:0:0:0:
448,192,53182,1,0,0:0:0:0:
64,192,53182,1,0,0:0:0:0:
192,192,53290,1,0,0:0:0:0:
448,192,53397,1,0,0:0:0:0:
320,192,53504,1,0,0:0:0:0:
192,192,53611,1,0,0:0:0:0:
64,192,53611,1,0,0:0:0:0:
448,192,53718,1,0,0:0:0:0:
192,192,53825,1,0,0:0:0:0:
320,192,53932,1,0,0:0:0:0:
448,192,54040,1,0,0:0:0:0:
64,192,54040,1,0,0:0:0:0:
192,192,54147,1,0,0:0:0:0:
448,192,54254,1,0,0:0:0:0:
320,192,54361,1,0,0:0:0:0:
192,192,54468,1,0,0:0:0:0:
64,192,54575,1,0,0:0:0:0:
320,192,54682,1,0,0:0:0:0:
192,192,54790,1,0,0:0:0:0:
64,192,54897,1,0,0:0:0:0:
448,192,54897,1,0,0:0:0:0:
320,192,54897,1,0,0:0:0:0:
192,192,55004,1,0,0:0:0:0:
64,192,55111,1,0,0:0:0:0:
192,192,55218,1,0,0:0:0:0:
320,192,55325,1,0,0:0:0:0:
448,192,55325,1,0,0:0:0:0:
64,192,55432,1,0,0:0:0:0:
448,192,55540,1,0,0:0:0:0:
320,192,55647,1,0,0:0:0:0:
192,192,55754,1,0,0:0:0:0:
64,192,55754,1,0,0:0:0:0:
448,192,55861,1,0,0:0:0:0:
192,192,55968,1,0,0:0:0:0:
64,192,56075,1,0,0:0:0:0:
320,192,56182,1,0,0:0:0:0:
448,192,56182,1,0,0:0:0:0:
192,192,56290,1,0,0:0:0:0:
448,192,56397,1,0,0:0:0:0:
192,192,56504,1,0,0:0:0:0:
64,192,56611,1,0,0:0:0:0:
320,192,56611,1,0,0:0:0:0:
448,192,56718,1,0,0:0:0:0:
192,192,56825,1,0,0:0:0:0:
320,192,56932,1,0,0:0:0:0:
192,192,57040,1,0,0:0:0:0:
448,192,57040,1,0,0:0:0:0:
64,192,57147,1,0,0:0:0:0:
320,192,57254,1,0,0:0:0:0:
192,192,57361,1,0,0:0:0:0:
320,192,57468,1,0,0:0:0:0:
64,192,57468,1,0,0:0:0:0:
448,192,57575,1,0,0:0:0:0:
64,192,57682,1,0,0:0:0:0:
320,192,57790,1,0,0:0:0:0:
192,192,57897,1,0,0:0:0:0:
448,192,57897,1,0,0:0:0:0:
64,192,58004,1,0,0:0:0:0:
448,192,58111,1,0,0:0:0:0:
64,192,58218,1,0,0:0:0:0:
320,192,58325,1,0,0:0:0:0:
192,192,58325,1,0,0:0:0:0:
448,192,58432,1,0,0:0:0:0:
320,192,58540,1,0,0:0:0:0:
192,192,58647,1,0,0:0:0:0:
64,192,58754,1,0,0:0:0:0:
448,192,58754,1,0,0:0:0:0:
320,192,58861,1,0,0:0:0:0:
64,192,58968,1,0,0:0:0:0:
448,192,59075,1,0,0:0:0:0:
192,192,59182,1,0,0:0:0:0:
320,192,59182,1,0,0:0:0:0:
64,192,59290,1,0,0:0:0:0:
320,192,59397,1,0,0:0:0:0:
192,192,59504,1,0,0:0:0:0:
64,192,59611,1,0,0:0:0:0:
448,192,59611,1,0,0:0:0:0:
320,192,59718,1,0,0:0:0:0:
64,192,59825,1,0,0:0:0:0:
192,192,59932,1,0,0:0:0:0:
320,192,60040,1,0,0:0:0:0:
448,192,60040,1,0,0:0:0:0:
64,192,60147,1,0,0:0:0:0:
320,192,60254,1,0,0:0:0:0:
448,192,60361,1,0,0:0:0:0:
192,192,60468,1,0,0:0:0:0:
64,192,60468,1,0,0:0:0:0:
320,192,60575,1,0,0:0:0:0:
64,192,60682,1,0,0:0:0:0:
192,192,60790,1,0,0:0:0:0:
320,192,60897,1,0,0:0:0:0:
448,192,60897,1,0,0:0:0:0:
64,192,61004,1,0,0:0:0:0:
448,192,61111,1,0,0:0:0:0:
320,192,61218,1,0,0:0:0:0:
192,192,61325,1,0,0:0:0:0:
64,192,61325,1,0,0:0:0:0:
448,192,61432,1,0,0:0:0:0:
192,192,61540,1,0,0:0:0:0:
320,192,61647,1,0,0:0:0:0:
192,192,61754,1,0,0:0:0:0:
448,192,61754,1,0,0:0:0:0:
64,192,61861,1,0,0:0:0:0:
448,192,61968,1,0,0:0:0:0:
192,192,62075,1,0,0:0:0:0:
320,192,62182,1,0,0:0:0:0:
64,192,62182,1,0,0:0:0:0:
448,192,62290,1,0,0:0:0:0:
192,192,62397,1,0,0:0:0:0:
320,192,62504,1,0,0:0:0:0:
192,192,62611,1,0,0:0:0:0:
448,192,62611,1,0,0:0:0:0:
64,192,62718,1,0,0:0:0:0:
320,192,62825,1,0,0:0:0:0:
192,192,62932,1,0,0:0:0:0:
320,192,63040,1,0,0:0:0:0:
64,192,63040,1,0,0:0:0:0:
448,192,63147,1,0,0:0:0:0:
64,192,63254,1,0,0:0:0:0:
448,192,63361,1,0,0:0:0:0:
192,192,63468,1,0,0:0:0:0:
320,192,63468,1,0,0:0:0:0:
64,192,63575,1,0,0:0:0:0:
192,192,63682,1,0,0:0:0:0:
320,192,63790,1,0,0:0:0:0:
64,192,63897,1,0,0:0:0:0:
448,192,63897,1,0,0:0:0:0:
192,192,64004,1,0,0:0:0:0:
448,192,64111,1,0,0:0:0:0:
64,192,64218,1,0,0:0:0:0:
192,192,64325,1,0,0:0:0:0:
320,192,64325,1,0,0:0:0:0:
448,192,64432,1,0,0:0:0:0:
192,192,64540,1,0,0:0:0:0:
320,192,64647,1,0,0:0:0:0:
64,192,64754,1,0,0:0:0:0:
448,192,64754,1,0,0:0:0:0:
192,192,64861,1,0,0:0:0:0:
448,192,64968,1,0,0:0:0:0:
320,192,65075,1,0,0:0:0:0:
192,192,65182,1,0,0:0:0:0:
64,192,65182,1,0,0:0:0:0:
448,192,65290,1,0,0:0:0:0:
192,192,65397,1,0,0:0:0:0:
64,192,65504,1,0,0:0:0:0:
320,192,65611,1,0,0:0:0:0:
448,192,65611,1,0,0:0:0:0:
192,192,65718,1,0,0:0:0:0:
448,192,65825,1,0,0:0:0:0:
320,192,65932,1,0,0:0:0:0:
192,192,66040,1,0,0:0:0:0:
64,192,66040,1,0,0:0:0:0:
448,192,66147,1,0,0:0:0:0:
64,192,66254,1,0,0:0:0:0:
192,192,66361,1,0,0:0:0:0:
320,192,66468,1,0,0:0:0:0:
448,192,66468,1,0,0:0:0:0:
64,192,66575,1,0,0:0:0:0:
448,192,66682,1,0,0:0:0:0:
64,192,66790,1,0,0:0:0:0:
192,192,66897,1,0,0:0:0:0:
320,192,66897,1,0,0:0:0:0:
448,192,67004,1,0,0:0:0:0:
192,192,67111,1,0,0:0:0:0:
320,192,67218,1,0,0:0:0:0:
64,192,67325,1,0,0:0:0:0:
448,192,67325,1,0,0:0:0:0:
192,192,67432,1,0,0:0:0:0:
448,192,67540,1,0,0:0:0:0:
64,192,67647,1,0,0:0:0:0:
192,192,67754,1,0,0:0:0:0:
320,192,67754,1,0,0:0:0:0:
448,192,67861,1,0,0:0:0:0:
192,192,67968,1,0,0:0:0:0:
320,192,68075,1,0,0:0:0:0:
64,192,68182,1,0,0:0:0:0:
448,192,68182,1,0,0:0:0:0:
192,192,68290,1,0,0:0:0:0:
320,192,68397,1,0,0:0:0:0:
192,192,68504,1,0,0:0:0:0:
320,192,68611,1,0,0:0:0:0:
64,192,68611,1,0,0:0:0:0:
448,192,68611,1,0,0:0:0:0:
192,192,68718,1,0,0:0:0:0:
448,192,68825,1,0,0:0:0:0:
320,192,68932,1,0,0:0:0:0:
192,192,69040,1,0,0:0:0:0:
64,192,69040,1,0,0:0:0:0:
448,192,69147,1,0,0:0:0:0:
64,192,69254,1,0,0:0:0:0:
320,192,69361,1,0,0:0:0:0:
192,192,69468,1,0,0:0:0:0:
448,192,69468,1,0,0:0:0:0:
64,192,69575,1,0,0:0:0:0:
320,192,69682,1,0,0:0:0:0:
192,192,69790,1,0,0:0:0:0:
320,192,69897,1,0,0:0:0:0:
64,192,69897,1,0,0:0:0:0:
448,192,70004,1,0,0:0:0:0:
192,192,70111,1,0,0:0:0:0:
448,192,70218,1,0,0:0:0:0:
192,192,70325,1,0,0:0:0:0:
320,192,70325,1,0,0:0:0:0:
64,192,70432,1,0,0:0:0:0:
320,192,70540,1,0,0:0:0:0:
192,192,70647,1,0,0:0:0:0:
64,192,70754,1,0,0:0:0:0:
448,192,70754,1,0,0:0:0:0:
320,192,70861,1,0,0:0:0:0:
192,192,70968,1,0,0:0:0:0:
448,192,71075,1,0,0:0:0:0:
320,192,71182,1,0,0:0:0:0:
64,192,71182,1,0,0:0:0:0:
192,192,71290,1,0,0:0:0:0:
448,192,71397,1,0,0:0:0:0:
320,192,71504,1,0,0:0:0:0:
192,192,71611,1,0,0:0:0:0:
448,192,71611,1,0,0:0:0:0:
64,192,71718,1,0,0:0:0:0:
320,192,71825,1,0,0:0:0:0:
448,192,71932,1,0,0:0:0:0:
192,192,72040,1,0,0:0:0:0:
64,192,72040,1,0,0:0:0:0:
320,192,72147,1,0,0:0:0:0:
64,192,72254,1,0,0:0:0:0:
192,192,72361,1,0,0:0:0:0:
320,192,72468,1,0,0:0:0:0:
448,192,72468,1,0,0:0:0:0:
64,192,72575,1,0,0:0:0:0:
448,192,72682,1,0,0:0:0:0:
64,192,72790,1,0,0:0:0:0:
320,192,72897,1,0,0:0:0:0:
192,192,72897,1,0,0:0:0:0:
448,192,73004,1,0,0:0:0:0:
192,192,73111,1,0,0:0:0:0:
320,192,73218,1,0,0:0:0:0:
64,192,73325,1,0,0:0:0:0:
448,192,73325,1,0,0:0:0:0:
192,192,73432,1,0,0:0:0:0:
320,192,73540,1,0,0:0:0:0:
64,192,73647,1,0,0:0:0:0:
192,192,73754,1,0,0:0:0:0:
448,192,73754,1,0,0:0:0:0:
320,192,73861,1,0,0:0:0:0:
64,192,73968,1,0,0:0:0:0:
192,192,74075,1,0,0:0:0:0:
320,192,74182,1,0,0:0:0:0:
64,192,74182,1,0,0:0:0:0:
448,192,74290,1,0,0:0:0:0:
192,192,74397,1,0,0:0:0:0:
64,192,74504,1,0,0:0:0:0:
320,192,74611,1,0,0:0:0:0:
448,192,74611,1,0,0:0:0:0:
192,192,74718,1,0,0:0:0:0:
448,192,74825,1,0,0:0:0:0:
320,192,74932,1,0,0:0:0:0:
192,192,75040,1,0,0:0:0:0:
64,192,75040,1,0,0:0:0:0:
448,192,75147,1,0,0:0:0:0:
64,192,75254,1,0,0:0:0:0:
448,192,75361,1,0,0:0:0:0:
320,192,75468,1,0,0:0:0:0:
192,192,75468,1,0,0:0:0:0:
64,192,75575,1,0,0:0:0:0:
320,192,75682,1,0,0:0:0:0:
192,192,75790,1,0,0:0:0:0:
448,192,75897,1,0,0:0:0:0:
64,192,75897,1,0,0:0:0:0:
320,192,76004,1,0,0:0:0:0:
192,192,76111,1,0,0:0:0:0:
448,192,76218,1,0,0:0:0:0:
64,192,76325,1,0,0:0:0:0:
320,192,76325,1,0,0:0:0:0:
192,192,76432,1,0,0:0:0:0:
448,192,76540,1,0,0:0:0:0:
320,192,76647,1,0,0:0:0:0:
192,192,76754,1,0,0:0:0:0:
448,192,76754,1,0,0:0:0:0:
64,192,76861,1,0,0:0:0:0:
448,192,76968,1,0,0:0:0:0:
320,192,77075,1,0,0:0:0:0:
192,192,77182,1,0,0:0:0:0:
64,192,77182,1,0,0:0:0:0:
448,192,77290,1,0,0:0:0:0:
192,192,77397,1,0,0:0:0:0:
64,192,77504,1,0,0:0:0:0:
320,192,77611,1,0,0:0:0:0:
448,192,77611,1,0,0:0:0:0:
192,192,77718,1,0,0:0:0:0:
448,192,77825,1,0,0:0:0:0:
64,192,77932,1,0,0:0:0:0:
320,192,78040,1,0,0:0:0:0:
192,192,78040,1,0,0:0:0:0:
448,192,78147,1,0,0:0:0:0:
192,192,78254,1,0,0:0:0:0:
320,192,78361,1,0,0:0:0:0:
64,192,78468,1,0,0:0:0:0:
448,192,78468,1,0,0:0:0:0:
192,192,78575,1,0,0:0:0:0:
448,192,78682,1,0,0:0:0:0:
320,192,78790,1,0,0:0:0:0:
192,192,78897,1,0,0:0:0:0:
448,192,78897,1,0,0:0:0:0:
64,192,79004,1,0,0:0:0:0:
320,192,79111,1,0,0:0:0:0:
192,192,79218,1,0,0:0:0:0:
320,192,79325,1,0,0:0:0:0:
64,192,79325,1,0,0:0:0:0:
448,192,79432,1,0,0:0:0:0:
64,192,79540,1,0,0:0:0:0:
448,192,79647,1,0,0:0:0:0:
192,192,79754,1,0,0:0:0:0:
320,192,79754,1,0,0:0:0:0:
64,192,79861,1,0,0:0:0:0:
320,192,79968,1,0,0:0:0:0:
192,192,80075,1,0,0:0:0:0:
64,192,80182,1,0,0:0:0:0:
448,192,80182,1,0,0:0:0:0:
320,192,80290,1,0,0:0:0:0:
64,192,80397,1,0,0:0:0:0:
192,192,80504,1,0,0:0:0:0:
320,192,80611,1,0,0:0:0:0:
448,192,80718,1,0,0:0:0:0:
192,192,80825,1,0,0:0:0:0:
64,192,80932,1,0,0:0:0:0:
320,192,81040,1,0,0:0:0:0:
192,192,81147,1,0,0:0:0:0:
64,192,81254,1,0,0:0:0:0:
192,192,81361,1,0,0:0:0:0:
448,192,81468,1,0,0:0:0:0:
320,192,81522,1,0,0:0:0:0:
192,192,81575,1,0,0:0:0:0:
64,192,81629,1,0,0:0:0:0:
448,192,81682,1,0,0:0:0:0:
320,192,81736,1,0,0:0:0:0:
192,192,81790,1,0,0:0:0:0:
64,192,81843,1,0,0:0:0:0:
448,192,81897,1,0,0:0:0:0:
320,192,81950,1,0,0:0:0:0:
64,192,82004,1,0,0:0:0:0:
192,192,82057,1,0,0:0:0:0:
448,192,82111,1,0,0:0:0:0:
320,192,82165,1,0,0:0:0:0:
64,192,82218,1,0,0:0:0:0:
192,192,82272,1,0,0:0:0:0:
320,192,82325,1,0,0:0:0:0:
448,192,82325,1,0,0:0:0:0:
64,192,82432,1,0,0:0:0:0:
448,192,82540,1,0,0:0:0:0:
64,192,82647,1,0,0:0:0:0:
320,192,82754,1,0,0:0:0:0:
192,192,82754,1,0,0:0:0:0:
64,192,82861,1,0,0:0:0:0:
192,192,82968,1,0,0:0:0:0:
320,192,83075,1,0,0:0:0:0:
64,192,83182,1,0,0:0:0:0:
192,192,83182,1,0,0:0:0:0:
448,192,83290,1,0,0:0:0:0:
192,192,83397,1,0,0:0:0:0:
320,192,83504,1,0,0:0:0:0:
192,192,83611,1,0,0:0:0:0:
448,192,83611,1,0,0:0:0:0:
64,192,83718,1,0,0:0:0:0:
320,192,83825,1,0,0:0:0:0:
192,192,83932,1,0,0:0:0:0:
64,192,84040,1,0,0:0:0:0:
448,192,84040,1,0,0:0:0:0:
192,192,84147,1,0,0:0:0:0:
448,192,84254,1,0,0:0:0:0:
192,192,84361,1,0,0:0:0:0:
320,192,84468,1,0,0:0:0:0:
64,192,84468,1,0,0:0:0:0:
192,192,84575,1,0,0:0:0:0:
64,192,84682,1,0,0:0:0:0:
320,192,84790,1,0,0:0:0:0:
192,192,84897,1,0,0:0:0:0:
64,192,84897,1,0,0:0:0:0:
448,192,85004,1,0,0:0:0:0:
320,192,85111,1,0,0:0:0:0:
64,192,85218,1,0,0:0:0:0:
192,192,85325,1,0,0:0:0:0:
320,192,85325,1,0,0:0:0:0:
448,192,85432,1,0,0:0:0:0:
320,192,85540,1,0,0:0:0:0:
192,192,85647,1,0,0:0:0:0:
64,192,85754,1,0,0:0:0:0:
448,192,85754,1,0,0:0:0:0:
320,192,85861,1,0,0:0:0:0:
448,192,85968,1,0,0:0:0:0:
192,192,86075,1,0,0:0:0:0:
320,192,86182,1,0,0:0:0:0:
64,192,86182,1,0,0:0:0:0:
448,192,86290,1,0,0:0:0:0:
64,192,86397,1,0,0:0:0:0:
192,192,86504,1,0,0:0:0:0:
320,192,86611,1,0,0:0:0:0:
448,192,86611,1,0,0:0:0:0:
64,192,86718,1,0,0:0:0:0:
320,192,86825,1,0,0:0:0:0:
192,192,86932,1,0,0:0:0:0:
64,192,87040,1,0,0:0:0:0:
448,192,87040,1,0,0:0:0:0:
320,192,87147,1,0,0:0:0:0:
64,192,87254,1,0,0:0:0:0:
192,192,87361,1,0,0:0:0:0:
320,192,87468,1,0,0:0:0:0:
448,192,87468,1,0,0:0:0:0:
64,192,87575,1,0,0:0:0:0:
320,192,87682,1,0,0:0:0:0:
64,192,87790,1,0,0:0:0:0:
192,192,87897,1,0,0:0:0:0:
448,192,87897,1,0,0:0:0:0:
320,192,88004,1,0,0:0:0:0:
64,192,88111,1,0,0:0:0:0:
448,192,88218,1,0,0:0:0:0:
320,192,88325,1,0,0:0:0:0:
64,192,88325,1,0,0:0:0:0:
192,192,88432,1,0,0:0:0:0:
320,192,88540,1,0,0:0:0:0:
448,192,88647,1,0,0:0:0:0:
320,192,88754,1,0,0:0:0:0:
64,192,88754,1,0,0:0:0:0:
192,192,88861,1,0,0:0:0:0:
448,192,88968,1,0,0:0:0:0:
320,192,89075,1,0,0:0:0:0:
192,192,89182,1,0,0:0:0:0:
64,192,89182,1,0,0:0:0:0:
320,192,89290,1,0,0:0:0:0:
448,192,89397,1,0,0:0:0:0:
192,192,89504,1,0,0:0:0:0:
320,192,89611,1,0,0:0:0:0:
64,192,89611,1,0,0:0:0:0:
448,192,89718,1,0,0:0:0:0:
192,192,89825,1,0,0:0:0:0:
320,192,89932,1,0,0:0:0:0:
192,192,90040,1,0,0:0:0:0:
64,192,90040,1,0,0:0:0:0:
448,192,90147,1,0,0:0:0:0:
320,192,90254,1,0,0:0:0:0:
64,192,90361,1,0,0:0:0:0:
192,192,90468,1,0,0:0:0:0:
448,192,90468,1,0,0:0:0:0:
320,192,90575,1,0,0:0:0:0:
192,192,90682,1,0,0:0:0:0:
64,192,90790,1,0,0:0:0:0:
320,192,90897,1,0,0:0:0:0:
448,192,90897,1,0,0:0:0:0:
64,192,91004,1,0,0:0:0:0:
320,192,91111,1,0,0:0:0:0:
192,192,91218,1,0,0:0:0:0:
64,192,91325,1,0,0:0:0:0:
448,192,91325,1,0,0:0:0:0:
320,192,91432,1,0,0:0:0:0:
64,192,91540,1,0,0:0:0:0:
192,192,91647,1,0,0:0:0:0:
320,192,91754,1,0,0:0:0:0:
448,192,91754,1,0,0:0:0:0:
64,192,91861,1,0,0:0:0:0:
192,192,91968,1,0,0:0:0:0:
320,192,92075,1,0,0:0:0:0:
448,192,92182,1,0,0:0:0:0:
192,192,92182,1,0,0:0:0:0:
64,192,92290,1,0,0:0:0:0:
448,192,92397,1,0,0:0:0:0:
192,192,92504,1,0,0:0:0:0:
320,192,92611,1,0,0:0:0:0:
64,192,92611,1,0,0:0:0:0:
192,192,92718,1,0,0:0:0:0:
448,192,92825,1,0,0:0:0:0:
64,192,92932,1,0,0:0:0:0:
192,192,93040,1,0,0:0:0:0:
320,192,93040,1,0,0:0:0:0:
448,192,93147,1,0,0:0:0:0:
64,192,93254,1,0,0:0:0:0:
192,192,93361,1,0,0:0:0:0:
320,192,93468,1,0,0:0:0:0:
448,192,93468,1,0,0:0:0:0:
192,192,93575,1,0,0:0:0:0:
64,192,93682,1,0,0:0:0:0:
320,192,93790,1,0,0:0:0:0:
448,192,93897,1,0,0:0:0:0:
192,192,93897,1,0,0:0:0:0:
320,192,94004,1,0,0:0:0:0:
64,192,94111,1,0,0:0:0:0:
192,192,94218,1,0,0:0:0:0:
320,192,94325,1,0,0:0:0:0:
448,192,94325,1,0,0:0:0:0:
64,192,94432,1,0,0:0:0:0:
192,192,94540,1,0,0:0:0:0:
320,192,94647,1,0,0:0:0:0:
448,192,94754,1,0,0:0:0:0:
64,192,94754,1,0,0:0:0:0:
192,192,94861,1,0,0:0:0:0:
320,192,94968,1,0,0:0:0:0:
192,192,95075,1,0,0:0:0:0:
448,192,95182,1,0,0:0:0:0:
64,192,95182,1,0,0:0:0:0:
320,192,95290,1,0,0:0:0:0:
64,192,95397,1,0,0:0:0:0:
192,192,95504,1,0,0:0:0:0:
448,192,95611,1,0,0:0:0:0:
320,192,95754,1,0,0:0:0:0:
192,192,95897,1,0,0:0:0:0:
64,192,96040,1,0,0:0:0:0:
448,192,96040,1,0,0:0:0:0:
192,192,96147,1,0,0:0:0:0:
448,192,96254,1,0,0:0:0:0:
64,192,96361,1,0,0:0:0:0:
192,192,96468,1,0,0:0:0:0:
320,192,96468,1,0,0:0:0:0:
448,192,96575,1,0,0:0:0:0:
192,192,96682,1,0,0:0:0:0:
320,192,96790,1,0,0:0:0:0:
64,192,96897,1,0,0:0:0:0:
448,192,96897,1,0,0:0:0:0:
320,192,97004,1,0,0:0:0:0:
192,192,97111,1,0,0:0:0:0:
64,192,97218,1,0,0:0:0:0:
448,192,97325,1,0,0:0:0:0:
320,192,97325,1,0,0:0:0:0:
192,192,97432,1,0,0:0:0:0:
448,192,97540,1,0,0:0:0:0:
320,192,97647,1,0,0:0:0:0:
192,192,97754,1,0,0:0:0:0:
64,192,97754,1,0,0:0:0:0:
320,192,97861,1,0,0:0:0:0:
448,192,97968,1,0,0:0:0:0:
192,192,98075,1,0,0:0:0:0:
320,192,98182,1,0,0:0:0:0:
64,192,98182,1,0,0:0:0:0:
448,192,98290,1,0,0:0:0:0:
192,192,98397,1,0,0:0:0:0:
320,192,98504,1,0,0:0:0:0:
64,192,98611,1,0,0:0:0:0:
192,192,98611,1,0,0:0:0:0:
448,192,98718,1,0,0:0:0:0:
320,192,98825,1,0,0:0:0:0:
192,192,98932,1,0,0:0:0:0:
320,192,99040,1,0,0:0:0:0:
448,192,99040,1,0,0:0:0:0:
64,192,99147,1,0,0:0:0:0:
320,192,99254,1,0,0:0:0:0:
192,192,99361,1,0,0:0:0:0:
64,192,99468,1,0,0:0:0:0:
448,192,99468,1,0,0:0:0:0:
320,192,99575,1,0,0:0:0:0:
448,192,99682,1,0,0:0:0:0:
192,192,99790,1,0,0:0:0:0:
320,192,99897,1,0,0:0:0:0:
64,192,99897,1,0,0:0:0:0:
448,192,100004,1,0,0:0:0:0:
192,192,100111,1,0,0:0:0:0:
320,192,100218,1,0,0:0:0:0:
64,192,100325,1,0,0:0:0:0:
192,192,100325,1,0,0:0:0:0:
448,192,100432,1,0,0:0:0:0:
192,192,100540,1,0,0:0:0:0:
320,192,100647,1,0,0:0:0:0:
192,192,100754,1,0,0:0:0:0:
448,192,100754,1,0,0:0:0:0:
64,192,100861,1,0,0:0:0:0:
320,192,100968,1,0,0:0:0:0:
192,192,101075,1,0,0:0:0:0:
64,192,101182,1,0,0:0:0:0:
448,192,101182,1,0,0:0:0:0:
320,192,101290,1,0,0:0:0:0:
64,192,101397,1,0,0:0:0:0:
192,192,101504,1,0,0:0:0:0:
320,192,101611,1,0,0:0:0:0:
448,192,101611,1,0,0:0:0:0:
64,192,101718,1,0,0:0:0:0:
320,192,101825,1,0,0:0:0:0:
448,192,101932,1,0,0:0:0:0:
64,192,102040,1,0,0:0:0:0:
192,192,102040,1,0,0:0:0:0:
320,192,102147,1,0,0:0:0:0:
64,192,102254,1,0,0:0:0:0:
192,192,102361,1,0,0:0:0:0:
448,192,102468,1,0,0:0:0:0:
320,192,102468,1,0,0:0:0:0:
192,192,102575,1,0,0:0:0:0:
448,192,102682,1,0,0:0:0:0:
320,192,102790,1,0,0:0:0:0:
192,192,102897,1,0,0:0:0:0:
64,192,102897,1,0,0:0:0:0:
320,192,103004,1,0,0:0:0:0:
448,192,103111,1,0,0:0:0:0:
192,192,103218,1,0,0:0:0:0:
320,192,103325,1,0,0:0:0:0:
64,192,103325,1,0,0:0:0:0:
448,192,103432,1,0,0:0:0:0:
192,192,103540,1,0,0:0:0:0:
320,192,103647,1,0,0:0:0:0:
64,192,103754,1,0,0:0:0:0:
192,192,103754,1,0,0:0:0:0:
448,192,103861,1,0,0:0:0:0:
64,192,103968,1,0,0:0:0:0:
192,192,104075,1,0,0:0:0:0:
320,192,104182,1,0,0:0:0:0:
448,192,104182,1,0,0:0:0:0:
64,192,104290,1,0,0:0:0:0:
320,192,104397,1,0,0:0:0:0:
192,192,104504,1,0,0:0:0:0:
64,192,104611,1,0,0:0:0:0:
448,192,104611,1,0,0:0:0:0:
320,192,104718,1,0,0:0:0:0:
448,192,104825,1,0,0:0:0:0:
192,192,104932,1,0,0:0:0:0:
320,192,105040,1,0,0:0:0:0:
64,192,105040,1,0,0:0:0:0:
448,192,105147,1,0,0:0:0:0:
64,192,105254,1,0,0:0:0:0:
192,192,105361,1,0,0:0:0:0:
320,192,105468,1,0,0:0:0:0:
448,192,105468,1,0,0:0:0:0:
64,192,105575,1,0,0:0:0:0:
320,192,105682,1,0,0:0:0:0:
192,192,105790,1,0,0:0:0:0:
448,192,105897,1,0,0:0:0:0:
64,192,105897,1,0,0:0:0:0:
320,192,106004,1,0,0:0:0:0:
192,192,106111,1,0,0:0:0:0:
64,192,106218,1,0,0:0:0:0:
448,192,106325,1,0,0:0:0:0:
320,192,106325,1,0,0:0:0:0:
192,192,106432,1,0,0:0:0:0:
448,192,106540,1,0,0:0:0:0:
64,192,106647,1,0,0:0:0:0:
192,192,106754,1,0,0:0:0:0:
320,192,106754,1,0,0:0:0:0:
448,192,106861,1,0,0:0:0:0:
64,192,106968,1,0,0:0:0:0:
320,192,107075,1,0,0:0:0:0:
192,192,107182,1,0,0:0:0:0:
64,192,107182,1,0,0:0:0:0:
448,192,107290,1,0,0:0:0:0:
192,192,107397,1,0,0:0:0:0:
320,192,107504,1,0,0:0:0:0:
448,192,107611,1,0,0:0:0:0:
64,192,107611,1,0,0:0:0:0:
192,192,107718,1,0,0:0:0:0:
448,192,107825,1,0,0:0:0:0:
320,192,107932,1,0,0:0:0:0:
192,192,108040,1,0,0:0:0:0:
64,192,108040,1,0,0:0:0:0:
448,192,108147,1,0,0:0:0:0:
192,192,108254,1,0,0:0:0:0:
320,192,108361,1,0,0:0:0:0:
64,192,108468,1,0,0:0:0:0:
448,192,108468,1,0,0:0:0:0:
192,192,108575,1,0,0:0:0:0:
448,192,108682,1,0,0:0:0:0:
320,192,108790,1,0,0:0:0:0:
192,192,108897,1,0,0:0:0:0:
64,192,108897,1,0,0:0:0:0:
64,192,109040,1,0,0:0:0:0:
320,192,109040,1,0,0:0:0:0:
448,192,109182,1,0,0:0:0:0:
192,192,109182,1,0,0:0:0:0:
320,192,109325,1,0,0:0:0:0:
192,192,109397,1,0,0:0:0:0:
448,192,109468,1,0,0:0:0:0:
64,192,109540,1,0,0:0:0:0:
192,192,109593,1,0,0:0:0:0:
320,192,109647,1,0,0:0:0:0:
448,192,109700,1,0,0:0:0:0:
192,192,109754,1,0,0:0:0:0:
64,192,109754,1,0,0:0:0:0:
320,192,109861,1,0,0:0:0:0:
448,192,109968,1,0,0:0:0:0:
192,192,110075,1,0,0:0:0:0:
320,192,110182,1,0,0:0:0:0:
64,192,110182,1,0,0:0:0:0:
448,192,110290,1,0,0:0:0:0:
64,192,110397,1,0,0:0:0:0:
192,192,110504,1,0,0:0:0:0:
448,192,110611,1,0,0:0:0:0:
320,192,110611,1,0,0:0:0:0:
64,192,110718,1,0,0:0:0:0:
448,192,110825,1,0,0:0:0:0:
192,192,110932,1,0,0:0:0:0:
320,192,111040,1,0,0:0:0:0:
64,192,111040,1,0,0:0:0:0:
448,192,111147,1,0,0:0:0:0:
192,192,111254,1,0,0:0:0:0:
64,192,111361,1,0,0:0:0:0:
192,192,111468,1,0,0:0:0:0:
448,192,111468,1,0,0:0:0:0:
320,192,111575,1,0,0:0:0:0:
448,192,111682,1,0,0:0:0:0:
192,192,111790,1,0,0:0:0:0:
320,192,111897,1,0,0:0:0:0:
64,192,111897,1,0,0:0:0:0:
192,192,112004,1,0,0:0:0:0:
64,192,112111,1,0,0:0:0:0:
320,192,112218,1,0,0:0:0:0:
64,192,112325,1,0,0:0:0:0:
448,192,112325,1,0,0:0:0:0:
320,192,112432,1,0,0:0:0:0:
64,192,112540,1,0,0:0:0:0:
192,192,112647,1,0,0:0:0:0:
320,192,112754,1,0,0:0:0:0:
448,192,112754,1,0,0:0:0:0:
64,192,112861,1,0,0:0:0:0:
320,192,112968,1,0,0:0:0:0:
192,192,113075,1,0,0:0:0:0:
64,192,113182,1,0,0:0:0:0:
448,192,113182,1,0,0:0:0:0:
192,192,113290,1,0,0:0:0:0:
448,192,113397,1,0,0:0:0:0:
64,192,113504,1,0,0:0:0:0:
192,192,113611,1,0,0:0:0:0:
320,192,113611,1,0,0:0:0:0:
448,192,113718,1,0,0:0:0:0:
192,192,113825,1,0,0:0:0:0:
320,192,113932,1,0,0:0:0:0:
64,192,114040,1,0,0:0:0:0:
192,192,114040,1,0,0:0:0:0:
448,192,114147,1,0,0:0:0:0:
192,192,114254,1,0,0:0:0:0:
64,192,114361,1,0,0:0:0:0:
192,192,114468,1,0,0:0:0:0:
448,192,114468,1,0,0:0:0:0:
320,192,114575,1,0,0:0:0:0:
64,192,114682,1,0,0:0:0:0:
448,192,114790,1,0,0:0:0:0:
192,192,114897,1,0,0:0:0:0:
64,192,114897,1,0,0:0:0:0:
448,192,115004,1,0,0:0:0:0:
64,192,115111,1,0,0:0:0:0:
192,192,115218,1,0,0:0:0:0:
320,192,115325,1,0,0:0:0:0:
64,192,115325,1,0,0:0:0:0:
448,192,115432,1,0,0:0:0:0:
320,192,115540,1,0,0:0:0:0:
448,192,115647,1,0,0:0:0:0:
192,192,115754,1,0,0:0:0:0:
64,192,115754,1,0,0:0:0:0:
448,192,115861,1,0,0:0:0:0:
192,192,115968,1,0,0:0:0:0:
64,192,116075,1,0,0:0:0:0:
320,192,116182,1,0,0:0:0:0:
448,192,116182,1,0,0:0:0:0:
192,192,116290,1,0,0:0:0:0:
448,192,116397,1,0,0:0:0:0:
320,192,116504,1,0,0:0:0:0:
192,192,116611,1,0,0:0:0:0:
64,192,116611,1,0,0:0:0:0:
448,192,116718,1,0,0:0:0:0:
192,192,116825,1,0,0:0:0:0:
64,192,116932,1,0,0:0:0:0:
192,192,117040,1,0,0:0:0:0:
448,192,117040,1,0,0:0:0:0:
320,192,117147,1,0,0:0:0:0:
64,192,117254,1,0,0:0:0:0:
192,192,117361,1,0,0:0:0:0:
320,192,117468,1,0,0:0:0:0:
448,192,117468,1,0,0:0:0:0:
64,192,117575,1,0,0:0:0:0:
320,192,117682,1,0,0:0:0:0:
192,192,117790,1,0,0:0:0:0:
448,192,117897,1,0,0:0:0:0:
64,192,117897,1,0,0:0:0:0:
192,192,118004,1,0,0:0:0:0:
448,192,118111,1,0,0:0:0:0:
320,192,118218,1,0,0:0:0:0:
192,192,118325,1,0,0:0:0:0:
448,192,118325,1,0,0:0:0:0:
64,192,118432,1,0,0:0:0:0:
320,192,118540,1,0,0:0:0:0:
192,192,118647,1,0,0:0:0:0:
64,192,118754,1,0,0:0:0:0:
320,192,118754,1,0,0:0:0:0:
448,192,118861,1,0,0:0:0:0:
192,192,118968,1,0,0:0:0:0:
320,192,119075,1,0,0:0:0:0:
192,192,119182,1,0,0:0:0:0:
64,192,119182,1,0,0:0:0:0:
448,192,119290,1,0,0:0:0:0:
64,192,119397,1,0,0:0:0:0:
192,192,119504,1,0,0:0:0:0:
320,192,119611,1,0,0:0:0:0:
448,192,119611,1,0,0:0:0:0:
64,192,119718,1,0,0:0:0:0:
320,192,119825,1,0,0:0:0:0:
192,192,119932,1,0,0:0:0:0:
64,192,120040,1,0,0:0:0:0:
448,192,120040,1,0,0:0:0:0:
192,192,120147,1,0,0:0:0:0:
448,192,120254,1,0,0:0:0:0:
64,192,120361,1,0,0:0:0:0:
192,192,120468,1,0,0:0:0:0:
320,192,120468,1,0,0:0:0:0:
448,192,120575,1,0,0:0:0:0:
64,192,120682,1,0,0:0:0:0:
192,192,120790,1,0,0:0:0:0:
64,192,120897,1,0,0:0:0:0:
448,192,120897,1,0,0:0:0:0:
320,192,121004,1,0,0:0:0:0:
64,192,121111,1,0,0:0:0:0:
192,192,121218,1,0,0:0:0:0:
448,192,121325,1,0,0:0:0:0:
320,192,121325,1,0,0:0:0:0:
64,192,121432,1,0,0:0:0:0:
320,192,121540,1,0,0:0:0:0:
192,192,121647,1,0,0:0:0:0:
320,192,121754,1,0,0:0:0:0:
64,192,121754,1,0,0:0:0:0:
448,192,121861,1,0,0:0:0:0:
192,192,121968,1,0,0:0:0:0:
320,192,122075,1,0,0:0:0:0:
192,192,122182,1,0,0:0:0:0:
64,192,122182,1,0,0:0:0:0:
448,192,122290,1,0,0:0:0:0:
192,192,122397,1,0,0:0:0:0:
320,192,122504,1,0,0:0:0:0:
64,192,122611,1,0,0:0:0:0:
448,192,122611,1,0,0:0:0:0:
192,192,122718,1,0,0:0:0:0:
448,192,122825,1,0,0:0:0:0:
320,192,122932,1,0,0:0:0:0:
192,192,123040,1,0,0:0:0:0:
64,192,123040,1,0,0:0:0:0:
448,192,123182,1,0,0:0:0:0:
320,192,123325,1,0,0:0:0:0:
64,192,123468,1,0,0:0:0:0:
192,192,123468,1,0,0:0:0:0:
448,192,123575,1,0,0:0:0:0:
64,192,123682,1,0,0:0:0:0:
320,192,123790,1,0,0:0:0:0:
192,192,123897,1,0,0:0:0:0:
448,192,123897,1,0,0:0:0:0:
64,192,124004,1,0,0:0:0:0:
320,192,124111,1,0,0:0:0:0:
448,192,124218,1,0,0:0:0:0:
192,192,124325,1,0,0:0:0:0:
64,192,124325,1,0,0:0:0:0:
320,192,124432,1,0,0:0:0:0:
64,192,124540,1,0,0:0:0:0:
192,192,124647,1,0,0:0:0:0:
448,192,124754,1,0,0:0:0:0:
64,192,124754,1,0,0:0:0:0:
320,192,124861,1,0,0:0:0:0:
192,192,124968,1,0,0:0:0:0:
64,192,125075,1,0,0:0:0:0:
192,192,125182,1,0,0:0:0:0:
448,192,125182,1,0,0:0:0:0:
320,192,125290,1,0,0:0:0:0:
448,192,125397,1,0,0:0:0:0:
192,192,125504,1,0,0:0:0:0:
320,192,125611,1,0,0:0:0:0:
64,192,125611,1,0,0:0:0:0:
192,192,125718,1,0,0:0:0:0:
448,192,125825,1,0,0:0:0:0:
320,192,125932,1,0,0:0:0:0:
192,192,126040,1,0,0:0:0:0:
64,192,126040,1,0,0:0:0:0:
448,192,126147,1,0,0:0:0:0:
192,192,126254,1,0,0:0:0:0:
320,192,126361,1,0,0:0:0:0:
448,192,126468,1,0,0:0:0:0:
64,192,126468,1,0,0:0:0:0:
320,192,126575,1,0,0:0:0:0:
192,192,126682,1,0,0:0:0:0:
64,192,126790,1,0,0:0:0:0:
448,192,126897,1,0,0:0:0:0:
320,192,126897,1,0,0:0:0:0:
192,192,127004,1,0,0:0:0:0:
448,192,127111,1,0,0:0:0:0:
64,192,127218,1,0,0:0:0:0:
192,192,127325,1,0,0:0:0:0:
320,192,127325,1,0,0:0:0:0:
448,192,127432,1,0,0:0:0:0:
64,192,127540,1,0,0:0:0:0:
192,192,127647,1,0,0:0:0:0:
320,192,127754,1,0,0:0:0:0:
448,192,127754,1,0,0:0:0:0:
64,192,127861,1,0,0:0:0:0:
320,192,127968,1,0,0:0:0:0:
192,192,128075,1,0,0:0:0:0:
64,192,128182,1,0,0:0:0:0:
320,192,128182,1,0,0:0:0:0:
448,192,128290,1,0,0:0:0:0:
192,192,128397,1,0,0:0:0:0:
64,192,128504,1,0,0:0:0:0:
320,192,128611,1,0,0:0:0:0:
448,192,128611,1,0,0:0:0:0:
192,192,128718,1,0,0:0:0:0:
448,192,128825,1,0,0:0:0:0:
320,192,128932,1,0,0:0:0:0:
192,192,129040,1,0,0:0:0:0:
64,192,129040,1,0,0:0:0:0:
320,192,129147,1,0,0:0:0:0:
64,192,129254,1,0,0:0:0:0:
448,192,129361,1,0,0:0:0:0:
192,192,129468,1,0,0:0:0:0:
320,192,129468,1,0,0:0:0:0:
64,192,129575,1,0,0:0:0:0:
320,192,129682,1,0,0:0:0:0:
448,192,129790,1,0,0:0:0:0:
320,192,129897,1,0,0:0:0:0:
64,192,129897,1,0,0:0:0:0:
192,192,130004,1,0,0:0:0:0:
448,192,130111,1,0,0:0:0:0:
320,192,130218,1,0,0:0:0:0:
192,192,130325,1,0,0:0:0:0:
64,192,130325,1,0,0:0:0:0:
448,192,130432,1,0,0:0:0:0:
64,192,130540,1,0,0:0:0:0:
192,192,130647,1,0,0:0:0:0:
320,192,130754,1,0,0:0:0:0:
448,192,130754,1,0,0:0:0:0:
64,192,130861,1,0,0:0:0:0:
320,192,130968,1,0,0:0:0:0:
448,192,131075,1,0,0:0:0:0:
320,192,131182,1,0,0:0:0:0:
64,192,131182,1,0,0:0:0:0:
192,192,131290,1,0,0:0:0:0:
448,192,131397,1,0,0:0:0:0:
320,192,131504,1,0,0:0:0:0:
64,192,131611,1,0,0:0:0:0:
448,192,131611,1,0,0:0:0:0:
192,192,131718,1,0,0:0:0:0:
320,192,131825,1,0,0:0:0:0:
192,192,131932,1,0,0:0:0:0:
64,192,132040,1,0,0:0:0:0:
320,192,132040,1,0,0:0:0:0:
192,192,132147,1,0,0:0:0:0:
448,192,132254,1,0,0:0:0:0:
64,192,132361,1,0,0:0:0:0:
192,192,132468,1,0,0:0:0:0:
320,192,132468,1,0,0:0:0:0:
448,192,132575,1,0,0:0:0:0:
64,192,132682,1,0,0:0:0:0:
192,192,132790,1,0,0:0:0:0:
448,192,132897,1,0,0:0:0:0:
64,192,132897,1,0,0:0:0:0:
320,192,133004,1,0,0:0:0:0:
64,192,133111,1,0,0:0:0:0:
192,192,133218,1,0,0:0:0:0:
320,192,133325,1,0,0:0:0:0:
448,192,133325,1,0,0:0:0:0:
64,192,133432,1,0,0:0:0:0:
320,192,133540,1,0,0:0:0:0:
192,192,133647,1,0,0:0:0:0:
64,192,133754,1,0,0:0:0:0:
448,192,133754,1,0,0:0:0:0:
320,192,133861,1,0,0:0:0:0:
64,192,133968,1,0,0:0:0:0:
192,192,134075,1,0,0:0:0:0:
320,192,134182,1,0,0:0:0:0:
448,192,134182,1,0,0:0:0:0:
64,192,134290,1,0,0:0:0:0:
320,192,134397,1,0,0:0:0:0:
448,192,134504,1,0,0:0:0:0:
192,192,134611,1,0,0:0:0:0:
64,192,134611,1,0,0:0:0:0:
320,192,134718,1,0,0:0:0:0:
64,192,134825,1,0,0:0:0:0:
320,192,134932,1,0,0:0:0:0:
448,192,135040,1,0,0:0:0:0:
192,192,135040,1,0,0:0:0:0:
320,192,135147,1,0,0:0:0:0:
64,192,135254,1,0,0:0:0:0:
192,192,135361,1,0,0:0:0:0:
320,192,135468,1,0,0:0:0:0:
448,192,135468,1,0,0:0:0:0:
192,192,135575,1,0,0:0:0:0:
64,192,135575,1,0,0:0:0:0:
320,192,135682,1,0,0:0:0:0:
192,192,135790,1,0,0:0:0:0:
448,192,135897,1,0,0:0:0:0:
320,192,136004,1,0,0:0:0:0:
64,192,136111,1,0,0:0:0:0:
192,192,136218,1,0,0:0:0:0:
448,192,136325,1,0,0:0:0:0:
320,192,136397,1,0,0:0:0:0:
192,192,136468,1,0,0:0:0:0:
448,192,136540,1,0,0:0:0:0:
320,192,136611,1,0,0:0:0:0:
192,192,136682,1,0,0:0:0:0:
64,192,136754,1,0,0:0:0:0:
192,192,136825,1,0,0:0:0:0:
448,192,136897,1,0,0:0:0:0:
320,192,136968,1,0,0:0:0:0:
192,192,137040,1,0,0:0:0:0:
64,192,137111,1,0,0:0:0:0:
320,192,137182,1,0,0:0:0:0:
448,192,137182,128,0,140611:0:0:0:0:
192,192,138897,128,0,140611:0:0:0:0:
320,192,140611,128,0,144040:0:0:0:0:
64,192,142325,128,0,144040:0:0:0:0:
192,192,144040,128,0,150897:0:0:0:0:
320,192,147468,128,0,150897:0:0:0:0:
64,192,149182,128,0,150897:0:0:0:0:
192,192,151540,1,0,0:0:0:0:
448,192,151540,1,0,0:0:0:0:
320,192,151754,1,0,0:0:0:0:
64,192,151968,1,0,0:0:0:0:
192,192,152182,1,0,0:0:0:0:
64,192,152397,1,0,0:0:0:0:
320,192,152825,1,0,0:0:0:0:
64,192,153254,1,0,0:0:0:0:
320,192,153468,1,0,0:0:0:0:
448,192,153468,1,0,0:0:0:0:
64,192,153629,1,0,0:0:0:0:
192,192,153682,1,0,0:0:0:0:
64,192,154111,1,0,0:0:0:0:
192,192,154325,1,0,0:0:0:0:
448,192,154325,1,0,0:0:0:0:
320,192,154540,1,0,0:0:0:0:
192,192,154754,1,0,0:0:0:0:
320,192,154968,1,0,0:0:0:0:
64,192,154968,1,0,0:0:0:0:
192,192,155343,1,0,0:0:0:0:
320,192,155397,1,0,0:0:0:0:
320,192,155611,1,0,0:0:0:0:
192,192,155825,1,0,0:0:0:0:
448,192,156040,1,0,0:0:0:0:
320,192,156897,1,0,0:0:0:0:
192,192,156897,1,0,0:0:0:0:
448,192,157325,1,0,0:0:0:0:
192,192,157325,1,0,0:0:0:0:
448,192,157754,1,0,0:0:0:0:
320,192,157754,1,0,0:0:0:0:
192,192,157968,1,0,0:0:0:0:
64,192,158182,1,0,0:0:0:0:
320,192,158397,1,0,0:0:0:0:
192,192,158397,1,0,0:0:0:0:
64,192,158611,1,0,0:0:0:0:
192,192,158825,1,0,0:0:0:0:
448,192,159040,1,0,0:0:0:0:
192,192,159254,1,0,0:0:0:0:
320,192,159682,1,0,0:0:0:0:
192,192,160111,1,0,0:0:0:0:
64,192,160325,1,0,0:0:0:0:
448,192,160325,1,0,0:0:0:0:
192,192,160486,1,0,0:0:0:0:
320,192,160540,1,0,0:0:0:0:
320,192,160968,1,0,0:0:0:0:
64,192,161182,1,0,0:0:0:0:
192,192,161182,1,0,0:0:0:0:
320,192,161397,1,0,0:0:0:0:
64,192,161397,1,0,0:0:0:0:
448,192,161611,1,0,0:0:0:0:
192,192,161611,1,0,0:0:0:0:
192,192,161825,1,0,0:0:0:0:
320,192,161825,1,0,0:0:0:0:
320,192,162200,1,0,0:0:0:0:
448,192,162254,1,0,0:0:0:0:
192,192,162468,1,0,0:0:0:0:
64,192,162682,1,0,0:0:0:0:
320,192,162897,1,0,0:0:0:0:
448,192,163754,128,0,164611:0:0:0:0:
192,192,163754,1,0,0:0:0:0:
320,192,164182,128,0,164611:0:0:0:0:
64,192,164182,1,0,0:0:0:0:
192,192,164611,1,0,0:0:0:0:
64,192,164611,1,0,0:0:0:0:
320,192,165254,1,0,0:0:0:0:
448,192,165468,1,0,0:0:0:0:
192,192,165468,1,0,0:0:0:0:
64,192,165682,1,0,0:0:0:0:
320,192,165897,1,0,0:0:0:0:
192,192,166111,1,0,0:0:0:0:
448,192,166325,1,0,0:0:0:0:
320,192,166325,1,0,0:0:0:0:
192,192,166540,1,0,0:0:0:0:
64,192,166968,1,0,0:0:0:0:
320,192,167182,1,0,0:0:0:0:
192,192,167182,1,0,0:0:0:0:
448,192,167397,1,0,0:0:0:0:
192,192,167772,1,0,0:0:0:0:
320,192,167825,1,0,0:0:0:0:
320,192,168040,1,0,0:0:0:0:
64,192,168040,1,0,0:0:0:0:
192,192,168254,1,0,0:0:0:0:
320,192,168682,1,0,0:0:0:0:
448,192,168897,1,0,0:0:0:0:
192,192,168897,1,0,0:0:0:0:
64,192,169111,1,0,0:0:0:0:
192,192,169540,1,0,0:0:0:0:
448,192,169754,1,0,0:0:0:0:
320,192,169754,1,0,0:0:0:0:
192,192,169968,1,0,0:0:0:0:
64,192,170397,1,0,0:0:0:0:
448,192,170611,1,0,0:0:0:0:
192,192,170611,1,0,0:0:0:0:
320,192,170772,1,0,0:0:0:0:
448,192,170825,1,0,0:0:0:0:
64,192,171468,1,0,0:0:0:0:
192,192,171468,1,0,0:0:0:0:
320,192,171897,1,0,0:0:0:0:
192,192,172111,1,0,0:0:0:0:
64,192,172540,1,0,0:0:0:0:
192,192,172540,1,0,0:0:0:0:
448,192,172754,1,0,0:0:0:0:
320,192,172754,1,0,0:0:0:0:
64,192,172968,1,0,0:0:0:0:
320,192,172968,1,0,0:0:0:0:
448,192,173182,1,0,0:0:0:0:
192,192,173182,1,0,0:0:0:0:
320,192,174254,1,0,0:0:0:0:
448,192,174468,1,0,0:0:0:0:
320,192,174682,1,0,0:0:0:0:
192,192,174897,1,0,0:0:0:0:
64,192,174897,1,0,0:0:0:0:
192,192,175325,1,0,0:0:0:0:
64,192,175540,1,0,0:0:0:0:
320,192,175968,1,0,0:0:0:0:
64,192,176290,1,0,0:0:0:0:
192,192,176343,1,0,0:0:0:0:
320,192,176397,1,0,0:0:0:0:
448,192,176611,128,0,177468:0:0:0:0:
192,192,177040,1,0,0:0:0:0:
320,192,177361,5,0,0:0:0:0:
192,192,177415,1,0,0:0:0:0:
64,192,177468,128,0,178111:0:0:0:0:
320,192,177575,1,0,0:0:0:0:
192,192,177682,1,0,0:0:0:0:
448,192,177790,1,0,0:0:0:0:
320,192,178004,1,0,0:0:0:0:
192,192,178111,1,0,0:0:0:0:
192,192,178325,5,0,0:0:0:0:
320,192,178325,1,0,0:0:0:0:
448,192,178325,1,0,0:0:0:0:
64,192,178432,1,0,0:0:0:0:
192,192,178540,1,0,0:0:0:0:
320,192,178754,1,0,0:0:0:0:
448,192,178754,1,0,0:0:0:0:
192,192,178968,1,0,0:0:0:0:
64,192,179075,1,0,0:0:0:0:
320,192,179182,1,0,0:0:0:0:
192,192,179290,1,0,0:0:0:0:
320,192,179397,1,0,0:0:0:0:
448,192,179397,1,0,0:0:0:0:
192,192,179611,1,0,0:0:0:0:
64,192,179611,1,0,0:0:0:0:
320,192,179825,1,0,0:0:0:0:
448,192,179932,1,0,0:0:0:0:
192,192,180040,1,0,0:0:0:0:
320,192,180040,1,0,0:0:0:0:
64,192,180147,1,0,0:0:0:0:
192,192,180254,1,0,0:0:0:0:
448,192,180468,1,0,0:0:0:0:
320,192,180468,1,0,0:0:0:0:
192,192,180682,1,0,0:0:0:0:
320,192,180790,1,0,0:0:0:0:
64,192,180897,1,0,0:0:0:0:
448,192,180897,1,0,0:0:0:0:
192,192,181004,1,0,0:0:0:0:
320,192,181111,1,0,0:0:0:0:
448,192,181111,1,0,0:0:0:0:
192,192,181325,1,0,0:0:0:0:
64,192,181325,1,0,0:0:0:0:
320,192,181540,1,0,0:0:0:0:
192,192,181647,1,0,0:0:0:0:
64,192,181754,1,0,0:0:0:0:
448,192,181754,1,0,0:0:0:0:
192,192,181861,1,0,0:0:0:0:
320,192,181861,1,0,0:0:0:0:
448,192,181968,1,0,0:0:0:0:
64,192,181968,1,0,0:0:0:0:
192,192,182075,1,0,0:0:0:0:
320,192,182075,1,0,0:0:0:0:
64,192,182182,1,0,0:0:0:0:
448,192,182182,1,0,0:0:0:0:
320,192,182397,1,0,0:0:0:0:
192,192,182504,1,0,0:0:0:0:
64,192,182611,1,0,0:0:0:0:
192,192,182718,1,0,0:0:0:0:
320,192,182825,1,0,0:0:0:0:
448,192,182825,1,0,0:0:0:0:
192,192,183040,1,0,0:0:0:0:
64,192,183040,1,0,0:0:0:0:
448,192,183254,1,0,0:0:0:0:
64,192,183361,1,0,0:0:0:0:
192,192,183468,1,0,0:0:0:0:
320,192,183468,1,0,0:0:0:0:
448,192,183575,1,0,0:0:0:0:
192,192,183682,1,0,0:0:0:0:
64,192,183790,1,0,0:0:0:0:
320,192,183897,1,0,0:0:0:0:
448,192,183897,1,0,0:0:0:0:
192,192,184111,1,0,0:0:0:0:
320,192,184218,1,0,0:0:0:0:
448,192,184218,1,0,0:0:0:0:
192,192,184325,1,0,0:0:0:0:
64,192,184325,1,0,0:0:0:0:
320,192,184540,1,0,0:0:0:0:
448,192,184540,1,0,0:0:0:0:
192,192,184754,1,0,0:0:0:0:
64,192,184754,1,0,0:0:0:0:
320,192,184861,1,0,0:0:0:0:
448,192,184861,1,0,0:0:0:0:
192,192,184968,1,0,0:0:0:0:
64,192,185075,1,0,0:0:0:0:
192,192,185182,1,0,0:0:0:0:
320,192,185182,1,0,0:0:0:0:
448,192,185290,1,0,0:0:0:0:
320,192,185397,1,0,0:0:0:0:
192,192,185611,1,0,0:0:0:0:
64,192,185611,1,0,0:0:0:0:
448,192,185825,1,0,0:0:0:0:
320,192,185932,1,0,0:0:0:0:
64,192,186040,1,0,0:0:0:0:
192,192,186147,1,0,0:0:0:0:
320,192,186254,1,0,0:0:0:0:
448,192,186254,1,0,0:0:0:0:
192,192,186468,1,0,0:0:0:0:
64,192,186468,1,0,0:0:0:0:
320,192,186682,1,0,0:0:0:0:
192,192,186790,1,0,0:0:0:0:
64,192,186897,1,0,0:0:0:0:
448,192,186897,1,0,0:0:0:0:
320,192,187004,1,0,0:0:0:0:
192,192,187111,1,0,0:0:0:0:
64,192,187218,1,0,0:0:0:0:
192,192,187325,1,0,0:0:0:0:
320,192,187325,1,0,0:0:0:0:
448,192,187540,1,0,0:0:0:0:
320,192,187647,1,0,0:0:0:0:
192,192,187754,1,0,0:0:0:0:
64,192,187754,1,0,0:0:0:0:
448,192,187861,1,0,0:0:0:0:
320,192,187968,1,0,0:0:0:0:
192,192,187968,1,0,0:0:0:0:
64,192,188075,1,0,0:0:0:0:
320,192,188182,1,0,0:0:0:0:
448,192,188182,1,0,0:0:0:0:
192,192,188397,1,0,0:0:0:0:
320,192,188504,1,0,0:0:0:0:
192,192,188611,1,0,0:0:0:0:
64,192,188611,1,0,0:0:0:0:
448,192,188718,1,0,0:0:0:0:
320,192,188825,1,0,0:0:0:0:
192,192,188932,1,0,0:0:0:0:
64,192,189040,1,0,0:0:0:0:
448,192,189040,1,0,0:0:0:0:
320,192,189254,1,0,0:0:0:0:
448,192,189361,1,0,0:0:0:0:
192,192,189468,1,0,0:0:0:0:
320,192,189575,1,0,0:0:0:0:
192,192,189682,1,0,0:0:0:0:
64,192,189682,1,0,0:0:0:0:
320,192,189897,1,0,0:0:0:0:
448,192,189897,1,0,0:0:0:0:
192,192,190111,1,0,0:0:0:0:
64,192,190218,1,0,0:0:0:0:
192,192,190325,1,0,0:0:0:0:
320,192,190325,1,0,0:0:0:0:
448,192,190432,1,0,0:0:0:0:
192,192,190540,1,0,0:0:0:0:
320,192,190647,1,0,0:0:0:0:
448,192,190647,1,0,0:0:0:0:
192,192,190754,1,0,0:0:0:0:
64,192,190754,1,0,0:0:0:0:
320,192,190968,1,0,0:0:0:0:
192,192,191075,1,0,0:0:0:0:
64,192,191075,1,0,0:0:0:0:
320,192,191182,1,0,0:0:0:0:
448,192,191182,1,0,0:0:0:0:
192,192,191397,1,0,0:0:0:0:
64,192,191397,1,0,0:0:0:0:
320,192,191504,1,0,0:0:0:0:
448,192,191611,1,0,0:0:0:0:
320,192,191665,1,0,0:0:0:0:
192,192,191718,1,0,0:0:0:0:
64,192,191772,1,0,0:0:0:0:
448,192,191825,1,0,0:0:0:0:
320,192,191879,1,0,0:0:0:0:
192,192,191932,1,0,0:0:0:0:
64,192,191986,1,0,0:0:0:0:
320,192,192040,1,0,0:0:0:0:
448,192,192040,1,0,0:0:0:0:
192,192,192147,1,0,0:0:0:0:
64,192,192254,1,0,0:0:0:0:
320,192,192468,1,0,0:0:0:0:
448,192,192468,1,0,0:0:0:0:
64,192,192682,1,0,0:0:0:0:
192,192,192790,1,0,0:0:0:0:
320,192,192897,1,0,0:0:0:0:
192,192,193004,1,0,0:0:0:0:
64,192,193111,1,0,0:0:0:0:
448,192,193111,1,0,0:0:0:0:
192,192,193325,1,0,0:0:0:0:
320,192,193325,1,0,0:0:0:0:
320,192,193540,1,0,0:0:0:0:
448,192,193647,1,0,0:0:0:0:
64,192,193754,1,0,0:0:0:0:
192,192,193754,1,0,0:0:0:0:
320,192,193861,1,0,0:0:0:0:
448,192,193968,1,0,0:0:0:0:
192,192,194182,1,0,0:0:0:0:
64,192,194182,1,0,0:0:0:0:
320,192,194397,1,0,0:0:0:0:
192,192,194504,1,0,0:0:0:0:
64,192,194611,1,0,0:0:0:0:
448,192,194611,1,0,0:0:0:0:
320,192,194718,1,0,0:0:0:0:
64,192,194825,1,0,0:0:0:0:
192,192,194825,1,0,0:0:0:0:
320,192,195040,1,0,0:0:0:0:
448,192,195040,1,0,0:0:0:0:
192,192,195254,1,0,0:0:0:0:
64,192,195361,1,0,0:0:0:0:
320,192,195468,1,0,0:0:0:0:
448,192,195468,1,0,0:0:0:0:
192,192,195575,1,0,0:0:0:0:
64,192,195575,1,0,0:0:0:0:
448,192,195682,1,0,0:0:0:0:
320,192,195682,1,0,0:0:0:0:
192,192,195790,1,0,0:0:0:0:
64,192,195790,1,0,0:0:0:0:
320,192,195897,1,0,0:0:0:0:
448,192,195897,1,0,0:0:0:0:
192,192,196111,1,0,0:0:0:0:
320,192,196218,1,0,0:0:0:0:
64,192,196325,1,0,0:0:0:0:
192,192,196432,1,0,0:0:0:0:
320,192,196540,1,0,0:0:0:0:
448,192,196540,1,0,0:0:0:0:
192,192,196754,1,0,0:0:0:0:
64,192,196754,1,0,0:0:0:0:
192,192,196968,1,0,0:0:0:0:
64,192,197075,1,0,0:0:0:0:
192,192,197182,1,0,0:0:0:0:
320,192,197182,1,0,0:0:0:0:
448,192,197290,1,0,0:0:0:0:
320,192,197397,1,0,0:0:0:0:
64,192,197504,1,0,0:0:0:0:
192,192,197611,1,0,0:0:0:0:
320,192,197611,1,0,0:0:0:0:
320,192,197825,1,0,0:0:0:0:
192,192,197932,1,0,0:0:0:0:
64,192,197932,1,0,0:0:0:0:
320,192,198040,1,0,0:0:0:0:
448,192,198040,1,0,0:0:0:0:
192,192,198254,1,0,0:0:0:0:
64,192,198254,1,0,0:0:0:0:
320,192,198468,1,0,0:0:0:0:
448,192,198468,1,0,0:0:0:0:
192,192,198575,1,0,0:0:0:0:
64,192,198575,1,0,0:0:0:0:
320,192,198682,1,0,0:0:0:0:
448,192,198790,1,0,0:0:0:0:
320,192,198897,1,0,0:0:0:0:
192,192,198897,1,0,0:0:0:0:
64,192,199004,1,0,0:0:0:0:
192,192,199111,1,0,0:0:0:0:
320,192,199325,1,0,0:0:0:0:
448,192,199325,1,0,0:0:0:0:
192,192,199540,1,0,0:0:0:0:
320,192,199647,1,0,0:0:0:0:
192,192,199754,1,0,0:0:0:0:
64,192,199861,1,0,0:0:0:0:
320,192,199968,1,0,0:0:0:0:
448,192,199968,1,0,0:0:0:0:
192,192,200182,1,0,0:0:0:0:
64,192,200182,1,0,0:0:0:0:
448,192,200397,1,0,0:0:0:0:
320,192,200504,1,0,0:0:0:0:
64,192,200611,1,0,0:0:0:0:
192,192,200611,1,0,0:0:0:0:
448,192,200718,1,0,0:0:0:0:
320,192,200825,1,0,0:0:0:0:
192,192,200932,1,0,0:0:0:0:
448,192,201040,1,0,0:0:0:0:
320,192,201040,1,0,0:0:0:0:
192,192,201254,1,0,0:0:0:0:
320,192,201361,1,0,0:0:0:0:
448,192,201468,1,0,0:0:0:0:
64,192,201468,1,0,0:0:0:0:
192,192,201575,1,0,0:0:0:0:
320,192,201682,1,0,0:0:0:0:
448,192,201682,1,0,0:0:0:0:
64,192,201790,1,0,0:0:0:0:
192,192,201897,1,0,0:0:0:0:
320,192,201897,1,0,0:0:0:0:
448,192,202111,1,0,0:0:0:0:
320,192,202218,1,0,0:0:0:0:
192,192,202325,1,0,0:0:0:0:
64,192,202325,1,0,0:0:0:0:
448,192,202432,1,0,0:0:0:0:
320,192,202540,1,0,0:0:0:0:
64,192,202647,1,0,0:0:0:0:
192,192,202754,1,0,0:0:0:0:
320,192,202754,1,0,0:0:0:0:
320,192,202968,1,0,0:0:0:0:
448,192,203075,1,0,0:0:0:0:
192,192,203182,1,0,0:0:0:0:
320,192,203290,1,0,0:0:0:0:
192,192,203397,1,0,0:0:0:0:
64,192,203397,1,0,0:0:0:0:
320,192,203611,1,0,0:0:0:0:
448,192,203611,1,0,0:0:0:0:
320,192,203825,1,0,0:0:0:0:
192,192,203932,1,0,0:0:0:0:
64,192,204040,1,0,0:0:0:0:
448,192,204040,1,0,0:0:0:0:
320,192,204147,1,0,0:0:0:0:
192,192,204254,1,0,0:0:0:0:
320,192,204361,1,0,0:0:0:0:
448,192,204361,1,0,0:0:0:0:
192,192,204468,1,0,0:0:0:0:
64,192,204468,1,0,0:0:0:0:
320,192,204682,1,0,0:0:0:0:
192,192,204790,1,0,0:0:0:0:
64,192,204790,1,0,0:0:0:0:
320,192,204897,1,0,0:0:0:0:
448,192,204897,1,0,0:0:0:0:
192,192,205004,1,0,0:0:0:0:
64,192,205004,1,0,0:0:0:0:
320,192,205111,1,0,0:0:0:0:
448,192,205111,1,0,0:0:0:0:
64,192,205218,1,0,0:0:0:0:
448,192,205325,1,0,0:0:0:0:
192,192,205325,1,0,0:0:0:0:
64,192,205432,1,0,0:0:0:0:
320,192,205432,1,0,0:0:0:0:
448,192,205540,1,0,0:0:0:0:
192,192,205540,1,0,0:0:0:0:
64,192,205647,1,0,0:0:0:0:
320,192,205647,1,0,0:0:0:0:
448,192,205754,1,0,0:0:0:0:
192,192,205754,1,0,0:0:0:0:
320,192,205754,1,0,0:0:0:0:
320,192,206182,1,0,0:0:0:0:
192,192,206182,1,0,0:0:0:0:
192,192,206611,1,0,0:0:0:0:
64,192,206611,1,0,0:0:0:0:
192,192,206932,1,0,0:0:0:0:
320,192,206932,1,0,0:0:0:0:
448,192,207254,1,0,0:0:0:0:
320,192,207254,1,0,0:0:0:0:
320,192,207468,1,0,0:0:0:0:
64,192,207468,1,0,0:0:0:0:
64,192,207897,1,0,0:0:0:0:
320,192,207897,1,0,0:0:0:0:
192,192,208325,1,0,0:0:0:0:
448,192,208325,1,0,0:0:0:0:
64,192,208647,1,0,0:0:0:0:
192,192,208647,1,0,0:0:0:0:
320,192,208968,1,0,0:0:0:0:
448,192,208968,1,0,0:0:0:0:
192,192,209182,1,0,0:0:0:0:
320,192,209182,1,0,0:0:0:0:
192,192,209611,1,0,0:0:0:0:
320,192,209611,1,0,0:0:0:0:
64,192,210040,1,0,0:0:0:0:
192,192,210040,1,0,0:0:0:0:
64,192,210361,1,0,0:0:0:0:
320,192,210361,1,0,0:0:0:0:
192,192,210682,1,0,0:0:0:0:
448,192,210682,1,0,0:0:0:0:
320,192,210897,1,0,0:0:0:0:
448,192,210897,1,0,0:0:0:0:
448,192,211325,1,0,0:0:0:0:
320,192,211325,1,0,0:0:0:0:
320,192,211754,1,0,0:0:0:0:
64,192,211754,1,0,0:0:0:0:
320,192,212075,1,0,0:0:0:0:
192,192,212075,1,0,0:0:0:0:
192,192,212397,1,0,0:0:0:0:
448,192,212397,1,0,0:0:0:0:
192,192,212611,1,0,0:0:0:0:
64,192,212611,1,0,0:0:0:0:
320,192,212718,1,0,0:0:0:0:
448,192,212825,1,0,0:0:0:0:
320,192,212932,1,0,0:0:0:0:
64,192,213040,1,0,0:0:0:0:
192,192,213147,1,0,0:0:0:0:
320,192,213254,1,0,0:0:0:0:
448,192,213361,1,0,0:0:0:0:
192,192,213468,1,0,0:0:0:0:
64,192,213575,1,0,0:0:0:0:
320,192,213682,1,0,0:0:0:0:
192,192,213790,1,0,0:0:0:0:
448,192,213897,1,0,0:0:0:0:
320,192,214004,1,0,0:0:0:0:
192,192,214111,1,0,0:0:0:0:
64,192,214218,1,0,0:0:0:0:
320,192,214325,1,0,0:0:0:0:
448,192,214325,1,0,0:0:0:0:
192,192,214432,1,0,0:0:0:0:
64,192,214540,1,0,0:0:0:0:
192,192,214647,1,0,0:0:0:0:
448,192,214754,1,0,0:0:0:0:
320,192,214861,1,0,0:0:0:0:
64,192,214968,1,0,0:0:0:0:
192,192,215075,1,0,0:0:0:0:
320,192,215182,1,0,0:0:0:0:
448,192,215290,1,0,0:0:0:0:
192,192,215397,1,0,0:0:0:0:
320,192,215504,1,0,0:0:0:0:
64,192,215611,1,0,0:0:0:0:
192,192,215718,1,0,0:0:0:0:
320,192,215825,1,0,0:0:0:0:
448,192,215932,1,0,0:0:0:0:
64,192,216040,1,0,0:0:0:0:
192,192,216093,1,0,0:0:0:0:
320,192,216147,1,0,0:0:0:0:
448,192,216200,1,0,0:0:0:0:
64,192,216254,1,0,0:0:0:0:
192,192,216307,1,0,0:0:0:0:
320,192,216361,1,0,0:0:0:0:
448,192,216415,1,0,0:0:0:0:
64,192,216468,1,0,0:0:0:0:
192,192,216522,1,0,0:0:0:0:
448,192,216575,1,0,0:0:0:0:
320,192,216629,1,0,0:0:0:0:
64,192,216682,1,0,0:0:0:0:
192,192,216736,1,0,0:0:0:0:
448,192,216790,1,0,0:0:0:0:
320,192,216843,1,0,0:0:0:0:
192,192,216897,1,0,0:0:0:0:
64,192,216950,1,0,0:0:0:0:
320,192,217004,1,0,0:0:0:0:
448,192,217057,1,0,0:0:0:0:
192,192,217111,1,0,0:0:0:0:
64,192,217165,1,0,0:0:0:0:
448,192,217218,1,0,0:0:0:0:
320,192,217272,1,0,0:0:0:0:
64,192,217325,1,0,0:0:0:0:
192,192,217379,1,0,0:0:0:0:
320,192,217432,1,0,0:0:0:0:
448,192,217486,1,0,0:0:0:0:
192,192,217540,1,0,0:0:0:0:
64,192,217593,1,0,0:0:0:0:
320,192,217647,1,0,0:0:0:0:
448,192,217700,1,0,0:0:0:0:
64,192,217754,128,0,219254:0:0:0:0:
192,192,219254,1,0,0:0:0:0:
320,192,219254,1,0,0:0:0:0:
448,192,219254,1,0,0:0:0:0:
448,192,219468,1,0,0:0:0:0:
192,192,219468,1,0,0:0:0:0:
320,192,219468,1,0,0:0:0:0:
64,192,219575,1,0,0:0:0:0:
320,192,219682,1,0,0:0:0:0:
192,192,219682,1,0,0:0:0:0:
448,192,219790,1,0,0:0:0:0:
320,192,219897,1,0,0:0:0:0:
64,192,219897,1,0,0:0:0:0:
192,192,220004,1,0,0:0:0:0:
448,192,220004,1,0,0:0:0:0:
320,192,220111,1,0,0:0:0:0:
192,192,220218,1,0,0:0:0:0:
64,192,220325,1,0,0:0:0:0:
448,192,220325,1,0,0:0:0:0:
320,192,220432,1,0,0:0:0:0:
192,192,220540,1,0,0:0:0:0:
448,192,220647,1,0,0:0:0:0:
320,192,220647,1,0,0:0:0:0:
192,192,220754,1,0,0:0:0:0:
64,192,220754,1,0,0:0:0:0:
320,192,220861,1,0,0:0:0:0:
448,192,220968,1,0,0:0:0:0:
192,192,220968,1,0,0:0:0:0:
320,192,221075,1,0,0:0:0:0:
192,192,221182,1,0,0:0:0:0:
64,192,221182,1,0,0:0:0:0:
320,192,221290,1,0,0:0:0:0:
448,192,221397,1,0,0:0:0:0:
192,192,221397,1,0,0:0:0:0:
64,192,221504,1,0,0:0:0:0:
192,192,221611,1,0,0:0:0:0:
320,192,221611,1,0,0:0:0:0:
448,192,221718,1,0,0:0:0:0:
64,192,221718,1,0,0:0:0:0:
320,192,221825,1,0,0:0:0:0:
192,192,221932,1,0,0:0:0:0:
448,192,222040,1,0,0:0:0:0:
320,192,222040,1,0,0:0:0:0:
192,192,222147,1,0,0:0:0:0:
64,192,222254,1,0,0:0:0:0:
448,192,222361,1,0,0:0:0:0:
192,192,222361,1,0,0:0:0:0:
320,192,222468,1,0,0:0:0:0:
64,192,222468,1,0,0:0:0:0:
192,192,222575,1,0,0:0:0:0:
448,192,222682,1,0,0:0:0:0:
64,192,222682,1,0,0:0:0:0:
320,192,222790,1,0,0:0:0:0:
64,192,222897,1,0,0:0:0:0:
192,192,222897,1,0,0:0:0:0:
320,192,223004,1,0,0:0:0:0:
192,192,223111,1,0,0:0:0:0:
448,192,223111,1,0,0:0:0:0:
320,192,223218,1,0,0:0:0:0:
192,192,223325,1,0,0:0:0:0:
64,192,223325,1,0,0:0:0:0:
448,192,223432,1,0,0:0:0:0:
320,192,223432,1,0,0:0:0:0:
192,192,223540,1,0,0:0:0:0:
64,192,223647,1,0,0:0:0:0:
192,192,223754,1,0,0:0:0:0:
320,192,223754,1,0,0:0:0:0:
448,192,223861,1,0,0:0:0:0:
64,192,223968,1,0,0:0:0:0:
192,192,224075,1,0,0:0:0:0:
320,192,224075,1,0,0:0:0:0:
448,192,224182,1,0,0:0:0:0:
64,192,224182,1,0,0:0:0:0:
320,192,224290,1,0,0:0:0:0:
192,192,224397,1,0,0:0:0:0:
448,192,224397,1,0,0:0:0:0:
320,192,224504,1,0,0:0:0:0:
64,192,224611,1,0,0:0:0:0:
192,192,224611,1,0,0:0:0:0:
320,192,224718,1,0,0:0:0:0:
192,192,224825,1,0,0:0:0:0:
448,192,224825,1,0,0:0:0:0:
320,192,224932,1,0,0:0:0:0:
64,192,224932,1,0,0:0:0:0:
192,192,225040,1,0,0:0:0:0:
448,192,225147,1,0,0:0:0:0:
320,192,225147,1,0,0:0:0:0:
64,192,225254,1,0,0:0:0:0:
320,192,225361,1,0,0:0:0:0:
448,192,225468,1,0,0:0:0:0:
192,192,225468,1,0,0:0:0:0:
64,192,225575,1,0,0:0:0:0:
320,192,225682,1,0,0:0:0:0:
192,192,225790,1,0,0:0:0:0:
448,192,225790,1,0,0:0:0:0:
320,192,225897,1,0,0:0:0:0:
64,192,225897,1,0,0:0:0:0:
192,192,226004,1,0,0:0:0:0:
320,192,226111,1,0,0:0:0:0:
448,192,226111,1,0,0:0:0:0:
64,192,226218,1,0,0:0:0:0:
192,192,226325,1,0,0:0:0:0:
320,192,226325,1,0,0:0:0:0:
448,192,226432,1,0,0:0:0:0:
192,192,226540,1,0,0:0:0:0:
64,192,226540,1,0,0:0:0:0:
320,192,226647,1,0,0:0:0:0:
448,192,226754,1,0,0:0:0:0:
64,192,226754,1,0,0:0:0:0:
192,192,226861,1,0,0:0:0:0:
320,192,226861,1,0,0:0:0:0:
64,192,226968,1,0,0:0:0:0:
448,192,227075,1,0,0:0:0:0:
192,192,227182,1,0,0:0:0:0:
320,192,227182,1,0,0:0:0:0:
64,192,227290,1,0,0:0:0:0:
192,192,227397,1,0,0:0:0:0:
320,192,227504,1,0,0:0:0:0:
448,192,227504,1,0,0:0:0:0:
64,192,227611,1,0,0:0:0:0:
192,192,227611,1,0,0:0:0:0:
320,192,227718,1,0,0:0:0:0:
192,192,227825,1,0,0:0:0:0:
448,192,227825,1,0,0:0:0:0:
64,192,227932,1,0,0:0:0:0:
192,192,228040,1,0,0:0:0:0:
320,192,228040,1,0,0:0:0:0:
448,192,228147,1,0,0:0:0:0:
192,192,228254,1,0,0:0:0:0:
64,192,228254,1,0,0:0:0:0:
320,192,228361,1,0,0:0:0:0:
448,192,228468,1,0,0:0:0:0:
64,192,228468,1,0,0:0:0:0:
192,192,228575,1,0,0:0:0:0:
320,192,228575,1,0,0:0:0:0:
448,192,228682,1,0,0:0:0:0:
64,192,228790,1,0,0:0:0:0:
192,192,228897,1,0,0:0:0:0:
448,192,228897,1,0,0:0:0:0:
320,192,229004,1,0,0:0:0:0:
192,192,229111,1,0,0:0:0:0:
64,192,229218,1,0,0:0:0:0:
448,192,229218,1,0,0:0:0:0:
320,192,229325,1,0,0:0:0:0:
192,192,229325,1,0,0:0:0:0:
448,192,229432,1,0,0:0:0:0:
64,192,229540,1,0,0:0:0:0:
192,192,229540,1,0,0:0:0:0:
320,192,229647,1,0,0:0:0:0:
448,192,229754,1,0,0:0:0:0:
64,192,229754,1,0,0:0:0:0:
192,192,229861,1,0,0:0:0:0:
320,192,229968,1,0,0:0:0:0:
448,192,229968,1,0,0:0:0:0:
64,192,230075,1,0,0:0:0:0:
192,192,230182,1,0,0:0:0:0:
448,192,230182,1,0,0:0:0:0:
64,192,230290,1,0,0:0:0:0:
320,192,230290,1,0,0:0:0:0:
192,192,230397,1,0,0:0:0:0:
64,192,230504,1,0,0:0:0:0:
320,192,230611,1,0,0:0:0:0:
448,192,230611,1,0,0:0:0:0:
192,192,230718,1,0,0:0:0:0:
64,192,230825,1,0,0:0:0:0:
192,192,230932,1,0,0:0:0:0:
320,192,230932,1,0,0:0:0:0:
448,192,231040,1,0,0:0:0:0:
64,192,231040,1,0,0:0:0:0:
320,192,231147,1,0,0:0:0:0:
192,192,231254,1,0,0:0:0:0:
448,192,231254,1,0,0:0:0:0:
64,192,231361,1,0,0:0:0:0:
320,192,231468,1,0,0:0:0:0:
448,192,231468,1,0,0:0:0:0:
192,192,231575,1,0,0:0:0:0:
64,192,231682,1,0,0:0:0:0:
320,192,231682,1,0,0:0:0:0:
192,192,231790,1,0,0:0:0:0:
320,192,231897,1,0,0:0:0:0:
448,192,231897,1,0,0:0:0:0:
192,192,232004,1,0,0:0:0:0:
64,192,232004,1,0,0:0:0:0:
320,192,232111,1,0,0:0:0:0:
448,192,232218,1,0,0:0:0:0:
320,192,232325,1,0,0:0:0:0:
64,192,232325,1,0,0:0:0:0:
192,192,232432,1,0,0:0:0:0:
448,192,232540,1,0,0:0:0:0:
192,192,232647,1,0,0:0:0:0:
320,192,232647,1,0,0:0:0:0:
64,192,232754,1,0,0:0:0:0:
448,192,232754,1,0,0:0:0:0:
192,192,232861,1,0,0:0:0:0:
320,192,232968,1,0,0:0:0:0:
448,192,232968,1,0,0:0:0:0:
64,192,233075,1,0,0:0:0:0:
192,192,233182,1,0,0:0:0:0:
320,192,233182,1,0,0:0:0:0:
448,192,233290,1,0,0:0:0:0:
192,192,233397,1,0,0:0:0:0:
64,192,233397,1,0,0:0:0:0:
320,192,233504,1,0,0:0:0:0:
448,192,233611,1,0,0:0:0:0:
64,192,233611,1,0,0:0:0:0:
192,192,233718,1,0,0:0:0:0:
320,192,233718,1,0,0:0:0:0:
448,192,233825,1,0,0:0:0:0:
64,192,233932,1,0,0:0:0:0:
192,192,234040,1,0,0:0:0:0:
448,192,234040,1,0,0:0:0:0:
320,192,234147,1,0,0:0:0:0:
448,192,234254,1,0,0:0:0:0:
192,192,234361,1,0,0:0:0:0:
64,192,234361,1,0,0:0:0:0:
320,192,234468,1,0,0:0:0:0:
448,192,234468,1,0,0:0:0:0:
192,192,234575,1,0,0:0:0:0:
64,192,234682,1,0,0:0:0:0:
448,192,234682,1,0,0:0:0:0:
320,192,234790,1,0,0:0:0:0:
192,192,234897,1,0,0:0:0:0:
64,192,234897,1,0,0:0:0:0:
320,192,235004,1,0,0:0:0:0:
64,192,235111,1,0,0:0:0:0:
448,192,235111,1,0,0:0:0:0:
192,192,235218,1,0,0:0:0:0:
448,192,235325,1,0,0:0:0:0:
320,192,235325,1,0,0:0:0:0:
64,192,235432,1,0,0:0:0:0:
192,192,235432,1,0,0:0:0:0:
320,192,235540,1,0,0:0:0:0:
448,192,235647,1,0,0:0:0:0:
192,192,235754,1,0,0:0:0:0:
320,192,235754,1,0,0:0:0:0:
64,192,235861,1,0,0:0:0:0:
448,192,235968,1,0,0:0:0:0:
320,192,236075,1,0,0:0:0:0:
64,192,236075,1,0,0:0:0:0:
192,192,236182,1,0,0:0:0:0:
448,192,236182,1,0,0:0:0:0:
64,192,236290,1,0,0:0:0:0:
192,192,236397,1,0,0:0:0:0:
320,192,236397,1,0,0:0:0:0:
448,192,236504,1,0,0:0:0:0:
192,192,236611,1,0,0:0:0:0:
64,192,236611,1,0,0:0:0:0:
320,192,236718,1,0,0:0:0:0:
192,192,236825,1,0,0:0:0:0:
448,192,236825,1,0,0:0:0:0:
64,192,236932,1,0,0:0:0:0:
320,192,237040,1,0,0:0:0:0:
448,192,237040,1,0,0:0:0:0:
192,192,237147,1,0,0:0:0:0:
64,192,237147,1,0,0:0:0:0:
320,192,237254,1,0,0:0:0:0:
448,192,237361,1,0,0:0:0:0:
192,192,237468,1,0,0:0:0:0:
320,192,237468,1,0,0:0:0:0:
64,192,237575,1,0,0:0:0:0:
320,192,237682,1,0,0:0:0:0:
448,192,237790,1,0,0:0:0:0:
192,192,237790,1,0,0:0:0:0:
320,192,237897,1,0,0:0:0:0:
64,192,237897,1,0,0:0:0:0:
192,192,238004,1,0,0:0:0:0:
320,192,238111,1,0,0:0:0:0:
448,192,238111,1,0,0:0:0:0:
64,192,238218,1,0,0:0:0:0:
192,192,238325,1,0,0:0:0:0:
448,192,238325,1,0,0:0:0:0:
320,192,238432,1,0,0:0:0:0:
192,192,238540,1,0,0:0:0:0:
64,192,238540,1,0,0:0:0:0:
448,192,238647,1,0,0:0:0:0:
320,192,238754,1,0,0:0:0:0:
192,192,238754,1,0,0:0:0:0:
64,192,238861,1,0,0:0:0:0:
448,192,238861,1,0,0:0:0:0:
192,192,238968,1,0,0:0:0:0:
320,192,239075,1,0,0:0:0:0:
64,192,239182,1,0,0:0:0:0:
192,192,239182,1,0,0:0:0:0:
448,192,239290,1,0,0:0:0:0:
192,192,239397,1,0,0:0:0:0:
320,192,239504,1,0,0:0:0:0:
64,192,239504,1,0,0:0:0:0:
192,192,239611,1,0,0:0:0:0:
448,192,239611,1,0,0:0:0:0:
320,192,239718,1,0,0:0:0:0:
192,192,239825,1,0,0:0:0:0:
64,192,239825,1,0,0:0:0:0:
448,192,239932,1,0,0:0:0:0:
320,192,240040,1,0,0:0:0:0:
192,192,240040,1,0,0:0:0:0:
64,192,240147,1,0,0:0:0:0:
192,192,240254,1,0,0:0:0:0:
448,192,240254,1,0,0:0:0:0:
320,192,240361,1,0,0:0:0:0:
192,192,240468,1,0,0:0:0:0:
64,192,240468,1,0,0:0:0:0:
320,192,240575,1,0,0:0:0:0:
448,192,240575,1,0,0:0:0:0:
192,192,240682,1,0,0:0:0:0:
64,192,240790,1,0,0:0:0:0:
192,192,240897,1,0,0:0:0:0:
448,192,240897,1,0,0:0:0:0:
320,192,241004,1,0,0:0:0:0:
64,192,241111,1,0,0:0:0:0:
320,192,241218,1,0,0:0:0:0:
192,192,241218,1,0,0:0:0:0:
64,192,241325,1,0,0:0:0:0:
448,192,241325,1,0,0:0:0:0:
320,192,241432,1,0,0:0:0:0:
192,192,241540,1,0,0:0:0:0:
64,192,241540,1,0,0:0:0:0:
448,192,241647,1,0,0:0:0:0:
320,192,241754,1,0,0:0:0:0:
192,192,241754,1,0,0:0:0:0:
64,192,241861,1,0,0:0:0:0:
192,192,241968,1,0,0:0:0:0:
448,192,241968,1,0,0:0:0:0:
320,192,242075,1,0,0:0:0:0:
448,192,242182,1,0,0:0:0:0:
64,192,242182,1,0,0:0:0:0:
192,192,242290,1,0,0:0:0:0:
320,192,242290,1,0,0:0:0:0:
64,192,242397,1,0,0:0:0:0:
320,192,242504,1,0,0:0:0:0:
192,192,242611,1,0,0:0:0:0:
448,192,242611,1,0,0:0:0:0:
64,192,242718,1,0,0:0:0:0:
320,192,242825,1,0,0:0:0:0:
192,192,242932,1,0,0:0:0:0:
64,192,242932,1,0,0:0:0:0:
320,192,243040,1,0,0:0:0:0:
448,192,243040,1,0,0:0:0:0:
64,192,243147,1,0,0:0:0:0:
192,192,243254,1,0,0:0:0:0:
320,192,243254,1,0,0:0:0:0:
448,192,243361,1,0,0:0:0:0:
192,192,243468,1,0,0:0:0:0:
64,192,243468,1,0,0:0:0:0:
320,192,243575,1,0,0:0:0:0:
192,192,243682,1,0,0:0:0:0:
448,192,243682,1,0,0:0:0:0:
64,192,243790,1,0,0:0:0:0:
448,192,243897,1,0,0:0:0:0:
320,192,243897,1,0,0:0:0:0:
192,192,244004,1,0,0:0:0:0:
64,192,244004,1,0,0:0:0:0:
320,192,244111,1,0,0:0:0:0:
192,192,244218,1,0,0:0:0:0:
448,192,244325,1,0,0:0:0:0:
64,192,244325,1,0,0:0:0:0:
320,192,244432,1,0,0:0:0:0:
192,192,244540,1,0,0:0:0:0:
64,192,244647,1,0,0:0:0:0:
320,192,244647,1,0,0:0:0:0:
192,192,244754,1,0,0:0:0:0:
448,192,244754,1,0,0:0:0:0:
320,192,244861,1,0,0:0:0:0:
192,192,244968,1,0,0:0:0:0:
64,192,244968,1,0,0:0:0:0:
448,192,245075,1,0,0:0:0:0:
320,192,245182,1,0,0:0:0:0:
64,192,245182,1,0,0:0:0:0:
192,192,245290,1,0,0:0:0:0:
320,192,245397,1,0,0:0:0:0:
448,192,245397,1,0,0:0:0:0:
64,192,245504,1,0,0:0:0:0:
192,192,245611,1,0,0:0:0:0:
320,192,245611,1,0,0:0:0:0:
448,192,245718,1,0,0:0:0:0:
64,192,245718,1,0,0:0:0:0:
320,192,245825,1,0,0:0:0:0:
192,192,245932,1,0,0:0:0:0:
320,192,246040,1,0,0:0:0:0:
448,192,246040,1,0,0:0:0:0:
192,192,246147,1,0,0:0:0:0:
64,192,246254,1,0,0:0:0:0:
192,192,246361,1,0,0:0:0:0:
448,192,246361,1,0,0:0:0:0:
320,192,246468,1,0,0:0:0:0:
64,192,246468,1,0,0:0:0:0:
448,192,246575,1,0,0:0:0:0:
320,192,246682,1,0,0:0:0:0:
192,192,246790,1,0,0:0:0:0:
64,192,246897,1,0,0:0:0:0:
448,192,246897,1,0,0:0:0:0:
320,192,247004,1,0,0:0:0:0:
192,192,247111,1,0,0:0:0:0:
64,192,247111,1,0,0:0:0:0:
448,192,247218,1,0,0:0:0:0:
192,192,247325,1,0,0:0:0:0:
320,192,247325,1,0,0:0:0:0:
64,192,247432,1,0,0:0:0:0:
448,192,247432,1,0,0:0:0:0:
192,192,247540,1,0,0:0:0:0:
320,192,247647,1,0,0:0:0:0:
192,192,247754,1,0,0:0:0:0:
448,192,247754,1,0,0:0:0:0:
64,192,247861,1,0,0:0:0:0:
192,192,247968,1,0,0:0:0:0:
320,192,248075,1,0,0:0:0:0:
448,192,248075,1,0,0:0:0:0:
192,192,248182,1,0,0:0:0:0:
64,192,248182,1,0,0:0:0:0:
448,192,248290,1,0,0:0:0:0:
192,192,248397,1,0,0:0:0:0:
320,192,248397,1,0,0:0:0:0:
64,192,248504,1,0,0:0:0:0:
192,192,248611,1,0,0:0:0:0:
448,192,248611,1,0,0:0:0:0:
320,192,248718,1,0,0:0:0:0:
192,192,248825,1,0,0:0:0:0:
64,192,248825,1,0,0:0:0:0:
448,192,248932,1,0,0:0:0:0:
320,192,249040,1,0,0:0:0:0:
192,192,249040,1,0,0:0:0:0:
64,192,249147,1,0,0:0:0:0:
448,192,249147,1,0,0:0:0:0:
192,192,249254,1,0,0:0:0:0:
320,192,249361,1,0,0:0:0:0:
192,192,249468,1,0,0:0:0:0:
448,192,249468,1,0,0:0:0:0:
64,192,249575,1,0,0:0:0:0:
192,192,249682,1,0,0:0:0:0:
320,192,249790,1,0,0:0:0:0:
448,192,249790,1,0,0:0:0:0:
192,192,249897,1,0,0:0:0:0:
64,192,249897,1,0,0:0:0:0:
448,192,250004,1,0,0:0:0:0:
320,192,250111,1,0,0:0:0:0:
64,192,250111,1,0,0:0:0:0:
192,192,250218,1,0,0:0:0:0:
64,192,250325,1,0,0:0:0:0:
448,192,250325,1,0,0:0:0:0:
320,192,250432,1,0,0:0:0:0:
192,192,250540,1,0,0:0:0:0:
64,192,250540,1,0,0:0:0:0:
448,192,250647,1,0,0:0:0:0:
64,192,250754,1,0,0:0:0:0:
320,192,250754,1,0,0:0:0:0:
192,192,250861,1,0,0:0:0:0:
448,192,250861,1,0,0:0:0:0:
64,192,250968,1,0,0:0:0:0:
192,192,251075,1,0,0:0:0:0:
320,192,251182,1,0,0:0:0:0:
448,192,251182,1,0,0:0:0:0:
192,192,251290,1,0,0:0:0:0:
64,192,251397,1,0,0:0:0:0:
192,192,251504,1,0,0:0:0:0:
320,192,251504,1,0,0:0:0:0:
448,192,251611,1,0,0:0:0:0:
64,192,251611,1,0,0:0:0:0:
320,192,251718,1,0,0:0:0:0:
192,192,251825,1,0,0:0:0:0:
64,192,251825,1,0,0:0:0:0:
448,192,251932,1,0,0:0:0:0:
320,192,252040,1,0,0:0:0:0:
64,192,252040,1,0,0:0:0:0:
192,192,252147,1,0,0:0:0:0:
320,192,252254,1,0,0:0:0:0:
448,192,252254,1,0,0:0:0:0:
64,192,252361,1,0,0:0:0:0:
192,192,252468,1,0,0:0:0:0:
320,192,252468,1,0,0:0:0:0:
448,192,252575,1,0,0:0:0:0:
64,192,252575,1,0,0:0:0:0:
320,192,252682,1,0,0:0:0:0:
192,192,252790,1,0,0:0:0:0:
64,192,252897,1,0,0:0:0:0:
320,192,252897,1,0,0:0:0:0:
448,192,253004,1,0,0:0:0:0:
192,192,253111,1,0,0:0:0:0:
320,192,253218,1,0,0:0:0:0:
448,192,253218,1,0,0:0:0:0:
192,192,253325,1,0,0:0:0:0:
64,192,253325,1,0,0:0:0:0:
448,192,253432,1,0,0:0:0:0:
192,192,253540,1,0,0:0:0:0:
320,192,253540,1,0,0:0:0:0:
64,192,253647,1,0,0:0:0:0:
192,192,253754,1,0,0:0:0:0:
448,192,253754,1,0,0:0:0:0:
320,192,253861,1,0,0:0:0:0:
192,192,253968,1,0,0:0:0:0:
64,192,253968,1,0,0:0:0:0:
448,192,254075,1,0,0:0:0:0:
320,192,254182,1,0,0:0:0:0:
192,192,254182,1,0,0:0:0:0:
64,192,254290,1,0,0:0:0:0:
448,192,254290,1,0,0:0:0:0:
192,192,254397,1,0,0:0:0:0:
320,192,254504,1,0,0:0:0:0:
192,192,254611,1,0,0:0:0:0:
448,192,254611,1,0,0:0:0:0:
320,192,254718,1,0,0:0:0:0:
192,192,254825,1,0,0:0:0:0:
64,192,254932,1,0,0:0:0:0:
320,192,254932,1,0,0:0:0:0:
192,192,255040,1,0,0:0:0:0:
448,192,255040,1,0,0:0:0:0:
320,192,255147,1,0,0:0:0:0:
192,192,255254,1,0,0:0:0:0:
64,192,255254,1,0,0:0:0:0:
448,192,255361,1,0,0:0:0:0:
320,192,255468,1,0,0:0:0:0:
192,192,255468,1,0,0:0:0:0:
64,192,255575,1,0,0:0:0:0:
192,192,255682,1,0,0:0:0:0:
448,192,255682,1,0,0:0:0:0:
320,192,255790,1,0,0:0:0:0:
192,192,255897,1,0,0:0:0:0:
64,192,255897,1,0,0:0:0:0:
320,192,256004,1,0,0:0:0:0:
448,192,256004,1,0,0:0:0:0:
192,192,256111,1,0,0:0:0:0:
64,192,256218,1,0,0:0:0:0:
192,192,256325,1,0,0:0:0:0:
448,192,256325,1,0,0:0:0:0:
320,192,256432,1,0,0:0:0:0:
192,192,256540,1,0,0:0:0:0:
64,192,256647,1,0,0:0:0:0:
448,192,256647,1,0,0:0:0:0:
320,192,256754,1,0,0:0:0:0:
192,192,256754,1,0,0:0:0:0:
448,192,256861,1,0,0:0:0:0:
64,192,256968,1,0,0:0:0:0:
320,192,256968,1,0,0:0:0:0:
192,192,257075,1,0,0:0:0:0:
320,192,257182,1,0,0:0:0:0:
448,192,257182,1,0,0:0:0:0:
64,192,257290,1,0,0:0:0:0:
192,192,257397,1,0,0:0:0:0:
448,192,257397,1,0,0:0:0:0:
320,192,257504,1,0,0:0:0:0:
192,192,257611,1,0,0:0:0:0:
64,192,257611,1,0,0:0:0:0:
320,192,257718,1,0,0:0:0:0:
448,192,257718,1,0,0:0:0:0:
64,192,257825,1,0,0:0:0:0:
192,192,257932,1,0,0:0:0:0:
448,192,258040,1,0,0:0:0:0:
320,192,258040,1,0,0:0:0:0:
192,192,258147,1,0,0:0:0:0:
64,192,258254,1,0,0:0:0:0:
192,192,258361,1,0,0:0:0:0:
448,192,258361,1,0,0:0:0:0:
320,192,258468,1,0,0:0:0:0:
64,192,258468,1,0,0:0:0:0:
192,192,258575,1,0,0:0:0:0:
320,192,258682,1,0,0:0:0:0:
448,192,258682,1,0,0:0:0:0:
64,192,258790,1,0,0:0:0:0:
192,192,258897,1,0,0:0:0:0:
320,192,258897,1,0,0:0:0:0:
448,192,259004,1,0,0:0:0:0:
192,192,259111,1,0,0:0:0:0:
64,192,259111,1,0,0:0:0:0:
320,192,259218,1,0,0:0:0:0:
448,192,259325,1,0,0:0:0:0:
192,192,259325,1,0,0:0:0:0:
64,192,259432,1,0,0:0:0:0:
320,192,259432,1,0,0:0:0:0:
192,192,259540,1,0,0:0:0:0:
448,192,259647,1,0,0:0:0:0:
192,192,259754,1,0,0:0:0:0:
320,192,259754,1,0,0:0:0:0:
64,192,259861,1,0,0:0:0:0:
448,192,259968,1,0,0:0:0:0:
192,192,260075,1,0,0:0:0:0:
320,192,260075,1,0,0:0:0:0:
64,192,260182,1,0,0:0:0:0:
448,192,260182,1,0,0:0:0:0:
192,192,260290,1,0,0:0:0:0:
320,192,260397,1,0,0:0:0:0:
448,192,260397,1,0,0:0:0:0:
64,192,260504,1,0,0:0:0:0:
192,192,260611,1,0,0:0:0:0:
320,192,260611,1,0,0:0:0:0:
448,192,260825,1,0,0:0:0:0:
192,192,260825,1,0,0:0:0:0:
320,192,261040,1,0,0:0:0:0:
64,192,261040,1,0,0:0:0:0:
192,192,261147,1,0,0:0:0:0:
448,192,261147,1,0,0:0:0:0:
320,192,261254,1,0,0:0:0:0:
192,192,261361,1,0,0:0:0:0:
64,192,261468,1,0,0:0:0:0:
448,192,261468,1,0,0:0:0:0:
192,192,261682,1,0,0:0:0:0:
448,192,261790,1,0,0:0:0:0:
320,192,261790,1,0,0:0:0:0:
192,192,261897,1,0,0:0:0:0:
64,192,261897,1,0,0:0:0:0:
448,192,262111,1,0,0:0:0:0:
192,192,262111,1,0,0:0:0:0:
320,192,262218,1,0,0:0:0:0:
192,192,262325,1,0,0:0:0:0:
64,192,262325,1,0,0:0:0:0:
448,192,262540,1,0,0:0:0:0:
192,192,262540,1,0,0:0:0:0:
192,192,262754,1,0,0:0:0:0:
320,192,262754,1,0,0:0:0:0:
448,192,262861,1,0,0:0:0:0:
64,192,262861,1,0,0:0:0:0:
320,192,262968,1,0,0:0:0:0:
192,192,263075,1,0,0:0:0:0:
448,192,263182,1,0,0:0:0:0:
320,192,263182,1,0,0:0:0:0:
64,192,263397,1,0,0:0:0:0:
448,192,263504,1,0,0:0:0:0:
192,192,263504,1,0,0:0:0:0:
320,192,263611,1,0,0:0:0:0:
64,192,263611,1,0,0:0:0:0:
448,192,263825,1,0,0:0:0:0:
64,192,263825,1,0,0:0:0:0:
64,192,264040,1,0,0:0:0:0:
192,192,264040,1,0,0:0:0:0:
320,192,264147,1,0,0:0:0:0:
192,192,264254,1,0,0:0:0:0:
448,192,264254,1,0,0:0:0:0:
320,192,264361,1,0,0:0:0:0:
192,192,264468,1,0,0:0:0:0:
64,192,264468,1,0,0:0:0:0:
448,192,264575,1,0,0:0:0:0:
320,192,264575,1,0,0:0:0:0:
64,192,264790,1,0,0:0:0:0:
192,192,264897,1,0,0:0:0:0:
320,192,264897,1,0,0:0:0:0:
64,192,265111,1,0,0:0:0:0:
192,192,265218,1,0,0:0:0:0:
320,192,265218,1,0,0:0:0:0:
448,192,265325,1,0,0:0:0:0:
64,192,265325,1,0,0:0:0:0:
192,192,265540,1,0,0:0:0:0:
448,192,265540,1,0,0:0:0:0:
64,192,265754,1,0,0:0:0:0:
192,192,265754,1,0,0:0:0:0:
320,192,265861,1,0,0:0:0:0:
192,192,265968,1,0,0:0:0:0:
448,192,265968,1,0,0:0:0:0:
320,192,266075,1,0,0:0:0:0:
64,192,266075,1,0,0:0:0:0:
192,192,266182,1,0,0:0:0:0:
448,192,266290,1,0,0:0:0:0:
320,192,266290,1,0,0:0:0:0:
320,192,266504,1,0,0:0:0:0:
448,192,266611,1,0,0:0:0:0:
192,192,266611,1,0,0:0:0:0:
320,192,266825,1,0,0:0:0:0:
192,192,266932,1,0,0:0:0:0:
448,192,266932,1,0,0:0:0:0:
320,192,267040,1,0,0:0:0:0:
64,192,267040,1,0,0:0:0:0:
192,192,267147,1,0,0:0:0:0:
320,192,267254,1,0,0:0:0:0:
448,192,267254,1,0,0:0:0:0:
192,192,267468,1,0,0:0:0:0:
320,192,267468,1,0,0:0:0:0:
192,192,267682,1,0,0:0:0:0:
64,192,267682,1,0,0:0:0:0:
320,192,267790,1,0,0:0:0:0:
448,192,267897,1,0,0:0:0:0:
64,192,267897,1,0,0:0:0:0:
192,192,268004,1,0,0:0:0:0:
320,192,268004,1,0,0:0:0:0:
448,192,268218,1,0,0:0:0:0:
192,192,268325,1,0,0:0:0:0:
320,192,268325,1,0,0:0:0:0:
192,192,268540,1,0,0:0:0:0:
320,192,268647,1,0,0:0:0:0:
448,192,268647,1,0,0:0:0:0:
64,192,268754,1,0,0:0:0:0:
192,192,268754,1,0,0:0:0:0:
320,192,268861,1,0,0:0:0:0:
192,192,268968,1,0,0:0:0:0:
448,192,268968,1,0,0:0:0:0:
192,192,269182,1,0,0:0:0:0:
320,192,269182,1,0,0:0:0:0:
448,192,269290,1,0,0:0:0:0:
192,192,269397,1,0,0:0:0:0:
64,192,269397,1,0,0:0:0:0:
448,192,269611,1,0,0:0:0:0:
64,192,269611,1,0,0:0:0:0:
192,192,269718,1,0,0:0:0:0:
320,192,269718,1,0,0:0:0:0:
448,192,269825,1,0,0:0:0:0:
64,192,269932,1,0,0:0:0:0:
192,192,270040,1,0,0:0:0:0:
448,192,270040,1,0,0:0:0:0:
192,192,270254,1,0,0:0:0:0:
64,192,270361,1,0,0:0:0:0:
448,192,270361,1,0,0:0:0:0:
320,192,270468,1,0,0:0:0:0:
192,192,270468,1,0,0:0:0:0:
64,192,270682,1,0,0:0:0:0:
192,192,270682,1,0,0:0:0:0:
320,192,270897,1,0,0:0:0:0:
448,192,270897,1,0,0:0:0:0:
192,192,271004,1,0,0:0:0:0:
64,192,271111,1,0,0:0:0:0:
192,192,271218,1,0,0:0:0:0:
448,192,271325,1,0,0:0:0:0:
320,192,271325,1,0,0:0:0:0:
64,192,271432,1,0,0:0:0:0:
192,192,271540,1,0,0:0:0:0:
320,192,271647,1,0,0:0:0:0:
448,192,271754,1,0,0:0:0:0:
64,192,271754,1,0,0:0:0:0:
192,192,271861,1,0,0:0:0:0:
320,192,271968,1,0,0:0:0:0:
448,192,272075,1,0,0:0:0:0:
320,192,272182,1,0,0:0:0:0:
192,192,272182,1,0,0:0:0:0:
64,192,272290,1,0,0:0:0:0:
192,192,272397,1,0,0:0:0:0:
320,192,272504,1,0,0:0:0:0:
448,192,272611,1,0,0:0:0:0:
320,192,272665,1,0,0:0:0:0:
64,192,272718,1,0,0:0:0:0:
192,192,272772,1,0,0:0:0:0:
448,192,272825,1,0,0:0:0:0:
320,192,272879,1,0,0:0:0:0:
64,192,272932,1,0,0:0:0:0:
192,192,272986,1,0,0:0:0:0:
320,192,273040,1,0,0:0:0:0:
448,192,273093,1,0,0:0:0:0:
192,192,273147,1,0,0:0:0:0:
64,192,273200,1,0,0:0:0:0:
320,192,273254,1,0,0:0:0:0:
448,192,273307,1,0,0:0:0:0:
192,192,273361,1,0,0:0:0:0:
64,192,273415,1,0,0:0:0:0:
448,192,273468,1,0,0:0:0:0:
320,192,273522,1,0,0:0:0:0:
192,192,273575,1,0,0:0:0:0:
64,192,273629,1,0,0:0:0:0:
320,192,273682,1,0,0:0:0:0:
448,192,273736,1,0,0:0:0:0:
192,192,273790,1,0,0:0:0:0:
64,192,273843,1,0,0:0:0:0:
448,192,273897,1,0,0:0:0:0:
320,192,273932,1,0,0:0:0:0:
192,192,273968,1,0,0:0:0:0:
64,192,274004,1,0,0:0:0:0:
448,192,274040,1,0,0:0:0:0:
320,192,274075,1,0,0:0:0:0:
192,192,274111,1,0,0:0:0:0:
64,192,274147,1,0,0:0:0:0:
448,192,274182,1,0,0:0:0:0:
320,192,274218,1,0,0:0:0:0:
192,192,274254,1,0,0:0:0:0:
64,192,274290,1,0,0:0:0:0:
320,192,274325,1,0,0:0:0:0:
448,192,274325,1,0,0:0:0:0:
192,192,274432,1,0,0:0:0:0:
448,192,274540,1,0,0:0:0:0:
64,192,274647,1,0,0:0:0:0:
320,192,274754,1,0,0:0:0:0:
192,192,274754,1,0,0:0:0:0:
448,192,274861,1,0,0:0:0:0:
320,192,274968,1,0,0:0:0:0:
192,192,275075,1,0,0:0:0:0:
448,192,275182,1,0,0:0:0:0:
320,192,275182,1,0,0:0:0:0:
64,192,275290,1,0,0:0:0:0:
320,192,275397,1,0,0:0:0:0:
192,192,275504,1,0,0:0:0:0:
320,192,275611,1,0,0:0:0:0:
64,192,275611,1,0,0:0:0:0:
448,192,275718,1,0,0:0:0:0:
192,192,275825,1,0,0:0:0:0:
320,192,275932,1,0,0:0:0:0:
448,192,276040,1,0,0:0:0:0:
64,192,276040,1,0,0:0:0:0:
320,192,276147,1,0,0:0:0:0:
64,192,276254,1,0,0:0:0:0:
320,192,276361,1,0,0:0:0:0:
192,192,276468,1,0,0:0:0:0:
448,192,276468,1,0,0:0:0:0:
320,192,276575,1,0,0:0:0:0:
448,192,276682,1,0,0:0:0:0:
192,192,276790,1,0,0:0:0:0:
320,192,276897,1,0,0:0:0:0:
448,192,276897,1,0,0:0:0:0:
64,192,277004,1,0,0:0:0:0:
192,192,277111,1,0,0:0:0:0:
448,192,277218,1,0,0:0:0:0:
320,192,277325,1,0,0:0:0:0:
192,192,277325,1,0,0:0:0:0:
64,192,277432,1,0,0:0:0:0:
192,192,277540,1,0,0:0:0:0:
320,192,277647,1,0,0:0:0:0:
448,192,277754,1,0,0:0:0:0:
64,192,277754,1,0,0:0:0:0:
192,192,277861,1,0,0:0:0:0:
64,192,277968,1,0,0:0:0:0:
320,192,278075,1,0,0:0:0:0:
192,192,278182,1,0,0:0:0:0:
448,192,278182,1,0,0:0:0:0:
64,192,278290,1,0,0:0:0:0:
448,192,278397,1,0,0:0:0:0:
320,192,278504,1,0,0:0:0:0:
192,192,278611,1,0,0:0:0:0:
64,192,278611,1,0,0:0:0:0:
448,192,278718,1,0,0:0:0:0:
192,192,278825,1,0,0:0:0:0:
320,192,278932,1,0,0:0:0:0:
448,192,279040,1,0,0:0:0:0:
64,192,279040,1,0,0:0:0:0:
192,192,279147,1,0,0:0:0:0:
448,192,279254,1,0,0:0:0:0:
320,192,279361,1,0,0:0:0:0:
192,192,279468,1,0,0:0:0:0:
64,192,279468,1,0,0:0:0:0:
448,192,279575,1,0,0:0:0:0:
192,192,279682,1,0,0:0:0:0:
448,192,279790,1,0,0:0:0:0:
320,192,279897,1,0,0:0:0:0:
64,192,279897,1,0,0:0:0:0:
192,192,280004,1,0,0:0:0:0:
448,192,280111,1,0,0:0:0:0:
64,192,280218,1,0,0:0:0:0:
192,192,280325,1,0,0:0:0:0:
448,192,280325,1,0,0:0:0:0:
320,192,280432,1,0,0:0:0:0:
192,192,280540,1,0,0:0:0:0:
64,192,280647,1,0,0:0:0:0:
192,192,280754,1,0,0:0:0:0:
448,192,280754,1,0,0:0:0:0:
320,192,280861,1,0,0:0:0:0:
64,192,280968,1,0,0:0:0:0:
192,192,281075,1,0,0:0:0:0:
320,192,281182,1,0,0:0:0:0:
448,192,281182,1,0,0:0:0:0:
192,192,281290,1,0,0:0:0:0:
64,192,281397,1,0,0:0:0:0:
320,192,281504,1,0,0:0:0:0:
192,192,281611,1,0,0:0:0:0:
448,192,281611,1,0,0:0:0:0:
64,192,281718,1,0,0:0:0:0:
320,192,281825,1,0,0:0:0:0:
192,192,281932,1,0,0:0:0:0:
320,192,282040,1,0,0:0:0:0:
448,192,282040,1,0,0:0:0:0:
64,192,282147,1,0,0:0:0:0:
192,192,282254,1,0,0:0:0:0:
448,192,282361,1,0,0:0:0:0:
320,192,282468,1,0,0:0:0:0:
64,192,282468,1,0,0:0:0:0:
192,192,282575,1,0,0:0:0:0:
320,192,282682,1,0,0:0:0:0:
448,192,282790,1,0,0:0:0:0:
192,192,282897,1,0,0:0:0:0:
64,192,282897,1,0,0:0:0:0:
448,192,283004,1,0,0:0:0:0:
192,192,283111,1,0,0:0:0:0:
320,192,283218,1,0,0:0:0:0:
448,192,283325,1,0,0:0:0:0:
64,192,283325,1,0,0:0:0:0:
192,192,283432,1,0,0:0:0:0:
448,192,283540,1,0,0:0:0:0:
320,192,283647,1,0,0:0:0:0:
192,192,283754,1,0,0:0:0:0:
64,192,283754,1,0,0:0:0:0:
448,192,283861,1,0,0:0:0:0:
320,192,283968,1,0,0:0:0:0:
192,192,284075,1,0,0:0:0:0:
64,192,284182,1,0,0:0:0:0:
320,192,284182,1,0,0:0:0:0:
448,192,284290,1,0,0:0:0:0:
64,192,284397,1,0,0:0:0:0:
320,192,284504,1,0,0:0:0:0:
192,192,284611,1,0,0:0:0:0:
448,192,284611,1,0,0:0:0:0:
320,192,284718,1,0,0:0:0:0:
64,192,284825,1,0,0:0:0:0:
448,192,284932,1,0,0:0:0:0:
320,192,285040,1,0,0:0:0:0:
192,192,285040,1,0,0:0:0:0:
64,192,285147,1,0,0:0:0:0:
448,192,285254,1,0,0:0:0:0:
320,192,285361,1,0,0:0:0:0:
192,192,285468,1,0,0:0:0:0:
64,192,285468,1,0,0:0:0:0:
320,192,285575,1,0,0:0:0:0:
448,192,285682,1,0,0:0:0:0:
192,192,285790,1,0,0:0:0:0:
64,192,285897,1,0,0:0:0:0:
320,192,285897,1,0,0:0:0:0:
192,192,286004,1,0,0:0:0:0:
448,192,286111,1,0,0:0:0:0:
320,192,286218,1,0,0:0:0:0:
192,192,286325,1,0,0:0:0:0:
64,192,286325,1,0,0:0:0:0:
448,192,286432,1,0,0:0:0:0:
320,192,286540,1,0,0:0:0:0:
192,192,286647,1,0,0:0:0:0:
64,192,286754,1,0,0:0:0:0:
448,192,286754,1,0,0:0:0:0:
320,192,286861,1,0,0:0:0:0:
192,192,286968,1,0,0:0:0:0:
320,192,287075,1,0,0:0:0:0:
64,192,287182,1,0,0:0:0:0:
448,192,287182,1,0,0:0:0:0:
192,192,287290,1,0,0:0:0:0:
448,192,287397,1,0,0:0:0:0:
320,192,287504,1,0,0:0:0:0:
64,192,287611,1,0,0:0:0:0:
192,192,287754,1,0,0:0:0:0:
320,192,287897,1,0,0:0:0:0:
448,192,288040,1,0,0:0:0:0:
64,192,288040,1,0,0:0:0:0:
320,192,288147,1,0,0:0:0:0:
64,192,288254,1,0,0:0:0:0:
448,192,288361,1,0,0:0:0:0:
320,192,288468,1,0,0:0:0:0:
192,192,288468,1,0,0:0:0:0:
64,192,288575,1,0,0:0:0:0:
320,192,288682,1,0,0:0:0:0:
192,192,288790,1,0,0:0:0:0:
448,192,288897,1,0,0:0:0:0:
64,192,288897,1,0,0:0:0:0:
192,192,289004,1,0,0:0:0:0:
320,192,289111,1,0,0:0:0:0:
448,192,289218,1,0,0:0:0:0:
64,192,289325,1,0,0:0:0:0:
192,192,289325,1,0,0:0:0:0:
320,192,289432,1,0,0:0:0:0:
64,192,289540,1,0,0:0:0:0:
192,192,289647,1,0,0:0:0:0:
320,192,289754,1,0,0:0:0:0:
448,192,289754,1,0,0:0:0:0:
192,192,289861,1,0,0:0:0:0:
64,192,289968,1,0,0:0:0:0:
320,192,290075,1,0,0:0:0:0:
192,192,290182,1,0,0:0:0:0:
448,192,290182,1,0,0:0:0:0:
64,192,290290,1,0,0:0:0:0:
320,192,290397,1,0,0:0:0:0:
192,192,290504,1,0,0:0:0:0:
448,192,290611,1,0,0:0:0:0:
320,192,290611,1,0,0:0:0:0:
64,192,290718,1,0,0:0:0:0:
192,192,290825,1,0,0:0:0:0:
320,192,290932,1,0,0:0:0:0:
192,192,291040,1,0,0:0:0:0:
64,192,291040,1,0,0:0:0:0:
448,192,291147,1,0,0:0:0:0:
192,192,291254,1,0,0:0:0:0:
320,192,291361,1,0,0:0:0:0:
448,192,291468,1,0,0:0:0:0:
64,192,291468,1,0,0:0:0:0:
192,192,291575,1,0,0:0:0:0:
64,192,291682,1,0,0:0:0:0:
320,192,291790,1,0,0:0:0:0:
192,192,291897,1,0,0:0:0:0:
448,192,291897,1,0,0:0:0:0:
64,192,292004,1,0,0:0:0:0:
320,192,292111,1,0,0:0:0:0:
192,192,292218,1,0,0:0:0:0:
448,192,292325,1,0,0:0:0:0:
320,192,292325,1,0,0:0:0:0:
64,192,292432,1,0,0:0:0:0:
320,192,292540,1,0,0:0:0:0:
192,192,292647,1,0,0:0:0:0:
320,192,292754,1,0,0:0:0:0:
64,192,292754,1,0,0:0:0:0:
448,192,292861,1,0,0:0:0:0:
192,192,292968,1,0,0:0:0:0:
320,192,293075,1,0,0:0:0:0:
448,192,293182,1,0,0:0:0:0:
64,192,293182,1,0,0:0:0:0:
192,192,293290,1,0,0:0:0:0:
448,192,293397,1,0,0:0:0:0:
320,192,293504,1,0,0:0:0:0:
192,192,293611,1,0,0:0:0:0:
64,192,293611,1,0,0:0:0:0:
448,192,293718,1,0,0:0:0:0:
192,192,293825,1,0,0:0:0:0:
64,192,293932,1,0,0:0:0:0:
448,192,294040,1,0,0:0:0:0:
320,192,294040,1,0,0:0:0:0:
192,192,294147,1,0,0:0:0:0:
448,192,294254,1,0,0:0:0:0:
320,192,294361,1,0,0:0:0:0:
64,192,294468,1,0,0:0:0:0:
192,192,294468,1,0,0:0:0:0:
320,192,294575,1,0,0:0:0:0:
64,192,294682,1,0,0:0:0:0:
192,192,294790,1,0,0:0:0:0:
320,192,294897,1,0,0:0:0:0:
448,192,294897,1,0,0:0:0:0:
192,192,295004,1,0,0:0:0:0:
64,192,295111,1,0,0:0:0:0:
320,192,295218,1,0,0:0:0:0:
192,192,295325,1,0,0:0:0:0:
448,192,295325,1,0,0:0:0:0:
64,192,295432,1,0,0:0:0:0:
320,192,295540,1,0,0:0:0:0:
192,192,295647,1,0,0:0:0:0:
448,192,295754,1,0,0:0:0:0:
320,192,295754,1,0,0:0:0:0:
64,192,295861,1,0,0:0:0:0:
448,192,295968,1,0,0:0:0:0:
320,192,296075,1,0,0:0:0:0:
192,192,296182,1,0,0:0:0:0:
64,192,296182,1,0,0:0:0:0:
448,192,296290,1,0,0:0:0:0:
192,192,296397,1,0,0:0:0:0:
320,192,296504,1,0,0:0:0:0:
448,192,296611,1,0,0:0:0:0:
64,192,296611,1,0,0:0:0:0:
192,192,296718,1,0,0:0:0:0:
64,192,296825,1,0,0:0:0:0:
320,192,296932,1,0,0:0:0:0:
192,192,297040,1,0,0:0:0:0:
448,192,297040,1,0,0:0:0:0:
64,192,297147,1,0,0:0:0:0:
448,192,297254,1,0,0:0:0:0:
320,192,297361,1,0,0:0:0:0:
192,192,297468,1,0,0:0:0:0:
64,192,297468,1,0,0:0:0:0:
448,192,297575,1,0,0:0:0:0:
192,192,297682,1,0,0:0:0:0:
320,192,297790,1,0,0:0:0:0:
64,192,297897,1,0,0:0:0:0:
448,192,297897,1,0,0:0:0:0:
192,192,298004,1,0,0:0:0:0:
320,192,298111,1,0,0:0:0:0:
448,192,298218,1,0,0:0:0:0:
64,192,298325,1,0,0:0:0:0:
192,192,298325,1,0,0:0:0:0:
320,192,298432,1,0,0:0:0:0:
64,192,298540,1,0,0:0:0:0:
448,192,298647,1,0,0:0:0:0:
320,192,298754,1,0,0:0:0:0:
192,192,298754,1,0,0:0:0:0:
64,192,298861,1,0,0:0:0:0:
448,192,298968,1,0,0:0:0:0:
192,192,299075,1,0,0:0:0:0:
320,192,299182,1,0,0:0:0:0:
448,192,299182,1,0,0:0:0:0:
64,192,299290,1,0,0:0:0:0:
320,192,299397,1,0,0:0:0:0:
192,192,299504,1,0,0:0:0:0:
64,192,299611,1,0,0:0:0:0:
448,192,299611,1,0,0:0:0:0:
320,192,299718,1,0,0:0:0:0:
64,192,299825,1,0,0:0:0:0:
192,192,299932,1,0,0:0:0:0:
320,192,300040,1,0,0:0:0:0:
448,192,300040,1,0,0:0:0:0:
64,192,300147,1,0,0:0:0:0:
320,192,300254,1,0,0:0:0:0:
192,192,300361,1,0,0:0:0:0:
448,192,300468,1,0,0:0:0:0:
64,192,300468,1,0,0:0:0:0:
320,192,300575,1,0,0:0:0:0:
64,192,300682,1,0,0:0:0:0:
192,192,300790,1,0,0:0:0:0:
320,192,300897,1,0,0:0:0:0:
448,192,300897,1,0,0:0:0:0:
448,192,301040,1,0,0:0:0:0:
192,192,301040,1,0,0:0:0:0:
64,192,301182,1,0,0:0:0:0:
320,192,301182,1,0,0:0:0:0:
192,192,301325,1,0,0:0:0:0:
320,192,301325,1,0,0:0:0:0:
64,192,301468,1,0,0:0:0:0:
448,192,301468,1,0,0:0:0:0:
64,192,301611,1,0,0:0:0:0:
192,192,301611,1,0,0:0:0:0:
448,192,301754,1,0,0:0:0:0:
192,192,301754,1,0,0:0:0:0:
320,192,301861,1,0,0:0:0:0:
448,192,301968,1,0,0:0:0:0:
192,192,302075,1,0,0:0:0:0:
64,192,302182,1,0,0:0:0:0:
320,192,302182,1,0,0:0:0:0:
448,192,302290,1,0,0:0:0:0:
64,192,302397,1,0,0:0:0:0:
192,192,302504,1,0,0:0:0:0:
320,192,302611,1,0,0:0:0:0:
448,192,302611,1,0,0:0:0:0:
64,192,302718,1,0,0:0:0:0:
448,192,302825,1,0,0:0:0:0:
192,192,302932,1,0,0:0:0:0:
64,192,303040,1,0,0:0:0:0:
320,192,303040,1,0,0:0:0:0:
448,192,303147,1,0,0:0:0:0:
192,192,303254,1,0,0:0:0:0:
64,192,303361,1,0,0:0:0:0:
448,192,303468,1,0,0:0:0:0:
192,192,303468,1,0,0:0:0:0:
320,192,303575,1,0,0:0:0:0:
448,192,303682,1,0,0:0:0:0:
192,192,303790,1,0,0:0:0:0:
64,192,303897,1,0,0:0:0:0:
320,192,303897,1,0,0:0:0:0:
192,192,304004,1,0,0:0:0:0:
64,192,304111,1,0,0:0:0:0:
320,192,304218,1,0,0:0:0:0:
448,192,304325,1,0,0:0:0:0:
64,192,304325,1,0,0:0:0:0:
192,192,304432,1,0,0:0:0:0:
448,192,304540,1,0,0:0:0:0:
320,192,304647,1,0,0:0:0:0:
64,192,304754,1,0,0:0:0:0:
192,192,304754,1,0,0:0:0:0:
448,192,304861,1,0,0:0:0:0:
192,192,304968,1,0,0:0:0:0:
320,192,305075,1,0,0:0:0:0:
64,192,305182,1,0,0:0:0:0:
448,192,305182,1,0,0:0:0:0:
320,192,305290,1,0,0:0:0:0:
64,192,305397,1,0,0:0:0:0:
448,192,305504,1,0,0:0:0:0:
192,192,305611,1,0,0:0:0:0:
320,192,305611,1,0,0:0:0:0:
64,192,305718,1,0,0:0:0:0:
320,192,305825,1,0,0:0:0:0:
192,192,305932,1,0,0:0:0:0:
320,192,306040,1,0,0:0:0:0:
448,192,306040,1,0,0:0:0:0:
64,192,306147,1,0,0:0:0:0:
320,192,306254,1,0,0:0:0:0:
448,192,306361,1,0,0:0:0:0:
64,192,306468,1,0,0:0:0:0:
320,192,306468,1,0,0:0:0:0:
192,192,306575,1,0,0:0:0:0:
448,192,306682,1,0,0:0:0:0:
64,192,306790,1,0,0:0:0:0:
448,192,306897,1,0,0:0:0:0:
320,192,306897,1,0,0:0:0:0:
192,192,307004,1,0,0:0:0:0:
448,192,307111,1,0,0:0:0:0:
320,192,307218,1,0,0:0:0:0:
448,192,307325,1,0,0:0:0:0:
192,192,307325,1,0,0:0:0:0:
64,192,307432,1,0,0:0:0:0:
192,192,307540,1,0,0:0:0:0:
64,192,307647,1,0,0:0:0:0:
448,192,307754,1,0,0:0:0:0:
320,192,307754,1,0,0:0:0:0:
64,192,307861,1,0,0:0:0:0:
320,192,307968,1,0,0:0:0:0:
448,192,308075,1,0,0:0:0:0:
64,192,308182,1,0,0:0:0:0:
192,192,308182,1,0,0:0:0:0:
320,192,308290,1,0,0:0:0:0:
64,192,308397,1,0,0:0:0:0:
192,192,308504,1,0,0:0:0:0:
448,192,308611,1,0,0:0:0:0:
320,192,308611,1,0,0:0:0:0:
64,192,308718,1,0,0:0:0:0:
320,192,308825,1,0,0:0:0:0:
448,192,308932,1,0,0:0:0:0:
64,192,309040,1,0,0:0:0:0:
320,192,309040,1,0,0:0:0:0:
192,192,309147,1,0,0:0:0:0:
448,192,309254,1,0,0:0:0:0:
320,192,309361,1,0,0:0:0:0:
64,192,309468,1,0,0:0:0:0:
192,192,309468,1,0,0:0:0:0:
448,192,309575,1,0,0:0:0:0:
192,192,309682,1,0,0:0:0:0:
320,192,309790,1,0,0:0:0:0:
448,192,309897,1,0,0:0:0:0:
64,192,309897,1,0,0:0:0:0:
320,192,310004,1,0,0:0:0:0:
64,192,310111,1,0,0:0:0:0:
192,192,310218,1,0,0:0:0:0:
64,192,310325,1,0,0:0:0:0:
320,192,310325,1,0,0:0:0:0:
448,192,310432,1,0,0:0:0:0:
192,192,310540,1,0,0:0:0:0:
320,192,310647,1,0,0:0:0:0:
192,192,310754,1,0,0:0:0:0:
448,192,310754,1,0,0:0:0:0:
64,192,310861,1,0,0:0:0:0:
320,192,310968,1,0,0:0:0:0:
192,192,311075,1,0,0:0:0:0:
448,192,311182,1,0,0:0:0:0:
320,192,311182,1,0,0:0:0:0:
64,192,311290,1,0,0:0:0:0:
448,192,311397,1,0,0:0:0:0:
320,192,311504,1,0,0:0:0:0:
64,192,311611,1,0,0:0:0:0:
192,192,311611,1,0,0:0:0:0:
448,192,311718,1,0,0:0:0:0:
192,192,311825,1,0,0:0:0:0:
320,192,311932,1,0,0:0:0:0:
64,192,312040,1,0,0:0:0:0:
448,192,312040,1,0,0:0:0:0:
320,192,312147,1,0,0:0:0:0:
64,192,312254,1,0,0:0:0:0:
448,192,312361,1,0,0:0:0:0:
192,192,312468,1,0,0:0:0:0:
320,192,312468,1,0,0:0:0:0:
64,192,312575,1,0,0:0:0:0:
448,192,312682,1,0,0:0:0:0:
320,192,312790,1,0,0:0:0:0:
64,192,312897,1,0,0:0:0:0:
448,192,312897,1,0,0:0:0:0:
192,192,313004,1,0,0:0:0:0:
448,192,313111,1,0,0:0:0:0:
320,192,313218,1,0,0:0:0:0:
192,192,313325,1,0,0:0:0:0:
64,192,313325,1,0,0:0:0:0:
448,192,313432,1,0,0:0:0:0:
192,192,313540,1,0,0:0:0:0:
320,192,313647,1,0,0:0:0:0:
448,192,313754,1,0,0:0:0:0:
192,192,313754,1,0,0:0:0:0:
64,192,313861,1,0,0:0:0:0:
320,192,313968,1,0,0:0:0:0:
192,192,314075,1,0,0:0:0:0:
448,192,314182,1,0,0:0:0:0:
320,192,314182,1,0,0:0:0:0:
64,192,314290,1,0,0:0:0:0:
320,192,314397,1,0,0:0:0:0:
192,192,314504,1,0,0:0:0:0:
64,192,314611,1,0,0:0:0:0:
448,192,314611,1,0,0:0:0:0:
320,192,314718,1,0,0:0:0:0:
64,192,314825,1,0,0:0:0:0:
192,192,314932,1,0,0:0:0:0:
448,192,315040,1,0,0:0:0:0:
320,192,315040,1,0,0:0:0:0:
64,192,315182,1,0,0:0:0:0:
192,192,315325,1,0,0:0:0:0:
320,192,315468,1,0,0:0:0:0:
448,192,315468,1,0,0:0:0:0:
64,192,315575,1,0,0:0:0:0:
448,192,315682,1,0,0:0:0:0:
192,192,315790,1,0,0:0:0:0:
64,192,315897,1,0,0:0:0:0:
320,192,315897,1,0,0:0:0:0:
448,192,316004,1,0,0:0:0:0:
192,192,316111,1,0,0:0:0:0:
64,192,316218,1,0,0:0:0:0:
448,192,316325,1,0,0:0:0:0:
320,192,316325,1,0,0:0:0:0:
192,192,316432,1,0,0:0:0:0:
448,192,316540,1,0,0:0:0:0:
320,192,316647,1,0,0:0:0:0:
448,192,316754,1,0,0:0:0:0:
64,192,316754,1,0,0:0:0:0:
192,192,316861,1,0,0:0:0:0:
320,192,316968,1,0,0:0:0:0:
448,192,317075,1,0,0:0:0:0:
64,192,317182,1,0,0:0:0:0:
320,192,317182,1,0,0:0:0:0:
192,192,317290,1,0,0:0:0:0:
64,192,317397,1,0,0:0:0:0:
320,192,317504,1,0,0:0:0:0:
448,192,317611,1,0,0:0:0:0:
192,192,317611,1,0,0:0:0:0:
320,192,317718,1,0,0:0:0:0:
64,192,317825,1,0,0:0:0:0:
192,192,317932,1,0,0:0:0:0:
448,192,318040,1,0,0:0:0:0:
320,192,318040,1,0,0:0:0:0:
64,192,318147,1,0,0:0:0:0:
320,192,318254,1,0,0:0:0:0:
192,192,318361,1,0,0:0:0:0:
448,192,318468,1,0,0:0:0:0:
64,192,318468,1,0,0:0:0:0:
192,192,318575,1,0,0:0:0:0:
320,192,318682,1,0,0:0:0:0:
448,192,318790,1,0,0:0:0:0:
192,192,318897,1,0,0:0:0:0:
64,192,318897,1,0,0:0:0:0:
320,192,319004,1,0,0:0:0:0:
64,192,319111,1,0,0:0:0:0:
448,192,319218,1,0,0:0:0:0:
192,192,319325,1,0,0:0:0:0:
320,192,319325,1,0,0:0:0:0:
64,192,319432,1,0,0:0:0:0:
448,192,319540,1,0,0:0:0:0:
320,192,319647,1,0,0:0:0:0:
64,192,319754,1,0,0:0:0:0:
192,192,319754,1,0,0:0:0:0:
448,192,319861,1,0,0:0:0:0:
192,192,319968,1,0,0:0:0:0:
320,192,320075,1,0,0:0:0:0:
192,192,320182,1,0,0:0:0:0:
448,192,320182,1,0,0:0:0:0:
64,192,320290,1,0,0:0:0:0:
320,192,320397,1,0,0:0:0:0:
448,192,320504,1,0,0:0:0:0:
64,192,320611,1,0,0:0:0:0:
192,192,320611,1,0,0:0:0:0:
320,192,320718,1,0,0:0:0:0:
64,192,320825,1,0,0:0:0:0:
192,192,320932,1,0,0:0:0:0:
448,192,321040,1,0,0:0:0:0:
320,192,321040,1,0,0:0:0:0:
192,192,321147,1,0,0:0:0:0:
448,192,321254,1,0,0:0:0:0:
64,192,321361,1,0,0:0:0:0:
192,192,321468,1,0,0:0:0:0:
320,192,321468,1,0,0:0:0:0:
448,192,321575,1,0,0:0:0:0:
192,192,321682,1,0,0:0:0:0:
64,192,321790,1,0,0:0:0:0:
448,192,321897,1,0,0:0:0:0:
192,192,321897,1,0,0:0:0:0:
320,192,322004,1,0,0:0:0:0:
64,192,322111,1,0,0:0:0:0:
192,192,322218,1,0,0:0:0:0:
448,192,322325,1,0,0:0:0:0:
320,192,322325,1,0,0:0:0:0:
64,192,322432,1,0,0:0:0:0:
448,192,322540,1,0,0:0:0:0:
320,192,322647,1,0,0:0:0:0:
64,192,322754,1,0,0:0:0:0:
192,192,322754,1,0,0:0:0:0:
448,192,322861,1,0,0:0:0:0:
192,192,322968,1,0,0:0:0:0:
64,192,323075,1,0,0:0:0:0:
448,192,323182,1,0,0:0:0:0:
192,192,323182,1,0,0:0:0:0:
320,192,323290,1,0,0:0:0:0:
64,192,323397,1,0,0:0:0:0:
192,192,323504,1,0,0:0:0:0:
64,192,323611,1,0,0:0:0:0:
448,192,323611,1,0,0:0:0:0:
320,192,323718,1,0,0:0:0:0:
192,192,323825,1,0,0:0:0:0:
320,192,323932,1,0,0:0:0:0:
192,192,324040,1,0,0:0:0:0:
448,192,324040,1,0,0:0:0:0:
320,192,324147,1,0,0:0:0:0:
64,192,324254,1,0,0:0:0:0:
448,192,324361,1,0,0:0:0:0:
192,192,324468,1,0,0:0:0:0:
320,192,324468,1,0,0:0:0:0:
64,192,324575,1,0,0:0:0:0:
448,192,324682,1,0,0:0:0:0:
320,192,324790,1,0,0:0:0:0:
448,192,324897,1,0,0:0:0:0:
64,192,324897,1,0,0:0:0:0:
192,192,325004,1,0,0:0:0:0:
448,192,325111,1,0,0:0:0:0:
320,192,325218,1,0,0:0:0:0:
64,192,325325,1,0,0:0:0:0:
192,192,325325,1,0,0:0:0:0:
448,192,325432,1,0,0:0:0:0:
192,192,325540,1,0,0:0:0:0:
320,192,325647,1,0,0:0:0:0:
64,192,325754,1,0,0:0:0:0:
448,192,325754,1,0,0:0:0:0:
192,192,325807,1,0,0:0:0:0:
320,192,325861,1,0,0:0:0:0:
448,192,325915,1,0,0:0:0:0:
192,192,325968,1,0,0:0:0:0:
64,192,326022,1,0,0:0:0:0:
320,192,326075,1,0,0:0:0:0:
448,192,326129,1,0,0:0:0:0:
192,192,326182,1,0,0:0:0:0:
64,192,326236,1,0,0:0:0:0:
448,192,326290,1,0,0:0:0:0:
320,192,326343,1,0,0:0:0:0:
192,192,326397,1,0,0:0:0:0:
64,192,326450,1,0,0:0:0:0:
320,192,326504,1,0,0:0:0:0:
448,192,326557,1,0,0:0:0:0:
64,192,326611,1,0,0:0:0:0:
192,192,326665,1,0,0:0:0:0:
320,192,326718,1,0,0:0:0:0:
448,192,326772,1,0,0:0:0:0:
192,192,326825,1,0,0:0:0:0:
64,192,326879,1,0,0:0:0:0:
320,192,326932,1,0,0:0:0:0:
448,192,326986,1,0,0:0:0:0:
64,192,327040,1,0,0:0:0:0:
192,192,327093,1,0,0:0:0:0:
320,192,327147,1,0,0:0:0:0:
448,192,327200,1,0,0:0:0:0:
64,192,327254,1,0,0:0:0:0:
192,192,327307,1,0,0:0:0:0:
448,192,327361,1,0,0:0:0:0:
320,192,327415,1,0,0:0:0:0:
64,192,327468,1,0,0:0:0:0:
192,192,327468,1,0,0:0:0:0:
448,192,327575,1,0,0:0:0:0:
320,192,327575,1,0,0:0:0:0:
192,192,327682,1,0,0:0:0:0:
320,192,327790,1,0,0:0:0:0:
64,192,327897,1,0,0:0:0:0:
448,192,327897,1,0,0:0:0:0:
192,192,328004,1,0,0:0:0:0:
448,192,328111,1,0,0:0:0:0:
320,192,328218,1,0,0:0:0:0:
64,192,328325,1,0,0:0:0:0:
192,192,328397,1,0,0:0:0:0:
320,192,328468,1,0,0:0:0:0:
64,192,328540,1,0,0:0:0:0:
192,192,328611,1,0,0:0:0:0:
320,192,328682,1,0,0:0:0:0:
448,192,328754,1,0,0:0:0:0:
64,192,328754,1,0,0:0:0:0:
320,192,328861,1,0,0:0:0:0:
192,192,328968,1,0,0:0:0:0:
448,192,328968,1,0,0:0:0:0:
64,192,329075,1,0,0:0:0:0:
320,192,329182,1,0,0:0:0:0:
192,192,329182,1,0,0:0:0:0:
448,192,329290,1,0,0:0:0:0:
320,192,329397,1,0,0:0:0:0:
192,192,329504,1,0,0:0:0:0:
320,192,329611,1,0,0:0:0:0:
64,192,329611,1,0,0:0:0:0:
192,192,329718,1,0,0:0:0:0:
320,192,329825,1,0,0:0:0:0:
448,192,329825,1,0,0:0:0:0:
64,192,329932,1,0,0:0:0:0:
192,192,330040,1,0,0:0:0:0:
320,192,330040,1,0,0:0:0:0:
448,192,330147,1,0,0:0:0:0:
192,192,330254,1,0,0:0:0:0:
64,192,330254,1,0,0:0:0:0:
320,192,330361,1,0,0:0:0:0:
448,192,330468,1,0,0:0:0:0:
64,192,330468,1,0,0:0:0:0:
320,192,330575,1,0,0:0:0:0:
192,192,330682,1,0,0:0:0:0:
448,192,330682,1,0,0:0:0:0:
64,192,330790,1,0,0:0:0:0:
192,192,330897,1,0,0:0:0:0:
320,192,330897,1,0,0:0:0:0:
448,192,331004,1,0,0:0:0:0:
192,192,331111,1,0,0:0:0:0:
64,192,331111,1,0,0:0:0:0:
320,192,331218,1,0,0:0:0:0:
448,192,331325,1,0,0:0:0:0:
192,192,331325,1,0,0:0:0:0:
64,192,331432,1,0,0:0:0:0:
320,192,331432,1,0,0:0:0:0:
192,192,331540,1,0,0:0:0:0:
448,192,331647,1,0,0:0:0:0:
320,192,331754,1,0,0:0:0:0:
64,192,331754,1,0,0:0:0:0:
192,192,331861,1,0,0:0:0:0:
320,192,331968,1,0,0:0:0:0:
448,192,331968,1,0,0:0:0:0:
64,192,332075,1,0,0:0:0:0:
192,192,332182,1,0,0:0:0:0:
448,192,332182,1,0,0:0:0:0:
320,192,332290,1,0,0:0:0:0:
64,192,332397,1,0,0:0:0:0:
192,192,332504,1,0,0:0:0:0:
320,192,332611,1,0,0:0:0:0:
448,192,332611,1,0,0:0:0:0:
64,192,332718,1,0,0:0:0:0:
320,192,332825,1,0,0:0:0:0:
192,192,332825,1,0,0:0:0:0:
448,192,332932,1,0,0:0:0:0:
320,192,333040,1,0,0:0:0:0:
64,192,333040,1,0,0:0:0:0:
192,192,333147,1,0,0:0:0:0:
448,192,333254,1,0,0:0:0:0:
320,192,333254,1,0,0:0:0:0:
64,192,333361,1,0,0:0:0:0:
192,192,333468,1,0,0:0:0:0:
448,192,333468,1,0,0:0:0:0:
320,192,333575,1,0,0:0:0:0:
64,192,333682,1,0,0:0:0:0:
192,192,333682,1,0,0:0:0:0:
448,192,333790,1,0,0:0:0:0:
320,192,333897,1,0,0:0:0:0:
192,192,333897,1,0,0:0:0:0:
64,192,334004,1,0,0:0:0:0:
448,192,334111,1,0,0:0:0:0:
192,192,334111,1,0,0:0:0:0:
320,192,334218,1,0,0:0:0:0:
448,192,334325,1,0,0:0:0:0:
64,192,334325,1,0,0:0:0:0:
192,192,334432,1,0,0:0:0:0:
320,192,334540,1,0,0:0:0:0:
448,192,334540,1,0,0:0:0:0:
64,192,334647,1,0,0:0:0:0:
320,192,334754,1,0,0:0:0:0:
192,192,334754,1,0,0:0:0:0:
448,192,334861,1,0,0:0:0:0:
192,192,334968,1,0,0:0:0:0:
320,192,335075,1,0,0:0:0:0:
64,192,335129,1,0,0:0:0:0:
192,192,335182,1,0,0:0:0:0:
448,192,335182,1,0,0:0:0:0:
320,192,335290,1,0,0:0:0:0:
192,192,335397,1,0,0:0:0:0:
64,192,335504,1,0,0:0:0:0:
320,192,335611,1,0,0:0:0:0:
448,192,335611,1,0,0:0:0:0:
192,192,335718,1,0,0:0:0:0:
448,192,335825,1,0,0:0:0:0:
320,192,335932,1,0,0:0:0:0:
64,192,336040,1,0,0:0:0:0:
192,192,336040,1,0,0:0:0:0:
448,192,336147,1,0,0:0:0:0:
320,192,336254,1,0,0:0:0:0:
192,192,336361,1,0,0:0:0:0:
64,192,336468,1,0,0:0:0:0:
448,192,336468,1,0,0:0:0:0:
192,192,336575,1,0,0:0:0:0:
320,192,336682,1,0,0:0:0:0:
448,192,336790,1,0,0:0:0:0:
64,192,336897,1,0,0:0:0:0:
192,192,336897,1,0,0:0:0:0:
448,192,337004,1,0,0:0:0:0:
320,192,337111,1,0,0:0:0:0:
192,192,337218,1,0,0:0:0:0:
320,192,337325,1,0,0:0:0:0:
64,192,337325,1,0,0:0:0:0:
448,192,337432,1,0,0:0:0:0:
320,192,337486,1,0,0:0:0:0:
192,192,337540,1,0,0:0:0:0:
64,192,337540,1,0,0:0:0:0:
448,192,337647,1,0,0:0:0:0:
320,192,337754,1,0,0:0:0:0:
64,192,337754,1,0,0:0:0:0:
192,192,337861,1,0,0:0:0:0:
320,192,337968,1,0,0:0:0:0:
448,192,338075,1,0,0:0:0:0:
192,192,338182,1,0,0:0:0:0:
64,192,338182,1,0,0:0:0:0:
320,192,338290,1,0,0:0:0:0:
192,192,338397,1,0,0:0:0:0:
448,192,338397,1,0,0:0:0:0:
64,192,338504,1,0,0:0:0:0:
192,192,338611,1,0,0:0:0:0:
320,192,338611,1,0,0:0:0:0:
448,192,338718,1,0,0:0:0:0:
320,192,338825,1,0,0:0:0:0:
64,192,338932,1,0,0:0:0:0:
192,192,339040,1,0,0:0:0:0:
448,192,339040,1,0,0:0:0:0:
320,192,339147,1,0,0:0:0:0:
192,192,339254,1,0,0:0:0:0:
64,192,339254,1,0,0:0:0:0:
448,192,339361,1,0,0:0:0:0:
320,192,339468,1,0,0:0:0:0:
192,192,339468,1,0,0:0:0:0:
64,192,339575,1,0,0:0:0:0:
320,192,339682,1,0,0:0:0:0:
192,192,339790,1,0,0:0:0:0:
64,192,339897,1,0,0:0:0:0:
448,192,339897,1,0,0:0:0:0:
320,192,340004,1,0,0:0:0:0:
192,192,340111,1,0,0:0:0:0:
64,192,340111,1,0,0:0:0:0:
448,192,340218,1,0,0:0:0:0:
320,192,340325,1,0,0:0:0:0:
192,192,340325,1,0,0:0:0:0:
64,192,340432,1,0,0:0:0:0:
192,192,340540,1,0,0:0:0:0:
320,192,340647,1,0,0:0:0:0:
448,192,340647,1,0,0:0:0:0:
192,192,340754,1,0,0:0:0:0:
64,192,340754,1,0,0:0:0:0:
320,192,340861,1,0,0:0:0:0:
448,192,340968,1,0,0:0:0:0:
192,192,340968,1,0,0:0:0:0:
320,192,341075,1,0,0:0:0:0:
192,192,341129,1,0,0:0:0:0:
64,192,341182,1,0,0:0:0:0:
448,192,341182,1,0,0:0:0:0:
320,192,341290,1,0,0:0:0:0:
64,192,341397,1,0,0:0:0:0:
192,192,341504,1,0,0:0:0:0:
320,192,341611,1,0,0:0:0:0:
448,192,341611,1,0,0:0:0:0:
64,192,341718,1,0,0:0:0:0:
320,192,341825,1,0,0:0:0:0:
192,192,341932,1,0,0:0:0:0:
64,192,342040,1,0,0:0:0:0:
448,192,342040,1,0,0:0:0:0:
320,192,342147,1,0,0:0:0:0:
192,192,342254,1,0,0:0:0:0:
320,192,342361,1,0,0:0:0:0:
64,192,342468,1,0,0:0:0:0:
448,192,342468,1,0,0:0:0:0:
192,192,342575,1,0,0:0:0:0:
320,192,342682,1,0,0:0:0:0:
448,192,342682,1,0,0:0:0:0:
64,192,342790,1,0,0:0:0:0:
320,192,342897,1,0,0:0:0:0:
192,192,342897,1,0,0:0:0:0:
448,192,343004,1,0,0:0:0:0:
192,192,343111,1,0,0:0:0:0:
320,192,343218,1,0,0:0:0:0:
192,192,343325,1,0,0:0:0:0:
448,192,343325,1,0,0:0:0:0:
320,192,343432,1,0,0:0:0:0:
192,192,343540,1,0,0:0:0:0:
64,192,343540,1,0,0:0:0:0:
448,192,343647,1,0,0:0:0:0:
320,192,343754,1,0,0:0:0:0:
192,192,343754,1,0,0:0:0:0:
64,192,343861,1,0,0:0:0:0:
320,192,343968,1,0,0:0:0:0:
448,192,343968,1,0,0:0:0:0:
192,192,344075,1,0,0:0:0:0:
64,192,344182,1,0,0:0:0:0:
448,192,344182,1,0,0:0:0:0:
192,192,344290,1,0,0:0:0:0:
320,192,344397,1,0,0:0:0:0:
64,192,344397,1,0,0:0:0:0:
448,192,344504,1,0,0:0:0:0:
320,192,344611,1,0,0:0:0:0:
192,192,344611,1,0,0:0:0:0:
64,192,344718,1,0,0:0:0:0:
320,192,344825,1,0,0:0:0:0:
448,192,344825,1,0,0:0:0:0:
192,192,344932,1,0,0:0:0:0:
64,192,345040,1,0,0:0:0:0:
320,192,345040,1,0,0:0:0:0:
448,192,345147,1,0,0:0:0:0:
192,192,345147,1,0,0:0:0:0:
320,192,345254,1,0,0:0:0:0:
64,192,345361,1,0,0:0:0:0:
192,192,345468,1,0,0:0:0:0:
448,192,345468,1,0,0:0:0:0:
320,192,345575,1,0,0:0:0:0:
192,192,345682,1,0,0:0:0:0:
64,192,345682,1,0,0:0:0:0:
448,192,345790,1,0,0:0:0:0:
320,192,345897,1,0,0:0:0:0:
64,192,345897,1,0,0:0:0:0:
192,192,346004,1,0,0:0:0:0:
448,192,346111,1,0,0:0:0:0:
320,192,346218,1,0,0:0:0:0:
192,192,346325,1,0,0:0:0:0:
64,192,346325,1,0,0:0:0:0:
448,192,346432,1,0,0:0:0:0:
192,192,346540,1,0,0:0:0:0:
320,192,346540,1,0,0:0:0:0:
64,192,346647,1,0,0:0:0:0:
192,192,346754,1,0,0:0:0:0:
448,192,346754,1,0,0:0:0:0:
320,192,346861,1,0,0:0:0:0:
64,192,346968,1,0,0:0:0:0:
192,192,346968,1,0,0:0:0:0:
448,192,347075,1,0,0:0:0:0:
320,192,347182,1,0,0:0:0:0:
64,192,347182,1,0,0:0:0:0:
192,192,347290,1,0,0:0:0:0:
448,192,347397,1,0,0:0:0:0:
320,192,347397,1,0,0:0:0:0:
64,192,347504,1,0,0:0:0:0:
192,192,347611,1,0,0:0:0:0:
320,192,347611,1,0,0:0:0:0:
448,192,347718,1,0,0:0:0:0:
64,192,347825,1,0,0:0:0:0:
320,192,347825,1,0,0:0:0:0:
192,192,347932,1,0,0:0:0:0:
64,192,348040,1,0,0:0:0:0:
448,192,348040,1,0,0:0:0:0:
320,192,348147,1,0,0:0:0:0:
192,192,348254,1,0,0:0:0:0:
64,192,348254,1,0,0:0:0:0:
448,192,348361,1,0,0:0:0:0:
192,192,348468,1,0,0:0:0:0:
320,192,348468,1,0,0:0:0:0:
64,192,348575,1,0,0:0:0:0:
320,192,348682,1,0,0:0:0:0:
448,192,348790,1,0,0:0:0:0:
320,192,348843,1,0,0:0:0:0:
64,192,348897,1,0,0:0:0:0:
192,192,348897,1,0,0:0:0:0:
448,192,349004,1,0,0:0:0:0:
320,192,349111,1,0,0:0:0:0:
192,192,349218,1,0,0:0:0:0:
448,192,349325,1,0,0:0:0:0:
64,192,349325,1,0,0:0:0:0:
320,192,349432,1,0,0:0:0:0:
64,192,349540,1,0,0:0:0:0:
320,192,349647,1,0,0:0:0:0:
192,192,349700,1,0,0:0:0:0:
448,192,349754,1,0,0:0:0:0:
64,192,349754,1,0,0:0:0:0:
320,192,349861,1,0,0:0:0:0:
192,192,349968,1,0,0:0:0:0:
320,192,350075,1,0,0:0:0:0:
448,192,350182,1,0,0:0:0:0:
192,192,350182,1,0,0:0:0:0:
64,192,350290,1,0,0:0:0:0:
192,192,350397,1,0,0:0:0:0:
320,192,350504,1,0,0:0:0:0:
448,192,350611,1,0,0:0:0:0:
192,192,350611,1,0,0:0:0:0:
64,192,350718,1,0,0:0:0:0:
192,192,350825,1,0,0:0:0:0:
320,192,350932,1,0,0:0:0:0:
192,192,351040,1,0,0:0:0:0:
448,192,351040,1,0,0:0:0:0:
64,192,351147,1,0,0:0:0:0:
320,192,351254,1,0,0:0:0:0:
448,192,351254,1,0,0:0:0:0:
192,192,351361,1,0,0:0:0:0:
64,192,351468,1,0,0:0:0:0:
448,192,351468,1,0,0:0:0:0:
320,192,351575,1,0,0:0:0:0:
192,192,351682,1,0,0:0:0:0:
64,192,351790,1,0,0:0:0:0:
320,192,351897,1,0,0:0:0:0:
448,192,351897,1,0,0:0:0:0:
192,192,352004,1,0,0:0:0:0:
320,192,352111,1,0,0:0:0:0:
64,192,352111,1,0,0:0:0:0:
448,192,352218,1,0,0:0:0:0:
320,192,352325,1,0,0:0:0:0:
192,192,352325,1,0,0:0:0:0:
64,192,352432,1,0,0:0:0:0:
448,192,352432,1,0,0:0:0:0:
320,192,352540,1,0,0:0:0:0:
448,192,352647,1,0,0:0:0:0:
192,192,352647,1,0,0:0:0:0:
320,192,352754,1,0,0:0:0:0:
64,192,352754,1,0,0:0:0:0:
192,192,352861,1,0,0:0:0:0:
320,192,352968,1,0,0:0:0:0:
448,192,352968,1,0,0:0:0:0:
64,192,353075,1,0,0:0:0:0:
192,192,353182,1,0,0:0:0:0:
320,192,353182,1,0,0:0:0:0:
448,192,353290,1,0,0:0:0:0:
192,192,353397,1,0,0:0:0:0:
320,192,353504,1,0,0:0:0:0:
448,192,353611,1,0,0:0:0:0:
64,192,353611,1,0,0:0:0:0:
192,192,353718,1,0,0:0:0:0:
320,192,353825,1,0,0:0:0:0:
448,192,353825,1,0,0:0:0:0:
64,192,353932,1,0,0:0:0:0:
192,192,354040,1,0,0:0:0:0:
320,192,354040,1,0,0:0:0:0:
448,192,354147,1,0,0:0:0:0:
320,192,354254,1,0,0:0:0:0:
192,192,354361,1,0,0:0:0:0:
64,192,354361,1,0,0:0:0:0:
320,192,354468,1,0,0:0:0:0:
448,192,354468,1,0,0:0:0:0:
192,192,354575,1,0,0:0:0:0:
64,192,354682,1,0,0:0:0:0:
320,192,354682,1,0,0:0:0:0:
192,192,354790,1,0,0:0:0:0:
448,192,354897,1,0,0:0:0:0:
64,192,354897,1,0,0:0:0:0:
320,192,355004,1,0,0:0:0:0:
192,192,355111,1,0,0:0:0:0:
320,192,355218,1,0,0:0:0:0:
192,192,355325,1,0,0:0:0:0:
64,192,355325,1,0,0:0:0:0:
448,192,355432,1,0,0:0:0:0:
192,192,355540,1,0,0:0:0:0:
320,192,355647,1,0,0:0:0:0:
448,192,355754,1,0,0:0:0:0:
64,192,355754,1,0,0:0:0:0:
192,192,355861,1,0,0:0:0:0:
320,192,355968,1,0,0:0:0:0:
192,192,356075,1,0,0:0:0:0:
448,192,356182,1,0,0:0:0:0:
64,192,356182,1,0,0:0:0:0:
320,192,356290,1,0,0:0:0:0:
192,192,356397,1,0,0:0:0:0:
64,192,356397,1,0,0:0:0:0:
448,192,356504,1,0,0:0:0:0:
320,192,356611,1,0,0:0:0:0:
192,192,356611,1,0,0:0:0:0:
64,192,356718,1,0,0:0:0:0:
192,192,356825,1,0,0:0:0:0:
64,192,357040,1,0,0:0:0:0:
192,192,357147,1,0,0:0:0:0:
192,192,357361,1,0,0:0:0:0:
320,192,357468,1,0,0:0:0:0:
320,192,357682,1,0,0:0:0:0:
448,192,357790,1,0,0:0:0:0:
320,192,358004,1,0,0:0:0:0:
192,192,358111,1,0,0:0:0:0:
192,192,358325,1,0,0:0:0:0:
64,192,358432,1,0,0:0:0:0:
320,192,358540,1,0,0:0:0:0:
192,192,358754,1,0,0:0:0:0:
448,192,358861,1,0,0:0:0:0:
192,192,359075,1,0,0:0:0:0:
320,192,359129,1,0,0:0:0:0:
448,192,359182,1,0,0:0:0:0:
192,192,359397,1,0,0:0:0:0:
64,192,359504,1,0,0:0:0:0:
320,192,359611,1,0,0:0:0:0:
448,192,359718,1,0,0:0:0:0:
192,192,360040,1,0,0:0:0:0:
320,192,360147,1,0,0:0:0:0:
448,192,360254,1,0,0:0:0:0:
192,192,360468,1,0,0:0:0:0:
320,192,360575,1,0,0:0:0:0:
192,192,360789,1,0,0:0:0:0:
64,192,360897,1,0,0:0:0:0:
320,192,361111,1,0,0:0:0:0:
448,192,361218,1,0,0:0:0:0:
320,192,361432,1,0,0:0:0:0:
192,192,361540,1,0,0:0:0:0:
192,192,361754,1,0,0:0:0:0:
64,192,361861,1,0,0:0:0:0:
448,192,361968,1,0,0:0:0:0:
192,192,362182,1,0,0:0:0:0:
320,192,362290,1,0,0:0:0:0:
64,192,362504,1,0,0:0:0:0:
192,192,362557,1,0,0:0:0:0:
320,192,362611,1,0,0:0:0:0:
192,192,362825,1,0,0:0:0:0:
320,192,362932,1,0,0:0:0:0:
448,192,363147,1,0,0:0:0:0:
320,192,363254,1,0,0:0:0:0:
64,192,363361,1,0,0:0:0:0:
192,192,363415,1,0,0:0:0:0:
448,192,363468,1,0,0:0:0:0:
320,192,363575,1,0,0:0:0:0:
192,192,363682,1,0,0:0:0:0:
320,192,363897,1,0,0:0:0:0:
448,192,364004,1,0,0:0:0:0:
320,192,364111,1,0,0:0:0:0:
192,192,364218,1,0,0:0:0:0:
448,192,364325,1,0,0:0:0:0:
192,192,364540,1,0,0:0:0:0:
320,192,364647,1,0,0:0:0:0:
448,192,364754,1,0,0:0:0:0:
192,192,364861,1,0,0:0:0:0:
320,192,364968,1,0,0:0:0:0:
192,192,365182,1,0,0:0:0:0:
64,192,365290,1,0,0:0:0:0:
320,192,365397,1,0,0:0:0:0:
192,192,365611,1,0,0:0:0:0:
320,192,365718,1,0,0:0:0:0:
192,192,365825,1,0,0:0:0:0:
64,192,365932,1,0,0:0:0:0:
320,192,366040,1,0,0:0:0:0:
192,192,366254,1,0,0:0:0:0:
448,192,366361,1,0,0:0:0:0:
320,192,366468,1,0,0:0:0:0:
64,192,366575,1,0,0:0:0:0:
192,192,366682,1,0,0:0:0:0:
320,192,366790,1,0,0:0:0:0:
448,192,366897,1,0,0:0:0:0:
192,192,367004,1,0,0:0:0:0:
320,192,367111,1,0,0:0:0:0:
64,192,367325,1,0,0:0:0:0:
320,192,367432,1,0,0:0:0:0:
192,192,367540,1,0,0:0:0:0:
64,192,367647,1,0,0:0:0:0:
448,192,367754,1,0,0:0:0:0:
192,192,367968,1,0,0:0:0:0:
320,192,368075,1,0,0:0:0:0:
64,192,368182,1,0,0:0:0:0:
192,192,368290,1,0,0:0:0:0:
448,192,368397,1,0,0:0:0:0:
320,192,368504,1,0,0:0:0:0:
64,192,368611,1,0,0:0:0:0:
192,192,368718,1,0,0:0:0:0:
320,192,368825,1,0,0:0:0:0:
192,192,368932,1,0,0:0:0:0:
448,192,369040,1,0,0:0:0:0:
320,192,369147,1,0,0:0:0:0:
192,192,369254,1,0,0:0:0:0:
64,192,369361,1,0,0:0:0:0:
192,192,369415,1,0,0:0:0:0:
320,192,369468,1,0,0:0:0:0:
64,192,369575,1,0,0:0:0:0:
448,192,369682,1,0,0:0:0:0:
192,192,369790,1,0,0:0:0:0:
448,192,369897,1,0,0:0:0:0:
320,192,370004,1,0,0:0:0:0:
192,192,370111,1,0,0:0:0:0:
64,192,370218,1,0,0:0:0:0:
448,192,370325,1,0,0:0:0:0:
192,192,370325,1,0,0:0:0:0:
320,192,370325,1,0,0:0:0:0:
192,192,372682,1,0,0:0:0:0:
320,192,372843,1,0,0:0:0:0:
448,192,372897,1,0,0:0:0:0:
320,192,373218,1,0,0:0:0:0:
192,192,373540,1,0,0:0:0:0:
64,192,373754,1,0,0:0:0:0:
320,192,373754,1,0,0:0:0:0:
192,192,374397,1,0,0:0:0:0:
320,192,375040,1,0,0:0:0:0:
192,192,376111,1,0,0:0:0:0:
64,192,376272,1,0,0:0:0:0:
192,192,376325,1,0,0:0:0:0:
448,192,376647,1,0,0:0:0:0:
320,192,376968,1,0,0:0:0:0:
192,192,377129,1,0,0:0:0:0:
320,192,377182,1,0,0:0:0:0:
64,192,377182,1,0,0:0:0:0:
448,192,377825,1,0,0:0:0:0:
320,192,378468,1,0,0:0:0:0:
192,192,378897,1,0,0:0:0:0:
320,192,380611,1,0,0:0:0:0:
448,192,380611,1,0,0:0:0:0:
192,192,381254,1,0,0:0:0:0:
320,192,381897,1,0,0:0:0:0:
320,192,382272,1,0,0:0:0:0:
448,192,382325,1,0,0:0:0:0:
320,192,382968,1,0,0:0:0:0:
192,192,383129,1,0,0:0:0:0:
320,192,383182,1,0,0:0:0:0:
192,192,383504,1,0,0:0:0:0:
64,192,383825,1,0,0:0:0:0:
192,192,384040,128,0,389397:0:0:0:0:
320,192,384040,128,0,385754:0:0:0:0:
448,192,384040,128,0,387468:0:0:0:0:
