osu file format v14

[General]
AudioFilename: Crisscrosser.mp3
AudioLeadIn: 0
PreviewTime: 148238
Countdown: 0
SampleSet: Normal
StackLeniency: 0.7
Mode: 1
LetterboxInBreaks: 0
WidescreenStoryboard: 1

[Editor]
Bookmarks: 46591,57885,63532,69179,80473,91767,103062,125650,136944,148238,170826,182120,193414,199062,204709,210356,216003,227297,249885,272473,306356
DistanceSpacing: 0.8
BeatDivisor: 4
GridSize: 4
TimelineZoom: 2.199999

[Metadata]
Title:Crisscrosser
TitleUnicode:Crisscrosser
Artist:void
ArtistUnicode:void
Creator:Charlotte
Version:Isolation
Source:CROSSxBEATS
Tags:Mournfinale Artifiction electronic instrumental video game Ron [R]
BeatmapID:1525343
BeatmapSetID:722525

[Difficulty]
HPDrainRate:4.4
CircleSize:5
OverallDifficulty:6.6
ApproachRate:5
SliderMultiplier:1.4
SliderTickRate:1

[Events]
//Background and Video events
0,0,"BG1.jpg",0,50
//Break Periods
//Storyboard Layer 0 (Background)
//Storyboard Layer 1 (Fail)
//Storyboard Layer 2 (Pass)
//Storyboard Layer 3 (Foreground)
//Storyboard Layer 4 (Overlay)
//Storyboard Sound Samples

[TimingPoints]
1415,352.941176470588,4,1,0,60,1,0
1415,-111.111111111111,4,1,0,60,0,0
23914,-100,4,1,0,65,0,0
34150,-100,4,1,0,70,0,0
46503,-100,4,1,0,75,0,0
91679,-90.9090909090909,4,1,0,80,0,0
102973,-90.9090909090909,4,1,0,60,0,0
103326,-100,4,1,0,60,0,0
125562,-100,4,1,0,70,0,0
136856,-100,4,1,0,80,0,0
146804,-100,4,1,0,78,0,0
146892,-100,4,1,0,76,0,0
146981,-100,4,1,0,74,0,0
147069,-100,4,1,0,72,0,0
147157,-100,4,1,0,70,0,0
147245,-100,4,1,0,68,0,0
147334,-100,4,1,0,66,0,0
147422,-100,4,1,0,64,0,0
147510,-100,4,1,0,62,0,0
147598,-100,4,1,0,60,0,0
147687,-100,4,1,0,58,0,0
147775,-100,4,1,0,56,0,0
147863,-100,4,1,0,54,0,0
147951,-100,4,1,0,52,0,0
148039,-100,4,1,0,50,0,0
148150,-90.9090909090909,4,1,0,90,0,0
148238,-90.9090909090909,4,1,0,90,0,1
170429,-90.9090909090909,4,1,0,85,0,1
170517,-90.9090909090909,4,1,0,80,0,1
170606,-90.9090909090909,4,1,0,75,0,1
170694,-90.9090909090909,4,1,0,70,0,1
170782,-90.9090909090909,4,1,0,65,0,1
170826,-90.9090909090909,4,1,0,65,0,0
171091,-100,4,1,0,65,0,0
176385,-100,4,1,0,80,0,0
188473,-83.3333333333333,4,1,0,80,0,0
188650,-100,4,1,0,80,0,0
189885,-83.3333333333333,4,1,0,80,0,0
190062,-100,4,1,0,80,0,0
193326,-100,4,1,0,75,0,0
238503,-90.9090909090909,4,1,0,80,0,0
249797,-90.9090909090909,4,1,0,60,0,0
250150,-100,4,1,0,60,0,0
272385,-90.9090909090909,4,1,0,90,0,0
272473,-90.9090909090909,4,1,0,90,0,1
294664,-90.9090909090909,4,1,0,85,0,1
294753,-90.9090909090909,4,1,0,80,0,1
294841,-90.9090909090909,4,1,0,75,0,1
294929,-90.9090909090909,4,1,0,70,0,1
295017,-90.9090909090909,4,1,0,65,0,1
295062,-90.9090909090909,4,1,0,65,0,0
295326,-100,4,1,0,65,0,0
300620,-100,4,1,0,80,0,0
312709,-83.3333333333333,4,1,0,80,0,0
312885,-100,4,1,0,80,0,0
314120,-83.3333333333333,4,1,0,80,0,0
314297,-100,4,1,0,80,0,0
317914,-100,4,1,0,70,0,0
318444,-100,4,1,0,20,0,0

[HitObjects]
256,192,1415,5,0,0:0:0:0:
256,192,1591,1,0,0:0:0:0:
256,192,1767,1,0,0:0:0:0:
256,192,1944,1,8,0:0:0:0:
256,192,2297,1,0,0:0:0:0:
256,192,2473,1,0,0:0:0:0:
256,192,2650,1,8,0:0:0:0:
256,192,3003,1,0,0:0:0:0:
256,192,3179,1,0,0:0:0:0:
256,192,3356,1,8,0:0:0:0:
256,192,3532,1,0,0:0:0:0:
256,192,4238,1,0,0:0:0:0:
256,192,4414,1,0,0:0:0:0:
256,192,4591,1,8,0:0:0:0:
256,192,4767,1,8,0:0:0:0:
256,192,5120,1,0,0:0:0:0:
256,192,5297,1,8,0:0:0:0:
256,192,5473,1,8,0:0:0:0:
256,192,5826,1,0,0:0:0:0:
256,192,6003,1,8,0:0:0:0:
256,192,6179,1,8,0:0:0:0:
256,192,6356,1,8,0:0:0:0:
256,192,7062,1,0,0:0:0:0:
256,192,7238,1,0,0:0:0:0:
256,192,7414,1,8,0:0:0:0:
256,192,7591,1,8,0:0:0:0:
256,192,7944,1,0,0:0:0:0:
256,192,8120,1,8,0:0:0:0:
256,192,8297,1,8,0:0:0:0:
256,192,8650,1,0,0:0:0:0:
256,192,8826,1,8,0:0:0:0:
256,192,9003,1,8,0:0:0:0:
256,192,9179,1,0,0:0:0:0:
256,192,9709,1,0,0:0:0:0:
256,192,9885,1,0,0:0:0:0:
256,192,10238,1,0,0:0:0:0:
256,192,10591,1,8,0:0:0:0:
256,192,10767,1,8,0:0:0:0:
256,192,11120,1,0,0:0:0:0:
256,192,11297,1,0,0:0:0:0:
256,192,12709,1,0,0:0:0:0:
256,192,12885,1,0,0:0:0:0:
256,192,13062,1,8,0:0:0:0:
256,192,13238,1,0,0:0:0:0:
256,192,13591,1,0,0:0:0:0:
256,192,13767,1,8,0:0:0:0:
256,192,13944,1,0,0:0:0:0:
256,192,14297,1,0,0:0:0:0:
256,192,14473,1,8,0:0:0:0:
256,192,14650,1,8,0:0:0:0:
256,192,14826,1,0,0:0:0:0:
256,192,15532,1,0,0:0:0:0:
256,192,15709,1,0,0:0:0:0:
256,192,15885,1,8,0:0:0:0:
256,192,16062,1,8,0:0:0:0:
256,192,16414,1,0,0:0:0:0:
256,192,16591,1,8,0:0:0:0:
256,192,16767,1,8,0:0:0:0:
256,192,17120,1,0,0:0:0:0:
256,192,17297,1,8,0:0:0:0:
256,192,17473,1,8,0:0:0:0:
256,192,17650,1,8,0:0:0:0:
256,192,18356,1,0,0:0:0:0:
256,192,18532,1,0,0:0:0:0:
256,192,18709,1,8,0:0:0:0:
256,192,18885,1,0,0:0:0:0:
256,192,19062,1,8,0:0:0:0:
256,192,19238,1,0,0:0:0:0:
256,192,19326,1,0,0:0:0:0:
256,192,19414,1,8,0:0:0:0:
256,192,19591,1,0,0:0:0:0:
256,192,19944,1,0,0:0:0:0:
256,192,20120,1,0,0:0:0:0:
256,192,20297,1,8,0:0:0:0:
256,192,20473,1,0,0:0:0:0:
256,192,21179,1,0,0:0:0:0:
256,192,21356,1,8,0:0:0:0:
256,192,21532,1,8,0:0:0:0:
256,192,21709,1,0,0:0:0:0:
256,192,21885,1,8,0:0:0:0:
256,192,22062,1,0,0:0:0:0:
256,192,22238,1,0,0:0:0:0:
256,192,22414,1,8,0:0:0:0:
256,192,22591,1,0,0:0:0:0:
256,192,24003,1,4,0:0:0:0:
256,192,24356,1,8,0:0:0:0:
256,192,24532,1,0,0:0:0:0:
256,192,24885,1,0,0:0:0:0:
256,192,25062,1,8,0:0:0:0:
256,192,25238,1,0,0:0:0:0:
256,192,25591,1,0,0:0:0:0:
256,192,25767,1,8,0:0:0:0:
256,192,26120,1,8,0:0:0:0:
256,192,26385,1,8,0:0:0:0:
256,192,26473,1,0,0:0:0:0:
256,192,26650,1,8,0:0:0:0:
256,192,26826,1,0,0:0:0:0:
256,192,27179,1,8,0:0:0:0:
256,192,27356,1,8,0:0:0:0:
256,192,27532,1,0,0:0:0:0:
256,192,27709,1,0,0:0:0:0:
256,192,27885,1,8,0:0:0:0:
256,192,28062,1,0,0:0:0:0:
256,192,28414,1,0,0:0:0:0:
256,192,28591,1,8,0:0:0:0:
256,192,28767,1,8,0:0:0:0:
256,192,28944,1,8,0:0:0:0:
256,192,29032,1,0,0:0:0:0:
256,192,29120,1,0,0:0:0:0:
256,192,29297,1,8,0:0:0:0:
256,192,29473,1,0,0:0:0:0:
256,192,29650,1,4,0:0:0:0:
256,192,30003,1,8,0:0:0:0:
256,192,30179,1,0,0:0:0:0:
256,192,30532,1,0,0:0:0:0:
256,192,30709,1,8,0:0:0:0:
256,192,30885,1,0,0:0:0:0:
256,192,31238,1,0,0:0:0:0:
256,192,31414,1,8,0:0:0:0:
256,192,31767,1,8,0:0:0:0:
256,192,31944,1,0,0:0:0:0:
256,192,32032,1,8,0:0:0:0:
256,192,32120,1,0,0:0:0:0:
256,192,32297,1,8,0:0:0:0:
256,192,32473,1,0,0:0:0:0:
256,192,32826,1,8,0:0:0:0:
256,192,33003,1,0,0:0:0:0:
256,192,33356,1,0,0:0:0:0:
256,192,33532,1,8,0:0:0:0:
256,192,33709,1,8,0:0:0:0:
256,192,33885,1,0,0:0:0:0:
256,192,34062,1,0,0:0:0:0:
256,192,34238,1,8,0:0:0:0:
256,192,34326,1,8,0:0:0:0:
256,192,34414,1,0,0:0:0:0:
256,192,34591,1,0,0:0:0:0:
256,192,34767,1,0,0:0:0:0:
256,192,34856,1,0,0:0:0:0:
256,192,34944,1,8,0:0:0:0:
256,192,35032,1,0,0:0:0:0:
256,192,35120,1,8,0:0:0:0:
256,192,35297,1,4,0:0:0:0:
256,192,35650,1,8,0:0:0:0:
256,192,35826,1,0,0:0:0:0:
256,192,36179,1,0,0:0:0:0:
256,192,36356,1,8,0:0:0:0:
256,192,36532,1,0,0:0:0:0:
256,192,36885,1,0,0:0:0:0:
256,192,37062,1,8,0:0:0:0:
256,192,37414,1,8,0:0:0:0:
256,192,37679,1,8,0:0:0:0:
256,192,37767,1,0,0:0:0:0:
256,192,37944,1,0,0:0:0:0:
256,192,38120,1,8,0:0:0:0:
256,192,38473,1,8,0:0:0:0:
256,192,38650,1,8,0:0:0:0:
256,192,38826,1,0,0:0:0:0:
256,192,39003,1,8,0:0:0:0:
256,192,39179,1,8,0:0:0:0:
256,192,39356,1,0,0:0:0:0:
256,192,39709,1,0,0:0:0:0:
256,192,39885,1,8,0:0:0:0:
256,192,40238,1,8,0:0:0:0:
256,192,40326,1,0,0:0:0:0:
256,192,40414,1,0,0:0:0:0:
256,192,40591,1,8,0:0:0:0:
256,192,40767,1,8,0:0:0:0:
256,192,40944,1,4,0:0:0:0:
256,192,41297,1,8,0:0:0:0:
256,192,41473,1,0,0:0:0:0:
256,192,41562,1,8,0:0:0:0:
256,192,41650,1,8,0:0:0:0:
256,192,41826,1,0,0:0:0:0:
256,192,42003,1,8,0:0:0:0:
256,192,42091,1,8,0:0:0:0:
256,192,42179,1,0,0:0:0:0:
256,192,42267,1,8,0:0:0:0:
256,192,42356,1,8,0:0:0:0:
256,192,42532,1,0,0:0:0:0:
256,192,42620,1,0,0:0:0:0:
256,192,42709,1,8,0:0:0:0:
256,192,42885,1,0,0:0:0:0:
256,192,43062,1,8,0:0:0:0:
256,192,43150,1,8,0:0:0:0:
256,192,43238,1,0,0:0:0:0:
256,192,43414,1,8,0:0:0:0:
256,192,43503,1,0,0:0:0:0:
256,192,43591,1,8,0:0:0:0:
256,192,43679,1,8,0:0:0:0:
256,192,43767,1,0,0:0:0:0:
256,192,44032,1,0,0:0:0:0:
256,192,44120,1,8,0:0:0:0:
256,192,44297,1,0,0:0:0:0:
256,192,44473,1,0,0:0:0:0:
256,192,44738,1,8,0:0:0:0:
256,192,45003,1,8,0:0:0:0:
256,192,45179,1,4,0:0:0:0:
256,192,45709,1,4,0:0:0:0:
256,192,46238,1,12,0:0:0:0:
256,192,46591,1,4,0:0:0:0:
256,192,46767,1,0,0:0:0:0:
256,192,46856,1,0,0:0:0:0:
256,192,46944,1,8,0:0:0:0:
256,192,47120,1,8,0:0:0:0:
256,192,47297,1,0,0:0:0:0:
256,192,47473,1,8,0:0:0:0:
256,192,47562,1,8,0:0:0:0:
256,192,47650,1,0,0:0:0:0:
256,192,47826,1,8,0:0:0:0:
256,192,48003,1,0,0:0:0:0:
256,192,48179,1,0,0:0:0:0:
256,192,48267,1,0,0:0:0:0:
256,192,48356,1,8,0:0:0:0:
256,192,48532,1,8,0:0:0:0:
256,192,48709,1,0,0:0:0:0:
256,192,48885,1,8,0:0:0:0:
256,192,48973,1,8,0:0:0:0:
256,192,49062,1,0,0:0:0:0:
256,192,49150,1,0,0:0:0:0:
256,192,49238,1,8,0:0:0:0:
256,192,49414,1,0,0:0:0:0:
256,192,49591,1,0,0:0:0:0:
256,192,49679,1,0,0:0:0:0:
256,192,49767,1,8,0:0:0:0:
256,192,49944,1,8,0:0:0:0:
256,192,50120,1,0,0:0:0:0:
256,192,50297,1,8,0:0:0:0:
256,192,50385,1,8,0:0:0:0:
256,192,50473,1,0,0:0:0:0:
256,192,50650,1,8,0:0:0:0:
256,192,50826,1,0,0:0:0:0:
256,192,51003,1,0,0:0:0:0:
256,192,51091,1,0,0:0:0:0:
256,192,51179,1,8,0:0:0:0:
256,192,51356,1,8,0:0:0:0:
256,192,51532,1,0,0:0:0:0:
256,192,51709,1,8,0:0:0:0:
256,192,51797,1,8,0:0:0:0:
256,192,51885,1,0,0:0:0:0:
256,192,51973,1,0,0:0:0:0:
256,192,52062,1,8,0:0:0:0:
256,192,52238,1,0,0:0:0:0:
256,192,52414,1,0,0:0:0:0:
256,192,52503,1,0,0:0:0:0:
256,192,52591,1,8,0:0:0:0:
256,192,52767,1,8,0:0:0:0:
256,192,52944,1,0,0:0:0:0:
256,192,53120,1,8,0:0:0:0:
256,192,53209,1,0,0:0:0:0:
256,192,53297,1,0,0:0:0:0:
256,192,53385,1,0,0:0:0:0:
256,192,53473,1,8,0:0:0:0:
256,192,53650,1,0,0:0:0:0:
256,192,53826,1,0,0:0:0:0:
256,192,53914,1,0,0:0:0:0:
256,192,54003,1,8,0:0:0:0:
256,192,54179,1,8,0:0:0:0:
256,192,54356,1,0,0:0:0:0:
256,192,54532,1,0,0:0:0:0:
256,192,54620,1,8,0:0:0:0:
256,192,54709,1,0,0:0:0:0:
256,192,54797,1,0,0:0:0:0:
256,192,54885,1,8,0:0:0:0:
256,192,55062,1,0,0:0:0:0:
256,192,55238,1,0,0:0:0:0:
256,192,55326,1,0,0:0:0:0:
256,192,55414,1,8,0:0:0:0:
256,192,55591,1,8,0:0:0:0:
256,192,55767,1,0,0:0:0:0:
256,192,55944,1,8,0:0:0:0:
256,192,56032,1,0,0:0:0:0:
256,192,56120,1,0,0:0:0:0:
256,192,56209,1,0,0:0:0:0:
256,192,56297,1,8,0:0:0:0:
256,192,56473,1,0,0:0:0:0:
256,192,56650,1,0,0:0:0:0:
256,192,56738,1,0,0:0:0:0:
256,192,56826,1,8,0:0:0:0:
256,192,57003,1,8,0:0:0:0:
256,192,57179,1,0,0:0:0:0:
256,192,57356,1,0,0:0:0:0:
256,192,57444,1,8,0:0:0:0:
256,192,57532,1,0,0:0:0:0:
256,192,57620,1,0,0:0:0:0:
256,192,57709,1,8,0:0:0:0:
256,192,57797,1,8,0:0:0:0:
256,192,57885,1,0,0:0:0:0:
256,192,58062,1,0,0:0:0:0:
256,192,58150,1,0,0:0:0:0:
256,192,58238,1,8,0:0:0:0:
256,192,58414,1,0,0:0:0:0:
256,192,58503,1,8,0:0:0:0:
256,192,58591,1,0,0:0:0:0:
256,192,58767,1,8,0:0:0:0:
256,192,58944,1,0,0:0:0:0:
256,192,59032,1,0,0:0:0:0:
256,192,59120,1,8,0:0:0:0:
256,192,59297,1,0,0:0:0:0:
256,192,59473,1,8,0:0:0:0:
256,192,59562,1,0,0:0:0:0:
256,192,59650,1,8,0:0:0:0:
256,192,59826,1,8,0:0:0:0:
256,192,59914,1,8,0:0:0:0:
256,192,60003,1,0,0:0:0:0:
256,192,60179,1,8,0:0:0:0:
256,192,60356,1,0,0:0:0:0:
256,192,60444,1,0,0:0:0:0:
256,192,60532,1,8,0:0:0:0:
256,192,60620,1,8,0:0:0:0:
256,192,60709,1,0,0:0:0:0:
256,192,60885,1,0,0:0:0:0:
256,192,60973,1,0,0:0:0:0:
256,192,61062,1,8,0:0:0:0:
256,192,61238,1,0,0:0:0:0:
256,192,61326,1,8,0:0:0:0:
256,192,61414,1,0,0:0:0:0:
256,192,61591,1,8,0:0:0:0:
256,192,61767,1,0,0:0:0:0:
256,192,61856,1,0,0:0:0:0:
256,192,61944,1,8,0:0:0:0:
256,192,62120,1,0,0:0:0:0:
256,192,62297,1,8,0:0:0:0:
256,192,62385,1,0,0:0:0:0:
256,192,62473,1,8,0:0:0:0:
256,192,62650,1,8,0:0:0:0:
256,192,62738,1,8,0:0:0:0:
256,192,62826,1,0,0:0:0:0:
256,192,63003,1,8,0:0:0:0:
256,192,63179,1,0,0:0:0:0:
256,192,63267,1,0,0:0:0:0:
256,192,63356,1,8,0:0:0:0:
256,192,63444,1,8,0:0:0:0:
256,192,63532,1,0,0:0:0:0:
256,192,63709,1,0,0:0:0:0:
256,192,63797,1,0,0:0:0:0:
256,192,63885,1,8,0:0:0:0:
256,192,64062,1,8,0:0:0:0:
256,192,64150,1,8,0:0:0:0:
256,192,64238,1,0,0:0:0:0:
256,192,64414,1,8,0:0:0:0:
256,192,64503,1,0,0:0:0:0:
256,192,64591,1,0,0:0:0:0:
256,192,64679,1,0,0:0:0:0:
256,192,64767,1,8,0:0:0:0:
256,192,64856,1,8,0:0:0:0:
256,192,64944,1,0,0:0:0:0:
256,192,65120,1,0,0:0:0:0:
256,192,65209,1,0,0:0:0:0:
256,192,65297,1,8,0:0:0:0:
256,192,65473,1,0,0:0:0:0:
256,192,65562,1,8,0:0:0:0:
256,192,65650,1,0,0:0:0:0:
256,192,65826,1,8,0:0:0:0:
256,192,65914,1,8,0:0:0:0:
256,192,66003,1,0,0:0:0:0:
256,192,66091,1,0,0:0:0:0:
256,192,66179,1,8,0:0:0:0:
256,192,66267,1,0,0:0:0:0:
256,192,66356,1,0,0:0:0:0:
256,192,66532,1,0,0:0:0:0:
256,192,66620,1,0,0:0:0:0:
256,192,66709,1,8,0:0:0:0:
256,192,66885,1,8,0:0:0:0:
256,192,66973,1,8,0:0:0:0:
256,192,67062,1,0,0:0:0:0:
256,192,67238,1,8,0:0:0:0:
256,192,67326,1,0,0:0:0:0:
256,192,67414,1,0,0:0:0:0:
256,192,67503,1,0,0:0:0:0:
256,192,67591,1,8,0:0:0:0:
256,192,67679,1,8,0:0:0:0:
256,192,67767,1,0,0:0:0:0:
256,192,67944,1,0,0:0:0:0:
256,192,68032,1,0,0:0:0:0:
256,192,68120,1,8,0:0:0:0:
256,192,68297,1,0,0:0:0:0:
256,192,68385,1,8,0:0:0:0:
256,192,68473,1,0,0:0:0:0:
256,192,68650,1,8,0:0:0:0:
256,192,68738,1,8,0:0:0:0:
256,192,68826,1,0,0:0:0:0:
256,192,68914,1,0,0:0:0:0:
256,192,69003,1,8,0:0:0:0:
256,192,69179,1,4,0:0:0:0:
256,192,69356,1,0,0:0:0:0:
256,192,69444,1,0,0:0:0:0:
256,192,69532,1,8,0:0:0:0:
256,192,69709,1,8,0:0:0:0:
256,192,69885,1,0,0:0:0:0:
256,192,70062,1,8,0:0:0:0:
256,192,70150,1,8,0:0:0:0:
256,192,70238,1,0,0:0:0:0:
256,192,70326,1,0,0:0:0:0:
256,192,70414,1,8,0:0:0:0:
256,192,70591,1,0,0:0:0:0:
256,192,70767,1,0,0:0:0:0:
256,192,70856,1,0,0:0:0:0:
256,192,70944,1,8,0:0:0:0:
256,192,71120,1,8,0:0:0:0:
256,192,71209,1,8,0:0:0:0:
256,192,71297,1,0,0:0:0:0:
256,192,71473,1,0,0:0:0:0:
256,192,71650,1,8,0:0:0:0:
256,192,71738,1,8,0:0:0:0:
256,192,71826,1,8,0:0:0:0:
256,192,71914,1,8,0:0:0:0:
256,192,72003,1,0,0:0:0:0:
256,192,72179,1,0,0:0:0:0:
256,192,72267,1,0,0:0:0:0:
256,192,72356,1,8,0:0:0:0:
256,192,72532,1,8,0:0:0:0:
256,192,72709,1,0,0:0:0:0:
256,192,72885,1,8,0:0:0:0:
256,192,72973,1,8,0:0:0:0:
256,192,73062,1,0,0:0:0:0:
256,192,73150,1,0,0:0:0:0:
256,192,73238,1,8,0:0:0:0:
256,192,73414,1,0,0:0:0:0:
256,192,73591,1,0,0:0:0:0:
256,192,73679,1,0,0:0:0:0:
256,192,73767,1,8,0:0:0:0:
256,192,73944,1,8,0:0:0:0:
256,192,74032,1,8,0:0:0:0:
256,192,74120,1,0,0:0:0:0:
256,192,74297,1,0,0:0:0:0:
256,192,74473,1,8,0:0:0:0:
256,192,74562,1,8,0:0:0:0:
256,192,74650,1,8,0:0:0:0:
256,192,74738,1,8,0:0:0:0:
256,192,74826,1,0,0:0:0:0:
256,192,75003,1,0,0:0:0:0:
256,192,75091,1,0,0:0:0:0:
256,192,75179,1,8,0:0:0:0:
256,192,75356,1,8,0:0:0:0:
256,192,75532,1,0,0:0:0:0:
256,192,75709,1,8,0:0:0:0:
256,192,75797,1,0,0:0:0:0:
256,192,75885,1,0,0:0:0:0:
256,192,75973,1,0,0:0:0:0:
256,192,76062,1,8,0:0:0:0:
256,192,76238,1,0,0:0:0:0:
256,192,76414,1,0,0:0:0:0:
256,192,76503,1,0,0:0:0:0:
256,192,76591,1,8,0:0:0:0:
256,192,76767,1,0,0:0:0:0:
256,192,76856,1,8,0:0:0:0:
256,192,76944,1,0,0:0:0:0:
256,192,77120,1,8,0:0:0:0:
256,192,77297,1,8,0:0:0:0:
256,192,77385,1,8,0:0:0:0:
256,192,77473,1,0,0:0:0:0:
256,192,77562,1,8,0:0:0:0:
256,192,77650,1,0,0:0:0:0:
256,192,77826,1,0,0:0:0:0:
256,192,77914,1,0,0:0:0:0:
256,192,78003,1,8,0:0:0:0:
256,192,78179,1,8,0:0:0:0:
256,192,78356,1,0,0:0:0:0:
256,192,78532,1,8,0:0:0:0:
256,192,78620,1,0,0:0:0:0:
256,192,78709,1,0,0:0:0:0:
256,192,78797,1,0,0:0:0:0:
256,192,78885,1,8,0:0:0:0:
256,192,79062,1,0,0:0:0:0:
256,192,79238,1,0,0:0:0:0:
256,192,79326,1,0,0:0:0:0:
256,192,79414,1,8,0:0:0:0:
256,192,79591,1,8,0:0:0:0:
256,192,79767,1,0,0:0:0:0:
256,192,79856,1,0,0:0:0:0:
256,192,79944,1,8,0:0:0:0:
256,192,80032,1,0,0:0:0:0:
256,192,80120,1,8,0:0:0:0:
256,192,80209,1,8,0:0:0:0:
256,192,80297,1,0,0:0:0:0:
256,192,80385,1,8,0:0:0:0:
256,192,80473,1,0,0:0:0:0:
256,192,80650,1,0,0:0:0:0:
256,192,80738,1,8,0:0:0:0:
256,192,81003,1,0,0:0:0:0:
256,192,81179,1,0,0:0:0:0:
256,192,81267,1,0,0:0:0:0:
256,192,81356,1,8,0:0:0:0:
256,192,81532,1,0,0:0:0:0:
256,192,81709,1,8,0:0:0:0:
256,192,81797,1,8,0:0:0:0:
256,192,81885,1,0,0:0:0:0:
256,192,82062,1,0,0:0:0:0:
256,192,82150,1,8,0:0:0:0:
256,192,82414,1,8,0:0:0:0:
256,192,82591,1,0,0:0:0:0:
256,192,82679,1,0,0:0:0:0:
256,192,82767,1,8,0:0:0:0:
256,192,82944,1,8,0:0:0:0:
256,192,83120,1,0,0:0:0:0:
256,192,83297,1,0,0:0:0:0:
256,192,83385,1,0,0:0:0:0:
256,192,83473,1,8,0:0:0:0:
256,192,83562,1,0,0:0:0:0:
256,192,83650,1,8,0:0:0:0:
256,192,83738,1,8,0:0:0:0:
256,192,83826,1,0,0:0:0:0:
256,192,83914,1,8,0:0:0:0:
256,192,84003,1,0,0:0:0:0:
256,192,84179,1,0,0:0:0:0:
256,192,84356,1,8,0:0:0:0:
256,192,84444,1,0,0:0:0:0:
256,192,84532,1,8,0:0:0:0:
256,192,84620,1,8,0:0:0:0:
256,192,84709,1,0,0:0:0:0:
256,192,84826,1,0,0:0:0:0:
256,192,84944,1,8,0:0:0:0:
256,192,85062,1,0,0:0:0:0:
256,192,85179,1,0,0:0:0:0:
256,192,85297,1,8,0:0:0:0:
256,192,85414,1,0,0:0:0:0:
256,192,85532,1,0,0:0:0:0:
256,192,85650,1,8,0:0:0:0:
256,192,85767,1,0,0:0:0:0:
256,192,85885,1,8,0:0:0:0:
256,192,86003,1,8,0:0:0:0:
256,192,86120,1,0,0:0:0:0:
256,192,86297,1,0,0:0:0:0:
256,192,86385,1,0,0:0:0:0:
256,192,86473,1,8,0:0:0:0:
256,192,86650,1,0,0:0:0:0:
256,192,86738,1,8,0:0:0:0:
256,192,86914,1,0,0:0:0:0:
256,192,87179,1,8,0:0:0:0:
256,192,87267,1,8,0:0:0:0:
256,192,87356,1,0,0:0:0:0:
256,192,87444,1,0,0:0:0:0:
256,192,87532,1,8,0:0:0:0:
256,192,87620,1,0,0:0:0:0:
256,192,87709,1,8,0:0:0:0:
256,192,87797,1,8,0:0:0:0:
256,192,87885,1,0,0:0:0:0:
256,192,87973,1,8,0:0:0:0:
256,192,88062,1,0,0:0:0:0:
256,192,88150,1,0,0:0:0:0:
256,192,88238,1,8,0:0:0:0:
256,192,88326,1,0,0:0:0:0:
256,192,88414,1,8,0:0:0:0:
256,192,88503,1,8,0:0:0:0:
256,192,88591,1,0,0:0:0:0:
256,192,88679,1,8,0:0:0:0:
256,192,88767,1,0,0:0:0:0:
256,192,88856,1,0,0:0:0:0:
256,192,88944,1,8,0:0:0:0:
256,192,89062,1,0,0:0:0:0:
256,192,89179,1,0,0:0:0:0:
256,192,89297,1,0,0:0:0:0:
256,192,89414,1,8,0:0:0:0:
256,192,89532,1,0,0:0:0:0:
256,192,89650,1,8,0:0:0:0:
256,192,89767,1,0,0:0:0:0:
256,192,89885,1,8,0:0:0:0:
256,192,90003,1,8,0:0:0:0:
256,192,90120,1,8,0:0:0:0:
256,192,90238,1,0,0:0:0:0:
256,192,90356,1,8,0:0:0:0:
256,192,90444,1,8,0:0:0:0:
256,192,90532,1,0,0:0:0:0:
256,192,90620,1,0,0:0:0:0:
256,192,90709,1,8,0:0:0:0:
256,192,90797,1,0,0:0:0:0:
256,192,90885,1,8,0:0:0:0:
256,192,90973,1,8,0:0:0:0:
256,192,91062,1,0,0:0:0:0:
256,192,91150,1,0,0:0:0:0:
256,192,91238,1,8,0:0:0:0:
256,192,91326,1,0,0:0:0:0:
256,192,91414,1,0,0:0:0:0:
256,192,91591,1,8,0:0:0:0:
256,192,91767,1,4,0:0:0:0:
256,192,91944,1,4,0:0:0:0:
256,192,92209,1,0,0:0:0:0:
256,192,92473,1,0,0:0:0:0:
256,192,92650,1,0,0:0:0:0:
256,192,92914,1,8,0:0:0:0:
256,192,93179,1,4,0:0:0:0:
256,192,93356,1,4,0:0:0:0:
256,192,93620,1,0,0:0:0:0:
256,192,93885,1,0,0:0:0:0:
256,192,94150,1,0,0:0:0:0:
256,192,94414,1,8,0:0:0:0:
256,192,94591,1,4,0:0:0:0:
256,192,94767,1,4,0:0:0:0:
256,192,95032,1,0,0:0:0:0:
256,192,95297,1,0,0:0:0:0:
256,192,95473,1,0,0:0:0:0:
256,192,95738,1,0,0:0:0:0:
256,192,95914,1,0,0:0:0:0:
256,192,96091,1,8,0:0:0:0:
256,192,96356,1,0,0:0:0:0:
256,192,96532,1,0,0:0:0:0:
256,192,96709,1,8,0:0:0:0:
256,192,96797,1,8,0:0:0:0:
256,192,96885,1,8,0:0:0:0:
256,192,96973,1,8,0:0:0:0:
256,192,97062,1,0,0:0:0:0:
256,192,97414,1,4,0:0:0:0:
256,192,97591,1,4,0:0:0:0:
256,192,97856,1,0,0:0:0:0:
256,192,98120,1,0,0:0:0:0:
256,192,98297,1,8,0:0:0:0:
256,192,98385,1,0,0:0:0:0:
256,192,98562,1,8,0:0:0:0:
256,192,98650,1,0,0:0:0:0:
256,192,98826,1,0,0:0:0:0:
256,192,99003,1,0,0:0:0:0:
256,192,99091,1,8,0:0:0:0:
256,192,99267,1,8,0:0:0:0:
256,192,99356,1,0,0:0:0:0:
256,192,99532,1,0,0:0:0:0:
256,192,99620,1,8,0:0:0:0:
256,192,99797,1,8,0:0:0:0:
256,192,99885,1,0,0:0:0:0:
256,192,100003,1,0,0:0:0:0:
256,192,100120,1,0,0:0:0:0:
256,192,100238,1,0,0:0:0:0:
256,192,100414,1,8,0:0:0:0:
256,192,100503,1,0,0:0:0:0:
256,192,100679,1,8,0:0:0:0:
256,192,100767,1,0,0:0:0:0:
256,192,100944,1,0,0:0:0:0:
256,192,101120,1,0,0:0:0:0:
256,192,101209,1,8,0:0:0:0:
256,192,101385,1,8,0:0:0:0:
256,192,101562,1,0,0:0:0:0:
256,192,101738,1,0,0:0:0:0:
256,192,101826,1,8,0:0:0:0:
256,192,102003,1,0,0:0:0:0:
256,192,102091,1,8,0:0:0:0:
256,192,102267,1,0,0:0:0:0:
256,192,102356,1,8,0:0:0:0:
256,192,102473,1,8,0:0:0:0:
256,192,102591,1,8,0:0:0:0:
256,192,102709,1,0,0:0:0:0:
256,192,102885,1,8,0:0:0:0:
256,192,103062,1,4,0:0:0:0:
256,192,103414,1,8,0:0:0:0:
256,192,103767,1,0,0:0:0:0:
256,192,104120,1,8,0:0:0:0:
256,192,104473,1,8,0:0:0:0:
256,192,105179,1,0,0:0:0:0:
256,192,105885,1,8,0:0:0:0:
256,192,106944,1,8,0:0:0:0:
256,192,107120,1,0,0:0:0:0:
256,192,107473,1,0,0:0:0:0:
256,192,107650,1,0,0:0:0:0:
256,192,107826,1,8,0:0:0:0:
256,192,108356,1,0,0:0:0:0:
256,192,108532,1,8,0:0:0:0:
256,192,108709,1,8,0:0:0:0:
256,192,109062,1,0,0:0:0:0:
256,192,109238,1,8,0:0:0:0:
256,192,110120,1,8,0:0:0:0:
256,192,110473,1,0,0:0:0:0:
256,192,110826,1,0,0:0:0:0:
256,192,111532,1,0,0:0:0:0:
256,192,111885,1,8,0:0:0:0:
256,192,112062,1,0,0:0:0:0:
256,192,112591,1,8,0:0:0:0:
256,192,112767,1,8,0:0:0:0:
256,192,112944,1,0,0:0:0:0:
256,192,113120,1,0,0:0:0:0:
256,192,113297,1,0,0:0:0:0:
256,192,113473,1,8,0:0:0:0:
256,192,113650,1,0,0:0:0:0:
256,192,114356,1,12,0:0:0:0:
256,192,114709,1,0,0:0:0:0:
256,192,115062,1,0,0:0:0:0:
256,192,115414,1,0,0:0:0:0:
256,192,115767,1,8,0:0:0:0:
256,192,116473,1,0,0:0:0:0:
256,192,117179,1,8,0:0:0:0:
256,192,117532,1,8,0:0:0:0:
256,192,117709,1,0,0:0:0:0:
256,192,117885,1,0,0:0:0:0:
256,192,118238,1,8,0:0:0:0:
256,192,118414,1,8,0:0:0:0:
256,192,118503,1,8,0:0:0:0:
256,192,118591,1,0,0:0:0:0:
256,192,118767,1,0,0:0:0:0:
256,192,118944,1,8,0:0:0:0:
256,192,119120,1,0,0:0:0:0:
256,192,119297,1,0,0:0:0:0:
256,192,119650,1,8,0:0:0:0:
256,192,119826,1,0,0:0:0:0:
256,192,120003,1,12,0:0:0:0:
256,192,120532,1,0,0:0:0:0:
256,192,121062,1,8,0:0:0:0:
256,192,121414,1,0,0:0:0:0:
256,192,121767,1,8,0:0:0:0:
256,192,122120,1,8,0:0:0:0:
256,192,122473,1,0,0:0:0:0:
256,192,122826,1,8,0:0:0:0:
256,192,123885,1,8,0:0:0:0:
256,192,124062,1,0,0:0:0:0:
256,192,124238,12,0,125473,0:0:0:0:
256,192,125650,5,4,0:0:0:0:
256,192,125826,1,0,0:0:0:0:
256,192,125914,1,0,0:0:0:0:
256,192,126003,1,8,0:0:0:0:
256,192,126179,1,8,0:0:0:0:
256,192,126444,1,0,0:0:0:0:
256,192,126532,1,0,0:0:0:0:
256,192,126620,1,8,0:0:0:0:
256,192,126709,1,0,0:0:0:0:
256,192,126797,1,8,0:0:0:0:
256,192,126885,1,8,0:0:0:0:
256,192,126973,1,8,0:0:0:0:
256,192,127062,1,0,0:0:0:0:
256,192,127238,1,0,0:0:0:0:
256,192,127326,1,0,0:0:0:0:
256,192,127414,1,8,0:0:0:0:
256,192,127591,1,8,0:0:0:0:
256,192,127856,1,8,0:0:0:0:
256,192,127944,1,8,0:0:0:0:
256,192,128032,1,0,0:0:0:0:
256,192,128120,1,8,0:0:0:0:
256,192,128209,1,0,0:0:0:0:
256,192,128297,1,8,0:0:0:0:
256,192,128385,1,8,0:0:0:0:
256,192,128473,1,0,0:0:0:0:
256,192,128650,1,0,0:0:0:0:
256,192,128738,1,8,0:0:0:0:
256,192,128826,1,0,0:0:0:0:
256,192,128914,1,0,0:0:0:0:
256,192,129003,1,8,0:0:0:0:
256,192,129091,1,0,0:0:0:0:
256,192,129179,1,0,0:0:0:0:
256,192,129267,1,8,0:0:0:0:
256,192,129356,1,0,0:0:0:0:
256,192,129444,1,0,0:0:0:0:
256,192,129532,1,8,0:0:0:0:
256,192,129709,1,8,0:0:0:0:
256,192,129797,1,8,0:0:0:0:
256,192,129885,1,0,0:0:0:0:
256,192,129973,1,8,0:0:0:0:
256,192,130062,1,8,0:0:0:0:
256,192,130150,1,8,0:0:0:0:
256,192,130238,1,0,0:0:0:0:
256,192,130326,1,8,0:0:0:0:
256,192,130414,1,8,0:0:0:0:
256,192,130503,1,8,0:0:0:0:
256,192,130591,1,0,0:0:0:0:
256,192,130679,1,8,0:0:0:0:
256,192,130767,1,8,0:0:0:0:
256,192,130856,1,0,0:0:0:0:
256,192,130944,1,8,0:0:0:0:
256,192,131032,1,0,0:0:0:0:
256,192,131120,1,0,0:0:0:0:
256,192,131209,1,8,0:0:0:0:
256,192,131297,1,0,0:0:0:0:
256,192,131356,1,0,0:0:0:0:
256,192,131414,1,0,0:0:0:0:
256,192,131473,1,8,0:0:0:0:
256,192,131562,1,0,0:0:0:0:
256,192,131650,1,8,0:0:0:0:
256,192,131738,1,8,0:0:0:0:
256,192,131826,1,0,0:0:0:0:
256,192,131885,1,0,0:0:0:0:
256,192,131944,1,0,0:0:0:0:
256,192,132003,1,8,0:0:0:0:
256,192,132091,1,0,0:0:0:0:
256,192,132179,1,8,0:0:0:0:
256,192,132267,1,8,0:0:0:0:
256,192,132356,1,0,0:0:0:0:
256,192,132414,1,0,0:0:0:0:
256,192,132473,1,0,0:0:0:0:
256,192,132532,1,8,0:0:0:0:
256,192,132620,1,0,0:0:0:0:
256,192,132709,1,8,0:0:0:0:
256,192,132767,1,0,0:0:0:0:
256,192,132826,1,0,0:0:0:0:
256,192,132885,1,8,0:0:0:0:
256,192,132973,1,0,0:0:0:0:
256,192,133062,1,8,0:0:0:0:
256,192,133150,1,8,0:0:0:0:
256,192,133238,1,0,0:0:0:0:
256,192,133297,1,8,0:0:0:0:
256,192,133356,1,8,0:0:0:0:
256,192,133414,1,0,0:0:0:0:
256,192,133503,1,0,0:0:0:0:
256,192,133591,1,8,0:0:0:0:
256,192,133679,1,8,0:0:0:0:
256,192,133767,1,0,0:0:0:0:
256,192,133826,1,0,0:0:0:0:
256,192,133885,1,0,0:0:0:0:
256,192,133944,1,8,0:0:0:0:
256,192,134120,1,0,0:0:0:0:
256,192,134209,1,8,0:0:0:0:
256,192,134473,1,8,0:0:0:0:
256,192,134650,1,8,0:0:0:0:
256,192,134738,1,0,0:0:0:0:
256,192,134914,1,8,0:0:0:0:
256,192,135091,1,0,0:0:0:0:
256,192,135267,1,0,0:0:0:0:
256,192,135356,1,8,0:0:0:0:
256,192,135532,1,4,0:0:0:0:
256,192,135797,1,12,0:0:0:0:
256,192,136062,1,4,0:0:0:0:
256,192,136326,1,12,0:0:0:0:
256,192,136591,1,0,0:0:0:0:
256,192,136767,1,0,0:0:0:0:
256,192,136944,1,12,0:0:0:0:
256,192,137120,1,0,0:0:0:0:
256,192,137209,1,0,0:0:0:0:
256,192,137297,1,8,0:0:0:0:
256,192,137473,1,0,0:0:0:0:
256,192,137826,1,0,0:0:0:0:
256,192,137914,1,0,0:0:0:0:
256,192,138003,1,8,0:0:0:0:
256,192,138091,1,8,0:0:0:0:
256,192,138179,1,8,0:0:0:0:
256,192,138267,1,8,0:0:0:0:
256,192,138356,1,0,0:0:0:0:
256,192,138532,1,0,0:0:0:0:
256,192,138620,1,0,0:0:0:0:
256,192,138709,1,8,0:0:0:0:
256,192,138885,1,8,0:0:0:0:
256,192,138973,1,0,0:0:0:0:
256,192,139150,1,0,0:0:0:0:
256,192,139238,1,8,0:0:0:0:
256,192,139326,1,8,0:0:0:0:
256,192,139414,1,0,0:0:0:0:
256,192,139503,1,0,0:0:0:0:
256,192,139591,1,8,0:0:0:0:
256,192,139679,1,8,0:0:0:0:
256,192,139767,1,0,0:0:0:0:
256,192,139944,1,8,0:0:0:0:
256,192,140032,1,0,0:0:0:0:
256,192,140209,1,8,0:0:0:0:
256,192,140297,1,0,0:0:0:0:
256,192,140473,1,0,0:0:0:0:
256,192,140562,1,8,0:0:0:0:
256,192,140738,1,0,0:0:0:0:
256,192,140826,1,8,0:0:0:0:
256,192,141003,1,8,0:0:0:0:
256,192,141091,1,8,0:0:0:0:
256,192,141179,1,0,0:0:0:0:
256,192,141267,1,8,0:0:0:0:
256,192,141356,1,8,0:0:0:0:
256,192,141444,1,0,0:0:0:0:
256,192,141532,1,0,0:0:0:0:
256,192,141620,1,8,0:0:0:0:
256,192,141709,1,0,0:0:0:0:
256,192,141797,1,0,0:0:0:0:
256,192,141885,1,8,0:0:0:0:
256,192,141973,1,8,0:0:0:0:
256,192,142062,1,0,0:0:0:0:
256,192,142150,1,0,0:0:0:0:
256,192,142238,1,8,0:0:0:0:
256,192,142326,1,0,0:0:0:0:
256,192,142414,1,8,0:0:0:0:
256,192,142503,1,8,0:0:0:0:
256,192,142591,1,0,0:0:0:0:
256,192,142709,1,8,0:0:0:0:
256,192,142826,1,8,0:0:0:0:
256,192,142944,1,0,0:0:0:0:
256,192,143120,1,8,0:0:0:0:
256,192,143209,1,8,0:0:0:0:
256,192,143297,1,0,0:0:0:0:
256,192,143385,1,0,0:0:0:0:
256,192,143473,1,8,0:0:0:0:
256,192,143650,1,8,0:0:0:0:
256,192,143738,1,8,0:0:0:0:
256,192,143826,1,0,0:0:0:0:
256,192,143914,1,0,0:0:0:0:
256,192,144003,1,8,0:0:0:0:
256,192,144120,1,0,0:0:0:0:
256,192,144238,1,0,0:0:0:0:
256,192,144356,1,8,0:0:0:0:
256,192,144532,1,8,0:0:0:0:
256,192,144620,1,8,0:0:0:0:
256,192,144709,1,0,0:0:0:0:
256,192,144797,1,8,0:0:0:0:
256,192,144885,1,0,0:0:0:0:
256,192,145062,1,8,0:0:0:0:
256,192,145150,1,8,0:0:0:0:
256,192,145238,1,0,0:0:0:0:
256,192,145326,1,8,0:0:0:0:
256,192,145414,1,0,0:0:0:0:
256,192,145503,1,0,0:0:0:0:
256,192,145591,1,8,0:0:0:0:
256,192,145650,1,8,0:0:0:0:
256,192,145709,1,8,0:0:0:0:
256,192,145767,1,0,0:0:0:0:
256,192,145856,1,0,0:0:0:0:
256,192,145944,1,8,0:0:0:0:
256,192,146003,1,0,0:0:0:0:
256,192,146062,1,0,0:0:0:0:
256,192,146120,1,8,0:0:0:0:
256,192,146209,1,0,0:0:0:0:
256,192,146297,1,8,0:0:0:0:
256,192,146356,1,8,0:0:0:0:
256,192,146414,1,8,0:0:0:0:
256,192,146473,1,0,0:0:0:0:
256,192,146562,1,0,0:0:0:0:
256,192,146650,1,8,0:0:0:0:
256,192,146709,1,0,0:0:0:0:
256,192,146767,1,0,0:0:0:0:
256,192,146826,1,8,0:0:0:0:
256,192,146914,1,0,0:0:0:0:
256,192,147003,1,8,0:0:0:0:
256,192,147091,1,8,0:0:0:0:
256,192,147179,1,0,0:0:0:0:
256,192,147267,1,0,0:0:0:0:
256,192,147356,1,8,0:0:0:0:
256,192,147444,1,0,0:0:0:0:
256,192,147532,1,8,0:0:0:0:
256,192,147620,1,0,0:0:0:0:
256,192,147709,1,0,0:0:0:0:
256,192,147797,1,0,0:0:0:0:
256,192,147885,1,8,0:0:0:0:
256,192,147973,1,8,0:0:0:0:
256,192,148062,1,0,0:0:0:0:
256,192,148238,1,12,0:0:0:0:
256,192,148414,1,0,0:0:0:0:
256,192,148503,1,0,0:0:0:0:
256,192,148591,1,8,0:0:0:0:
256,192,148767,1,8,0:0:0:0:
256,192,148944,1,0,0:0:0:0:
256,192,149032,1,0,0:0:0:0:
256,192,149120,1,8,0:0:0:0:
256,192,149209,1,0,0:0:0:0:
256,192,149297,1,8,0:0:0:0:
256,192,149385,1,8,0:0:0:0:
256,192,149473,1,0,0:0:0:0:
256,192,149562,1,8,0:0:0:0:
256,192,149650,1,0,0:0:0:0:
256,192,149826,1,0,0:0:0:0:
256,192,149914,1,0,0:0:0:0:
256,192,150003,1,8,0:0:0:0:
256,192,150179,1,8,0:0:0:0:
256,192,150356,1,0,0:0:0:0:
256,192,150444,1,0,0:0:0:0:
256,192,150532,1,8,0:0:0:0:
256,192,150620,1,0,0:0:0:0:
256,192,150709,1,8,0:0:0:0:
256,192,150797,1,0,0:0:0:0:
256,192,150885,1,8,0:0:0:0:
256,192,150973,1,8,0:0:0:0:
256,192,151062,1,0,0:0:0:0:
256,192,151238,1,8,0:0:0:0:
256,192,151326,1,8,0:0:0:0:
256,192,151503,1,0,0:0:0:0:
256,192,151591,1,8,0:0:0:0:
256,192,151767,1,8,0:0:0:0:
256,192,151856,1,8,0:0:0:0:
256,192,152032,1,0,0:0:0:0:
256,192,152120,1,8,0:0:0:0:
256,192,152297,1,8,0:0:0:0:
256,192,152385,1,8,0:0:0:0:
256,192,152473,1,0,0:0:0:0:
256,192,152562,1,8,0:0:0:0:
256,192,152650,1,8,0:0:0:0:
256,192,152738,1,0,0:0:0:0:
256,192,152826,1,8,0:0:0:0:
256,192,152914,1,8,0:0:0:0:
256,192,153003,1,0,0:0:0:0:
256,192,153091,1,0,0:0:0:0:
256,192,153179,1,8,0:0:0:0:
256,192,153267,1,8,0:0:0:0:
256,192,153356,1,8,0:0:0:0:
256,192,153444,1,0,0:0:0:0:
256,192,153532,1,8,0:0:0:0:
256,192,153620,1,8,0:0:0:0:
256,192,153709,1,0,0:0:0:0:
256,192,153885,1,0,0:0:0:0:
256,192,153973,1,0,0:0:0:0:
256,192,154062,1,8,0:0:0:0:
256,192,154150,1,8,0:0:0:0:
256,192,154238,1,0,0:0:0:0:
256,192,154414,1,0,0:0:0:0:
256,192,154503,1,0,0:0:0:0:
256,192,154591,1,8,0:0:0:0:
256,192,154679,1,8,0:0:0:0:
256,192,154767,1,0,0:0:0:0:
256,192,154944,1,8,0:0:0:0:
256,192,155032,1,0,0:0:0:0:
256,192,155120,1,8,0:0:0:0:
256,192,155209,1,8,0:0:0:0:
256,192,155297,1,0,0:0:0:0:
256,192,155385,1,0,0:0:0:0:
256,192,155473,1,8,0:0:0:0:
256,192,155562,1,0,0:0:0:0:
256,192,155650,1,8,0:0:0:0:
256,192,155826,1,0,0:0:0:0:
256,192,155914,1,0,0:0:0:0:
256,192,156003,1,8,0:0:0:0:
256,192,156091,1,0,0:0:0:0:
256,192,156179,1,8,0:0:0:0:
256,192,156356,1,0,0:0:0:0:
256,192,156532,1,12,0:0:0:0:
256,192,157062,1,8,0:0:0:0:
256,192,157238,1,0,0:0:0:0:
256,192,157326,1,0,0:0:0:0:
256,192,157503,1,8,0:0:0:0:
256,192,157679,1,0,0:0:0:0:
256,192,157856,1,0,0:0:0:0:
256,192,157944,1,8,0:0:0:0:
256,192,158120,1,4,0:0:0:0:
256,192,158385,1,12,0:0:0:0:
256,192,158650,1,4,0:0:0:0:
256,192,158914,1,12,0:0:0:0:
256,192,159179,1,0,0:0:0:0:
256,192,159356,1,0,0:0:0:0:
256,192,159532,1,8,0:0:0:0:
256,192,159709,1,0,0:0:0:0:
256,192,159797,1,0,0:0:0:0:
256,192,159885,1,8,0:0:0:0:
256,192,160062,1,8,0:0:0:0:
256,192,160238,1,0,0:0:0:0:
256,192,160326,1,8,0:0:0:0:
256,192,160414,1,0,0:0:0:0:
256,192,160503,1,0,0:0:0:0:
256,192,160591,1,8,0:0:0:0:
256,192,160679,1,0,0:0:0:0:
256,192,160767,1,8,0:0:0:0:
256,192,160856,1,8,0:0:0:0:
256,192,160944,1,0,0:0:0:0:
256,192,161120,1,0,0:0:0:0:
256,192,161209,1,0,0:0:0:0:
256,192,161297,1,8,0:0:0:0:
256,192,161473,1,8,0:0:0:0:
256,192,161650,1,0,0:0:0:0:
256,192,161738,1,8,0:0:0:0:
256,192,161826,1,8,0:0:0:0:
256,192,161914,1,0,0:0:0:0:
256,192,162003,1,8,0:0:0:0:
256,192,162091,1,0,0:0:0:0:
256,192,162179,1,8,0:0:0:0:
256,192,162267,1,8,0:0:0:0:
256,192,162356,1,0,0:0:0:0:
256,192,162532,1,8,0:0:0:0:
256,192,162620,1,8,0:0:0:0:
256,192,162709,1,0,0:0:0:0:
256,192,162797,1,0,0:0:0:0:
256,192,162885,1,8,0:0:0:0:
256,192,163062,1,8,0:0:0:0:
256,192,163150,1,8,0:0:0:0:
256,192,163326,1,0,0:0:0:0:
256,192,163414,1,8,0:0:0:0:
256,192,163591,1,8,0:0:0:0:
256,192,163679,1,8,0:0:0:0:
256,192,163767,1,0,0:0:0:0:
256,192,163856,1,8,0:0:0:0:
256,192,163944,1,8,0:0:0:0:
256,192,164032,1,0,0:0:0:0:
256,192,164120,1,8,0:0:0:0:
256,192,164209,1,0,0:0:0:0:
256,192,164297,1,8,0:0:0:0:
256,192,164385,1,8,0:0:0:0:
256,192,164473,1,0,0:0:0:0:
256,192,164562,1,8,0:0:0:0:
256,192,164650,1,8,0:0:0:0:
256,192,164738,1,0,0:0:0:0:
256,192,164826,1,8,0:0:0:0:
256,192,164914,1,0,0:0:0:0:
256,192,165003,1,8,0:0:0:0:
256,192,165091,1,8,0:0:0:0:
256,192,165179,1,0,0:0:0:0:
256,192,165297,1,8,0:0:0:0:
256,192,165414,1,8,0:0:0:0:
256,192,165532,1,0,0:0:0:0:
256,192,165709,1,8,0:0:0:0:
256,192,165797,1,8,0:0:0:0:
256,192,165885,1,0,0:0:0:0:
256,192,165973,1,0,0:0:0:0:
256,192,166062,1,8,0:0:0:0:
256,192,166238,1,8,0:0:0:0:
256,192,166326,1,8,0:0:0:0:
256,192,166414,1,0,0:0:0:0:
256,192,166503,1,0,0:0:0:0:
256,192,166591,1,8,0:0:0:0:
256,192,166709,1,0,0:0:0:0:
256,192,166826,1,0,0:0:0:0:
256,192,166944,1,8,0:0:0:0:
256,192,167120,1,0,0:0:0:0:
256,192,167209,1,8,0:0:0:0:
256,192,167297,1,0,0:0:0:0:
256,192,167385,1,0,0:0:0:0:
256,192,167473,1,8,0:0:0:0:
256,192,167562,1,0,0:0:0:0:
256,192,167650,1,8,0:0:0:0:
256,192,167738,1,8,0:0:0:0:
256,192,167826,1,0,0:0:0:0:
256,192,167914,1,0,0:0:0:0:
256,192,168003,1,8,0:0:0:0:
256,192,168091,1,0,0:0:0:0:
256,192,168179,1,0,0:0:0:0:
256,192,168267,1,8,0:0:0:0:
256,192,168356,1,8,0:0:0:0:
256,192,168444,1,0,0:0:0:0:
256,192,168532,1,8,0:0:0:0:
256,192,168620,1,0,0:0:0:0:
256,192,168709,1,0,0:0:0:0:
256,192,168797,1,8,0:0:0:0:
256,192,168885,1,8,0:0:0:0:
256,192,168973,1,0,0:0:0:0:
256,192,169062,1,8,0:0:0:0:
256,192,169150,1,8,0:0:0:0:
256,192,169238,1,0,0:0:0:0:
256,192,169326,1,0,0:0:0:0:
256,192,169414,1,8,0:0:0:0:
256,192,169503,1,0,0:0:0:0:
256,192,169591,1,8,0:0:0:0:
256,192,169679,1,8,0:0:0:0:
256,192,169767,1,0,0:0:0:0:
256,192,169856,1,0,0:0:0:0:
256,192,169944,1,8,0:0:0:0:
256,192,170032,1,8,0:0:0:0:
256,192,170120,1,0,0:0:0:0:
256,192,170209,1,8,0:0:0:0:
256,192,170297,1,0,0:0:0:0:
256,192,170385,1,0,0:0:0:0:
256,192,170473,1,8,0:0:0:0:
256,192,170562,1,0,0:0:0:0:
256,192,170650,1,8,0:0:0:0:
256,192,170738,1,8,0:0:0:0:
256,192,170826,1,0,0:0:0:0:
256,192,171179,1,8,0:0:0:0:
256,192,171356,1,0,0:0:0:0:
256,192,171709,1,0,0:0:0:0:
256,192,171885,1,8,0:0:0:0:
256,192,172062,1,0,0:0:0:0:
256,192,172414,1,0,0:0:0:0:
256,192,172591,1,8,0:0:0:0:
256,192,172944,1,8,0:0:0:0:
256,192,173209,1,0,0:0:0:0:
256,192,173473,1,0,0:0:0:0:
256,192,173650,1,8,0:0:0:0:
256,192,174003,1,8,0:0:0:0:
256,192,174179,1,8,0:0:0:0:
256,192,174356,1,0,0:0:0:0:
256,192,174532,1,0,0:0:0:0:
256,192,174709,1,8,0:0:0:0:
256,192,174885,1,0,0:0:0:0:
256,192,175238,1,0,0:0:0:0:
256,192,175414,1,8,0:0:0:0:
256,192,175591,1,8,0:0:0:0:
256,192,175767,1,0,0:0:0:0:
256,192,175944,1,0,0:0:0:0:
256,192,176120,1,8,0:0:0:0:
256,192,176473,1,4,0:0:0:0:
256,192,177003,1,4,0:0:0:0:
256,192,177532,1,4,0:0:0:0:
256,192,178062,1,4,0:0:0:0:
256,192,178591,1,4,0:0:0:0:
256,192,179120,1,4,0:0:0:0:
256,192,179297,1,4,0:0:0:0:
256,192,179650,1,4,0:0:0:0:
256,192,179826,1,4,0:0:0:0:
256,192,180179,1,4,0:0:0:0:
256,192,180356,1,4,0:0:0:0:
256,192,180532,1,8,0:0:0:0:
256,192,180709,1,0,0:0:0:0:
256,192,180797,1,0,0:0:0:0:
256,192,180885,1,8,0:0:0:0:
256,192,180973,1,0,0:0:0:0:
256,192,181062,1,0,0:0:0:0:
256,192,181150,1,0,0:0:0:0:
256,192,181238,1,8,0:0:0:0:
256,192,181326,1,8,0:0:0:0:
256,192,181414,1,0,0:0:0:0:
256,192,181591,1,0,0:0:0:0:
256,192,181767,1,8,0:0:0:0:
256,192,181944,1,8,0:0:0:0:
256,192,182120,1,4,0:0:0:0:
256,192,182297,1,0,0:0:0:0:
256,192,182385,1,0,0:0:0:0:
256,192,182473,1,8,0:0:0:0:
256,192,182650,1,8,0:0:0:0:
256,192,182826,1,0,0:0:0:0:
256,192,183003,1,8,0:0:0:0:
256,192,183091,1,8,0:0:0:0:
256,192,183179,1,0,0:0:0:0:
256,192,183267,1,0,0:0:0:0:
256,192,183356,1,8,0:0:0:0:
256,192,183532,1,0,0:0:0:0:
256,192,183709,1,0,0:0:0:0:
256,192,183797,1,0,0:0:0:0:
256,192,183885,1,8,0:0:0:0:
256,192,184062,1,8,0:0:0:0:
256,192,184150,1,8,0:0:0:0:
256,192,184238,1,0,0:0:0:0:
256,192,184414,1,0,0:0:0:0:
256,192,184503,1,0,0:0:0:0:
256,192,184591,1,8,0:0:0:0:
256,192,184679,1,0,0:0:0:0:
256,192,184767,1,8,0:0:0:0:
256,192,184856,1,8,0:0:0:0:
256,192,184944,1,0,0:0:0:0:
256,192,185120,1,0,0:0:0:0:
256,192,185209,1,0,0:0:0:0:
256,192,185297,1,8,0:0:0:0:
256,192,185473,1,8,0:0:0:0:
256,192,185650,1,0,0:0:0:0:
256,192,185826,1,8,0:0:0:0:
256,192,185914,1,8,0:0:0:0:
256,192,186003,1,0,0:0:0:0:
256,192,186091,1,0,0:0:0:0:
256,192,186179,1,8,0:0:0:0:
256,192,186356,1,8,0:0:0:0:
256,192,186444,1,8,0:0:0:0:
256,192,186532,1,0,0:0:0:0:
256,192,186620,1,0,0:0:0:0:
256,192,186709,1,8,0:0:0:0:
256,192,186797,1,0,0:0:0:0:
256,192,186885,1,8,0:0:0:0:
256,192,187062,1,0,0:0:0:0:
256,192,187150,1,0,0:0:0:0:
256,192,187238,1,8,0:0:0:0:
256,192,187326,1,0,0:0:0:0:
256,192,187414,1,8,0:0:0:0:
256,192,187503,1,8,0:0:0:0:
256,192,187591,1,0,0:0:0:0:
256,192,187767,1,0,0:0:0:0:
256,192,187944,1,0,0:0:0:0:
256,192,188120,1,8,0:0:0:0:
256,192,188297,1,0,0:0:0:0:
256,192,188562,1,12,0:0:0:0:
256,192,188826,1,0,0:0:0:0:
256,192,188914,1,0,0:0:0:0:
256,192,189003,1,8,0:0:0:0:
256,192,189091,1,8,0:0:0:0:
256,192,189179,1,0,0:0:0:0:
256,192,189356,1,8,0:0:0:0:
256,192,189532,1,8,0:0:0:0:
256,192,189709,1,0,0:0:0:0:
256,192,189973,1,12,0:0:0:0:
256,192,190238,1,8,0:0:0:0:
256,192,190326,1,8,0:0:0:0:
256,192,190414,1,0,0:0:0:0:
256,192,190503,1,0,0:0:0:0:
256,192,190591,1,8,0:0:0:0:
256,192,190856,1,0,0:0:0:0:
256,192,190944,1,8,0:0:0:0:
256,192,191120,1,0,0:0:0:0:
256,192,191297,1,0,0:0:0:0:
256,192,191562,1,8,0:0:0:0:
256,192,191826,1,8,0:0:0:0:
256,192,192003,1,4,0:0:0:0:
256,192,192532,1,4,0:0:0:0:
256,192,193062,1,12,0:0:0:0:
256,192,193414,1,4,0:0:0:0:
256,192,193591,1,0,0:0:0:0:
256,192,193679,1,0,0:0:0:0:
256,192,193767,1,8,0:0:0:0:
256,192,193944,1,8,0:0:0:0:
256,192,194120,1,0,0:0:0:0:
256,192,194297,1,8,0:0:0:0:
256,192,194385,1,8,0:0:0:0:
256,192,194473,1,0,0:0:0:0:
256,192,194562,1,0,0:0:0:0:
256,192,194650,1,8,0:0:0:0:
256,192,194826,1,0,0:0:0:0:
256,192,195003,1,0,0:0:0:0:
256,192,195091,1,0,0:0:0:0:
256,192,195179,1,8,0:0:0:0:
256,192,195356,1,0,0:0:0:0:
256,192,195444,1,8,0:0:0:0:
256,192,195532,1,0,0:0:0:0:
256,192,195709,1,8,0:0:0:0:
256,192,195885,1,0,0:0:0:0:
256,192,195973,1,8,0:0:0:0:
256,192,196062,1,8,0:0:0:0:
256,192,196238,1,0,0:0:0:0:
256,192,196414,1,0,0:0:0:0:
256,192,196503,1,0,0:0:0:0:
256,192,196591,1,8,0:0:0:0:
256,192,196767,1,8,0:0:0:0:
256,192,196944,1,0,0:0:0:0:
256,192,197120,1,8,0:0:0:0:
256,192,197209,1,8,0:0:0:0:
256,192,197297,1,0,0:0:0:0:
256,192,197385,1,0,0:0:0:0:
256,192,197473,1,8,0:0:0:0:
256,192,197650,1,0,0:0:0:0:
256,192,197826,1,0,0:0:0:0:
256,192,197914,1,0,0:0:0:0:
256,192,198003,1,8,0:0:0:0:
256,192,198179,1,0,0:0:0:0:
256,192,198267,1,8,0:0:0:0:
256,192,198356,1,0,0:0:0:0:
256,192,198532,1,8,0:0:0:0:
256,192,198709,1,0,0:0:0:0:
256,192,198797,1,8,0:0:0:0:
256,192,198885,1,8,0:0:0:0:
256,192,199062,1,0,0:0:0:0:
256,192,199238,1,0,0:0:0:0:
256,192,199326,1,0,0:0:0:0:
256,192,199414,1,8,0:0:0:0:
256,192,199591,1,8,0:0:0:0:
256,192,199679,1,8,0:0:0:0:
256,192,199767,1,0,0:0:0:0:
256,192,199944,1,8,0:0:0:0:
256,192,200120,1,0,0:0:0:0:
256,192,200209,1,0,0:0:0:0:
256,192,200297,1,8,0:0:0:0:
256,192,200385,1,8,0:0:0:0:
256,192,200473,1,0,0:0:0:0:
256,192,200650,1,8,0:0:0:0:
256,192,200738,1,0,0:0:0:0:
256,192,200826,1,8,0:0:0:0:
256,192,201003,1,8,0:0:0:0:
256,192,201091,1,0,0:0:0:0:
256,192,201179,1,0,0:0:0:0:
256,192,201356,1,8,0:0:0:0:
256,192,201532,1,0,0:0:0:0:
256,192,201620,1,8,0:0:0:0:
256,192,201709,1,8,0:0:0:0:
256,192,201797,1,8,0:0:0:0:
256,192,201885,1,0,0:0:0:0:
256,192,202062,1,0,0:0:0:0:
256,192,202150,1,0,0:0:0:0:
256,192,202238,1,8,0:0:0:0:
256,192,202414,1,8,0:0:0:0:
256,192,202503,1,8,0:0:0:0:
256,192,202591,1,0,0:0:0:0:
256,192,202767,1,8,0:0:0:0:
256,192,202944,1,0,0:0:0:0:
256,192,203032,1,0,0:0:0:0:
256,192,203120,1,8,0:0:0:0:
256,192,203209,1,8,0:0:0:0:
256,192,203297,1,0,0:0:0:0:
256,192,203473,1,8,0:0:0:0:
256,192,203562,1,0,0:0:0:0:
256,192,203650,1,8,0:0:0:0:
256,192,203826,1,8,0:0:0:0:
256,192,203914,1,0,0:0:0:0:
256,192,204003,1,0,0:0:0:0:
256,192,204179,1,8,0:0:0:0:
256,192,204356,1,0,0:0:0:0:
256,192,204444,1,8,0:0:0:0:
256,192,204532,1,8,0:0:0:0:
256,192,204620,1,8,0:0:0:0:
256,192,204709,1,0,0:0:0:0:
256,192,204885,1,8,0:0:0:0:
256,192,204973,1,0,0:0:0:0:
256,192,205062,1,8,0:0:0:0:
256,192,205238,1,8,0:0:0:0:
256,192,205326,1,8,0:0:0:0:
256,192,205414,1,0,0:0:0:0:
256,192,205503,1,0,0:0:0:0:
256,192,205591,1,8,0:0:0:0:
256,192,205767,1,0,0:0:0:0:
256,192,205856,1,0,0:0:0:0:
256,192,205944,1,8,0:0:0:0:
256,192,206032,1,8,0:0:0:0:
256,192,206120,1,0,0:0:0:0:
256,192,206297,1,0,0:0:0:0:
256,192,206385,1,0,0:0:0:0:
256,192,206473,1,8,0:0:0:0:
256,192,206650,1,0,0:0:0:0:
256,192,206738,1,8,0:0:0:0:
256,192,206826,1,0,0:0:0:0:
256,192,206914,1,0,0:0:0:0:
256,192,207003,1,8,0:0:0:0:
256,192,207179,1,8,0:0:0:0:
256,192,207267,1,0,0:0:0:0:
256,192,207356,1,8,0:0:0:0:
256,192,207444,1,8,0:0:0:0:
256,192,207532,1,0,0:0:0:0:
256,192,207709,1,8,0:0:0:0:
256,192,207797,1,0,0:0:0:0:
256,192,207885,1,8,0:0:0:0:
256,192,208062,1,8,0:0:0:0:
256,192,208150,1,8,0:0:0:0:
256,192,208238,1,0,0:0:0:0:
256,192,208326,1,0,0:0:0:0:
256,192,208414,1,8,0:0:0:0:
256,192,208591,1,0,0:0:0:0:
256,192,208679,1,0,0:0:0:0:
256,192,208767,1,8,0:0:0:0:
256,192,208856,1,8,0:0:0:0:
256,192,208944,1,0,0:0:0:0:
256,192,209120,1,0,0:0:0:0:
256,192,209209,1,0,0:0:0:0:
256,192,209297,1,8,0:0:0:0:
256,192,209473,1,0,0:0:0:0:
256,192,209562,1,8,0:0:0:0:
256,192,209650,1,0,0:0:0:0:
256,192,209738,1,0,0:0:0:0:
256,192,209826,1,8,0:0:0:0:
256,192,210003,1,8,0:0:0:0:
256,192,210091,1,0,0:0:0:0:
256,192,210179,1,8,0:0:0:0:
256,192,210267,1,8,0:0:0:0:
256,192,210356,1,0,0:0:0:0:
256,192,210532,1,8,0:0:0:0:
256,192,210620,1,0,0:0:0:0:
256,192,210709,1,8,0:0:0:0:
256,192,210885,1,8,0:0:0:0:
256,192,210973,1,8,0:0:0:0:
256,192,211062,1,0,0:0:0:0:
256,192,211238,1,8,0:0:0:0:
256,192,211326,1,0,0:0:0:0:
256,192,211414,1,0,0:0:0:0:
256,192,211503,1,0,0:0:0:0:
256,192,211591,1,8,0:0:0:0:
256,192,211679,1,8,0:0:0:0:
256,192,211767,1,0,0:0:0:0:
256,192,211944,1,0,0:0:0:0:
256,192,212032,1,0,0:0:0:0:
256,192,212120,1,8,0:0:0:0:
256,192,212297,1,0,0:0:0:0:
256,192,212385,1,8,0:0:0:0:
256,192,212473,1,0,0:0:0:0:
256,192,212650,1,8,0:0:0:0:
256,192,212738,1,8,0:0:0:0:
256,192,212826,1,0,0:0:0:0:
256,192,212914,1,0,0:0:0:0:
256,192,213003,1,0,0:0:0:0:
256,192,213091,1,8,0:0:0:0:
256,192,213179,1,0,0:0:0:0:
256,192,213356,1,8,0:0:0:0:
256,192,213444,1,0,0:0:0:0:
256,192,213532,1,8,0:0:0:0:
256,192,213709,1,8,0:0:0:0:
256,192,213797,1,8,0:0:0:0:
256,192,213885,1,0,0:0:0:0:
256,192,214062,1,8,0:0:0:0:
256,192,214150,1,0,0:0:0:0:
256,192,214238,1,0,0:0:0:0:
256,192,214326,1,0,0:0:0:0:
256,192,214414,1,8,0:0:0:0:
256,192,214503,1,8,0:0:0:0:
256,192,214591,1,0,0:0:0:0:
256,192,214767,1,0,0:0:0:0:
256,192,214856,1,0,0:0:0:0:
256,192,214944,1,8,0:0:0:0:
256,192,215120,1,0,0:0:0:0:
256,192,215209,1,8,0:0:0:0:
256,192,215297,1,0,0:0:0:0:
256,192,215473,1,8,0:0:0:0:
256,192,215562,1,8,0:0:0:0:
256,192,215650,1,0,0:0:0:0:
256,192,215738,1,0,0:0:0:0:
256,192,215826,1,8,0:0:0:0:
256,192,216003,1,4,0:0:0:0:
256,192,216179,1,0,0:0:0:0:
256,192,216267,1,0,0:0:0:0:
256,192,216356,1,8,0:0:0:0:
256,192,216532,1,8,0:0:0:0:
256,192,216709,1,0,0:0:0:0:
256,192,216885,1,8,0:0:0:0:
256,192,216973,1,8,0:0:0:0:
256,192,217062,1,0,0:0:0:0:
256,192,217150,1,0,0:0:0:0:
256,192,217238,1,8,0:0:0:0:
256,192,217414,1,0,0:0:0:0:
256,192,217591,1,0,0:0:0:0:
256,192,217679,1,0,0:0:0:0:
256,192,217767,1,8,0:0:0:0:
256,192,217944,1,8,0:0:0:0:
256,192,218032,1,8,0:0:0:0:
256,192,218120,1,0,0:0:0:0:
256,192,218297,1,0,0:0:0:0:
256,192,218385,1,0,0:0:0:0:
256,192,218473,1,8,0:0:0:0:
256,192,218562,1,0,0:0:0:0:
256,192,218650,1,8,0:0:0:0:
256,192,218738,1,8,0:0:0:0:
256,192,218826,1,0,0:0:0:0:
256,192,219003,1,0,0:0:0:0:
256,192,219091,1,0,0:0:0:0:
256,192,219179,1,8,0:0:0:0:
256,192,219356,1,8,0:0:0:0:
256,192,219532,1,0,0:0:0:0:
256,192,219709,1,8,0:0:0:0:
256,192,219797,1,8,0:0:0:0:
256,192,219885,1,0,0:0:0:0:
256,192,219973,1,0,0:0:0:0:
256,192,220062,1,8,0:0:0:0:
256,192,220238,1,0,0:0:0:0:
256,192,220414,1,0,0:0:0:0:
256,192,220503,1,0,0:0:0:0:
256,192,220591,1,8,0:0:0:0:
256,192,220767,1,8,0:0:0:0:
256,192,220856,1,8,0:0:0:0:
256,192,220944,1,0,0:0:0:0:
256,192,221120,1,0,0:0:0:0:
256,192,221209,1,0,0:0:0:0:
256,192,221297,1,8,0:0:0:0:
256,192,221385,1,0,0:0:0:0:
256,192,221473,1,8,0:0:0:0:
256,192,221562,1,8,0:0:0:0:
256,192,221650,1,0,0:0:0:0:
256,192,221826,1,0,0:0:0:0:
256,192,221914,1,0,0:0:0:0:
256,192,222003,1,8,0:0:0:0:
256,192,222179,1,8,0:0:0:0:
256,192,222356,1,0,0:0:0:0:
256,192,222532,1,8,0:0:0:0:
256,192,222620,1,0,0:0:0:0:
256,192,222709,1,0,0:0:0:0:
256,192,222797,1,0,0:0:0:0:
256,192,222885,1,8,0:0:0:0:
256,192,223062,1,0,0:0:0:0:
256,192,223238,1,0,0:0:0:0:
256,192,223326,1,0,0:0:0:0:
256,192,223414,1,8,0:0:0:0:
256,192,223591,1,0,0:0:0:0:
256,192,223679,1,8,0:0:0:0:
256,192,223767,1,0,0:0:0:0:
256,192,223944,1,8,0:0:0:0:
256,192,224032,1,0,0:0:0:0:
256,192,224120,1,8,0:0:0:0:
256,192,224209,1,8,0:0:0:0:
256,192,224297,1,0,0:0:0:0:
256,192,224385,1,8,0:0:0:0:
256,192,224473,1,0,0:0:0:0:
256,192,224650,1,0,0:0:0:0:
256,192,224738,1,0,0:0:0:0:
256,192,224826,1,8,0:0:0:0:
256,192,225003,1,8,0:0:0:0:
256,192,225179,1,0,0:0:0:0:
256,192,225356,1,8,0:0:0:0:
256,192,225444,1,0,0:0:0:0:
256,192,225532,1,0,0:0:0:0:
256,192,225620,1,0,0:0:0:0:
256,192,225709,1,8,0:0:0:0:
256,192,225885,1,0,0:0:0:0:
256,192,226062,1,0,0:0:0:0:
256,192,226150,1,0,0:0:0:0:
256,192,226238,1,8,0:0:0:0:
256,192,226326,1,8,0:0:0:0:
256,192,226414,1,8,0:0:0:0:
256,192,226591,1,0,0:0:0:0:
256,192,226679,1,0,0:0:0:0:
256,192,226767,1,8,0:0:0:0:
256,192,226856,1,0,0:0:0:0:
256,192,226944,1,8,0:0:0:0:
256,192,227032,1,8,0:0:0:0:
256,192,227120,1,0,0:0:0:0:
256,192,227209,1,8,0:0:0:0:
256,192,227297,1,0,0:0:0:0:
256,192,227473,1,0,0:0:0:0:
256,192,227562,1,8,0:0:0:0:
256,192,227826,1,0,0:0:0:0:
256,192,228003,1,0,0:0:0:0:
256,192,228091,1,0,0:0:0:0:
256,192,228179,1,8,0:0:0:0:
256,192,228356,1,0,0:0:0:0:
256,192,228532,1,8,0:0:0:0:
256,192,228620,1,8,0:0:0:0:
256,192,228709,1,0,0:0:0:0:
256,192,228885,1,0,0:0:0:0:
256,192,228973,1,8,0:0:0:0:
256,192,229238,1,8,0:0:0:0:
256,192,229414,1,0,0:0:0:0:
256,192,229503,1,0,0:0:0:0:
256,192,229591,1,8,0:0:0:0:
256,192,229767,1,8,0:0:0:0:
256,192,229944,1,0,0:0:0:0:
256,192,230120,1,0,0:0:0:0:
256,192,230209,1,8,0:0:0:0:
256,192,230297,1,8,0:0:0:0:
256,192,230385,1,0,0:0:0:0:
256,192,230473,1,8,0:0:0:0:
256,192,230562,1,0,0:0:0:0:
256,192,230650,1,0,0:0:0:0:
256,192,230738,1,8,0:0:0:0:
256,192,230826,1,0,0:0:0:0:
256,192,231003,1,0,0:0:0:0:
256,192,231179,1,8,0:0:0:0:
256,192,231267,1,0,0:0:0:0:
256,192,231356,1,8,0:0:0:0:
256,192,231444,1,8,0:0:0:0:
256,192,231532,1,0,0:0:0:0:
256,192,231650,1,0,0:0:0:0:
256,192,231767,1,8,0:0:0:0:
256,192,231885,1,0,0:0:0:0:
256,192,232003,1,0,0:0:0:0:
256,192,232120,1,8,0:0:0:0:
256,192,232238,1,0,0:0:0:0:
256,192,232356,1,0,0:0:0:0:
256,192,232473,1,8,0:0:0:0:
256,192,232591,1,0,0:0:0:0:
256,192,232709,1,8,0:0:0:0:
256,192,232826,1,8,0:0:0:0:
256,192,232944,1,0,0:0:0:0:
256,192,233120,1,0,0:0:0:0:
256,192,233209,1,0,0:0:0:0:
256,192,233297,1,8,0:0:0:0:
256,192,233473,1,0,0:0:0:0:
256,192,233562,1,8,0:0:0:0:
256,192,233738,1,0,0:0:0:0:
256,192,234003,1,8,0:0:0:0:
256,192,234091,1,8,0:0:0:0:
256,192,234179,1,0,0:0:0:0:
256,192,234267,1,0,0:0:0:0:
256,192,234356,1,8,0:0:0:0:
256,192,234444,1,0,0:0:0:0:
256,192,234532,1,8,0:0:0:0:
256,192,234620,1,8,0:0:0:0:
256,192,234709,1,0,0:0:0:0:
256,192,234797,1,8,0:0:0:0:
256,192,234885,1,8,0:0:0:0:
256,192,234973,1,0,0:0:0:0:
256,192,235062,1,8,0:0:0:0:
256,192,235150,1,0,0:0:0:0:
256,192,235238,1,8,0:0:0:0:
256,192,235326,1,8,0:0:0:0:
256,192,235414,1,0,0:0:0:0:
256,192,235503,1,8,0:0:0:0:
256,192,235591,1,8,0:0:0:0:
256,192,235679,1,0,0:0:0:0:
256,192,235767,1,8,0:0:0:0:
256,192,235885,1,0,0:0:0:0:
256,192,236003,1,0,0:0:0:0:
256,192,236120,1,0,0:0:0:0:
256,192,236238,1,8,0:0:0:0:
256,192,236356,1,0,0:0:0:0:
256,192,236473,1,8,0:0:0:0:
256,192,236591,1,0,0:0:0:0:
256,192,236709,1,8,0:0:0:0:
256,192,236826,1,8,0:0:0:0:
256,192,236944,1,8,0:0:0:0:
256,192,237062,1,0,0:0:0:0:
256,192,237179,1,8,0:0:0:0:
256,192,237267,1,8,0:0:0:0:
256,192,237356,1,0,0:0:0:0:
256,192,237444,1,0,0:0:0:0:
256,192,237532,1,8,0:0:0:0:
256,192,237620,1,0,0:0:0:0:
256,192,237709,1,0,0:0:0:0:
256,192,237797,1,8,0:0:0:0:
256,192,237885,1,0,0:0:0:0:
256,192,237973,1,0,0:0:0:0:
256,192,238062,1,8,0:0:0:0:
256,192,238150,1,8,0:0:0:0:
256,192,238238,1,0,0:0:0:0:
256,192,238414,1,8,0:0:0:0:
256,192,238591,1,4,0:0:0:0:
256,192,238767,1,4,0:0:0:0:
256,192,239032,1,0,0:0:0:0:
256,192,239297,1,0,0:0:0:0:
256,192,239473,1,0,0:0:0:0:
256,192,239738,1,8,0:0:0:0:
256,192,240003,1,4,0:0:0:0:
256,192,240179,1,4,0:0:0:0:
256,192,240444,1,0,0:0:0:0:
256,192,240709,1,0,0:0:0:0:
256,192,240973,1,0,0:0:0:0:
256,192,241238,1,8,0:0:0:0:
256,192,241414,1,4,0:0:0:0:
256,192,241591,1,4,0:0:0:0:
256,192,241856,1,0,0:0:0:0:
256,192,242120,1,0,0:0:0:0:
256,192,242297,1,0,0:0:0:0:
256,192,242562,1,0,0:0:0:0:
256,192,242738,1,0,0:0:0:0:
256,192,242914,1,8,0:0:0:0:
256,192,243179,1,0,0:0:0:0:
256,192,243356,1,0,0:0:0:0:
256,192,243532,1,8,0:0:0:0:
256,192,243620,1,8,0:0:0:0:
256,192,243709,1,8,0:0:0:0:
256,192,243797,1,8,0:0:0:0:
256,192,243885,1,0,0:0:0:0:
256,192,244238,1,4,0:0:0:0:
256,192,244414,1,4,0:0:0:0:
256,192,244679,1,0,0:0:0:0:
256,192,244944,1,0,0:0:0:0:
256,192,245120,1,8,0:0:0:0:
256,192,245209,1,0,0:0:0:0:
256,192,245385,1,8,0:0:0:0:
256,192,245473,1,0,0:0:0:0:
256,192,245650,1,0,0:0:0:0:
256,192,245826,1,0,0:0:0:0:
256,192,245914,1,8,0:0:0:0:
256,192,246091,1,8,0:0:0:0:
256,192,246179,1,0,0:0:0:0:
256,192,246356,1,0,0:0:0:0:
256,192,246444,1,8,0:0:0:0:
256,192,246620,1,8,0:0:0:0:
256,192,246709,1,0,0:0:0:0:
256,192,246826,1,0,0:0:0:0:
256,192,246944,1,0,0:0:0:0:
256,192,247062,1,0,0:0:0:0:
256,192,247238,1,8,0:0:0:0:
256,192,247326,1,0,0:0:0:0:
256,192,247503,1,8,0:0:0:0:
256,192,247591,1,0,0:0:0:0:
256,192,247767,1,0,0:0:0:0:
256,192,247944,1,0,0:0:0:0:
256,192,248032,1,8,0:0:0:0:
256,192,248209,1,8,0:0:0:0:
256,192,248385,1,0,0:0:0:0:
256,192,248562,1,0,0:0:0:0:
256,192,248650,1,8,0:0:0:0:
256,192,248826,1,0,0:0:0:0:
256,192,248914,1,8,0:0:0:0:
256,192,249091,1,0,0:0:0:0:
256,192,249179,1,8,0:0:0:0:
256,192,249297,1,8,0:0:0:0:
256,192,249414,1,8,0:0:0:0:
256,192,249532,1,0,0:0:0:0:
256,192,249709,1,8,0:0:0:0:
256,192,249885,1,4,0:0:0:0:
256,192,250238,1,8,0:0:0:0:
256,192,250591,1,0,0:0:0:0:
256,192,250944,1,8,0:0:0:0:
256,192,251297,1,8,0:0:0:0:
256,192,252003,1,0,0:0:0:0:
256,192,252709,1,8,0:0:0:0:
256,192,253767,1,8,0:0:0:0:
256,192,253944,1,0,0:0:0:0:
256,192,254297,1,0,0:0:0:0:
256,192,254473,1,0,0:0:0:0:
256,192,254650,1,8,0:0:0:0:
256,192,255179,1,0,0:0:0:0:
256,192,255356,1,8,0:0:0:0:
256,192,255532,1,8,0:0:0:0:
256,192,255885,1,0,0:0:0:0:
256,192,256062,1,8,0:0:0:0:
256,192,256944,1,8,0:0:0:0:
256,192,257297,1,0,0:0:0:0:
256,192,257650,1,0,0:0:0:0:
256,192,258356,1,0,0:0:0:0:
256,192,258709,1,8,0:0:0:0:
256,192,258885,1,0,0:0:0:0:
256,192,259414,1,8,0:0:0:0:
256,192,259591,1,8,0:0:0:0:
256,192,259767,1,0,0:0:0:0:
256,192,259944,1,0,0:0:0:0:
256,192,260120,1,0,0:0:0:0:
256,192,260297,1,8,0:0:0:0:
208,162,260473,1,0,0:0:0:0:
256,192,261179,1,12,0:0:0:0:
256,192,261532,1,0,0:0:0:0:
256,192,261885,1,0,0:0:0:0:
256,192,262238,1,0,0:0:0:0:
256,192,262591,1,8,0:0:0:0:
256,192,263297,1,0,0:0:0:0:
256,192,264003,1,8,0:0:0:0:
256,192,264356,1,8,0:0:0:0:
256,192,264532,1,0,0:0:0:0:
256,192,264709,1,0,0:0:0:0:
256,192,265062,1,8,0:0:0:0:
256,192,265238,1,8,0:0:0:0:
256,192,265326,1,8,0:0:0:0:
256,192,265414,1,0,0:0:0:0:
256,192,265591,1,0,0:0:0:0:
256,192,265767,1,8,0:0:0:0:
256,192,265944,1,0,0:0:0:0:
256,192,266120,1,0,0:0:0:0:
256,192,266473,1,8,0:0:0:0:
256,192,266650,1,0,0:0:0:0:
256,192,266826,1,12,0:0:0:0:
256,192,267356,1,0,0:0:0:0:
256,192,267885,1,8,0:0:0:0:
256,192,268238,1,0,0:0:0:0:
256,192,268591,1,8,0:0:0:0:
256,192,268944,1,8,0:0:0:0:
256,192,269297,1,0,0:0:0:0:
256,192,269650,1,8,0:0:0:0:
256,192,270709,1,8,0:0:0:0:
256,192,270885,1,0,0:0:0:0:
256,192,271062,12,0,272297,0:0:0:0:
256,192,272473,5,12,0:0:0:0:
256,192,272650,1,0,0:0:0:0:
256,192,272738,1,0,0:0:0:0:
256,192,272826,1,8,0:0:0:0:
256,192,273003,1,8,0:0:0:0:
256,192,273179,1,0,0:0:0:0:
256,192,273267,1,0,0:0:0:0:
256,192,273356,1,8,0:0:0:0:
256,192,273444,1,0,0:0:0:0:
256,192,273532,1,8,0:0:0:0:
256,192,273620,1,8,0:0:0:0:
256,192,273709,1,0,0:0:0:0:
256,192,273797,1,8,0:0:0:0:
256,192,273885,1,0,0:0:0:0:
256,192,274062,1,0,0:0:0:0:
256,192,274150,1,0,0:0:0:0:
256,192,274238,1,8,0:0:0:0:
256,192,274414,1,8,0:0:0:0:
256,192,274591,1,0,0:0:0:0:
256,192,274679,1,8,0:0:0:0:
256,192,274767,1,8,0:0:0:0:
256,192,274856,1,0,0:0:0:0:
256,192,274944,1,8,0:0:0:0:
256,192,275032,1,0,0:0:0:0:
256,192,275120,1,8,0:0:0:0:
256,192,275209,1,8,0:0:0:0:
256,192,275297,1,0,0:0:0:0:
256,192,275473,1,0,0:0:0:0:
256,192,275562,1,8,0:0:0:0:
256,192,275738,1,0,0:0:0:0:
256,192,275826,1,8,0:0:0:0:
256,192,276003,1,8,0:0:0:0:
256,192,276091,1,8,0:0:0:0:
256,192,276267,1,0,0:0:0:0:
256,192,276356,1,8,0:0:0:0:
256,192,276532,1,8,0:0:0:0:
256,192,276620,1,8,0:0:0:0:
256,192,276709,1,0,0:0:0:0:
256,192,276797,1,8,0:0:0:0:
256,192,276885,1,8,0:0:0:0:
256,192,276973,1,0,0:0:0:0:
256,192,277062,1,8,0:0:0:0:
256,192,277150,1,0,0:0:0:0:
256,192,277238,1,8,0:0:0:0:
256,192,277326,1,8,0:0:0:0:
256,192,277414,1,0,0:0:0:0:
256,192,277503,1,8,0:0:0:0:
256,192,277591,1,8,0:0:0:0:
256,192,277679,1,0,0:0:0:0:
256,192,277767,1,8,0:0:0:0:
256,192,277856,1,8,0:0:0:0:
256,192,277944,1,0,0:0:0:0:
256,192,278120,1,0,0:0:0:0:
256,192,278209,1,0,0:0:0:0:
256,192,278297,1,8,0:0:0:0:
256,192,278385,1,8,0:0:0:0:
256,192,278473,1,0,0:0:0:0:
256,192,278650,1,0,0:0:0:0:
256,192,278738,1,0,0:0:0:0:
256,192,278826,1,8,0:0:0:0:
256,192,278914,1,8,0:0:0:0:
256,192,279003,1,0,0:0:0:0:
256,192,279179,1,8,0:0:0:0:
256,192,279267,1,0,0:0:0:0:
256,192,279356,1,8,0:0:0:0:
256,192,279444,1,8,0:0:0:0:
256,192,279532,1,0,0:0:0:0:
256,192,279620,1,0,0:0:0:0:
256,192,279709,1,8,0:0:0:0:
256,192,279797,1,0,0:0:0:0:
256,192,279885,1,8,0:0:0:0:
256,192,280062,1,0,0:0:0:0:
256,192,280150,1,0,0:0:0:0:
256,192,280238,1,8,0:0:0:0:
256,192,280326,1,0,0:0:0:0:
256,192,280414,1,8,0:0:0:0:
256,192,280591,1,0,0:0:0:0:
256,192,280767,1,12,0:0:0:0:
256,192,281297,1,8,0:0:0:0:
256,192,281473,1,0,0:0:0:0:
256,192,281562,1,0,0:0:0:0:
256,192,281738,1,8,0:0:0:0:
256,192,281914,1,0,0:0:0:0:
256,192,282091,1,0,0:0:0:0:
256,192,282179,1,8,0:0:0:0:
256,192,282356,1,4,0:0:0:0:
256,192,282620,1,12,0:0:0:0:
256,192,282885,1,4,0:0:0:0:
256,192,283150,1,12,0:0:0:0:
256,192,283414,1,0,0:0:0:0:
256,192,283591,1,0,0:0:0:0:
256,192,283767,1,8,0:0:0:0:
256,192,283944,1,0,0:0:0:0:
256,192,284032,1,0,0:0:0:0:
256,192,284120,1,8,0:0:0:0:
256,192,284297,1,8,0:0:0:0:
256,192,284473,1,0,0:0:0:0:
256,192,284562,1,8,0:0:0:0:
256,192,284650,1,0,0:0:0:0:
256,192,284738,1,0,0:0:0:0:
256,192,284826,1,8,0:0:0:0:
256,192,284914,1,0,0:0:0:0:
256,192,285003,1,8,0:0:0:0:
256,192,285091,1,8,0:0:0:0:
256,192,285179,1,0,0:0:0:0:
256,192,285356,1,0,0:0:0:0:
256,192,285444,1,0,0:0:0:0:
256,192,285532,1,8,0:0:0:0:
256,192,285709,1,8,0:0:0:0:
256,192,285885,1,0,0:0:0:0:
256,192,285973,1,8,0:0:0:0:
256,192,286062,1,8,0:0:0:0:
256,192,286150,1,0,0:0:0:0:
256,192,286238,1,8,0:0:0:0:
256,192,286326,1,8,0:0:0:0:
256,192,286414,1,0,0:0:0:0:
256,192,286503,1,8,0:0:0:0:
256,192,286591,1,0,0:0:0:0:
256,192,286767,1,0,0:0:0:0:
256,192,286856,1,8,0:0:0:0:
256,192,286944,1,0,0:0:0:0:
256,192,287032,1,0,0:0:0:0:
256,192,287120,1,8,0:0:0:0:
256,192,287297,1,8,0:0:0:0:
256,192,287385,1,8,0:0:0:0:
256,192,287562,1,0,0:0:0:0:
256,192,287650,1,8,0:0:0:0:
256,192,287826,1,8,0:0:0:0:
256,192,287914,1,8,0:0:0:0:
256,192,288003,1,0,0:0:0:0:
256,192,288091,1,8,0:0:0:0:
256,192,288179,1,8,0:0:0:0:
256,192,288267,1,0,0:0:0:0:
256,192,288356,1,8,0:0:0:0:
256,192,288444,1,8,0:0:0:0:
256,192,288532,1,8,0:0:0:0:
256,192,288620,1,0,0:0:0:0:
256,192,288709,1,0,0:0:0:0:
256,192,288797,1,8,0:0:0:0:
256,192,288885,1,0,0:0:0:0:
256,192,288973,1,0,0:0:0:0:
256,192,289062,1,8,0:0:0:0:
256,192,289150,1,0,0:0:0:0:
256,192,289238,1,8,0:0:0:0:
256,192,289326,1,8,0:0:0:0:
256,192,289414,1,0,0:0:0:0:
256,192,289532,1,8,0:0:0:0:
256,192,289650,1,8,0:0:0:0:
256,192,289767,1,0,0:0:0:0:
256,192,289944,1,8,0:0:0:0:
256,192,290032,1,8,0:0:0:0:
256,192,290120,1,0,0:0:0:0:
256,192,290209,1,0,0:0:0:0:
256,192,290297,1,8,0:0:0:0:
256,192,290385,1,0,0:0:0:0:
256,192,290473,1,8,0:0:0:0:
256,192,290562,1,8,0:0:0:0:
256,192,290650,1,0,0:0:0:0:
256,192,290738,1,0,0:0:0:0:
256,192,290826,1,8,0:0:0:0:
256,192,290944,1,0,0:0:0:0:
256,192,291062,1,0,0:0:0:0:
256,192,291179,1,8,0:0:0:0:
256,192,291356,1,0,0:0:0:0:
256,192,291444,1,8,0:0:0:0:
256,192,291532,1,0,0:0:0:0:
256,192,291620,1,0,0:0:0:0:
256,192,291709,1,8,0:0:0:0:
256,192,291797,1,8,0:0:0:0:
256,192,291885,1,0,0:0:0:0:
256,192,291973,1,8,0:0:0:0:
256,192,292062,1,0,0:0:0:0:
256,192,292150,1,0,0:0:0:0:
256,192,292238,1,8,0:0:0:0:
256,192,292326,1,8,0:0:0:0:
256,192,292414,1,0,0:0:0:0:
256,192,292503,1,8,0:0:0:0:
256,192,292591,1,0,0:0:0:0:
256,192,292679,1,0,0:0:0:0:
256,192,292767,1,8,0:0:0:0:
256,192,292856,1,8,0:0:0:0:
256,192,292944,1,0,0:0:0:0:
256,192,293032,1,8,0:0:0:0:
256,192,293120,1,8,0:0:0:0:
256,192,293209,1,0,0:0:0:0:
256,192,293297,1,8,0:0:0:0:
256,192,293385,1,8,0:0:0:0:
256,192,293473,1,0,0:0:0:0:
256,192,293562,1,0,0:0:0:0:
256,192,293650,1,8,0:0:0:0:
256,192,293738,1,0,0:0:0:0:
256,192,293826,1,8,0:0:0:0:
256,192,293914,1,8,0:0:0:0:
256,192,294003,1,0,0:0:0:0:
256,192,294091,1,0,0:0:0:0:
256,192,294179,1,8,0:0:0:0:
256,192,294267,1,8,0:0:0:0:
256,192,294356,1,0,0:0:0:0:
256,192,294444,1,8,0:0:0:0:
256,192,294532,1,0,0:0:0:0:
256,192,294620,1,0,0:0:0:0:
256,192,294709,1,8,0:0:0:0:
256,192,294797,1,0,0:0:0:0:
256,192,294885,1,8,0:0:0:0:
256,192,294973,1,8,0:0:0:0:
256,192,295062,1,0,0:0:0:0:
256,192,295414,1,8,0:0:0:0:
256,192,295591,1,0,0:0:0:0:
256,192,295944,1,0,0:0:0:0:
256,192,296120,1,8,0:0:0:0:
256,192,296297,1,0,0:0:0:0:
256,192,296650,1,0,0:0:0:0:
256,192,296826,1,8,0:0:0:0:
256,192,297179,1,8,0:0:0:0:
256,192,297444,1,0,0:0:0:0:
256,192,297709,1,0,0:0:0:0:
256,192,297885,1,8,0:0:0:0:
256,192,298238,1,8,0:0:0:0:
256,192,298414,1,8,0:0:0:0:
256,192,298591,1,0,0:0:0:0:
256,192,298767,1,0,0:0:0:0:
256,192,298944,1,8,0:0:0:0:
256,192,299120,1,0,0:0:0:0:
256,192,299473,1,0,0:0:0:0:
256,192,299650,1,8,0:0:0:0:
256,192,299826,1,8,0:0:0:0:
256,192,300003,1,0,0:0:0:0:
256,192,300179,1,0,0:0:0:0:
256,192,300356,1,8,0:0:0:0:
256,192,300709,1,4,0:0:0:0:
256,192,301238,1,4,0:0:0:0:
256,192,301767,1,4,0:0:0:0:
256,192,302297,1,4,0:0:0:0:
256,192,302826,1,4,0:0:0:0:
256,192,303356,1,4,0:0:0:0:
256,192,303532,1,4,0:0:0:0:
256,192,303885,1,4,0:0:0:0:
256,192,304062,1,4,0:0:0:0:
256,192,304414,1,4,0:0:0:0:
256,192,304591,1,4,0:0:0:0:
256,192,304767,1,8,0:0:0:0:
256,192,304944,1,0,0:0:0:0:
256,192,305032,1,8,0:0:0:0:
256,192,305120,1,0,0:0:0:0:
256,192,305209,1,0,0:0:0:0:
256,192,305297,1,8,0:0:0:0:
256,192,305385,1,0,0:0:0:0:
256,192,305473,1,8,0:0:0:0:
256,192,305562,1,8,0:0:0:0:
256,192,305650,1,0,0:0:0:0:
256,192,305826,1,0,0:0:0:0:
256,192,306003,1,8,0:0:0:0:
256,192,306179,1,8,0:0:0:0:
256,192,306356,1,4,0:0:0:0:
256,192,306532,1,0,0:0:0:0:
256,192,306620,1,0,0:0:0:0:
256,192,306709,1,8,0:0:0:0:
256,192,306885,1,8,0:0:0:0:
256,192,307062,1,0,0:0:0:0:
256,192,307238,1,8,0:0:0:0:
256,192,307326,1,8,0:0:0:0:
256,192,307414,1,0,0:0:0:0:
256,192,307503,1,0,0:0:0:0:
256,192,307591,1,8,0:0:0:0:
256,192,307767,1,0,0:0:0:0:
256,192,307944,1,0,0:0:0:0:
256,192,308032,1,0,0:0:0:0:
256,192,308120,1,8,0:0:0:0:
256,192,308297,1,8,0:0:0:0:
256,192,308385,1,8,0:0:0:0:
256,192,308473,1,0,0:0:0:0:
256,192,308650,1,0,0:0:0:0:
256,192,308738,1,0,0:0:0:0:
256,192,308826,1,8,0:0:0:0:
256,192,308914,1,0,0:0:0:0:
256,192,309003,1,8,0:0:0:0:
256,192,309091,1,8,0:0:0:0:
256,192,309179,1,0,0:0:0:0:
256,192,309356,1,0,0:0:0:0:
256,192,309444,1,0,0:0:0:0:
256,192,309532,1,8,0:0:0:0:
256,192,309709,1,8,0:0:0:0:
256,192,309885,1,0,0:0:0:0:
256,192,310062,1,8,0:0:0:0:
256,192,310150,1,8,0:0:0:0:
256,192,310238,1,0,0:0:0:0:
256,192,310326,1,0,0:0:0:0:
256,192,310414,1,8,0:0:0:0:
256,192,310591,1,8,0:0:0:0:
256,192,310679,1,8,0:0:0:0:
256,192,310767,1,0,0:0:0:0:
256,192,310856,1,0,0:0:0:0:
256,192,310944,1,8,0:0:0:0:
256,192,311032,1,0,0:0:0:0:
256,192,311120,1,8,0:0:0:0:
256,192,311209,1,8,0:0:0:0:
256,192,311297,1,0,0:0:0:0:
256,192,311385,1,0,0:0:0:0:
256,192,311473,1,8,0:0:0:0:
256,192,311562,1,0,0:0:0:0:
256,192,311650,1,8,0:0:0:0:
256,192,311738,1,8,0:0:0:0:
256,192,311826,1,0,0:0:0:0:
256,192,312003,1,0,0:0:0:0:
256,192,312179,1,0,0:0:0:0:
256,192,312356,1,8,0:0:0:0:
256,192,312532,1,0,0:0:0:0:
256,192,312797,1,12,0:0:0:0:
256,192,313062,1,0,0:0:0:0:
256,192,313150,1,0,0:0:0:0:
256,192,313238,1,8,0:0:0:0:
256,192,313326,1,8,0:0:0:0:
256,192,313414,1,0,0:0:0:0:
256,192,313591,1,8,0:0:0:0:
256,192,313767,1,8,0:0:0:0:
256,192,313944,1,0,0:0:0:0:
256,192,314209,1,12,0:0:0:0:
256,192,314473,1,8,0:0:0:0:
256,192,314562,1,8,0:0:0:0:
256,192,314650,1,0,0:0:0:0:
256,192,314738,1,0,0:0:0:0:
256,192,314826,1,8,0:0:0:0:
256,192,315091,1,0,0:0:0:0:
256,192,315179,1,8,0:0:0:0:
256,192,315356,1,0,0:0:0:0:
256,192,315532,1,0,0:0:0:0:
256,192,315797,1,8,0:0:0:0:
256,192,316062,1,8,0:0:0:0:
256,192,316238,1,4,0:0:0:0:
256,192,316767,1,4,0:0:0:0:
256,192,317297,1,12,0:0:0:0:
256,192,318003,1,8,0:0:0:0:
256,192,318091,1,8,0:0:0:0:
256,192,318179,1,0,0:0:0:0:
256,192,318356,1,12,0:0:0:0:
256,192,318532,12,0,323297,0:0:0:0:
