osu file format v14

[General]
AudioFilename: 2-07 - Altersist.mp3
AudioLeadIn: 0
PreviewTime: 56059
Countdown: 0
SampleSet: Soft
StackLeniency: 0.7
Mode: 3
LetterboxInBreaks: 0
SpecialStyle: 0
WidescreenStoryboard: 0

[Editor]
DistanceSpacing: 0.7
BeatDivisor: 4
GridSize: 4
TimelineZoom: 1.36

[Metadata]
Title:Altersist
TitleUnicode:Altersist
Artist:void
ArtistUnicode:void
Creator:pwhk
Version:Altenother
Source:BMS
Tags:bof Intersection of conflict groundbreaking 2011 Disalternative Trance
BeatmapID:985219
BeatmapSetID:459950

[Difficulty]
HPDrainRate:8
CircleSize:7
OverallDifficulty:8
ApproachRate:5
SliderMultiplier:1.4
SliderTickRate:1

[Events]
//Background and Video events
0,0,"stage.jpg",0,0
//Break Periods
//Storyboard Layer 0 (Background)
//Storyboard Layer 1 (Fail)
//Storyboard Layer 2 (Pass)
//Storyboard Layer 3 (Foreground)
//Storyboard Sound Samples

[TimingPoints]
517,434.782608695652,4,2,1,20,1,0
517,-200,4,2,1,20,0,0
12690,-181.818181818182,4,2,1,20,0,0
13125,-166.666666666667,4,2,1,20,0,0
13560,-153.846153846154,4,2,1,20,0,0
13995,-142.857142857143,4,2,1,20,0,0
14430,-133.333333333333,4,2,1,20,0,0
26603,-125,4,2,1,20,0,0
27038,-117.647058823529,4,2,1,20,0,0
27473,-111.111111111111,4,2,1,20,0,0
27908,-105.263157894737,4,2,1,20,0,0
28343,-100,4,2,1,20,0,0
56169,-100,4,2,1,20,0,1
83995,-100,4,2,1,20,0,0
153560,-200,4,2,1,20,0,0
166603,-166.666666666667,4,2,1,20,0,0
166821,-142.857142857143,4,2,1,20,0,0
167038,-125,4,2,1,20,0,0
167256,-111.111111111111,4,2,1,20,0,0
167473,-100,4,2,1,20,0,0
195299,-111.111111111111,4,2,1,20,0,0
208343,-500,4,2,1,20,0,0
208415,-55.5555555555556,4,2,1,20,0,0
208488,-333.333333333333,4,2,1,20,0,0
208560,-58.8235294117647,4,2,1,20,0,0
208632,-250,4,2,1,20,0,0
208705,-62.5,4,2,1,20,0,0
208777,-200,4,2,1,20,0,0
208850,-66.6666666666667,4,2,1,20,0,0
208922,-166.666666666667,4,2,1,20,0,0
208995,-71.4285714285714,4,2,1,20,0,0
209067,-142.857142857143,4,2,1,20,0,0
209140,-76.9230769230769,4,2,1,20,0,0
209212,-117.647058823529,4,2,1,20,0,0
223125,-113.636363636364,4,2,1,20,0,0
226603,-109.89010989011,4,2,1,20,0,0
230082,-106.382978723404,4,2,1,20,0,0
233560,-103.092783505155,4,2,1,20,0,0
235299,-100,4,2,1,20,0,0
237038,-200,4,2,1,20,0,0
238777,-166.666666666667,4,2,1,20,0,0
240516,-142.857142857143,4,2,1,20,0,0
242256,-125,4,2,1,20,0,0
243995,-100,4,2,1,20,0,0
271821,-100,4,2,1,20,0,1
299647,-100,4,2,1,20,0,0

[HitObjects]
36,192,517,5,0,0:0:0:0:
109,192,734,1,0,0:0:0:0:
256,192,951,1,0,0:0:0:0:
475,192,1169,1,0,0:0:0:0:
182,192,1603,1,0,0:0:0:0:
402,192,2038,1,0,0:0:0:0:
475,192,3125,1,0,0:0:0:0:
182,192,3560,1,0,0:0:0:0:
36,192,3995,1,0,0:0:0:0:
109,192,4212,1,0,0:0:0:0:
256,192,4430,1,0,0:0:0:0:
475,192,4647,1,0,0:0:0:0:
182,192,5082,1,0,0:0:0:0:
402,192,5516,1,0,0:0:0:0:
36,192,5734,1,0,0:0:0:0:
182,192,6603,1,0,0:0:0:0:
329,192,7038,1,0,0:0:0:0:
475,192,7473,1,0,0:0:0:0:
402,192,7690,1,0,0:0:0:0:
256,192,7908,1,0,0:0:0:0:
182,192,8125,1,0,0:0:0:0:
109,192,8777,1,0,0:0:0:0:
475,192,9212,1,0,0:0:0:0:
402,192,9430,1,0,0:0:0:0:
256,192,9647,1,0,0:0:0:0:
109,192,9864,1,0,0:0:0:0:
36,192,10516,1,0,0:0:0:0:
182,192,10951,1,0,0:0:0:0:
256,192,11603,1,0,0:0:0:0:
329,192,12256,1,0,0:0:0:0:
475,192,12908,1,0,0:0:0:0:
402,192,13560,1,0,0:0:0:0:
36,192,14430,1,0,0:0:0:0:
256,192,14430,1,0,0:0:0:0:
182,192,14647,1,0,0:0:0:0:
329,192,14647,1,0,0:0:0:0:
109,192,14864,1,0,0:0:0:0:
402,192,14864,1,0,0:0:0:0:
475,192,15082,1,0,0:0:0:0:
36,192,15082,1,0,0:0:0:0:
109,192,15299,1,0,0:0:0:0:
36,192,15516,1,0,0:0:0:0:
329,192,15516,1,0,0:0:0:0:
109,192,15734,1,0,0:0:0:0:
182,192,15951,1,0,0:0:0:0:
402,192,15951,1,0,0:0:0:0:
109,192,16169,1,0,0:0:0:0:
36,192,16386,1,0,0:0:0:0:
109,192,16603,1,0,0:0:0:0:
182,192,16821,1,0,0:0:0:0:
36,192,17038,1,0,0:0:0:0:
475,192,17038,1,0,0:0:0:0:
109,192,17256,1,0,0:0:0:0:
182,192,17473,1,0,0:0:0:0:
329,192,17473,1,0,0:0:0:0:
109,192,17690,1,0,0:0:0:0:
36,192,17908,1,0,0:0:0:0:
256,192,17908,1,0,0:0:0:0:
182,192,18125,1,0,0:0:0:0:
329,192,18125,1,0,0:0:0:0:
36,192,18343,1,0,0:0:0:0:
402,192,18343,1,0,0:0:0:0:
109,192,18560,1,0,0:0:0:0:
475,192,18560,1,0,0:0:0:0:
182,192,18777,1,0,0:0:0:0:
109,192,18995,1,0,0:0:0:0:
329,192,18995,1,0,0:0:0:0:
36,192,19212,1,0,0:0:0:0:
182,192,19430,1,0,0:0:0:0:
402,192,19430,1,0,0:0:0:0:
36,192,19647,1,0,0:0:0:0:
256,192,19647,1,0,0:0:0:0:
182,192,19864,1,0,0:0:0:0:
109,192,20082,1,0,0:0:0:0:
182,192,20299,1,0,0:0:0:0:
36,192,20516,1,0,0:0:0:0:
329,192,20516,1,0,0:0:0:0:
182,192,20734,1,0,0:0:0:0:
109,192,20951,1,0,0:0:0:0:
402,192,20951,1,0,0:0:0:0:
36,192,21169,1,0,0:0:0:0:
109,192,21386,1,0,0:0:0:0:
475,192,21386,1,0,0:0:0:0:
182,192,21603,1,0,0:0:0:0:
402,192,21603,1,0,0:0:0:0:
109,192,21821,1,0,0:0:0:0:
329,192,21821,1,0,0:0:0:0:
36,192,22038,1,0,0:0:0:0:
256,192,22038,1,0,0:0:0:0:
182,192,22256,1,0,0:0:0:0:
109,192,22473,1,0,0:0:0:0:
182,192,22690,1,0,0:0:0:0:
402,192,22690,1,0,0:0:0:0:
36,192,22908,1,0,0:0:0:0:
109,192,23125,1,0,0:0:0:0:
475,192,23125,1,0,0:0:0:0:
182,192,23343,1,0,0:0:0:0:
402,192,23343,1,0,0:0:0:0:
36,192,23560,1,0,0:0:0:0:
329,192,23560,1,0,0:0:0:0:
182,192,23777,1,0,0:0:0:0:
256,192,23777,1,0,0:0:0:0:
36,192,23995,1,0,0:0:0:0:
109,192,24212,1,0,0:0:0:0:
182,192,24430,1,0,0:0:0:0:
329,192,24430,1,0,0:0:0:0:
109,192,24647,1,0,0:0:0:0:
36,192,24864,1,0,0:0:0:0:
256,192,24864,1,0,0:0:0:0:
182,192,25082,1,0,0:0:0:0:
36,192,25299,1,0,0:0:0:0:
109,192,25516,1,0,0:0:0:0:
329,192,25516,1,0,0:0:0:0:
36,192,25734,1,0,0:0:0:0:
182,192,25951,1,0,0:0:0:0:
109,192,26169,1,0,0:0:0:0:
475,192,26169,1,0,0:0:0:0:
182,192,26386,1,0,0:0:0:0:
36,192,26603,1,0,0:0:0:0:
402,192,26603,1,0,0:0:0:0:
182,192,26821,1,0,0:0:0:0:
109,192,27038,1,0,0:0:0:0:
182,192,27256,1,0,0:0:0:0:
36,192,27473,1,0,0:0:0:0:
256,192,27690,1,0,0:0:0:0:
182,192,27908,1,0,0:0:0:0:
109,192,28125,1,0,0:0:0:0:
36,192,28343,1,2,0:0:0:0:
182,192,28343,1,0,0:0:0:0:
475,192,28343,1,8,0:0:0:0:
256,192,28560,1,0,0:0:0:0:
36,192,28777,1,2,0:0:0:0:
402,192,28777,1,0,0:0:0:0:
475,192,28995,1,0,0:0:0:0:
36,192,29212,1,2,0:0:0:0:
256,192,29430,1,0,0:0:0:0:
36,192,29647,1,2,0:0:0:0:
329,192,29864,1,0,0:0:0:0:
36,192,30082,1,2,0:0:0:0:
36,192,30516,1,2,0:0:0:0:
36,192,30951,1,2,0:0:0:0:
475,192,30951,1,0,0:0:0:0:
36,192,31386,1,2,0:0:0:0:
182,192,31386,1,0,0:0:0:0:
36,192,31821,1,2,0:0:0:0:
109,192,31821,1,0,0:0:0:0:
182,192,32038,1,0,0:0:0:0:
36,192,32256,1,2,0:0:0:0:
329,192,32256,1,0,0:0:0:0:
475,192,32473,1,0,0:0:0:0:
36,192,32690,1,2,0:0:0:0:
256,192,32908,1,0,0:0:0:0:
36,192,33125,1,2,0:0:0:0:
402,192,33343,1,0,0:0:0:0:
36,192,33560,1,2,0:0:0:0:
109,192,33560,1,0,0:0:0:0:
36,192,33995,1,2,0:0:0:0:
36,192,34430,1,2,0:0:0:0:
182,192,34430,1,0,0:0:0:0:
36,192,34864,1,2,0:0:0:0:
329,192,34864,1,0,0:0:0:0:
475,192,35299,1,2,0:0:0:0:
402,192,35299,1,0,0:0:0:0:
329,192,35516,1,0,0:0:0:0:
475,192,35734,1,2,0:0:0:0:
182,192,35734,1,0,0:0:0:0:
109,192,35951,1,0,0:0:0:0:
475,192,36169,1,2,0:0:0:0:
475,192,36603,1,2,0:0:0:0:
36,192,36603,1,0,0:0:0:0:
475,192,37038,1,2,0:0:0:0:
402,192,37038,1,0,0:0:0:0:
329,192,37256,1,0,0:0:0:0:
475,192,37473,1,2,0:0:0:0:
256,192,37473,1,0,0:0:0:0:
182,192,37690,1,0,0:0:0:0:
475,192,37908,1,2,0:0:0:0:
475,192,38343,1,2,0:0:0:0:
109,192,38343,1,0,0:0:0:0:
475,192,38777,1,2,0:0:0:0:
182,192,38777,1,0,0:0:0:0:
475,192,39212,1,2,0:0:0:0:
256,192,39430,1,0,0:0:0:0:
475,192,39647,1,2,0:0:0:0:
475,192,40082,1,2,0:0:0:0:
329,192,40082,1,0,0:0:0:0:
475,192,40516,1,2,0:0:0:0:
402,192,40734,1,0,0:0:0:0:
475,192,40951,1,2,0:0:0:0:
475,192,41386,1,2,0:0:0:0:
329,192,41386,1,0,0:0:0:0:
256,192,42038,1,2,0:0:0:0:
402,192,42147,1,0,0:0:0:0:
36,192,42256,1,2,0:0:0:0:
475,192,42256,128,0,49103:0:0:0:0:
109,192,42256,1,0,0:0:0:0:
182,192,42473,1,0,0:0:0:0:
36,192,42690,1,2,0:0:0:0:
256,192,42690,1,0,0:0:0:0:
402,192,42908,1,0,0:0:0:0:
36,192,43125,1,2,0:0:0:0:
182,192,43343,1,0,0:0:0:0:
36,192,43560,1,2,0:0:0:0:
329,192,43777,1,0,0:0:0:0:
36,192,43995,1,2,0:0:0:0:
36,192,44430,1,2,0:0:0:0:
36,192,44864,1,2,0:0:0:0:
402,192,44864,1,0,0:0:0:0:
36,192,45299,1,2,0:0:0:0:
256,192,45299,1,0,0:0:0:0:
36,192,45734,1,2,0:0:0:0:
109,192,45734,1,0,0:0:0:0:
182,192,45951,1,0,0:0:0:0:
36,192,46169,1,2,0:0:0:0:
329,192,46169,1,0,0:0:0:0:
402,192,46386,1,0,0:0:0:0:
36,192,46603,1,2,0:0:0:0:
256,192,46821,1,0,0:0:0:0:
36,192,47038,1,2,0:0:0:0:
329,192,47256,1,0,0:0:0:0:
36,192,47473,1,2,0:0:0:0:
109,192,47473,1,0,0:0:0:0:
36,192,47908,1,2,0:0:0:0:
36,192,48343,1,2,0:0:0:0:
182,192,48343,1,0,0:0:0:0:
36,192,48777,1,2,0:0:0:0:
329,192,48777,1,0,0:0:0:0:
36,192,49212,1,2,0:0:0:0:
475,192,49212,1,0,0:0:0:0:
402,192,49212,1,0,0:0:0:0:
329,192,49430,1,0,0:0:0:0:
475,192,49538,1,0,0:0:0:0:
36,192,49647,1,2,0:0:0:0:
256,192,49647,1,0,0:0:0:0:
475,192,49864,1,0,0:0:0:0:
182,192,49864,1,0,0:0:0:0:
36,192,50082,1,2,0:0:0:0:
475,192,50190,1,0,0:0:0:0:
36,192,50516,1,2,0:0:0:0:
475,192,50516,1,0,0:0:0:0:
109,192,50516,1,0,0:0:0:0:
475,192,50843,1,0,0:0:0:0:
36,192,50951,1,2,0:0:0:0:
329,192,50951,1,0,0:0:0:0:
475,192,51169,1,0,0:0:0:0:
256,192,51169,1,0,0:0:0:0:
36,192,51386,1,2,0:0:0:0:
182,192,51386,1,0,0:0:0:0:
475,192,51495,1,0,0:0:0:0:
402,192,51603,1,0,0:0:0:0:
36,192,51821,1,2,0:0:0:0:
475,192,51821,1,0,0:0:0:0:
475,192,52147,1,0,0:0:0:0:
36,192,52256,1,2,0:0:0:0:
109,192,52256,1,0,0:0:0:0:
475,192,52473,1,0,0:0:0:0:
36,192,52690,1,2,0:0:0:0:
475,192,52690,128,0,54212:0:0:0:0:
182,192,52690,1,0,0:0:0:0:
36,192,52908,1,2,0:0:0:0:
36,192,53125,1,2,0:0:0:0:
36,192,53343,1,2,0:0:0:0:
256,192,53343,1,0,0:0:0:0:
36,192,53560,1,2,0:0:0:0:
36,192,53777,1,2,0:0:0:0:
36,192,53995,1,2,0:0:0:0:
329,192,53995,1,0,0:0:0:0:
36,192,54212,1,2,0:0:0:0:
475,192,54430,1,0,0:0:0:0:
402,192,54484,1,0,0:0:0:0:
329,192,54538,1,0,0:0:0:0:
256,192,54593,1,0,0:0:0:0:
182,192,54647,1,0,0:0:0:0:
109,192,54719,1,0,0:0:0:0:
36,192,54792,1,0,0:0:0:0:
402,192,54864,1,0,0:0:0:0:
329,192,54973,1,0,0:0:0:0:
256,192,55082,1,0,0:0:0:0:
182,192,55190,1,0,0:0:0:0:
109,192,55299,1,0,0:0:0:0:
402,192,55299,1,0,0:0:0:0:
475,192,55299,128,0,56169:0:0:0:0:
329,192,55444,1,0,0:0:0:0:
256,192,55589,1,0,0:0:0:0:
182,192,55734,1,0,0:0:0:0:
109,192,55951,1,0,0:0:0:0:
36,192,56169,1,0,0:0:0:0:
402,192,56169,1,0,0:0:0:0:
256,192,56277,1,0,0:0:0:0:
182,192,56386,1,0,0:0:0:0:
402,192,56495,1,0,0:0:0:0:
36,192,56603,1,0,0:0:0:0:
256,192,56603,1,0,0:0:0:0:
182,192,56712,1,0,0:0:0:0:
402,192,56712,1,0,0:0:0:0:
256,192,56821,1,0,0:0:0:0:
36,192,56930,1,0,0:0:0:0:
475,192,57038,1,0,0:0:0:0:
182,192,57038,1,0,0:0:0:0:
36,192,57147,1,0,0:0:0:0:
329,192,57147,1,0,0:0:0:0:
256,192,57201,1,0,0:0:0:0:
109,192,57201,1,0,0:0:0:0:
182,192,57256,1,0,0:0:0:0:
329,192,57364,1,0,0:0:0:0:
36,192,57473,1,0,0:0:0:0:
402,192,57473,1,0,0:0:0:0:
182,192,57582,1,0,0:0:0:0:
256,192,57582,1,0,0:0:0:0:
36,192,57690,1,0,0:0:0:0:
402,192,57690,1,0,0:0:0:0:
182,192,57799,1,0,0:0:0:0:
256,192,57799,1,0,0:0:0:0:
329,192,57853,1,0,0:0:0:0:
109,192,57908,1,0,0:0:0:0:
402,192,57908,1,0,0:0:0:0:
256,192,58016,1,0,0:0:0:0:
109,192,58125,1,0,0:0:0:0:
402,192,58234,1,0,0:0:0:0:
256,192,58234,1,0,0:0:0:0:
36,192,58451,1,0,0:0:0:0:
256,192,58451,1,0,0:0:0:0:
182,192,58560,1,0,0:0:0:0:
402,192,58560,1,0,0:0:0:0:
36,192,58669,1,0,0:0:0:0:
256,192,58669,1,0,0:0:0:0:
182,192,58777,1,0,0:0:0:0:
329,192,58777,1,0,0:0:0:0:
109,192,58995,1,0,0:0:0:0:
402,192,58995,1,0,0:0:0:0:
182,192,59212,1,0,0:0:0:0:
475,192,59212,1,0,0:0:0:0:
36,192,59321,1,0,0:0:0:0:
475,192,59430,1,0,0:0:0:0:
182,192,59430,1,0,0:0:0:0:
402,192,59484,1,0,0:0:0:0:
36,192,59538,1,0,0:0:0:0:
329,192,59538,1,0,0:0:0:0:
256,192,59593,1,0,0:0:0:0:
475,192,59647,1,0,0:0:0:0:
109,192,59647,1,0,0:0:0:0:
256,192,59756,1,0,0:0:0:0:
329,192,59756,1,0,0:0:0:0:
109,192,59864,1,0,0:0:0:0:
475,192,59973,1,0,0:0:0:0:
256,192,60082,1,0,0:0:0:0:
329,192,60082,1,0,0:0:0:0:
109,192,60190,1,0,0:0:0:0:
475,192,60190,1,0,0:0:0:0:
329,192,60299,1,0,0:0:0:0:
256,192,60408,1,0,0:0:0:0:
475,192,60516,1,0,0:0:0:0:
109,192,60516,1,0,0:0:0:0:
256,192,60625,1,0,0:0:0:0:
329,192,60680,1,0,0:0:0:0:
109,192,60734,1,0,0:0:0:0:
475,192,60843,1,0,0:0:0:0:
36,192,60951,1,0,0:0:0:0:
256,192,60951,1,0,0:0:0:0:
182,192,61060,1,0,0:0:0:0:
329,192,61060,1,0,0:0:0:0:
36,192,61169,1,0,0:0:0:0:
402,192,61169,1,0,0:0:0:0:
182,192,61277,1,0,0:0:0:0:
475,192,61277,1,0,0:0:0:0:
402,192,61332,1,0,0:0:0:0:
109,192,61386,1,0,0:0:0:0:
329,192,61386,1,0,0:0:0:0:
256,192,61495,1,0,0:0:0:0:
109,192,61603,1,0,0:0:0:0:
256,192,61712,1,0,0:0:0:0:
402,192,61712,1,0,0:0:0:0:
109,192,61930,1,0,0:0:0:0:
256,192,62038,1,0,0:0:0:0:
329,192,62038,1,0,0:0:0:0:
109,192,62147,1,0,0:0:0:0:
475,192,62147,1,0,0:0:0:0:
402,192,62201,1,0,0:0:0:0:
182,192,62256,1,0,0:0:0:0:
329,192,62256,1,0,0:0:0:0:
109,192,62473,1,0,0:0:0:0:
402,192,62473,1,0,0:0:0:0:
256,192,62690,1,0,0:0:0:0:
329,192,62690,1,0,0:0:0:0:
109,192,62799,1,0,0:0:0:0:
475,192,62799,1,0,0:0:0:0:
182,192,62908,1,0,0:0:0:0:
256,192,62908,1,0,0:0:0:0:
329,192,62962,1,0,0:0:0:0:
109,192,63016,1,0,0:0:0:0:
402,192,63016,1,0,0:0:0:0:
475,192,63071,1,0,0:0:0:0:
182,192,63125,1,0,0:0:0:0:
36,192,63125,1,0,0:0:0:0:
402,192,63234,1,0,0:0:0:0:
329,192,63343,1,0,0:0:0:0:
182,192,63451,1,0,0:0:0:0:
329,192,63560,1,0,0:0:0:0:
402,192,63560,1,0,0:0:0:0:
182,192,63669,1,0,0:0:0:0:
36,192,63669,1,0,0:0:0:0:
402,192,63777,1,0,0:0:0:0:
182,192,63995,1,0,0:0:0:0:
36,192,63995,1,0,0:0:0:0:
329,192,64103,1,0,0:0:0:0:
402,192,64103,1,0,0:0:0:0:
256,192,64158,1,0,0:0:0:0:
182,192,64212,1,0,0:0:0:0:
36,192,64212,1,0,0:0:0:0:
329,192,64430,1,0,0:0:0:0:
402,192,64430,1,0,0:0:0:0:
182,192,64538,1,0,0:0:0:0:
36,192,64538,1,0,0:0:0:0:
329,192,64647,1,0,0:0:0:0:
402,192,64647,1,0,0:0:0:0:
182,192,64756,1,0,0:0:0:0:
36,192,64756,1,0,0:0:0:0:
329,192,64810,1,0,0:0:0:0:
402,192,64810,1,0,0:0:0:0:
109,192,64864,1,0,0:0:0:0:
475,192,64864,1,0,0:0:0:0:
256,192,64973,1,0,0:0:0:0:
109,192,65082,1,0,0:0:0:0:
329,192,65190,1,0,0:0:0:0:
256,192,65190,1,0,0:0:0:0:
109,192,65299,1,0,0:0:0:0:
256,192,65408,1,0,0:0:0:0:
402,192,65516,1,0,0:0:0:0:
109,192,65516,1,0,0:0:0:0:
256,192,65625,1,0,0:0:0:0:
475,192,65625,1,0,0:0:0:0:
329,192,65680,1,0,0:0:0:0:
36,192,65734,1,0,0:0:0:0:
256,192,65951,1,0,0:0:0:0:
182,192,65951,1,0,0:0:0:0:
329,192,66169,1,0,0:0:0:0:
182,192,66169,1,0,0:0:0:0:
36,192,66277,1,0,0:0:0:0:
182,192,66386,1,0,0:0:0:0:
475,192,66386,1,0,0:0:0:0:
402,192,66440,1,0,0:0:0:0:
329,192,66495,1,0,0:0:0:0:
36,192,66495,1,0,0:0:0:0:
256,192,66549,1,0,0:0:0:0:
109,192,66603,1,0,0:0:0:0:
182,192,66603,1,0,0:0:0:0:
402,192,66712,1,0,0:0:0:0:
475,192,66821,1,0,0:0:0:0:
256,192,66930,1,0,0:0:0:0:
109,192,66930,1,0,0:0:0:0:
402,192,67038,1,0,0:0:0:0:
475,192,67038,1,0,0:0:0:0:
256,192,67147,1,0,0:0:0:0:
109,192,67147,1,0,0:0:0:0:
402,192,67256,1,0,0:0:0:0:
256,192,67473,1,0,0:0:0:0:
109,192,67473,1,0,0:0:0:0:
402,192,67582,1,0,0:0:0:0:
475,192,67582,1,0,0:0:0:0:
329,192,67636,1,0,0:0:0:0:
256,192,67690,1,0,0:0:0:0:
109,192,67690,1,0,0:0:0:0:
256,192,67908,1,0,0:0:0:0:
109,192,67908,1,0,0:0:0:0:
402,192,68016,1,0,0:0:0:0:
475,192,68016,1,0,0:0:0:0:
256,192,68125,1,0,0:0:0:0:
109,192,68125,1,0,0:0:0:0:
402,192,68234,1,0,0:0:0:0:
475,192,68234,1,0,0:0:0:0:
329,192,68288,1,0,0:0:0:0:
256,192,68343,1,0,0:0:0:0:
182,192,68343,1,0,0:0:0:0:
402,192,68451,1,0,0:0:0:0:
256,192,68560,1,0,0:0:0:0:
402,192,68669,1,0,0:0:0:0:
109,192,68669,1,0,0:0:0:0:
475,192,68886,1,0,0:0:0:0:
329,192,68995,1,0,0:0:0:0:
36,192,68995,1,0,0:0:0:0:
475,192,69103,1,0,0:0:0:0:
109,192,69103,1,0,0:0:0:0:
182,192,69158,1,0,0:0:0:0:
329,192,69212,1,0,0:0:0:0:
402,192,69430,1,0,0:0:0:0:
109,192,69430,1,0,0:0:0:0:
475,192,69647,1,0,0:0:0:0:
402,192,69701,1,0,0:0:0:0:
329,192,69756,1,0,0:0:0:0:
256,192,69810,1,0,0:0:0:0:
36,192,69864,1,0,0:0:0:0:
109,192,69937,1,0,0:0:0:0:
182,192,70009,1,0,0:0:0:0:
36,192,70082,1,2,0:0:0:0:
329,192,70082,1,0,0:0:0:0:
475,192,70082,1,4,0:0:0:0:
256,192,70190,1,0,0:0:0:0:
402,192,70299,1,0,0:0:0:0:
109,192,70299,1,0,0:0:0:0:
256,192,70408,1,0,0:0:0:0:
36,192,70516,1,2,0:0:0:0:
329,192,70516,1,0,0:0:0:0:
256,192,70625,1,0,0:0:0:0:
109,192,70734,1,0,0:0:0:0:
402,192,70734,1,0,0:0:0:0:
256,192,70843,1,0,0:0:0:0:
36,192,70951,1,2,0:0:0:0:
475,192,70951,1,0,0:0:0:0:
182,192,71060,1,0,0:0:0:0:
256,192,71114,1,0,0:0:0:0:
109,192,71169,1,0,0:0:0:0:
402,192,71169,1,0,0:0:0:0:
36,192,71386,1,2,0:0:0:0:
256,192,71386,1,0,0:0:0:0:
402,192,71495,1,0,0:0:0:0:
109,192,71603,1,0,0:0:0:0:
256,192,71603,1,0,0:0:0:0:
402,192,71712,1,0,0:0:0:0:
329,192,71766,1,0,0:0:0:0:
36,192,71821,1,2,0:0:0:0:
256,192,71821,1,0,0:0:0:0:
475,192,71930,1,0,0:0:0:0:
109,192,72038,1,0,0:0:0:0:
329,192,72038,1,0,0:0:0:0:
475,192,72147,1,0,0:0:0:0:
36,192,72256,1,2,0:0:0:0:
256,192,72364,1,0,0:0:0:0:
109,192,72473,1,0,0:0:0:0:
402,192,72473,1,0,0:0:0:0:
329,192,72582,1,0,0:0:0:0:
256,192,72636,1,0,0:0:0:0:
36,192,72690,1,2,0:0:0:0:
109,192,72690,1,0,0:0:0:0:
109,192,72908,1,0,0:0:0:0:
256,192,72908,1,0,0:0:0:0:
329,192,73016,1,0,0:0:0:0:
36,192,73125,1,2,0:0:0:0:
402,192,73125,1,0,0:0:0:0:
256,192,73234,1,0,0:0:0:0:
109,192,73343,1,0,0:0:0:0:
402,192,73343,1,0,0:0:0:0:
329,192,73397,1,0,0:0:0:0:
256,192,73451,1,0,0:0:0:0:
182,192,73506,1,0,0:0:0:0:
109,192,73560,1,0,0:0:0:0:
475,192,73560,1,2,0:0:0:0:
182,192,73669,1,0,0:0:0:0:
256,192,73777,1,0,0:0:0:0:
402,192,73777,1,0,0:0:0:0:
182,192,73886,1,0,0:0:0:0:
109,192,73995,1,0,0:0:0:0:
475,192,73995,1,2,0:0:0:0:
182,192,74103,1,0,0:0:0:0:
402,192,74212,1,0,0:0:0:0:
256,192,74212,1,0,0:0:0:0:
36,192,74321,1,0,0:0:0:0:
475,192,74430,1,2,0:0:0:0:
109,192,74430,1,0,0:0:0:0:
256,192,74538,1,0,0:0:0:0:
182,192,74593,1,0,0:0:0:0:
402,192,74647,1,0,0:0:0:0:
109,192,74647,1,0,0:0:0:0:
36,192,74756,1,0,0:0:0:0:
109,192,74864,1,0,0:0:0:0:
475,192,74864,1,2,0:0:0:0:
256,192,74973,1,0,0:0:0:0:
109,192,75082,1,0,0:0:0:0:
402,192,75082,1,0,0:0:0:0:
256,192,75190,1,0,0:0:0:0:
329,192,75245,1,0,0:0:0:0:
36,192,75299,1,0,0:0:0:0:
475,192,75299,1,2,0:0:0:0:
182,192,75408,1,0,0:0:0:0:
36,192,75516,1,0,0:0:0:0:
402,192,75516,1,0,0:0:0:0:
182,192,75625,1,0,0:0:0:0:
475,192,75734,1,2,0:0:0:0:
109,192,75843,1,0,0:0:0:0:
256,192,75951,1,0,0:0:0:0:
402,192,75951,1,0,0:0:0:0:
109,192,76060,1,0,0:0:0:0:
182,192,76114,1,0,0:0:0:0:
256,192,76169,1,0,0:0:0:0:
475,192,76169,1,2,0:0:0:0:
182,192,76386,1,0,0:0:0:0:
402,192,76386,1,0,0:0:0:0:
36,192,76495,1,0,0:0:0:0:
256,192,76603,1,0,0:0:0:0:
475,192,76603,1,2,0:0:0:0:
109,192,76712,1,0,0:0:0:0:
402,192,76821,1,0,0:0:0:0:
329,192,76821,1,0,0:0:0:0:
475,192,76821,1,2,0:0:0:0:
256,192,76875,1,0,0:0:0:0:
182,192,76930,1,0,0:0:0:0:
109,192,76984,1,0,0:0:0:0:
475,192,77038,1,2,0:0:0:0:
36,192,77038,1,0,0:0:0:0:
182,192,77147,1,0,0:0:0:0:
402,192,77256,1,0,0:0:0:0:
36,192,77364,1,0,0:0:0:0:
182,192,77473,1,0,0:0:0:0:
475,192,77473,1,2,0:0:0:0:
36,192,77582,1,0,0:0:0:0:
402,192,77582,1,0,0:0:0:0:
182,192,77690,1,0,0:0:0:0:
329,192,77799,1,0,0:0:0:0:
475,192,77908,1,2,0:0:0:0:
36,192,77908,1,0,0:0:0:0:
182,192,78016,1,0,0:0:0:0:
109,192,78071,1,0,0:0:0:0:
36,192,78125,1,0,0:0:0:0:
402,192,78125,1,0,0:0:0:0:
475,192,78343,1,2,0:0:0:0:
182,192,78343,1,0,0:0:0:0:
36,192,78451,1,0,0:0:0:0:
329,192,78451,1,0,0:0:0:0:
182,192,78560,1,0,0:0:0:0:
475,192,78560,1,0,0:0:0:0:
36,192,78669,1,0,0:0:0:0:
329,192,78669,1,0,0:0:0:0:
256,192,78723,1,0,0:0:0:0:
109,192,78777,1,2,0:0:0:0:
402,192,78777,1,0,0:0:0:0:
182,192,78886,1,0,0:0:0:0:
36,192,78995,1,0,0:0:0:0:
329,192,78995,1,0,0:0:0:0:
475,192,79103,1,0,0:0:0:0:
109,192,79212,1,2,0:0:0:0:
256,192,79321,1,0,0:0:0:0:
402,192,79430,1,0,0:0:0:0:
36,192,79430,1,0,0:0:0:0:
256,192,79538,1,0,0:0:0:0:
329,192,79593,1,0,0:0:0:0:
109,192,79647,1,2,0:0:0:0:
182,192,79647,1,0,0:0:0:0:
256,192,79864,1,0,0:0:0:0:
36,192,79864,1,0,0:0:0:0:
329,192,79973,1,0,0:0:0:0:
402,192,80082,1,0,0:0:0:0:
109,192,80082,1,2,0:0:0:0:
256,192,80190,1,0,0:0:0:0:
402,192,80299,1,0,0:0:0:0:
36,192,80299,1,0,0:0:0:0:
329,192,80353,1,0,0:0:0:0:
256,192,80408,1,0,0:0:0:0:
182,192,80462,1,0,0:0:0:0:
475,192,80516,1,2,0:0:0:0:
109,192,80516,1,0,0:0:0:0:
256,192,80625,1,0,0:0:0:0:
402,192,80734,1,0,0:0:0:0:
329,192,80734,1,0,0:0:0:0:
256,192,80843,1,0,0:0:0:0:
475,192,80951,1,2,0:0:0:0:
182,192,80951,1,0,0:0:0:0:
402,192,81060,1,0,0:0:0:0:
256,192,81060,1,0,0:0:0:0:
329,192,81169,1,0,0:0:0:0:
402,192,81277,1,0,0:0:0:0:
109,192,81277,1,0,0:0:0:0:
475,192,81386,1,2,0:0:0:0:
182,192,81386,1,0,0:0:0:0:
256,192,81495,1,0,0:0:0:0:
182,192,81549,1,0,0:0:0:0:
402,192,81603,1,0,0:0:0:0:
109,192,81603,1,0,0:0:0:0:
475,192,81821,1,2,0:0:0:0:
182,192,81821,1,0,0:0:0:0:
329,192,81930,1,0,0:0:0:0:
109,192,81930,1,0,0:0:0:0:
402,192,82038,1,0,0:0:0:0:
182,192,82038,1,0,0:0:0:0:
329,192,82147,1,0,0:0:0:0:
109,192,82147,1,0,0:0:0:0:
402,192,82201,1,0,0:0:0:0:
475,192,82256,1,2,0:0:0:0:
256,192,82256,1,0,0:0:0:0:
109,192,82364,1,0,0:0:0:0:
256,192,82473,1,0,0:0:0:0:
402,192,82582,1,0,0:0:0:0:
36,192,82582,1,0,0:0:0:0:
109,192,82799,1,0,0:0:0:0:
329,192,82908,1,0,0:0:0:0:
182,192,82908,1,0,0:0:0:0:
402,192,83016,1,0,0:0:0:0:
109,192,83016,1,0,0:0:0:0:
329,192,83071,1,0,0:0:0:0:
475,192,83125,1,2,0:0:0:0:
256,192,83125,1,0,0:0:0:0:
182,192,83125,1,0,0:0:0:0:
109,192,83234,1,0,0:0:0:0:
182,192,83343,1,0,0:0:0:0:
475,192,83451,1,2,0:0:0:0:
256,192,83451,1,0,0:0:0:0:
109,192,83451,1,0,0:0:0:0:
182,192,83560,1,0,0:0:0:0:
109,192,83669,1,0,0:0:0:0:
475,192,83777,1,2,0:0:0:0:
36,192,83777,1,0,0:0:0:0:
402,192,83832,1,0,0:0:0:0:
109,192,83832,1,0,0:0:0:0:
329,192,83886,1,0,0:0:0:0:
182,192,83886,1,0,0:0:0:0:
256,192,83940,1,0,0:0:0:0:
36,192,83995,1,2,0:0:0:0:
475,192,83995,1,4,0:0:0:0:
109,192,83995,1,0,0:0:0:0:
402,192,83995,1,0,0:0:0:0:
329,192,84103,1,0,0:0:0:0:
182,192,84212,1,0,0:0:0:0:
109,192,84212,1,0,0:0:0:0:
475,192,84321,1,0,0:0:0:0:
36,192,84430,1,2,0:0:0:0:
402,192,84430,1,0,0:0:0:0:
256,192,84538,1,0,0:0:0:0:
475,192,84647,1,0,0:0:0:0:
109,192,84647,1,0,0:0:0:0:
256,192,84756,1,0,0:0:0:0:
36,192,84864,1,2,0:0:0:0:
182,192,84864,1,0,0:0:0:0:
402,192,84973,1,0,0:0:0:0:
256,192,85082,1,0,0:0:0:0:
109,192,85082,1,0,0:0:0:0:
329,192,85190,1,0,0:0:0:0:
36,192,85299,1,2,0:0:0:0:
182,192,85299,1,0,0:0:0:0:
329,192,85408,1,0,0:0:0:0:
109,192,85516,1,0,0:0:0:0:
402,192,85516,1,0,0:0:0:0:
256,192,85625,1,0,0:0:0:0:
36,192,85734,1,2,0:0:0:0:
256,192,85951,1,0,0:0:0:0:
402,192,85951,1,8,0:0:0:0:
109,192,85951,1,0,0:0:0:0:
36,192,86169,1,2,0:0:0:0:
256,192,86277,1,0,0:0:0:0:
402,192,86277,1,8,0:0:0:0:
109,192,86386,1,0,0:0:0:0:
256,192,86495,1,0,0:0:0:0:
402,192,86495,1,8,0:0:0:0:
36,192,86603,1,2,0:0:0:0:
329,192,86603,1,0,0:0:0:0:
475,192,86603,1,8,0:0:0:0:
329,192,86821,1,0,0:0:0:0:
475,192,86821,1,8,0:0:0:0:
109,192,86821,1,0,0:0:0:0:
36,192,87038,1,2,0:0:0:0:
256,192,87038,1,0,0:0:0:0:
402,192,87038,1,8,0:0:0:0:
182,192,87256,1,0,0:0:0:0:
109,192,87256,1,0,0:0:0:0:
329,192,87256,1,8,0:0:0:0:
36,192,87473,1,2,0:0:0:0:
475,192,87473,1,0,0:0:0:0:
329,192,87582,1,0,0:0:0:0:
182,192,87690,1,0,0:0:0:0:
109,192,87690,1,0,0:0:0:0:
475,192,87799,1,0,0:0:0:0:
36,192,87908,1,2,0:0:0:0:
329,192,87908,1,0,0:0:0:0:
182,192,88016,1,0,0:0:0:0:
109,192,88125,1,0,0:0:0:0:
475,192,88125,1,0,0:0:0:0:
256,192,88234,1,0,0:0:0:0:
36,192,88343,1,2,0:0:0:0:
182,192,88343,1,0,0:0:0:0:
402,192,88451,1,0,0:0:0:0:
109,192,88560,1,0,0:0:0:0:
256,192,88560,1,0,0:0:0:0:
329,192,88669,1,0,0:0:0:0:
36,192,88777,1,2,0:0:0:0:
182,192,88777,1,0,0:0:0:0:
329,192,88886,1,0,0:0:0:0:
402,192,88995,1,0,0:0:0:0:
109,192,88995,1,0,0:0:0:0:
256,192,89103,1,0,0:0:0:0:
36,192,89212,1,2,0:0:0:0:
256,192,89430,1,0,0:0:0:0:
109,192,89430,1,0,0:0:0:0:
402,192,89430,1,8,0:0:0:0:
36,192,89647,1,2,0:0:0:0:
256,192,89756,1,0,0:0:0:0:
402,192,89756,1,8,0:0:0:0:
109,192,89864,1,0,0:0:0:0:
402,192,89973,1,8,0:0:0:0:
256,192,89973,1,0,0:0:0:0:
36,192,90082,1,2,0:0:0:0:
475,192,90082,1,8,0:0:0:0:
329,192,90082,1,0,0:0:0:0:
475,192,90299,1,8,0:0:0:0:
329,192,90299,1,0,0:0:0:0:
109,192,90299,1,0,0:0:0:0:
36,192,90516,1,2,0:0:0:0:
402,192,90516,1,8,0:0:0:0:
256,192,90516,1,0,0:0:0:0:
182,192,90734,1,0,0:0:0:0:
329,192,90734,1,8,0:0:0:0:
109,192,90734,1,0,0:0:0:0:
329,192,90951,1,0,0:0:0:0:
475,192,90951,1,2,0:0:0:0:
182,192,91060,1,0,0:0:0:0:
36,192,91169,1,0,0:0:0:0:
402,192,91169,1,0,0:0:0:0:
329,192,91277,1,0,0:0:0:0:
182,192,91386,1,0,0:0:0:0:
475,192,91386,1,2,0:0:0:0:
36,192,91495,1,0,0:0:0:0:
329,192,91603,1,0,0:0:0:0:
402,192,91603,1,0,0:0:0:0:
109,192,91712,1,0,0:0:0:0:
36,192,91821,1,0,0:0:0:0:
475,192,91821,1,2,0:0:0:0:
256,192,91930,1,0,0:0:0:0:
109,192,92038,1,0,0:0:0:0:
402,192,92038,1,0,0:0:0:0:
182,192,92147,1,0,0:0:0:0:
36,192,92256,1,0,0:0:0:0:
475,192,92256,1,2,0:0:0:0:
182,192,92364,1,0,0:0:0:0:
256,192,92473,1,0,0:0:0:0:
402,192,92473,1,0,0:0:0:0:
109,192,92582,1,0,0:0:0:0:
475,192,92690,1,2,0:0:0:0:
109,192,92908,1,8,0:0:0:0:
256,192,92908,1,0,0:0:0:0:
402,192,92908,1,0,0:0:0:0:
475,192,93125,1,2,0:0:0:0:
109,192,93234,1,8,0:0:0:0:
256,192,93234,1,0,0:0:0:0:
402,192,93343,1,0,0:0:0:0:
256,192,93451,1,0,0:0:0:0:
109,192,93451,1,8,0:0:0:0:
329,192,93560,1,0,0:0:0:0:
182,192,93560,1,8,0:0:0:0:
475,192,93560,1,2,0:0:0:0:
329,192,93777,1,0,0:0:0:0:
182,192,93777,1,8,0:0:0:0:
402,192,93777,1,0,0:0:0:0:
109,192,93995,1,8,0:0:0:0:
256,192,93995,1,0,0:0:0:0:
475,192,93995,1,2,0:0:0:0:
36,192,94212,1,8,0:0:0:0:
182,192,94212,1,0,0:0:0:0:
402,192,94212,1,0,0:0:0:0:
475,192,94430,1,2,0:0:0:0:
329,192,94430,1,0,0:0:0:0:
182,192,94538,1,0,0:0:0:0:
402,192,94647,1,0,0:0:0:0:
36,192,94647,1,0,0:0:0:0:
329,192,94756,1,0,0:0:0:0:
475,192,94864,1,2,0:0:0:0:
182,192,94864,1,0,0:0:0:0:
36,192,94973,1,0,0:0:0:0:
402,192,95082,1,0,0:0:0:0:
329,192,95082,1,0,0:0:0:0:
109,192,95190,1,0,0:0:0:0:
475,192,95299,1,2,0:0:0:0:
36,192,95299,1,0,0:0:0:0:
256,192,95408,1,0,0:0:0:0:
402,192,95516,1,0,0:0:0:0:
109,192,95516,1,0,0:0:0:0:
182,192,95625,1,0,0:0:0:0:
475,192,95734,1,2,0:0:0:0:
36,192,95734,1,0,0:0:0:0:
182,192,95843,1,0,0:0:0:0:
402,192,95951,1,0,0:0:0:0:
256,192,95951,1,0,0:0:0:0:
109,192,96060,1,0,0:0:0:0:
475,192,96169,1,2,0:0:0:0:
182,192,96169,1,0,0:0:0:0:
36,192,96277,1,0,0:0:0:0:
402,192,96386,1,0,0:0:0:0:
256,192,96386,1,0,0:0:0:0:
109,192,96495,1,0,0:0:0:0:
475,192,96603,1,2,0:0:0:0:
329,192,96603,1,0,0:0:0:0:
182,192,96712,1,0,0:0:0:0:
402,192,96821,1,0,0:0:0:0:
256,192,96821,1,0,0:0:0:0:
109,192,96930,1,0,0:0:0:0:
475,192,97038,1,2,0:0:0:0:
36,192,97038,1,0,0:0:0:0:
182,192,97147,1,0,0:0:0:0:
402,192,97256,1,0,0:0:0:0:
256,192,97256,1,0,0:0:0:0:
109,192,97364,1,0,0:0:0:0:
182,192,97473,1,0,0:0:0:0:
329,192,97582,1,0,0:0:0:0:
402,192,97690,1,0,0:0:0:0:
256,192,97690,1,0,0:0:0:0:
182,192,97799,1,0,0:0:0:0:
36,192,97908,1,4,0:0:0:0:
475,192,97908,1,0,0:0:0:0:
109,192,97908,1,0,0:0:0:0:
182,192,98016,1,0,0:0:0:0:
402,192,98016,1,0,0:0:0:0:
256,192,98125,1,0,0:0:0:0:
329,192,98125,1,0,0:0:0:0:
109,192,98234,1,0,0:0:0:0:
475,192,98234,1,0,0:0:0:0:
402,192,98343,1,0,0:0:0:0:
182,192,98343,1,0,0:0:0:0:
256,192,98451,1,0,0:0:0:0:
329,192,98451,1,0,0:0:0:0:
475,192,98560,1,0,0:0:0:0:
182,192,98560,1,0,0:0:0:0:
402,192,98669,1,0,0:0:0:0:
109,192,98669,1,0,0:0:0:0:
329,192,98777,1,0,0:0:0:0:
36,192,98777,1,0,0:0:0:0:
256,192,98886,1,0,0:0:0:0:
109,192,98886,1,0,0:0:0:0:
402,192,98995,1,0,0:0:0:0:
182,192,98995,1,0,0:0:0:0:
329,192,99103,1,0,0:0:0:0:
109,192,99103,1,0,0:0:0:0:
256,192,99212,1,0,0:0:0:0:
36,192,99212,1,0,0:0:0:0:
329,192,99321,1,0,0:0:0:0:
109,192,99321,1,0,0:0:0:0:
475,192,99430,1,0,0:0:0:0:
182,192,99430,1,0,0:0:0:0:
109,192,99538,1,0,0:0:0:0:
256,192,99538,1,0,0:0:0:0:
36,192,99647,1,0,0:0:0:0:
109,192,99756,1,0,0:0:0:0:
329,192,99864,1,0,0:0:0:0:
182,192,99864,1,0,0:0:0:0:
402,192,99864,1,8,0:0:0:0:
256,192,99973,1,0,0:0:0:0:
109,192,100082,1,0,0:0:0:0:
182,192,100190,1,0,0:0:0:0:
329,192,100190,1,0,0:0:0:0:
402,192,100190,1,8,0:0:0:0:
109,192,100299,1,0,0:0:0:0:
402,192,100408,1,8,0:0:0:0:
256,192,100408,1,0,0:0:0:0:
182,192,100408,1,0,0:0:0:0:
36,192,100516,1,0,0:0:0:0:
329,192,100516,1,0,0:0:0:0:
475,192,100516,1,8,0:0:0:0:
182,192,100625,1,0,0:0:0:0:
256,192,100734,1,0,0:0:0:0:
402,192,100734,1,0,0:0:0:0:
475,192,100734,1,8,0:0:0:0:
109,192,100843,1,0,0:0:0:0:
36,192,100951,1,0,0:0:0:0:
329,192,100951,1,0,0:0:0:0:
402,192,100951,1,8,0:0:0:0:
109,192,101060,1,0,0:0:0:0:
182,192,101169,1,0,0:0:0:0:
256,192,101169,1,0,0:0:0:0:
329,192,101169,1,8,0:0:0:0:
109,192,101277,1,0,0:0:0:0:
475,192,101386,1,0,0:0:0:0:
36,192,101386,1,0,0:0:0:0:
402,192,101495,1,0,0:0:0:0:
109,192,101495,1,0,0:0:0:0:
329,192,101603,1,0,0:0:0:0:
182,192,101603,1,0,0:0:0:0:
475,192,101712,1,0,0:0:0:0:
256,192,101712,1,0,0:0:0:0:
402,192,101821,1,0,0:0:0:0:
182,192,101821,1,0,0:0:0:0:
329,192,101930,1,0,0:0:0:0:
109,192,101930,1,0,0:0:0:0:
475,192,102038,1,0,0:0:0:0:
36,192,102038,1,0,0:0:0:0:
402,192,102147,1,0,0:0:0:0:
109,192,102147,1,0,0:0:0:0:
256,192,102256,1,0,0:0:0:0:
182,192,102256,1,0,0:0:0:0:
402,192,102364,1,0,0:0:0:0:
109,192,102364,1,0,0:0:0:0:
256,192,102473,1,0,0:0:0:0:
36,192,102473,1,0,0:0:0:0:
329,192,102582,1,0,0:0:0:0:
182,192,102582,1,0,0:0:0:0:
402,192,102690,1,0,0:0:0:0:
36,192,102690,1,0,0:0:0:0:
329,192,102799,1,0,0:0:0:0:
109,192,102799,1,0,0:0:0:0:
475,192,102908,1,0,0:0:0:0:
182,192,102908,1,0,0:0:0:0:
256,192,103016,1,0,0:0:0:0:
109,192,103016,1,0,0:0:0:0:
36,192,103125,1,0,0:0:0:0:
182,192,103234,1,0,0:0:0:0:
402,192,103343,1,0,0:0:0:0:
475,192,103343,1,8,0:0:0:0:
256,192,103343,1,0,0:0:0:0:
109,192,103451,1,0,0:0:0:0:
36,192,103560,1,0,0:0:0:0:
109,192,103669,1,0,0:0:0:0:
402,192,103669,1,0,0:0:0:0:
475,192,103669,1,8,0:0:0:0:
182,192,103777,1,0,0:0:0:0:
256,192,103886,1,0,0:0:0:0:
329,192,103886,1,8,0:0:0:0:
109,192,103886,1,0,0:0:0:0:
36,192,103995,1,0,0:0:0:0:
402,192,103995,1,0,0:0:0:0:
475,192,103995,1,8,0:0:0:0:
182,192,104103,1,0,0:0:0:0:
256,192,104212,1,0,0:0:0:0:
329,192,104212,1,0,0:0:0:0:
475,192,104212,1,8,0:0:0:0:
109,192,104321,1,0,0:0:0:0:
36,192,104430,1,0,0:0:0:0:
329,192,104430,1,0,0:0:0:0:
402,192,104430,1,8,0:0:0:0:
109,192,104538,1,0,0:0:0:0:
182,192,104647,1,0,0:0:0:0:
256,192,104647,1,0,0:0:0:0:
402,192,104647,1,8,0:0:0:0:
109,192,104756,1,0,0:0:0:0:
36,192,104864,1,0,0:0:0:0:
475,192,104864,1,0,0:0:0:0:
329,192,104973,1,0,0:0:0:0:
109,192,104973,1,0,0:0:0:0:
256,192,105082,1,0,0:0:0:0:
182,192,105082,1,0,0:0:0:0:
402,192,105190,1,0,0:0:0:0:
36,192,105190,1,0,0:0:0:0:
329,192,105299,1,0,0:0:0:0:
109,192,105299,1,0,0:0:0:0:
182,192,105408,1,0,0:0:0:0:
256,192,105408,1,0,0:0:0:0:
329,192,105516,1,0,0:0:0:0:
36,192,105516,1,0,0:0:0:0:
402,192,105625,1,0,0:0:0:0:
109,192,105625,1,0,0:0:0:0:
182,192,105734,1,0,0:0:0:0:
475,192,105734,1,0,0:0:0:0:
256,192,105843,1,0,0:0:0:0:
402,192,105843,1,0,0:0:0:0:
329,192,105951,1,0,0:0:0:0:
109,192,105951,1,0,0:0:0:0:
402,192,106060,1,0,0:0:0:0:
182,192,106060,1,0,0:0:0:0:
256,192,106169,1,0,0:0:0:0:
475,192,106169,1,0,0:0:0:0:
182,192,106277,1,0,0:0:0:0:
402,192,106277,1,0,0:0:0:0:
329,192,106386,1,0,0:0:0:0:
36,192,106386,1,0,0:0:0:0:
402,192,106495,1,0,0:0:0:0:
256,192,106495,1,0,0:0:0:0:
475,192,106603,1,0,0:0:0:0:
402,192,106712,1,0,0:0:0:0:
109,192,106821,1,8,0:0:0:0:
182,192,106821,1,0,0:0:0:0:
329,192,106821,1,0,0:0:0:0:
256,192,106930,1,0,0:0:0:0:
402,192,107038,1,0,0:0:0:0:
109,192,107147,1,8,0:0:0:0:
182,192,107147,1,0,0:0:0:0:
329,192,107147,1,0,0:0:0:0:
402,192,107256,1,0,0:0:0:0:
109,192,107364,1,8,0:0:0:0:
329,192,107364,1,0,0:0:0:0:
256,192,107364,1,0,0:0:0:0:
36,192,107473,1,8,0:0:0:0:
182,192,107473,1,0,0:0:0:0:
475,192,107473,1,0,0:0:0:0:
329,192,107582,1,0,0:0:0:0:
256,192,107690,1,0,0:0:0:0:
36,192,107690,1,8,0:0:0:0:
109,192,107690,1,0,0:0:0:0:
402,192,107799,1,0,0:0:0:0:
182,192,107908,1,0,0:0:0:0:
109,192,107908,1,8,0:0:0:0:
475,192,107908,1,0,0:0:0:0:
402,192,108016,1,0,0:0:0:0:
256,192,108125,1,0,0:0:0:0:
182,192,108125,1,8,0:0:0:0:
329,192,108125,1,0,0:0:0:0:
402,192,108234,1,0,0:0:0:0:
475,192,108343,1,0,0:0:0:0:
36,192,108343,1,0,0:0:0:0:
109,192,108451,1,0,0:0:0:0:
402,192,108451,1,0,0:0:0:0:
329,192,108560,1,0,0:0:0:0:
182,192,108560,1,0,0:0:0:0:
36,192,108669,1,0,0:0:0:0:
256,192,108669,1,0,0:0:0:0:
329,192,108777,1,0,0:0:0:0:
109,192,108777,1,0,0:0:0:0:
182,192,108886,1,0,0:0:0:0:
402,192,108886,1,0,0:0:0:0:
475,192,108995,1,0,0:0:0:0:
36,192,108995,1,0,0:0:0:0:
402,192,109103,1,0,0:0:0:0:
109,192,109103,1,0,0:0:0:0:
256,192,109212,1,0,0:0:0:0:
329,192,109212,1,0,0:0:0:0:
109,192,109321,1,0,0:0:0:0:
402,192,109321,1,0,0:0:0:0:
475,192,109430,1,0,0:0:0:0:
256,192,109430,1,0,0:0:0:0:
182,192,109538,1,0,0:0:0:0:
329,192,109538,1,0,0:0:0:0:
109,192,109647,1,0,0:0:0:0:
475,192,109647,1,0,0:0:0:0:
182,192,109756,1,0,0:0:0:0:
402,192,109756,1,0,0:0:0:0:
329,192,109864,1,0,0:0:0:0:
36,192,109864,1,0,0:0:0:0:
256,192,109973,1,0,0:0:0:0:
402,192,109973,1,0,0:0:0:0:
329,192,110082,1,0,0:0:0:0:
36,192,110082,1,0,0:0:0:0:
475,192,110190,1,0,0:0:0:0:
109,192,110190,1,0,0:0:0:0:
402,192,110299,1,0,0:0:0:0:
182,192,110299,1,0,0:0:0:0:
329,192,110408,1,0,0:0:0:0:
109,192,110408,1,0,0:0:0:0:
256,192,110516,1,0,0:0:0:0:
36,192,110516,1,0,0:0:0:0:
329,192,110625,1,0,0:0:0:0:
109,192,110625,1,0,0:0:0:0:
402,192,110734,1,0,0:0:0:0:
182,192,110734,1,0,0:0:0:0:
475,192,110843,1,0,0:0:0:0:
256,192,110843,1,0,0:0:0:0:
329,192,110951,1,0,0:0:0:0:
36,192,110951,1,0,0:0:0:0:
475,192,111060,1,0,0:0:0:0:
109,192,111060,1,0,0:0:0:0:
329,192,111169,1,0,0:0:0:0:
182,192,111169,1,0,0:0:0:0:
256,192,111277,1,0,0:0:0:0:
109,192,111277,1,0,0:0:0:0:
402,192,111386,1,0,0:0:0:0:
36,192,111386,1,0,0:0:0:0:
329,192,111495,1,0,0:0:0:0:
109,192,111495,1,0,0:0:0:0:
256,192,111603,1,0,0:0:0:0:
182,192,111603,1,0,0:0:0:0:
109,192,111712,1,0,0:0:0:0:
329,192,111712,1,0,0:0:0:0:
36,192,111821,1,2,0:0:0:0:
475,192,111821,1,8,0:0:0:0:
182,192,111821,1,0,0:0:0:0:
256,192,111821,1,0,0:0:0:0:
402,192,111930,1,0,0:0:0:0:
109,192,112038,1,0,0:0:0:0:
329,192,112038,1,0,0:0:0:0:
475,192,112147,1,0,0:0:0:0:
402,192,112256,1,0,0:0:0:0:
36,192,112256,1,2,0:0:0:0:
182,192,112256,1,8,0:0:0:0:
109,192,112256,1,0,0:0:0:0:
329,192,112364,1,0,0:0:0:0:
475,192,112473,1,0,0:0:0:0:
256,192,112473,1,0,0:0:0:0:
329,192,112582,1,0,0:0:0:0:
402,192,112690,1,0,0:0:0:0:
36,192,112690,1,2,0:0:0:0:
182,192,112799,1,0,0:0:0:0:
329,192,112908,1,0,0:0:0:0:
109,192,112908,1,0,0:0:0:0:
182,192,113016,1,0,0:0:0:0:
256,192,113125,1,0,0:0:0:0:
36,192,113125,1,2,0:0:0:0:
475,192,113125,1,8,0:0:0:0:
109,192,113234,1,0,0:0:0:0:
182,192,113343,1,0,0:0:0:0:
402,192,113343,1,0,0:0:0:0:
109,192,113451,1,0,0:0:0:0:
475,192,113560,1,2,0:0:0:0:
329,192,113560,1,0,0:0:0:0:
182,192,113669,1,0,0:0:0:0:
36,192,113777,1,0,0:0:0:0:
109,192,113777,1,0,0:0:0:0:
402,192,113777,1,0,0:0:0:0:
329,192,113886,1,0,0:0:0:0:
475,192,113995,1,2,0:0:0:0:
256,192,113995,1,0,0:0:0:0:
182,192,113995,1,8,0:0:0:0:
36,192,114103,1,0,0:0:0:0:
109,192,114103,1,0,0:0:0:0:
329,192,114103,1,0,0:0:0:0:
402,192,114212,1,0,0:0:0:0:
36,192,114321,1,0,0:0:0:0:
109,192,114321,1,0,0:0:0:0:
256,192,114321,1,0,0:0:0:0:
182,192,114430,1,0,0:0:0:0:
475,192,114430,1,2,0:0:0:0:
329,192,114430,1,0,0:0:0:0:
402,192,114430,1,0,0:0:0:0:
256,192,114538,1,0,0:0:0:0:
36,192,114647,1,0,0:0:0:0:
109,192,114647,1,0,0:0:0:0:
329,192,114647,1,0,0:0:0:0:
402,192,114756,1,0,0:0:0:0:
36,192,114864,1,0,0:0:0:0:
475,192,114864,1,2,0:0:0:0:
182,192,114864,1,8,0:0:0:0:
329,192,114864,1,0,0:0:0:0:
256,192,114864,1,0,0:0:0:0:
109,192,114973,1,0,0:0:0:0:
182,192,115082,1,0,0:0:0:0:
256,192,115082,1,0,0:0:0:0:
329,192,115082,1,0,0:0:0:0:
402,192,115190,1,0,0:0:0:0:
475,192,115299,1,0,0:0:0:0:
36,192,115299,1,2,0:0:0:0:
182,192,115299,1,0,0:0:0:0:
329,192,115408,1,0,0:0:0:0:
256,192,115516,1,0,0:0:0:0:
182,192,115516,1,0,0:0:0:0:
475,192,115625,1,0,0:0:0:0:
36,192,115734,1,2,0:0:0:0:
402,192,115734,1,0,0:0:0:0:
109,192,115734,1,8,0:0:0:0:
329,192,115734,1,0,0:0:0:0:
256,192,115843,1,0,0:0:0:0:
475,192,115951,1,0,0:0:0:0:
182,192,115951,1,0,0:0:0:0:
329,192,116060,1,0,0:0:0:0:
36,192,116169,1,2,0:0:0:0:
402,192,116169,1,0,0:0:0:0:
256,192,116277,1,0,0:0:0:0:
329,192,116386,1,0,0:0:0:0:
109,192,116386,1,0,0:0:0:0:
182,192,116495,1,0,0:0:0:0:
256,192,116603,1,0,0:0:0:0:
36,192,116603,1,2,0:0:0:0:
475,192,116603,1,8,0:0:0:0:
109,192,116712,1,0,0:0:0:0:
256,192,116821,1,0,0:0:0:0:
402,192,116821,1,0,0:0:0:0:
182,192,116930,1,0,0:0:0:0:
475,192,117038,1,2,0:0:0:0:
329,192,117038,1,0,0:0:0:0:
256,192,117038,1,0,0:0:0:0:
109,192,117147,1,0,0:0:0:0:
36,192,117256,1,0,0:0:0:0:
182,192,117256,1,0,0:0:0:0:
329,192,117256,1,0,0:0:0:0:
256,192,117364,1,0,0:0:0:0:
475,192,117473,1,2,0:0:0:0:
402,192,117473,1,8,0:0:0:0:
109,192,117473,1,0,0:0:0:0:
36,192,117582,1,0,0:0:0:0:
182,192,117582,1,0,0:0:0:0:
329,192,117582,1,0,0:0:0:0:
256,192,117690,1,0,0:0:0:0:
36,192,117799,1,0,0:0:0:0:
182,192,117799,1,0,0:0:0:0:
475,192,117799,1,0,0:0:0:0:
109,192,117908,1,0,0:0:0:0:
256,192,117908,1,0,0:0:0:0:
402,192,117908,1,2,0:0:0:0:
329,192,117908,1,0,0:0:0:0:
475,192,118016,1,0,0:0:0:0:
36,192,118125,1,0,0:0:0:0:
182,192,118125,1,0,0:0:0:0:
329,192,118125,1,0,0:0:0:0:
109,192,118234,1,0,0:0:0:0:
256,192,118343,1,0,0:0:0:0:
475,192,118343,1,2,0:0:0:0:
402,192,118343,1,8,0:0:0:0:
182,192,118343,1,0,0:0:0:0:
36,192,118343,1,0,0:0:0:0:
109,192,118451,1,0,0:0:0:0:
182,192,118560,1,0,0:0:0:0:
329,192,118560,1,0,0:0:0:0:
402,192,118560,1,0,0:0:0:0:
256,192,118669,1,0,0:0:0:0:
475,192,118777,1,0,0:0:0:0:
36,192,118777,1,2,0:0:0:0:
329,192,118777,1,0,0:0:0:0:
402,192,118886,1,0,0:0:0:0:
256,192,118995,1,0,0:0:0:0:
109,192,118995,1,0,0:0:0:0:
475,192,119103,1,0,0:0:0:0:
36,192,119212,1,2,0:0:0:0:
402,192,119212,1,8,0:0:0:0:
182,192,119212,1,0,0:0:0:0:
256,192,119212,1,0,0:0:0:0:
329,192,119321,1,0,0:0:0:0:
475,192,119430,1,0,0:0:0:0:
109,192,119430,1,0,0:0:0:0:
256,192,119538,1,0,0:0:0:0:
402,192,119647,1,0,0:0:0:0:
36,192,119647,1,2,0:0:0:0:
182,192,119756,1,0,0:0:0:0:
329,192,119864,1,0,0:0:0:0:
182,192,119973,1,0,0:0:0:0:
256,192,120082,1,0,0:0:0:0:
36,192,120082,1,2,0:0:0:0:
402,192,120082,1,8,0:0:0:0:
475,192,120082,1,0,0:0:0:0:
109,192,120190,1,0,0:0:0:0:
182,192,120299,1,0,0:0:0:0:
109,192,120408,1,0,0:0:0:0:
475,192,120516,1,2,0:0:0:0:
402,192,120516,1,0,0:0:0:0:
329,192,120516,1,0,0:0:0:0:
182,192,120625,1,0,0:0:0:0:
109,192,120734,1,0,0:0:0:0:
36,192,120734,1,0,0:0:0:0:
256,192,120734,1,0,0:0:0:0:
402,192,120734,1,0,0:0:0:0:
329,192,120843,1,0,0:0:0:0:
475,192,120951,1,2,0:0:0:0:
256,192,120951,1,0,0:0:0:0:
402,192,120951,1,8,0:0:0:0:
182,192,120951,1,0,0:0:0:0:
36,192,121060,1,0,0:0:0:0:
109,192,121060,1,0,0:0:0:0:
329,192,121060,1,0,0:0:0:0:
182,192,121169,1,0,0:0:0:0:
256,192,121169,1,0,0:0:0:0:
109,192,121277,1,0,0:0:0:0:
36,192,121277,1,0,0:0:0:0:
329,192,121277,1,0,0:0:0:0:
256,192,121386,1,0,0:0:0:0:
182,192,121386,1,0,0:0:0:0:
475,192,121386,1,2,0:0:0:0:
402,192,121386,1,0,0:0:0:0:
329,192,121495,1,0,0:0:0:0:
109,192,121603,1,0,0:0:0:0:
36,192,121603,1,0,0:0:0:0:
475,192,121603,1,0,0:0:0:0:
402,192,121712,1,0,0:0:0:0:
36,192,121821,1,0,0:0:0:0:
182,192,121821,1,0,0:0:0:0:
475,192,121821,1,2,0:0:0:0:
329,192,121821,1,0,0:0:0:0:
256,192,121821,1,8,0:0:0:0:
109,192,121930,1,0,0:0:0:0:
182,192,122038,1,0,0:0:0:0:
256,192,122038,1,0,0:0:0:0:
402,192,122038,1,0,0:0:0:0:
329,192,122147,1,0,0:0:0:0:
475,192,122256,1,0,0:0:0:0:
36,192,122256,1,2,0:0:0:0:
182,192,122256,1,0,0:0:0:0:
329,192,122364,1,0,0:0:0:0:
256,192,122473,1,0,0:0:0:0:
475,192,122582,1,0,0:0:0:0:
402,192,122690,1,8,0:0:0:0:
36,192,122690,1,2,0:0:0:0:
109,192,122690,1,0,0:0:0:0:
256,192,122799,1,0,0:0:0:0:
475,192,122908,1,0,0:0:0:0:
182,192,122908,1,0,0:0:0:0:
329,192,123016,1,0,0:0:0:0:
402,192,123125,1,0,0:0:0:0:
36,192,123125,1,2,0:0:0:0:
109,192,123125,1,0,0:0:0:0:
256,192,123234,1,0,0:0:0:0:
329,192,123343,1,0,0:0:0:0:
182,192,123451,1,0,0:0:0:0:
256,192,123560,1,0,0:0:0:0:
36,192,123560,1,2,0:0:0:0:
475,192,123560,1,0,0:0:0:0:
402,192,123560,1,8,0:0:0:0:
109,192,123669,1,0,0:0:0:0:
256,192,123777,1,0,0:0:0:0:
182,192,123886,1,0,0:0:0:0:
109,192,123995,1,0,0:0:0:0:
475,192,123995,1,2,0:0:0:0:
36,192,124103,1,0,0:0:0:0:
256,192,124212,1,0,0:0:0:0:
329,192,124212,1,0,0:0:0:0:
182,192,124321,1,0,0:0:0:0:
109,192,124430,1,0,0:0:0:0:
475,192,124430,1,2,0:0:0:0:
402,192,124430,1,8,0:0:0:0:
256,192,124538,1,0,0:0:0:0:
182,192,124647,1,0,0:0:0:0:
329,192,124756,1,0,0:0:0:0:
475,192,124864,1,2,0:0:0:0:
36,192,124864,1,0,0:0:0:0:
109,192,124864,1,0,0:0:0:0:
329,192,124973,1,0,0:0:0:0:
256,192,125082,1,0,0:0:0:0:
109,192,125190,1,0,0:0:0:0:
182,192,125299,1,0,0:0:0:0:
475,192,125299,1,2,0:0:0:0:
402,192,125299,1,8,0:0:0:0:
256,192,125408,1,0,0:0:0:0:
182,192,125516,1,0,0:0:0:0:
475,192,125516,1,2,0:0:0:0:
329,192,125625,1,0,0:0:0:0:
475,192,125734,1,0,0:0:0:0:
36,192,125734,1,2,0:0:0:0:
109,192,125734,1,0,0:0:0:0:
402,192,125843,1,0,0:0:0:0:
256,192,125951,1,0,0:0:0:0:
182,192,125951,1,0,0:0:0:0:
402,192,126060,1,0,0:0:0:0:
475,192,126060,1,0,0:0:0:0:
329,192,126169,1,8,0:0:0:0:
36,192,126169,1,2,0:0:0:0:
256,192,126169,1,0,0:0:0:0:
109,192,126169,1,0,0:0:0:0:
182,192,126277,1,0,0:0:0:0:
475,192,126386,1,0,0:0:0:0:
402,192,126386,1,0,0:0:0:0:
256,192,126495,1,0,0:0:0:0:
402,192,126603,1,0,0:0:0:0:
36,192,126603,1,2,0:0:0:0:
256,192,126712,1,0,0:0:0:0:
329,192,126821,1,0,0:0:0:0:
109,192,126821,1,0,0:0:0:0:
182,192,126930,1,0,0:0:0:0:
329,192,127038,1,8,0:0:0:0:
36,192,127038,1,2,0:0:0:0:
475,192,127038,1,0,0:0:0:0:
109,192,127147,1,0,0:0:0:0:
256,192,127256,1,0,0:0:0:0:
402,192,127256,1,0,0:0:0:0:
109,192,127364,1,0,0:0:0:0:
182,192,127473,1,0,0:0:0:0:
475,192,127473,1,2,0:0:0:0:
36,192,127582,1,0,0:0:0:0:
109,192,127690,1,0,0:0:0:0:
256,192,127799,1,0,0:0:0:0:
109,192,127908,1,0,0:0:0:0:
475,192,127908,1,2,0:0:0:0:
402,192,127908,1,8,0:0:0:0:
182,192,128016,1,0,0:0:0:0:
329,192,128125,1,0,0:0:0:0:
256,192,128234,1,0,0:0:0:0:
182,192,128343,1,0,0:0:0:0:
475,192,128343,1,2,0:0:0:0:
329,192,128343,1,0,0:0:0:0:
402,192,128451,1,0,0:0:0:0:
256,192,128560,1,0,0:0:0:0:
109,192,128669,1,0,0:0:0:0:
182,192,128777,1,0,0:0:0:0:
475,192,128777,1,2,0:0:0:0:
36,192,128777,1,0,0:0:0:0:
402,192,128777,1,8,0:0:0:0:
256,192,128886,1,0,0:0:0:0:
329,192,128995,1,0,0:0:0:0:
402,192,129103,1,0,0:0:0:0:
475,192,129212,1,0,0:0:0:0:
36,192,129212,1,2,0:0:0:0:
109,192,129212,1,0,0:0:0:0:
329,192,129321,1,0,0:0:0:0:
182,192,129430,1,0,0:0:0:0:
256,192,129430,1,0,0:0:0:0:
475,192,129538,1,0,0:0:0:0:
329,192,129647,1,0,0:0:0:0:
36,192,129647,1,2,0:0:0:0:
256,192,129647,1,8,0:0:0:0:
109,192,129647,1,0,0:0:0:0:
182,192,129756,1,0,0:0:0:0:
475,192,129864,1,0,0:0:0:0:
402,192,129864,1,0,0:0:0:0:
256,192,129973,1,0,0:0:0:0:
402,192,130082,1,0,0:0:0:0:
36,192,130082,1,2,0:0:0:0:
182,192,130190,1,0,0:0:0:0:
329,192,130299,1,0,0:0:0:0:
109,192,130299,1,0,0:0:0:0:
182,192,130408,1,0,0:0:0:0:
256,192,130516,1,8,0:0:0:0:
36,192,130516,1,2,0:0:0:0:
475,192,130516,1,0,0:0:0:0:
109,192,130625,1,0,0:0:0:0:
182,192,130734,1,0,0:0:0:0:
402,192,130734,1,0,0:0:0:0:
109,192,130843,1,0,0:0:0:0:
36,192,130951,1,0,0:0:0:0:
475,192,130951,1,2,0:0:0:0:
256,192,130951,1,0,0:0:0:0:
182,192,131060,1,0,0:0:0:0:
329,192,131169,1,0,0:0:0:0:
256,192,131277,1,0,0:0:0:0:
182,192,131386,1,0,0:0:0:0:
475,192,131386,1,2,0:0:0:0:
402,192,131386,1,8,0:0:0:0:
109,192,131495,1,0,0:0:0:0:
36,192,131603,1,0,0:0:0:0:
109,192,131712,1,0,0:0:0:0:
182,192,131821,1,0,0:0:0:0:
475,192,131821,1,2,0:0:0:0:
256,192,131821,1,0,0:0:0:0:
109,192,131930,1,0,0:0:0:0:
402,192,132038,1,0,0:0:0:0:
182,192,132147,1,0,0:0:0:0:
36,192,132256,1,0,0:0:0:0:
475,192,132256,1,2,0:0:0:0:
329,192,132256,1,0,0:0:0:0:
402,192,132256,1,8,0:0:0:0:
109,192,132364,1,0,0:0:0:0:
182,192,132473,1,0,0:0:0:0:
402,192,132582,1,0,0:0:0:0:
475,192,132690,1,0,0:0:0:0:
36,192,132690,1,2,0:0:0:0:
256,192,132690,1,0,0:0:0:0:
402,192,132799,1,0,0:0:0:0:
329,192,132908,1,0,0:0:0:0:
182,192,132908,1,0,0:0:0:0:
402,192,133016,1,0,0:0:0:0:
329,192,133125,1,0,0:0:0:0:
36,192,133125,1,2,0:0:0:0:
182,192,133125,1,0,0:0:0:0:
109,192,133125,1,8,0:0:0:0:
256,192,133234,1,0,0:0:0:0:
475,192,133343,1,0,0:0:0:0:
109,192,133343,1,0,0:0:0:0:
256,192,133451,1,0,0:0:0:0:
402,192,133560,1,0,0:0:0:0:
36,192,133560,1,2,0:0:0:0:
256,192,133669,1,0,0:0:0:0:
329,192,133777,1,0,0:0:0:0:
182,192,133886,1,0,0:0:0:0:
329,192,133995,1,0,0:0:0:0:
36,192,133995,1,2,0:0:0:0:
109,192,133995,1,8,0:0:0:0:
475,192,133995,1,0,0:0:0:0:
182,192,134103,1,0,0:0:0:0:
256,192,134212,1,0,0:0:0:0:
109,192,134321,1,0,0:0:0:0:
182,192,134430,1,0,0:0:0:0:
475,192,134430,1,2,0:0:0:0:
402,192,134430,1,0,0:0:0:0:
36,192,134538,1,0,0:0:0:0:
109,192,134647,1,0,0:0:0:0:
329,192,134647,1,0,0:0:0:0:
256,192,134756,1,0,0:0:0:0:
109,192,134864,1,0,0:0:0:0:
475,192,134864,1,2,0:0:0:0:
182,192,134864,1,0,0:0:0:0:
402,192,134864,1,8,0:0:0:0:
256,192,134973,1,0,0:0:0:0:
329,192,135082,1,0,0:0:0:0:
36,192,135082,1,0,0:0:0:0:
256,192,135190,1,0,0:0:0:0:
182,192,135299,1,0,0:0:0:0:
475,192,135299,1,2,0:0:0:0:
402,192,135408,1,0,0:0:0:0:
256,192,135516,1,0,0:0:0:0:
109,192,135625,1,0,0:0:0:0:
182,192,135734,1,0,0:0:0:0:
475,192,135734,1,2,0:0:0:0:
36,192,135734,1,0,0:0:0:0:
402,192,135734,1,8,0:0:0:0:
256,192,135843,1,0,0:0:0:0:
329,192,135951,1,0,0:0:0:0:
402,192,136060,1,0,0:0:0:0:
475,192,136169,1,0,0:0:0:0:
36,192,136169,1,2,0:0:0:0:
109,192,136169,1,0,0:0:0:0:
329,192,136277,1,0,0:0:0:0:
182,192,136386,1,0,0:0:0:0:
475,192,136495,1,0,0:0:0:0:
329,192,136603,1,0,0:0:0:0:
36,192,136603,1,2,0:0:0:0:
402,192,136603,1,8,0:0:0:0:
182,192,136712,1,0,0:0:0:0:
475,192,136821,1,0,0:0:0:0:
256,192,136821,1,0,0:0:0:0:
329,192,136930,1,0,0:0:0:0:
402,192,137038,1,0,0:0:0:0:
36,192,137038,1,2,0:0:0:0:
109,192,137038,1,0,0:0:0:0:
182,192,137147,1,0,0:0:0:0:
329,192,137256,1,0,0:0:0:0:
182,192,137364,1,0,0:0:0:0:
256,192,137473,1,0,0:0:0:0:
36,192,137473,1,2,0:0:0:0:
402,192,137473,1,8,0:0:0:0:
475,192,137473,1,0,0:0:0:0:
109,192,137582,1,0,0:0:0:0:
182,192,137690,1,0,0:0:0:0:
109,192,137799,1,0,0:0:0:0:
36,192,137908,1,0,0:0:0:0:
475,192,137908,1,2,0:0:0:0:
256,192,137908,1,0,0:0:0:0:
182,192,138016,1,0,0:0:0:0:
329,192,138125,1,0,0:0:0:0:
256,192,138234,1,0,0:0:0:0:
182,192,138343,1,0,0:0:0:0:
475,192,138343,1,2,0:0:0:0:
402,192,138343,1,8,0:0:0:0:
109,192,138451,1,0,0:0:0:0:
36,192,138560,1,0,0:0:0:0:
109,192,138669,1,0,0:0:0:0:
182,192,138777,1,0,0:0:0:0:
475,192,138777,1,2,0:0:0:0:
109,192,138886,1,0,0:0:0:0:
329,192,138995,1,0,0:0:0:0:
182,192,139103,1,0,0:0:0:0:
36,192,139212,1,0,0:0:0:0:
402,192,139212,1,8,0:0:0:0:
109,192,139321,1,0,0:0:0:0:
256,192,139430,1,0,0:0:0:0:
402,192,139538,1,0,0:0:0:0:
36,192,139647,1,2,0:0:0:0:
182,192,139647,1,0,0:0:0:0:
256,192,139864,1,0,0:0:0:0:
36,192,140082,1,2,0:0:0:0:
329,192,140082,1,0,0:0:0:0:
475,192,140299,1,0,0:0:0:0:
36,192,140516,1,2,0:0:0:0:
256,192,140734,1,0,0:0:0:0:
36,192,140951,1,2,0:0:0:0:
402,192,141169,1,0,0:0:0:0:
36,192,141386,1,2,0:0:0:0:
36,192,141821,1,2,0:0:0:0:
36,192,142256,1,2,0:0:0:0:
475,192,142256,1,0,0:0:0:0:
36,192,142690,1,2,0:0:0:0:
182,192,142690,1,0,0:0:0:0:
36,192,143125,1,2,0:0:0:0:
109,192,143125,1,0,0:0:0:0:
182,192,143343,1,0,0:0:0:0:
36,192,143560,1,2,0:0:0:0:
256,192,143560,1,0,0:0:0:0:
402,192,143777,1,0,0:0:0:0:
36,192,143995,1,2,0:0:0:0:
182,192,144212,1,0,0:0:0:0:
36,192,144430,1,2,0:0:0:0:
475,192,144647,1,0,0:0:0:0:
109,192,144864,1,0,0:0:0:0:
36,192,144864,1,2,0:0:0:0:
36,192,145299,1,2,0:0:0:0:
36,192,145734,1,2,0:0:0:0:
329,192,145734,1,0,0:0:0:0:
36,192,146169,1,2,0:0:0:0:
402,192,146169,1,0,0:0:0:0:
475,192,146603,1,0,0:0:0:0:
36,192,146603,1,2,0:0:0:0:
402,192,146821,1,0,0:0:0:0:
36,192,147038,1,2,0:0:0:0:
329,192,147038,1,0,0:0:0:0:
256,192,147256,1,0,0:0:0:0:
36,192,147473,1,2,0:0:0:0:
36,192,147908,1,2,0:0:0:0:
182,192,147908,1,0,0:0:0:0:
475,192,148343,1,0,0:0:0:0:
36,192,148343,1,2,0:0:0:0:
402,192,148560,1,0,0:0:0:0:
256,192,148777,1,0,0:0:0:0:
36,192,148777,1,2,0:0:0:0:
182,192,148995,1,0,0:0:0:0:
36,192,149212,1,2,0:0:0:0:
109,192,149647,1,0,0:0:0:0:
36,192,149647,1,2,0:0:0:0:
36,192,150082,1,2,0:0:0:0:
182,192,150082,1,0,0:0:0:0:
36,192,150299,1,2,0:0:0:0:
36,192,150516,1,2,0:0:0:0:
36,192,150734,1,2,0:0:0:0:
256,192,150734,1,0,0:0:0:0:
36,192,150951,1,2,0:0:0:0:
36,192,151169,1,2,0:0:0:0:
36,192,151386,1,2,0:0:0:0:
402,192,151386,1,0,0:0:0:0:
36,192,151603,1,2,0:0:0:0:
36,192,151821,1,2,0:0:0:0:
182,192,151930,1,2,0:0:0:0:
475,192,152038,1,0,0:0:0:0:
36,192,152038,1,2,0:0:0:0:
182,192,152147,1,2,0:0:0:0:
36,192,152256,1,2,0:0:0:0:
182,192,152364,1,2,0:0:0:0:
36,192,152473,1,2,0:0:0:0:
182,192,152582,1,2,0:0:0:0:
329,192,152690,1,0,0:0:0:0:
36,192,152690,1,2,0:0:0:0:
36,192,153016,1,2,0:0:0:0:
182,192,153125,1,2,0:0:0:0:
36,192,153343,1,2,0:0:0:0:
36,192,153560,1,0,0:0:0:0:
475,192,153560,1,0,0:0:0:0:
182,192,153995,1,0,0:0:0:0:
329,192,154430,1,0,0:0:0:0:
182,192,156169,1,0,0:0:0:0:
402,192,156603,1,0,0:0:0:0:
36,192,157038,1,0,0:0:0:0:
402,192,157473,1,0,0:0:0:0:
256,192,157908,1,0,0:0:0:0:
109,192,158343,1,0,0:0:0:0:
475,192,158777,1,0,0:0:0:0:
329,192,159647,1,0,0:0:0:0:
36,192,160516,1,0,0:0:0:0:
182,192,160951,1,0,0:0:0:0:
256,192,161386,1,0,0:0:0:0:
109,192,163125,1,0,0:0:0:0:
182,192,163560,1,0,0:0:0:0:
36,192,163995,1,0,0:0:0:0:
256,192,164430,1,0,0:0:0:0:
475,192,164864,1,0,0:0:0:0:
36,192,165734,1,0,0:0:0:0:
182,192,166169,5,0,0:0:0:0:
329,192,166603,1,0,0:0:0:0:
182,192,167038,5,0,0:0:0:0:
329,192,167147,1,0,0:0:0:0:
182,192,167256,1,0,0:0:0:0:
329,192,167364,1,0,0:0:0:0:
36,192,167473,1,0,0:0:0:0:
256,192,167473,1,0,0:0:0:0:
475,192,167473,1,4,0:0:0:0:
109,192,167473,1,0,0:0:0:0:
402,192,167473,1,0,0:0:0:0:
475,192,168343,1,8,0:0:0:0:
182,192,168343,1,0,0:0:0:0:
109,192,168343,1,0,0:0:0:0:
329,192,168343,1,0,0:0:0:0:
256,192,168669,1,0,0:0:0:0:
402,192,168669,1,8,0:0:0:0:
182,192,168777,1,0,0:0:0:0:
109,192,168995,1,8,0:0:0:0:
475,192,168995,1,0,0:0:0:0:
256,192,169103,1,8,0:0:0:0:
109,192,169103,1,0,0:0:0:0:
36,192,169212,1,0,0:0:0:0:
182,192,169212,1,0,0:0:0:0:
402,192,169212,1,0,0:0:0:0:
329,192,169212,1,8,0:0:0:0:
109,192,170082,1,0,0:0:0:0:
329,192,170082,1,0,0:0:0:0:
256,192,170082,1,0,0:0:0:0:
256,192,170951,1,0,0:0:0:0:
402,192,170951,1,0,0:0:0:0:
36,192,170951,1,0,0:0:0:0:
182,192,170951,1,0,0:0:0:0:
475,192,170951,1,4,0:0:0:0:
182,192,171821,1,0,0:0:0:0:
329,192,171821,1,8,0:0:0:0:
109,192,172147,1,0,0:0:0:0:
256,192,172147,1,8,0:0:0:0:
36,192,172256,1,0,0:0:0:0:
182,192,172473,1,8,0:0:0:0:
402,192,172473,1,0,0:0:0:0:
182,192,172582,1,8,0:0:0:0:
256,192,172582,1,0,0:0:0:0:
36,192,172690,1,0,0:0:0:0:
329,192,172690,1,0,0:0:0:0:
109,192,172690,1,8,0:0:0:0:
475,192,172690,1,0,0:0:0:0:
36,192,174430,1,0,0:0:0:0:
182,192,174430,1,0,0:0:0:0:
329,192,174430,1,0,0:0:0:0:
402,192,174430,1,0,0:0:0:0:
475,192,174430,1,4,0:0:0:0:
109,192,175299,1,0,0:0:0:0:
329,192,175299,1,0,0:0:0:0:
182,192,175299,1,0,0:0:0:0:
475,192,175299,1,8,0:0:0:0:
256,192,175625,1,0,0:0:0:0:
402,192,175625,1,8,0:0:0:0:
182,192,175734,1,0,0:0:0:0:
36,192,175951,1,8,0:0:0:0:
329,192,175951,1,0,0:0:0:0:
36,192,176060,1,8,0:0:0:0:
256,192,176060,1,0,0:0:0:0:
182,192,176169,1,8,0:0:0:0:
475,192,176169,1,0,0:0:0:0:
402,192,176169,1,0,0:0:0:0:
109,192,176169,1,0,0:0:0:0:
182,192,177038,1,0,0:0:0:0:
329,192,177038,1,0,0:0:0:0:
256,192,177038,1,0,0:0:0:0:
256,192,177908,1,0,0:0:0:0:
402,192,177908,1,0,0:0:0:0:
36,192,177908,1,0,0:0:0:0:
475,192,177908,1,4,0:0:0:0:
109,192,177908,1,0,0:0:0:0:
256,192,178777,1,0,0:0:0:0:
402,192,178777,1,8,0:0:0:0:
182,192,179103,1,0,0:0:0:0:
329,192,179103,1,8,0:0:0:0:
36,192,179212,1,0,0:0:0:0:
109,192,179430,1,8,0:0:0:0:
475,192,179430,1,0,0:0:0:0:
109,192,179538,1,8,0:0:0:0:
402,192,179538,1,0,0:0:0:0:
36,192,179647,1,0,0:0:0:0:
329,192,179647,1,0,0:0:0:0:
182,192,179647,1,0,0:0:0:0:
256,192,179647,1,8,0:0:0:0:
256,192,180516,1,0,0:0:0:0:
109,192,180734,1,0,0:0:0:0:
475,192,180951,1,0,0:0:0:0:
329,192,181169,1,0,0:0:0:0:
256,192,181386,1,0,0:0:0:0:
402,192,181386,1,0,0:0:0:0:
182,192,181386,1,0,0:0:0:0:
36,192,181386,1,4,0:0:0:0:
475,192,181386,1,0,0:0:0:0:
109,192,181603,1,0,0:0:0:0:
475,192,181821,1,0,0:0:0:0:
329,192,181821,1,0,0:0:0:0:
109,192,182038,1,0,0:0:0:0:
256,192,182038,1,0,0:0:0:0:
402,192,182038,1,0,0:0:0:0:
182,192,182256,1,0,0:0:0:0:
36,192,182473,1,0,0:0:0:0:
109,192,182473,1,0,0:0:0:0:
182,192,182690,1,0,0:0:0:0:
402,192,182690,1,0,0:0:0:0:
256,192,182690,1,0,0:0:0:0:
109,192,182908,1,0,0:0:0:0:
329,192,182908,1,0,0:0:0:0:
329,192,183016,1,0,0:0:0:0:
36,192,183125,1,0,0:0:0:0:
182,192,183125,1,0,0:0:0:0:
475,192,183125,1,0,0:0:0:0:
402,192,183343,1,0,0:0:0:0:
475,192,183343,1,0,0:0:0:0:
256,192,183343,1,0,0:0:0:0:
109,192,183560,1,0,0:0:0:0:
256,192,183777,1,0,0:0:0:0:
329,192,183777,1,0,0:0:0:0:
182,192,183995,1,0,0:0:0:0:
402,192,183995,1,0,0:0:0:0:
475,192,183995,1,0,0:0:0:0:
36,192,184212,1,0,0:0:0:0:
402,192,184430,1,0,0:0:0:0:
182,192,184430,1,0,0:0:0:0:
475,192,184430,1,0,0:0:0:0:
329,192,184430,1,0,0:0:0:0:
36,192,184647,1,0,0:0:0:0:
256,192,184864,1,0,0:0:0:0:
329,192,184864,1,0,0:0:0:0:
109,192,184864,1,4,0:0:0:0:
182,192,184864,1,0,0:0:0:0:
475,192,184864,1,0,0:0:0:0:
36,192,185082,1,0,0:0:0:0:
475,192,185299,1,0,0:0:0:0:
329,192,185299,1,0,0:0:0:0:
182,192,185516,1,0,0:0:0:0:
402,192,185516,1,0,0:0:0:0:
109,192,185516,1,0,0:0:0:0:
329,192,185734,1,0,0:0:0:0:
402,192,185951,1,0,0:0:0:0:
256,192,185951,1,0,0:0:0:0:
109,192,186169,1,0,0:0:0:0:
329,192,186169,1,0,0:0:0:0:
36,192,186169,1,0,0:0:0:0:
182,192,186386,1,0,0:0:0:0:
182,192,186495,1,0,0:0:0:0:
402,192,186603,1,0,0:0:0:0:
109,192,186603,1,0,0:0:0:0:
256,192,186603,1,0,0:0:0:0:
475,192,186821,1,0,0:0:0:0:
36,192,186821,1,0,0:0:0:0:
329,192,186821,1,0,0:0:0:0:
182,192,186821,1,0,0:0:0:0:
109,192,187038,1,0,0:0:0:0:
402,192,187256,1,0,0:0:0:0:
256,192,187256,1,0,0:0:0:0:
182,192,187473,1,0,0:0:0:0:
475,192,187473,1,0,0:0:0:0:
329,192,187473,1,0,0:0:0:0:
109,192,187690,1,0,0:0:0:0:
475,192,187908,1,0,0:0:0:0:
256,192,187908,1,0,0:0:0:0:
182,192,187908,1,0,0:0:0:0:
402,192,187908,1,0,0:0:0:0:
109,192,188125,1,0,0:0:0:0:
402,192,188343,1,0,0:0:0:0:
475,192,188343,1,0,0:0:0:0:
182,192,188343,1,0,0:0:0:0:
329,192,188343,1,0,0:0:0:0:
36,192,188343,1,4,0:0:0:0:
109,192,188560,1,0,0:0:0:0:
475,192,188777,1,0,0:0:0:0:
329,192,188777,1,0,0:0:0:0:
36,192,188995,1,0,0:0:0:0:
256,192,188995,1,0,0:0:0:0:
182,192,188995,1,0,0:0:0:0:
329,192,189212,1,0,0:0:0:0:
402,192,189430,1,0,0:0:0:0:
182,192,189430,1,0,0:0:0:0:
109,192,189647,1,0,0:0:0:0:
329,192,189647,1,0,0:0:0:0:
36,192,189647,1,0,0:0:0:0:
256,192,189647,1,0,0:0:0:0:
182,192,189864,1,0,0:0:0:0:
475,192,189864,1,0,0:0:0:0:
182,192,189973,1,0,0:0:0:0:
256,192,190082,1,0,0:0:0:0:
36,192,190082,1,0,0:0:0:0:
402,192,190082,1,0,0:0:0:0:
182,192,190299,1,0,0:0:0:0:
109,192,190299,1,0,0:0:0:0:
329,192,190299,1,0,0:0:0:0:
256,192,190516,1,0,0:0:0:0:
475,192,190734,1,0,0:0:0:0:
329,192,190734,1,0,0:0:0:0:
256,192,190951,1,0,0:0:0:0:
402,192,190951,1,0,0:0:0:0:
109,192,190951,1,0,0:0:0:0:
36,192,191169,1,0,0:0:0:0:
402,192,191386,1,0,0:0:0:0:
329,192,191386,1,0,0:0:0:0:
475,192,191386,1,0,0:0:0:0:
182,192,191386,1,0,0:0:0:0:
109,192,191603,1,0,0:0:0:0:
256,192,191821,1,0,0:0:0:0:
475,192,191821,1,0,0:0:0:0:
182,192,191821,1,0,0:0:0:0:
402,192,191821,1,0,0:0:0:0:
36,192,191821,1,4,0:0:0:0:
109,192,192038,1,0,0:0:0:0:
402,192,192256,1,0,0:0:0:0:
329,192,192256,1,0,0:0:0:0:
475,192,192473,1,0,0:0:0:0:
36,192,192473,1,0,0:0:0:0:
256,192,192473,1,0,0:0:0:0:
182,192,192690,1,0,0:0:0:0:
475,192,192908,1,0,0:0:0:0:
329,192,192908,1,0,0:0:0:0:
402,192,193125,1,0,0:0:0:0:
109,192,193125,1,0,0:0:0:0:
182,192,193125,1,0,0:0:0:0:
475,192,193343,1,0,0:0:0:0:
475,192,193451,1,0,0:0:0:0:
329,192,193560,1,0,0:0:0:0:
182,192,193560,1,0,0:0:0:0:
36,192,193560,1,0,0:0:0:0:
256,192,193777,1,0,0:0:0:0:
475,192,193777,1,0,0:0:0:0:
402,192,193777,1,0,0:0:0:0:
329,192,193995,1,0,0:0:0:0:
182,192,194212,1,0,0:0:0:0:
402,192,194430,1,0,0:0:0:0:
109,192,194430,1,0,0:0:0:0:
329,192,194430,1,0,0:0:0:0:
256,192,194647,1,0,0:0:0:0:
109,192,194864,1,0,0:0:0:0:
329,192,194864,1,0,0:0:0:0:
182,192,194864,1,0,0:0:0:0:
36,192,194864,1,0,0:0:0:0:
256,192,195082,1,0,0:0:0:0:
109,192,195299,128,0,197038:0:0:0:0:
36,192,195299,1,4,0:0:0:0:
475,192,195299,1,8,0:0:0:0:
329,192,195299,1,0,0:0:0:0:
182,192,195299,1,0,0:0:0:0:
329,192,195625,1,0,0:0:0:0:
329,192,195951,1,0,0:0:0:0:
402,192,196169,128,0,197908:0:0:0:0:
182,192,196169,1,0,0:0:0:0:
182,192,196495,1,0,0:0:0:0:
182,192,196821,1,0,0:0:0:0:
256,192,197038,128,0,198777:0:0:0:0:
36,192,197038,1,0,0:0:0:0:
475,192,197038,1,0,0:0:0:0:
36,192,197364,1,0,0:0:0:0:
36,192,197690,1,0,0:0:0:0:
329,192,197908,128,0,198777:0:0:0:0:
109,192,197908,1,0,0:0:0:0:
109,192,198234,1,0,0:0:0:0:
109,192,198560,1,0,0:0:0:0:
475,192,198777,128,0,202256:0:0:0:0:
182,192,198777,128,0,200516:0:0:0:0:
402,192,198777,1,0,0:0:0:0:
36,192,198777,1,4,0:0:0:0:
402,192,199103,1,0,0:0:0:0:
402,192,199430,1,0,0:0:0:0:
329,192,199647,1,0,0:0:0:0:
329,192,199973,1,0,0:0:0:0:
329,192,200299,1,0,0:0:0:0:
36,192,200516,128,0,202256:0:0:0:0:
256,192,200516,1,0,0:0:0:0:
109,192,200516,1,0,0:0:0:0:
256,192,200843,1,0,0:0:0:0:
256,192,201169,1,0,0:0:0:0:
329,192,201386,1,0,0:0:0:0:
329,192,201712,1,0,0:0:0:0:
109,192,201821,1,0,0:0:0:0:
256,192,201930,1,0,0:0:0:0:
329,192,202038,1,0,0:0:0:0:
109,192,202038,1,0,0:0:0:0:
256,192,202147,1,0,0:0:0:0:
182,192,202256,128,0,203995:0:0:0:0:
109,192,202256,1,0,0:0:0:0:
402,192,202256,1,0,0:0:0:0:
329,192,202256,1,4,0:0:0:0:
402,192,202582,1,0,0:0:0:0:
402,192,202908,1,0,0:0:0:0:
329,192,203125,128,0,204864:0:0:0:0:
36,192,203125,1,0,0:0:0:0:
36,192,203451,1,0,0:0:0:0:
36,192,203777,1,0,0:0:0:0:
475,192,203995,128,0,205734:0:0:0:0:
109,192,203995,1,0,0:0:0:0:
256,192,203995,1,0,0:0:0:0:
109,192,204321,1,0,0:0:0:0:
109,192,204647,1,0,0:0:0:0:
402,192,204864,128,0,206603:0:0:0:0:
182,192,204864,1,0,0:0:0:0:
182,192,205190,1,0,0:0:0:0:
182,192,205516,1,0,0:0:0:0:
256,192,205734,128,0,207473:0:0:0:0:
109,192,205734,1,0,0:0:0:0:
36,192,205734,1,0,0:0:0:0:
329,192,205734,1,4,0:0:0:0:
109,192,206060,1,0,0:0:0:0:
109,192,206386,1,0,0:0:0:0:
329,192,206603,128,0,208343:0:0:0:0:
36,192,206603,1,0,0:0:0:0:
36,192,206930,1,0,0:0:0:0:
36,192,207256,1,0,0:0:0:0:
182,192,207473,128,0,208343:0:0:0:0:
109,192,207473,1,0,0:0:0:0:
475,192,207473,1,0,0:0:0:0:
109,192,207799,1,0,0:0:0:0:
109,192,208125,1,0,0:0:0:0:
402,192,208343,1,0,0:0:0:0:
475,192,208343,1,0,0:0:0:0:
402,192,208488,1,0,0:0:0:0:
329,192,208488,1,0,0:0:0:0:
329,192,208632,1,0,0:0:0:0:
256,192,208632,1,0,0:0:0:0:
256,192,208777,1,0,0:0:0:0:
182,192,208777,1,0,0:0:0:0:
182,192,208922,1,0,0:0:0:0:
109,192,208922,1,0,0:0:0:0:
109,192,209067,1,0,0:0:0:0:
36,192,209067,1,0,0:0:0:0:
256,192,209212,1,0,0:0:0:0:
475,192,209212,1,8,0:0:0:0:
329,192,209212,1,4,0:0:0:0:
36,192,209321,1,0,0:0:0:0:
182,192,209430,1,0,0:0:0:0:
402,192,209538,1,0,0:0:0:0:
109,192,209647,1,0,0:0:0:0:
256,192,209756,1,0,0:0:0:0:
329,192,209864,1,0,0:0:0:0:
402,192,209973,1,0,0:0:0:0:
256,192,210082,1,0,0:0:0:0:
36,192,210082,1,0,0:0:0:0:
182,192,210190,1,0,0:0:0:0:
109,192,210299,1,0,0:0:0:0:
36,192,210408,1,0,0:0:0:0:
256,192,210516,1,0,0:0:0:0:
109,192,210625,1,0,0:0:0:0:
182,192,210734,1,0,0:0:0:0:
402,192,210843,1,0,0:0:0:0:
256,192,210951,1,0,0:0:0:0:
109,192,210951,1,0,0:0:0:0:
329,192,211060,1,0,0:0:0:0:
182,192,211169,1,0,0:0:0:0:
256,192,211277,1,0,0:0:0:0:
402,192,211386,1,0,0:0:0:0:
475,192,211495,1,0,0:0:0:0:
402,192,211603,1,0,0:0:0:0:
109,192,211712,1,0,0:0:0:0:
256,192,211821,1,0,0:0:0:0:
329,192,211821,1,0,0:0:0:0:
182,192,211930,1,0,0:0:0:0:
475,192,212038,1,0,0:0:0:0:
329,192,212147,1,0,0:0:0:0:
109,192,212256,1,0,0:0:0:0:
402,192,212364,1,0,0:0:0:0:
256,192,212473,1,0,0:0:0:0:
109,192,212582,1,0,0:0:0:0:
182,192,212690,1,0,0:0:0:0:
475,192,212690,1,0,0:0:0:0:
36,192,212799,1,0,0:0:0:0:
256,192,212908,1,0,0:0:0:0:
402,192,213016,1,0,0:0:0:0:
109,192,213125,1,0,0:0:0:0:
182,192,213234,1,0,0:0:0:0:
329,192,213343,1,0,0:0:0:0:
256,192,213451,1,0,0:0:0:0:
402,192,213560,1,0,0:0:0:0:
182,192,213560,1,0,0:0:0:0:
256,192,213669,1,0,0:0:0:0:
109,192,213777,1,0,0:0:0:0:
36,192,213886,1,0,0:0:0:0:
182,192,213995,1,0,0:0:0:0:
109,192,214103,1,0,0:0:0:0:
256,192,214212,1,0,0:0:0:0:
329,192,214321,1,0,0:0:0:0:
36,192,214430,1,0,0:0:0:0:
475,192,214430,1,0,0:0:0:0:
182,192,214538,1,0,0:0:0:0:
402,192,214647,1,0,0:0:0:0:
329,192,214756,1,0,0:0:0:0:
256,192,214864,1,0,0:0:0:0:
402,192,214973,1,0,0:0:0:0:
475,192,215082,1,0,0:0:0:0:
256,192,215190,1,0,0:0:0:0:
182,192,215299,1,0,0:0:0:0:
109,192,215299,1,0,0:0:0:0:
36,192,215408,1,0,0:0:0:0:
402,192,215516,1,0,0:0:0:0:
329,192,215625,1,0,0:0:0:0:
109,192,215734,1,0,0:0:0:0:
475,192,215843,1,0,0:0:0:0:
182,192,215951,1,0,0:0:0:0:
36,192,216060,1,0,0:0:0:0:
256,192,216169,1,0,0:0:0:0:
329,192,216169,1,0,0:0:0:0:
36,192,216277,1,0,0:0:0:0:
182,192,216386,1,0,0:0:0:0:
402,192,216495,1,0,0:0:0:0:
109,192,216603,1,0,0:0:0:0:
256,192,216712,1,0,0:0:0:0:
329,192,216821,1,0,0:0:0:0:
402,192,216930,1,0,0:0:0:0:
256,192,217038,1,0,0:0:0:0:
36,192,217038,1,0,0:0:0:0:
182,192,217147,1,0,0:0:0:0:
109,192,217256,1,0,0:0:0:0:
36,192,217364,1,0,0:0:0:0:
256,192,217473,1,0,0:0:0:0:
109,192,217582,1,0,0:0:0:0:
182,192,217690,1,0,0:0:0:0:
402,192,217799,1,0,0:0:0:0:
256,192,217908,1,0,0:0:0:0:
109,192,217908,1,0,0:0:0:0:
329,192,218016,1,0,0:0:0:0:
182,192,218125,1,0,0:0:0:0:
256,192,218234,1,0,0:0:0:0:
402,192,218343,1,0,0:0:0:0:
475,192,218451,1,0,0:0:0:0:
402,192,218560,1,0,0:0:0:0:
109,192,218669,1,0,0:0:0:0:
256,192,218777,1,0,0:0:0:0:
329,192,218777,1,0,0:0:0:0:
182,192,218886,1,0,0:0:0:0:
475,192,218995,1,0,0:0:0:0:
329,192,219103,1,0,0:0:0:0:
109,192,219212,1,0,0:0:0:0:
402,192,219321,1,0,0:0:0:0:
256,192,219430,1,0,0:0:0:0:
109,192,219538,1,0,0:0:0:0:
182,192,219647,1,0,0:0:0:0:
329,192,219647,1,0,0:0:0:0:
36,192,219756,1,0,0:0:0:0:
256,192,219864,1,0,0:0:0:0:
402,192,219973,1,0,0:0:0:0:
109,192,220082,1,0,0:0:0:0:
182,192,220190,1,0,0:0:0:0:
329,192,220299,1,0,0:0:0:0:
256,192,220408,1,0,0:0:0:0:
402,192,220516,1,0,0:0:0:0:
475,192,220516,1,0,0:0:0:0:
256,192,220625,1,0,0:0:0:0:
109,192,220734,1,0,0:0:0:0:
36,192,220843,1,0,0:0:0:0:
182,192,220951,1,0,0:0:0:0:
109,192,221060,1,0,0:0:0:0:
256,192,221169,1,0,0:0:0:0:
329,192,221277,1,0,0:0:0:0:
256,192,221386,1,0,0:0:0:0:
402,192,221386,1,0,0:0:0:0:
36,192,221495,1,0,0:0:0:0:
182,192,221603,1,0,0:0:0:0:
402,192,221712,1,0,0:0:0:0:
329,192,221821,1,0,0:0:0:0:
256,192,221930,1,0,0:0:0:0:
402,192,222038,1,0,0:0:0:0:
475,192,222147,1,0,0:0:0:0:
256,192,222256,1,0,0:0:0:0:
109,192,222256,1,0,0:0:0:0:
182,192,222364,1,0,0:0:0:0:
36,192,222473,1,0,0:0:0:0:
402,192,222582,1,0,0:0:0:0:
329,192,222690,1,0,0:0:0:0:
109,192,222799,1,0,0:0:0:0:
475,192,222908,1,0,0:0:0:0:
182,192,223016,1,0,0:0:0:0:
36,192,223125,1,2,0:0:0:0:
256,192,223125,1,0,0:0:0:0:
402,192,223125,1,0,0:0:0:0:
109,192,223234,1,0,0:0:0:0:
36,192,223343,1,2,0:0:0:0:
329,192,223343,1,0,0:0:0:0:
475,192,223451,1,0,0:0:0:0:
36,192,223560,1,2,0:0:0:0:
182,192,223560,1,0,0:0:0:0:
256,192,223669,1,0,0:0:0:0:
36,192,223777,1,2,0:0:0:0:
402,192,223777,1,0,0:0:0:0:
329,192,223886,1,0,0:0:0:0:
36,192,223995,1,2,0:0:0:0:
475,192,223995,1,0,0:0:0:0:
329,192,224103,1,0,0:0:0:0:
36,192,224212,1,2,0:0:0:0:
182,192,224212,1,0,0:0:0:0:
109,192,224321,1,0,0:0:0:0:
36,192,224430,1,2,0:0:0:0:
256,192,224430,1,0,0:0:0:0:
182,192,224538,1,0,0:0:0:0:
36,192,224647,1,2,0:0:0:0:
329,192,224647,1,0,0:0:0:0:
402,192,224756,1,0,0:0:0:0:
109,192,224864,1,2,0:0:0:0:
256,192,224864,1,0,0:0:0:0:
329,192,224973,1,0,0:0:0:0:
109,192,225082,1,2,0:0:0:0:
182,192,225082,1,0,0:0:0:0:
256,192,225190,1,0,0:0:0:0:
109,192,225299,1,2,0:0:0:0:
402,192,225299,1,0,0:0:0:0:
475,192,225408,1,0,0:0:0:0:
109,192,225516,1,2,0:0:0:0:
329,192,225516,1,0,0:0:0:0:
256,192,225625,1,0,0:0:0:0:
182,192,225734,1,2,0:0:0:0:
36,192,225734,1,0,0:0:0:0:
329,192,225843,1,0,0:0:0:0:
182,192,225951,1,2,0:0:0:0:
475,192,225951,1,0,0:0:0:0:
402,192,226060,1,0,0:0:0:0:
182,192,226169,1,2,0:0:0:0:
109,192,226169,1,0,0:0:0:0:
329,192,226277,1,0,0:0:0:0:
182,192,226386,1,2,0:0:0:0:
402,192,226386,1,0,0:0:0:0:
36,192,226495,1,0,0:0:0:0:
256,192,226603,1,2,0:0:0:0:
182,192,226603,1,0,0:0:0:0:
109,192,226712,1,0,0:0:0:0:
256,192,226821,1,2,0:0:0:0:
329,192,226821,1,0,0:0:0:0:
475,192,226930,1,0,0:0:0:0:
256,192,227038,1,2,0:0:0:0:
36,192,227038,1,0,0:0:0:0:
182,192,227147,1,0,0:0:0:0:
256,192,227256,1,2,0:0:0:0:
402,192,227256,1,0,0:0:0:0:
329,192,227364,1,0,0:0:0:0:
256,192,227473,1,2,0:0:0:0:
475,192,227473,1,0,0:0:0:0:
402,192,227582,1,0,0:0:0:0:
256,192,227690,1,2,0:0:0:0:
182,192,227690,1,0,0:0:0:0:
109,192,227799,1,0,0:0:0:0:
256,192,227908,1,2,0:0:0:0:
329,192,227908,1,0,0:0:0:0:
182,192,228016,1,0,0:0:0:0:
256,192,228125,1,2,0:0:0:0:
402,192,228125,1,0,0:0:0:0:
475,192,228234,1,0,0:0:0:0:
329,192,228343,1,2,0:0:0:0:
36,192,228343,1,0,0:0:0:0:
182,192,228451,1,0,0:0:0:0:
329,192,228560,1,2,0:0:0:0:
109,192,228560,1,0,0:0:0:0:
402,192,228669,1,0,0:0:0:0:
329,192,228777,1,2,0:0:0:0:
256,192,228777,1,0,0:0:0:0:
475,192,228886,1,0,0:0:0:0:
329,192,228995,1,2,0:0:0:0:
402,192,228995,1,0,0:0:0:0:
256,192,229103,1,0,0:0:0:0:
182,192,229212,1,2,0:0:0:0:
36,192,229212,1,0,0:0:0:0:
402,192,229321,1,0,0:0:0:0:
182,192,229430,1,2,0:0:0:0:
329,192,229430,1,0,0:0:0:0:
109,192,229538,1,0,0:0:0:0:
182,192,229647,1,2,0:0:0:0:
402,192,229647,1,0,0:0:0:0:
475,192,229756,1,0,0:0:0:0:
182,192,229864,1,2,0:0:0:0:
329,192,229864,1,0,0:0:0:0:
36,192,229973,1,0,0:0:0:0:
256,192,230082,1,2,0:0:0:0:
109,192,230082,1,0,0:0:0:0:
182,192,230190,1,0,0:0:0:0:
256,192,230299,1,2,0:0:0:0:
329,192,230299,1,0,0:0:0:0:
402,192,230408,1,0,0:0:0:0:
256,192,230516,1,2,0:0:0:0:
36,192,230516,1,0,0:0:0:0:
182,192,230625,1,0,0:0:0:0:
256,192,230734,1,2,0:0:0:0:
329,192,230734,1,0,0:0:0:0:
109,192,230843,1,0,0:0:0:0:
256,192,230951,1,2,0:0:0:0:
475,192,230951,1,0,0:0:0:0:
329,192,231060,1,0,0:0:0:0:
256,192,231169,1,2,0:0:0:0:
182,192,231169,1,0,0:0:0:0:
36,192,231277,1,0,0:0:0:0:
256,192,231386,1,2,0:0:0:0:
182,192,231386,1,0,0:0:0:0:
109,192,231495,1,0,0:0:0:0:
256,192,231603,1,2,0:0:0:0:
402,192,231603,1,0,0:0:0:0:
475,192,231712,1,0,0:0:0:0:
329,192,231821,1,2,0:0:0:0:
36,192,231821,1,0,0:0:0:0:
182,192,231930,1,0,0:0:0:0:
329,192,232038,1,2,0:0:0:0:
402,192,232038,1,0,0:0:0:0:
109,192,232147,1,0,0:0:0:0:
329,192,232256,1,2,0:0:0:0:
256,192,232256,1,0,0:0:0:0:
402,192,232364,1,0,0:0:0:0:
329,192,232473,1,2,0:0:0:0:
475,192,232473,1,0,0:0:0:0:
182,192,232582,1,0,0:0:0:0:
402,192,232690,1,2,0:0:0:0:
36,192,232690,1,0,0:0:0:0:
109,192,232799,1,0,0:0:0:0:
402,192,232908,1,2,0:0:0:0:
329,192,232908,1,0,0:0:0:0:
256,192,233016,1,0,0:0:0:0:
402,192,233125,1,2,0:0:0:0:
36,192,233125,1,0,0:0:0:0:
182,192,233234,1,0,0:0:0:0:
402,192,233343,1,2,0:0:0:0:
36,192,233343,1,0,0:0:0:0:
109,192,233451,1,0,0:0:0:0:
475,192,233560,1,2,0:0:0:0:
182,192,233560,1,0,0:0:0:0:
36,192,233669,1,0,0:0:0:0:
475,192,233777,1,2,0:0:0:0:
256,192,233777,1,0,0:0:0:0:
402,192,233886,1,0,0:0:0:0:
475,192,233995,1,2,0:0:0:0:
109,192,233995,1,0,0:0:0:0:
182,192,234103,1,0,0:0:0:0:
475,192,234212,1,2,0:0:0:0:
329,192,234212,1,0,0:0:0:0:
36,192,234321,1,0,0:0:0:0:
475,192,234430,1,2,0:0:0:0:
402,192,234430,1,0,0:0:0:0:
256,192,234538,1,0,0:0:0:0:
475,192,234647,1,2,0:0:0:0:
182,192,234647,1,0,0:0:0:0:
109,192,234756,1,0,0:0:0:0:
475,192,234864,1,2,0:0:0:0:
256,192,234864,1,0,0:0:0:0:
36,192,234973,1,0,0:0:0:0:
475,192,235082,1,2,0:0:0:0:
182,192,235082,1,0,0:0:0:0:
329,192,235190,1,0,0:0:0:0:
36,192,235299,1,0,0:0:0:0:
182,192,235299,1,0,0:0:0:0:
256,192,235408,1,0,0:0:0:0:
109,192,235444,1,0,0:0:0:0:
329,192,235516,1,0,0:0:0:0:
182,192,235589,1,0,0:0:0:0:
475,192,235625,1,0,0:0:0:0:
329,192,235734,1,0,0:0:0:0:
109,192,235734,1,0,0:0:0:0:
402,192,235843,1,0,0:0:0:0:
182,192,235879,1,0,0:0:0:0:
475,192,235951,1,0,0:0:0:0:
256,192,236024,1,0,0:0:0:0:
402,192,236060,1,0,0:0:0:0:
182,192,236169,1,0,0:0:0:0:
36,192,236169,1,0,0:0:0:0:
329,192,236277,1,0,0:0:0:0:
109,192,236314,1,0,0:0:0:0:
402,192,236386,1,0,0:0:0:0:
256,192,236459,1,0,0:0:0:0:
109,192,236495,1,0,0:0:0:0:
329,192,236603,1,0,0:0:0:0:
182,192,236603,1,0,0:0:0:0:
36,192,236712,1,0,0:0:0:0:
475,192,236748,1,0,0:0:0:0:
256,192,236821,1,0,0:0:0:0:
402,192,236893,1,0,0:0:0:0:
109,192,236930,1,0,0:0:0:0:
36,192,237038,128,0,242256:0:0:0:0:
329,192,238777,128,0,242256:0:0:0:0:
182,192,240516,128,0,242256:0:0:0:0:
475,192,242256,1,0,0:0:0:0:
402,192,242310,1,0,0:0:0:0:
329,192,242364,1,0,0:0:0:0:
256,192,242419,1,0,0:0:0:0:
182,192,242473,1,0,0:0:0:0:
109,192,242545,1,0,0:0:0:0:
36,192,242618,1,0,0:0:0:0:
475,192,242690,1,0,0:0:0:0:
402,192,242799,1,0,0:0:0:0:
256,192,242908,1,0,0:0:0:0:
109,192,243016,1,0,0:0:0:0:
36,192,243125,1,0,0:0:0:0:
402,192,243270,1,0,0:0:0:0:
329,192,243415,1,0,0:0:0:0:
256,192,243560,1,0,0:0:0:0:
182,192,243777,1,0,0:0:0:0:
109,192,243995,1,0,0:0:0:0:
329,192,243995,1,0,0:0:0:0:
475,192,243995,1,4,0:0:0:0:
36,192,244103,1,0,0:0:0:0:
256,192,244103,1,0,0:0:0:0:
182,192,244212,1,0,0:0:0:0:
402,192,244212,1,0,0:0:0:0:
256,192,244321,1,0,0:0:0:0:
475,192,244321,1,0,0:0:0:0:
109,192,244430,1,0,0:0:0:0:
182,192,244430,1,0,0:0:0:0:
256,192,244538,1,0,0:0:0:0:
402,192,244538,1,0,0:0:0:0:
329,192,244647,1,0,0:0:0:0:
475,192,244647,1,0,0:0:0:0:
182,192,244756,1,0,0:0:0:0:
36,192,244756,1,0,0:0:0:0:
329,192,244864,1,0,0:0:0:0:
475,192,244864,1,0,0:0:0:0:
256,192,244973,1,0,0:0:0:0:
402,192,244973,1,0,0:0:0:0:
329,192,245082,1,0,0:0:0:0:
182,192,245082,1,0,0:0:0:0:
256,192,245190,1,0,0:0:0:0:
109,192,245190,1,0,0:0:0:0:
402,192,245299,1,0,0:0:0:0:
182,192,245299,1,0,0:0:0:0:
36,192,245408,1,0,0:0:0:0:
256,192,245408,1,0,0:0:0:0:
109,192,245516,1,0,0:0:0:0:
329,192,245516,1,0,0:0:0:0:
182,192,245625,1,0,0:0:0:0:
402,192,245625,1,0,0:0:0:0:
36,192,245734,1,0,0:0:0:0:
109,192,245734,1,0,0:0:0:0:
182,192,245843,1,0,0:0:0:0:
329,192,245843,1,0,0:0:0:0:
256,192,245951,1,0,0:0:0:0:
402,192,245951,1,0,0:0:0:0:
109,192,246060,1,0,0:0:0:0:
182,192,246060,1,0,0:0:0:0:
256,192,246169,1,0,0:0:0:0:
402,192,246169,1,0,0:0:0:0:
329,192,246277,1,0,0:0:0:0:
475,192,246277,1,0,0:0:0:0:
402,192,246386,1,0,0:0:0:0:
256,192,246386,1,0,0:0:0:0:
182,192,246495,1,0,0:0:0:0:
329,192,246495,1,0,0:0:0:0:
36,192,246603,1,0,0:0:0:0:
109,192,246603,1,0,0:0:0:0:
182,192,246712,1,0,0:0:0:0:
256,192,246712,1,0,0:0:0:0:
329,192,246821,1,0,0:0:0:0:
475,192,246821,1,0,0:0:0:0:
256,192,246930,1,0,0:0:0:0:
402,192,246930,1,0,0:0:0:0:
36,192,247038,1,0,0:0:0:0:
182,192,247038,1,0,0:0:0:0:
109,192,247147,1,0,0:0:0:0:
329,192,247147,1,0,0:0:0:0:
402,192,247256,1,0,0:0:0:0:
182,192,247256,1,0,0:0:0:0:
256,192,247364,1,0,0:0:0:0:
329,192,247364,1,0,0:0:0:0:
182,192,247473,1,0,0:0:0:0:
109,192,247473,1,0,0:0:0:0:
36,192,247582,1,0,0:0:0:0:
256,192,247582,1,0,0:0:0:0:
109,192,247690,1,0,0:0:0:0:
329,192,247690,1,0,0:0:0:0:
182,192,247799,1,0,0:0:0:0:
402,192,247799,1,0,0:0:0:0:
256,192,247908,1,0,0:0:0:0:
329,192,247908,1,0,0:0:0:0:
475,192,248016,1,0,0:0:0:0:
182,192,248125,1,0,0:0:0:0:
402,192,248234,1,0,0:0:0:0:
329,192,248343,1,0,0:0:0:0:
109,192,248343,128,0,248560:0:0:0:0:
182,192,248560,1,0,0:0:0:0:
256,192,248669,128,0,249212:0:0:0:0:
402,192,248669,1,0,0:0:0:0:
329,192,248886,128,0,249212:0:0:0:0:
475,192,248995,128,0,249212:0:0:0:0:
402,192,249212,1,0,0:0:0:0:
182,192,249212,1,0,0:0:0:0:
36,192,249321,1,0,0:0:0:0:
109,192,249321,1,0,0:0:0:0:
182,192,249430,1,0,0:0:0:0:
329,192,249430,1,0,0:0:0:0:
256,192,249538,1,0,0:0:0:0:
475,192,249538,1,0,0:0:0:0:
109,192,249647,1,0,0:0:0:0:
329,192,249647,1,0,0:0:0:0:
182,192,249756,1,0,0:0:0:0:
402,192,249756,1,0,0:0:0:0:
256,192,249864,1,0,0:0:0:0:
329,192,249973,1,0,0:0:0:0:
402,192,250082,128,0,250299:0:0:0:0:
36,192,250082,1,0,0:0:0:0:
109,192,250299,128,0,250408:0:0:0:0:
256,192,250299,1,0,0:0:0:0:
182,192,250408,128,0,250516:0:0:0:0:
329,192,250516,128,0,250951:0:0:0:0:
402,192,250516,1,0,0:0:0:0:
36,192,250734,1,0,0:0:0:0:
475,192,250734,1,0,0:0:0:0:
109,192,250788,1,0,0:0:0:0:
182,192,250843,1,0,0:0:0:0:
256,192,250897,1,0,0:0:0:0:
109,192,250951,1,0,0:0:0:0:
402,192,250951,1,0,0:0:0:0:
36,192,250951,1,2,0:0:0:0:
256,192,251060,1,0,0:0:0:0:
182,192,251060,1,0,0:0:0:0:
109,192,251169,1,0,0:0:0:0:
402,192,251169,1,0,0:0:0:0:
182,192,251277,1,0,0:0:0:0:
475,192,251277,1,0,0:0:0:0:
109,192,251386,1,0,0:0:0:0:
256,192,251386,1,0,0:0:0:0:
36,192,251386,1,2,0:0:0:0:
182,192,251495,1,0,0:0:0:0:
329,192,251495,1,0,0:0:0:0:
109,192,251603,1,0,0:0:0:0:
402,192,251603,1,0,0:0:0:0:
256,192,251712,1,0,0:0:0:0:
475,192,251712,1,0,0:0:0:0:
182,192,251821,1,0,0:0:0:0:
402,192,251821,1,0,0:0:0:0:
36,192,251821,1,2,0:0:0:0:
329,192,251930,1,0,0:0:0:0:
109,192,251930,1,0,0:0:0:0:
256,192,252038,1,0,0:0:0:0:
36,192,252038,1,0,0:0:0:0:
109,192,252147,1,0,0:0:0:0:
182,192,252147,1,0,0:0:0:0:
256,192,252256,1,0,0:0:0:0:
36,192,252256,1,2,0:0:0:0:
475,192,252256,1,0,0:0:0:0:
109,192,252364,1,0,0:0:0:0:
329,192,252364,1,0,0:0:0:0:
182,192,252473,1,0,0:0:0:0:
402,192,252473,1,0,0:0:0:0:
256,192,252582,1,0,0:0:0:0:
475,192,252582,1,0,0:0:0:0:
109,192,252690,1,0,0:0:0:0:
182,192,252690,1,0,0:0:0:0:
36,192,252690,1,2,0:0:0:0:
256,192,252799,1,0,0:0:0:0:
329,192,252799,1,0,0:0:0:0:
402,192,252908,1,0,0:0:0:0:
475,192,252908,1,0,0:0:0:0:
182,192,253016,1,0,0:0:0:0:
256,192,253016,1,0,0:0:0:0:
109,192,253125,1,0,0:0:0:0:
329,192,253125,1,0,0:0:0:0:
36,192,253125,1,2,0:0:0:0:
475,192,253234,1,0,0:0:0:0:
256,192,253234,1,0,0:0:0:0:
402,192,253343,1,0,0:0:0:0:
182,192,253343,1,0,0:0:0:0:
329,192,253451,1,0,0:0:0:0:
36,192,253451,1,0,0:0:0:0:
109,192,253560,1,0,0:0:0:0:
256,192,253560,1,0,0:0:0:0:
475,192,253560,1,2,0:0:0:0:
182,192,253669,1,0,0:0:0:0:
36,192,253669,1,0,0:0:0:0:
109,192,253777,1,0,0:0:0:0:
256,192,253777,1,0,0:0:0:0:
329,192,253886,1,0,0:0:0:0:
475,192,253886,1,0,0:0:0:0:
402,192,253995,1,0,0:0:0:0:
256,192,253995,1,0,0:0:0:0:
36,192,253995,1,2,0:0:0:0:
109,192,254103,1,0,0:0:0:0:
475,192,254103,1,0,0:0:0:0:
182,192,254212,1,0,0:0:0:0:
329,192,254212,1,0,0:0:0:0:
109,192,254321,1,0,0:0:0:0:
256,192,254321,1,0,0:0:0:0:
36,192,254430,1,2,0:0:0:0:
402,192,254430,1,0,0:0:0:0:
475,192,254430,1,0,0:0:0:0:
109,192,254538,1,0,0:0:0:0:
329,192,254538,1,0,0:0:0:0:
182,192,254647,1,0,0:0:0:0:
402,192,254647,1,0,0:0:0:0:
256,192,254756,1,0,0:0:0:0:
475,192,254756,1,0,0:0:0:0:
36,192,254864,1,2,0:0:0:0:
182,192,254864,1,0,0:0:0:0:
109,192,254864,1,0,0:0:0:0:
256,192,254973,1,0,0:0:0:0:
329,192,254973,1,0,0:0:0:0:
402,192,255082,1,0,0:0:0:0:
182,192,255190,1,0,0:0:0:0:
256,192,255299,128,0,255516:0:0:0:0:
475,192,255299,1,0,0:0:0:0:
329,192,255444,1,0,0:0:0:0:
109,192,255516,1,0,0:0:0:0:
475,192,255589,1,0,0:0:0:0:
36,192,255625,1,0,0:0:0:0:
182,192,255734,128,0,256169:0:0:0:0:
402,192,255734,1,0,0:0:0:0:
329,192,255951,128,0,256169:0:0:0:0:
109,192,256169,1,0,0:0:0:0:
256,192,256169,1,0,0:0:0:0:
475,192,256169,1,2,0:0:0:0:
36,192,256277,1,0,0:0:0:0:
402,192,256277,1,0,0:0:0:0:
109,192,256386,1,0,0:0:0:0:
475,192,256386,1,0,0:0:0:0:
182,192,256495,1,0,0:0:0:0:
402,192,256495,1,0,0:0:0:0:
256,192,256603,1,0,0:0:0:0:
329,192,256603,1,0,0:0:0:0:
36,192,256603,1,2,0:0:0:0:
182,192,256712,1,0,0:0:0:0:
402,192,256712,1,0,0:0:0:0:
475,192,256821,1,0,0:0:0:0:
329,192,256930,1,0,0:0:0:0:
256,192,257038,128,0,257256:0:0:0:0:
402,192,257038,1,2,0:0:0:0:
182,192,257256,128,0,257364:0:0:0:0:
475,192,257256,1,0,0:0:0:0:
109,192,257364,128,0,257473:0:0:0:0:
329,192,257473,128,0,257908:0:0:0:0:
402,192,257473,1,0,0:0:0:0:
36,192,257582,128,0,257908:0:0:0:0:
182,192,257690,1,0,0:0:0:0:
109,192,257908,1,0,0:0:0:0:
475,192,257908,1,2,0:0:0:0:
402,192,257908,1,4,0:0:0:0:
182,192,258125,1,0,0:0:0:0:
256,192,258343,1,0,0:0:0:0:
475,192,258343,1,2,0:0:0:0:
402,192,258560,1,0,0:0:0:0:
475,192,258777,1,2,0:0:0:0:
36,192,258995,1,0,0:0:0:0:
475,192,259212,1,2,0:0:0:0:
329,192,259430,1,0,0:0:0:0:
475,192,259647,1,2,0:0:0:0:
475,192,260082,1,2,0:0:0:0:
475,192,260516,1,2,0:0:0:0:
402,192,260516,1,0,0:0:0:0:
475,192,260951,1,2,0:0:0:0:
182,192,260951,1,0,0:0:0:0:
475,192,261386,1,2,0:0:0:0:
36,192,261386,1,0,0:0:0:0:
109,192,261603,1,0,0:0:0:0:
475,192,261821,1,2,0:0:0:0:
182,192,261821,1,0,0:0:0:0:
36,192,262038,1,0,0:0:0:0:
329,192,262038,1,0,0:0:0:0:
109,192,262093,1,0,0:0:0:0:
256,192,262147,1,0,0:0:0:0:
402,192,262201,1,0,0:0:0:0:
182,192,262256,128,0,262364:0:0:0:0:
256,192,262364,128,0,262473:0:0:0:0:
36,192,262473,1,0,0:0:0:0:
329,192,262473,128,0,262582:0:0:0:0:
402,192,262582,128,0,262690:0:0:0:0:
256,192,262690,128,0,262799:0:0:0:0:
329,192,262799,128,0,262908:0:0:0:0:
109,192,262908,1,0,0:0:0:0:
402,192,262908,128,0,263016:0:0:0:0:
475,192,263016,128,0,263125:0:0:0:0:
329,192,263125,1,0,0:0:0:0:
36,192,263125,1,2,0:0:0:0:
109,192,263234,1,0,0:0:0:0:
256,192,263343,1,0,0:0:0:0:
402,192,263451,1,0,0:0:0:0:
329,192,263560,1,0,0:0:0:0:
36,192,263560,1,2,0:0:0:0:
182,192,263669,1,0,0:0:0:0:
109,192,263777,1,0,0:0:0:0:
329,192,263886,1,0,0:0:0:0:
256,192,263995,128,0,264212:0:0:0:0:
402,192,263995,1,0,0:0:0:0:
182,192,264212,128,0,264430:0:0:0:0:
109,192,264430,128,0,264647:0:0:0:0:
475,192,264430,1,0,0:0:0:0:
36,192,264647,128,0,264864:0:0:0:0:
329,192,264864,1,0,0:0:0:0:
109,192,264864,1,0,0:0:0:0:
182,192,264973,1,0,0:0:0:0:
256,192,264973,1,0,0:0:0:0:
109,192,265082,1,0,0:0:0:0:
329,192,265082,1,0,0:0:0:0:
36,192,265190,1,0,0:0:0:0:
402,192,265190,1,0,0:0:0:0:
182,192,265299,1,0,0:0:0:0:
329,192,265299,1,0,0:0:0:0:
109,192,265408,1,0,0:0:0:0:
256,192,265408,1,0,0:0:0:0:
182,192,265516,1,0,0:0:0:0:
329,192,265516,1,0,0:0:0:0:
256,192,265625,1,0,0:0:0:0:
402,192,265625,1,0,0:0:0:0:
329,192,265734,1,0,0:0:0:0:
475,192,265734,1,0,0:0:0:0:
256,192,265843,1,0,0:0:0:0:
402,192,265843,1,0,0:0:0:0:
329,192,265951,1,0,0:0:0:0:
182,192,265951,1,0,0:0:0:0:
256,192,266060,1,0,0:0:0:0:
109,192,266060,1,0,0:0:0:0:
36,192,266169,1,0,0:0:0:0:
182,192,266169,1,0,0:0:0:0:
402,192,266277,1,0,0:0:0:0:
109,192,266277,1,0,0:0:0:0:
182,192,266386,1,0,0:0:0:0:
329,192,266386,1,0,0:0:0:0:
256,192,266495,1,0,0:0:0:0:
475,192,266495,1,0,0:0:0:0:
36,192,266603,1,0,0:0:0:0:
109,192,266603,1,0,0:0:0:0:
182,192,266712,1,0,0:0:0:0:
329,192,266712,1,0,0:0:0:0:
256,192,266821,1,0,0:0:0:0:
402,192,266821,1,0,0:0:0:0:
182,192,266930,1,0,0:0:0:0:
475,192,266930,1,0,0:0:0:0:
329,192,267038,1,0,0:0:0:0:
402,192,267038,1,0,0:0:0:0:
109,192,267147,1,0,0:0:0:0:
256,192,267147,1,0,0:0:0:0:
402,192,267256,1,0,0:0:0:0:
475,192,267256,1,0,0:0:0:0:
256,192,267364,1,0,0:0:0:0:
329,192,267364,1,0,0:0:0:0:
36,192,267473,1,0,0:0:0:0:
182,192,267473,1,0,0:0:0:0:
109,192,267582,1,0,0:0:0:0:
256,192,267582,1,0,0:0:0:0:
329,192,267690,1,0,0:0:0:0:
475,192,267690,1,0,0:0:0:0:
256,192,267799,1,0,0:0:0:0:
402,192,267799,1,0,0:0:0:0:
109,192,267908,1,0,0:0:0:0:
36,192,267908,1,0,0:0:0:0:
182,192,268016,1,0,0:0:0:0:
329,192,268016,1,0,0:0:0:0:
256,192,268125,1,0,0:0:0:0:
109,192,268125,1,0,0:0:0:0:
36,192,268234,1,0,0:0:0:0:
329,192,268234,1,0,0:0:0:0:
182,192,268343,1,0,0:0:0:0:
402,192,268343,1,0,0:0:0:0:
256,192,268451,1,0,0:0:0:0:
329,192,268451,1,0,0:0:0:0:
182,192,268560,1,0,0:0:0:0:
402,192,268560,1,0,0:0:0:0:
109,192,268669,1,0,0:0:0:0:
475,192,268669,1,0,0:0:0:0:
36,192,268777,1,0,0:0:0:0:
402,192,268777,1,0,0:0:0:0:
109,192,268886,1,0,0:0:0:0:
329,192,268886,1,0,0:0:0:0:
182,192,268995,1,0,0:0:0:0:
256,192,269049,1,0,0:0:0:0:
329,192,269103,1,0,0:0:0:0:
402,192,269158,1,0,0:0:0:0:
36,192,269212,128,0,269321:0:0:0:0:
475,192,269212,1,2,0:0:0:0:
109,192,269321,128,0,269430:0:0:0:0:
182,192,269430,128,0,269538:0:0:0:0:
256,192,269538,128,0,269647:0:0:0:0:
475,192,269647,1,2,0:0:0:0:
109,192,269647,128,0,269756:0:0:0:0:
182,192,269756,128,0,269864:0:0:0:0:
256,192,269864,128,0,269973:0:0:0:0:
329,192,269973,128,0,270082:0:0:0:0:
475,192,270082,1,0,0:0:0:0:
402,192,270136,1,0,0:0:0:0:
329,192,270190,1,0,0:0:0:0:
256,192,270245,1,0,0:0:0:0:
182,192,270299,1,0,0:0:0:0:
109,192,270372,1,0,0:0:0:0:
36,192,270444,1,0,0:0:0:0:
475,192,270516,1,0,0:0:0:0:
402,192,270625,1,0,0:0:0:0:
329,192,270734,1,0,0:0:0:0:
256,192,270843,1,0,0:0:0:0:
182,192,270951,1,0,0:0:0:0:
475,192,270951,1,0,0:0:0:0:
109,192,271096,1,0,0:0:0:0:
36,192,271241,1,0,0:0:0:0:
109,192,271386,1,0,0:0:0:0:
256,192,271386,1,2,0:0:0:0:
402,192,271386,1,8,0:0:0:0:
109,192,271495,1,0,0:0:0:0:
256,192,271495,1,2,0:0:0:0:
402,192,271495,1,8,0:0:0:0:
182,192,271603,1,0,0:0:0:0:
329,192,271603,1,2,0:0:0:0:
475,192,271603,1,8,0:0:0:0:
182,192,271712,1,0,0:0:0:0:
329,192,271712,1,2,0:0:0:0:
475,192,271712,1,8,0:0:0:0:
36,192,271821,1,2,0:0:0:0:
402,192,271821,1,0,0:0:0:0:
109,192,271821,1,0,0:0:0:0:
256,192,271821,1,0,0:0:0:0:
182,192,271930,1,0,0:0:0:0:
329,192,271930,1,0,0:0:0:0:
109,192,272038,1,0,0:0:0:0:
402,192,272038,1,0,0:0:0:0:
256,192,272147,1,0,0:0:0:0:
475,192,272147,1,0,0:0:0:0:
109,192,272256,1,0,0:0:0:0:
329,192,272256,1,0,0:0:0:0:
36,192,272256,1,2,0:0:0:0:
182,192,272364,1,0,0:0:0:0:
402,192,272364,1,0,0:0:0:0:
329,192,272473,1,0,0:0:0:0:
475,192,272473,1,0,0:0:0:0:
256,192,272582,1,0,0:0:0:0:
109,192,272582,1,0,0:0:0:0:
329,192,272690,1,0,0:0:0:0:
475,192,272690,1,0,0:0:0:0:
36,192,272690,1,2,0:0:0:0:
256,192,272799,1,0,0:0:0:0:
402,192,272799,1,0,0:0:0:0:
329,192,272908,1,0,0:0:0:0:
182,192,272908,1,0,0:0:0:0:
256,192,273016,1,0,0:0:0:0:
109,192,273016,1,0,0:0:0:0:
36,192,273125,1,2,0:0:0:0:
182,192,273125,1,0,0:0:0:0:
402,192,273125,1,0,0:0:0:0:
109,192,273234,1,0,0:0:0:0:
329,192,273234,1,0,0:0:0:0:
182,192,273343,1,0,0:0:0:0:
402,192,273343,1,0,0:0:0:0:
256,192,273451,1,0,0:0:0:0:
475,192,273451,1,0,0:0:0:0:
109,192,273560,1,0,0:0:0:0:
402,192,273560,1,0,0:0:0:0:
36,192,273560,1,2,0:0:0:0:
182,192,273669,1,0,0:0:0:0:
329,192,273669,1,0,0:0:0:0:
256,192,273777,1,0,0:0:0:0:
475,192,273777,1,0,0:0:0:0:
182,192,273886,1,0,0:0:0:0:
329,192,273886,1,0,0:0:0:0:
109,192,273995,1,0,0:0:0:0:
402,192,273995,1,0,0:0:0:0:
36,192,273995,1,2,0:0:0:0:
256,192,274103,1,0,0:0:0:0:
475,192,274103,1,0,0:0:0:0:
182,192,274212,1,0,0:0:0:0:
329,192,274212,1,0,0:0:0:0:
256,192,274321,1,0,0:0:0:0:
109,192,274321,1,0,0:0:0:0:
36,192,274430,1,2,0:0:0:0:
182,192,274430,1,0,0:0:0:0:
329,192,274430,1,0,0:0:0:0:
109,192,274538,1,0,0:0:0:0:
402,192,274538,1,0,0:0:0:0:
329,192,274647,1,0,0:0:0:0:
475,192,274647,1,0,0:0:0:0:
256,192,274756,1,0,0:0:0:0:
402,192,274756,1,0,0:0:0:0:
36,192,274864,1,2,0:0:0:0:
182,192,274864,1,0,0:0:0:0:
109,192,274864,1,0,0:0:0:0:
329,192,274973,1,0,0:0:0:0:
256,192,274973,1,0,0:0:0:0:
182,192,275082,1,0,0:0:0:0:
109,192,275082,1,0,0:0:0:0:
329,192,275190,1,0,0:0:0:0:
402,192,275190,1,0,0:0:0:0:
36,192,275299,1,2,0:0:0:0:
475,192,275299,1,0,0:0:0:0:
109,192,275299,1,0,0:0:0:0:
182,192,275408,1,0,0:0:0:0:
256,192,275408,1,0,0:0:0:0:
109,192,275516,1,0,0:0:0:0:
329,192,275516,1,0,0:0:0:0:
182,192,275625,1,0,0:0:0:0:
402,192,275625,1,0,0:0:0:0:
256,192,275734,1,0,0:0:0:0:
329,192,275734,1,0,0:0:0:0:
36,192,275734,1,2,0:0:0:0:
182,192,275843,1,0,0:0:0:0:
402,192,275843,1,0,0:0:0:0:
256,192,275951,1,0,0:0:0:0:
475,192,275951,1,0,0:0:0:0:
109,192,276060,1,0,0:0:0:0:
329,192,276060,1,0,0:0:0:0:
256,192,276169,1,0,0:0:0:0:
475,192,276169,1,0,0:0:0:0:
36,192,276169,1,2,0:0:0:0:
182,192,276277,1,0,0:0:0:0:
402,192,276277,1,0,0:0:0:0:
329,192,276386,1,0,0:0:0:0:
256,192,276386,1,0,0:0:0:0:
182,192,276495,1,0,0:0:0:0:
402,192,276495,1,0,0:0:0:0:
109,192,276603,1,0,0:0:0:0:
329,192,276603,1,0,0:0:0:0:
36,192,276603,1,2,0:0:0:0:
402,192,276712,1,0,0:0:0:0:
256,192,276712,1,0,0:0:0:0:
109,192,276821,1,0,0:0:0:0:
329,192,276821,1,0,0:0:0:0:
182,192,276930,1,0,0:0:0:0:
402,192,276930,1,0,0:0:0:0:
256,192,277038,1,0,0:0:0:0:
475,192,277038,1,0,0:0:0:0:
36,192,277038,1,2,0:0:0:0:
109,192,277147,1,0,0:0:0:0:
329,192,277147,1,0,0:0:0:0:
182,192,277256,1,0,0:0:0:0:
402,192,277256,1,0,0:0:0:0:
256,192,277364,1,0,0:0:0:0:
329,192,277364,1,0,0:0:0:0:
109,192,277473,1,0,0:0:0:0:
402,192,277473,1,0,0:0:0:0:
36,192,277473,1,2,0:0:0:0:
256,192,277582,1,0,0:0:0:0:
475,192,277582,1,0,0:0:0:0:
402,192,277690,1,0,0:0:0:0:
182,192,277690,1,0,0:0:0:0:
109,192,277799,1,0,0:0:0:0:
329,192,277799,1,0,0:0:0:0:
256,192,277908,1,0,0:0:0:0:
182,192,277908,1,0,0:0:0:0:
36,192,277908,1,2,0:0:0:0:
109,192,278016,1,0,0:0:0:0:
329,192,278016,1,0,0:0:0:0:
182,192,278125,1,0,0:0:0:0:
256,192,278125,1,0,0:0:0:0:
109,192,278234,1,0,0:0:0:0:
475,192,278234,1,0,0:0:0:0:
402,192,278343,1,0,0:0:0:0:
182,192,278343,1,0,0:0:0:0:
36,192,278343,1,2,0:0:0:0:
256,192,278451,1,0,0:0:0:0:
329,192,278451,1,0,0:0:0:0:
182,192,278560,1,0,0:0:0:0:
402,192,278560,1,0,0:0:0:0:
36,192,278669,1,0,0:0:0:0:
329,192,278669,1,0,0:0:0:0:
109,192,278777,1,0,0:0:0:0:
256,192,278777,1,0,0:0:0:0:
475,192,278777,1,2,0:0:0:0:
36,192,278886,1,0,0:0:0:0:
182,192,278886,1,0,0:0:0:0:
109,192,278995,1,0,0:0:0:0:
329,192,278995,1,0,0:0:0:0:
256,192,279103,1,0,0:0:0:0:
402,192,279103,1,0,0:0:0:0:
109,192,279212,1,0,0:0:0:0:
36,192,279212,1,0,0:0:0:0:
475,192,279212,1,2,0:0:0:0:
182,192,279321,1,0,0:0:0:0:
329,192,279321,1,0,0:0:0:0:
256,192,279430,1,0,0:0:0:0:
402,192,279430,1,0,0:0:0:0:
109,192,279538,1,0,0:0:0:0:
182,192,279538,1,0,0:0:0:0:
402,192,279647,1,0,0:0:0:0:
256,192,279647,1,0,0:0:0:0:
475,192,279647,1,2,0:0:0:0:
329,192,279756,1,0,0:0:0:0:
36,192,279756,1,0,0:0:0:0:
256,192,279864,1,0,0:0:0:0:
109,192,279864,1,0,0:0:0:0:
36,192,279973,1,0,0:0:0:0:
182,192,279973,1,0,0:0:0:0:
109,192,280082,1,0,0:0:0:0:
329,192,280082,1,0,0:0:0:0:
475,192,280082,1,2,0:0:0:0:
256,192,280190,1,0,0:0:0:0:
36,192,280190,1,0,0:0:0:0:
329,192,280299,1,0,0:0:0:0:
109,192,280299,1,0,0:0:0:0:
182,192,280408,1,0,0:0:0:0:
402,192,280408,1,0,0:0:0:0:
36,192,280516,1,0,0:0:0:0:
329,192,280516,1,0,0:0:0:0:
475,192,280516,1,2,0:0:0:0:
109,192,280625,1,0,0:0:0:0:
256,192,280625,1,0,0:0:0:0:
329,192,280734,1,0,0:0:0:0:
182,192,280734,1,0,0:0:0:0:
109,192,280843,1,0,0:0:0:0:
402,192,280843,1,0,0:0:0:0:
256,192,280951,1,0,0:0:0:0:
182,192,280951,1,0,0:0:0:0:
475,192,280951,1,2,0:0:0:0:
402,192,281060,1,0,0:0:0:0:
329,192,281060,1,0,0:0:0:0:
109,192,281169,1,0,0:0:0:0:
256,192,281169,1,0,0:0:0:0:
182,192,281277,1,0,0:0:0:0:
36,192,281277,1,0,0:0:0:0:
109,192,281386,1,0,0:0:0:0:
256,192,281386,1,0,0:0:0:0:
475,192,281386,1,2,0:0:0:0:
182,192,281495,1,0,0:0:0:0:
329,192,281495,1,0,0:0:0:0:
402,192,281603,1,0,0:0:0:0:
256,192,281603,1,0,0:0:0:0:
182,192,281712,1,0,0:0:0:0:
329,192,281712,1,0,0:0:0:0:
36,192,281821,1,0,0:0:0:0:
109,192,281821,1,0,0:0:0:0:
475,192,281821,1,2,0:0:0:0:
329,192,281930,1,0,0:0:0:0:
256,192,281930,1,0,0:0:0:0:
109,192,282038,1,0,0:0:0:0:
36,192,282038,1,0,0:0:0:0:
329,192,282147,1,0,0:0:0:0:
402,192,282147,1,0,0:0:0:0:
256,192,282256,1,0,0:0:0:0:
36,192,282256,1,0,0:0:0:0:
475,192,282256,1,2,0:0:0:0:
182,192,282364,1,0,0:0:0:0:
109,192,282364,1,0,0:0:0:0:
36,192,282473,1,0,0:0:0:0:
256,192,282473,1,0,0:0:0:0:
329,192,282582,1,0,0:0:0:0:
109,192,282582,1,0,0:0:0:0:
182,192,282690,1,0,0:0:0:0:
256,192,282690,1,0,0:0:0:0:
475,192,282690,1,2,0:0:0:0:
109,192,282799,1,0,0:0:0:0:
329,192,282799,1,0,0:0:0:0:
402,192,282908,1,0,0:0:0:0:
182,192,282908,1,0,0:0:0:0:
256,192,283016,1,0,0:0:0:0:
36,192,283016,1,0,0:0:0:0:
182,192,283125,1,0,0:0:0:0:
402,192,283125,1,0,0:0:0:0:
475,192,283125,1,2,0:0:0:0:
329,192,283234,1,0,0:0:0:0:
109,192,283234,1,0,0:0:0:0:
256,192,283343,1,0,0:0:0:0:
182,192,283343,1,0,0:0:0:0:
329,192,283451,1,0,0:0:0:0:
109,192,283451,1,0,0:0:0:0:
256,192,283560,1,0,0:0:0:0:
36,192,283560,1,0,0:0:0:0:
475,192,283560,1,2,0:0:0:0:
402,192,283669,1,0,0:0:0:0:
182,192,283669,1,0,0:0:0:0:
256,192,283777,1,0,0:0:0:0:
36,192,283777,1,0,0:0:0:0:
109,192,283886,1,0,0:0:0:0:
329,192,283886,1,0,0:0:0:0:
402,192,283995,1,0,0:0:0:0:
182,192,283995,1,0,0:0:0:0:
475,192,283995,1,2,0:0:0:0:
256,192,284103,1,0,0:0:0:0:
36,192,284103,1,0,0:0:0:0:
329,192,284212,1,0,0:0:0:0:
109,192,284212,1,0,0:0:0:0:
182,192,284321,1,0,0:0:0:0:
256,192,284321,1,0,0:0:0:0:
109,192,284430,1,0,0:0:0:0:
329,192,284430,1,0,0:0:0:0:
475,192,284430,1,2,0:0:0:0:
402,192,284538,1,0,0:0:0:0:
182,192,284538,1,0,0:0:0:0:
329,192,284647,1,0,0:0:0:0:
109,192,284647,1,0,0:0:0:0:
256,192,284756,1,0,0:0:0:0:
36,192,284756,1,0,0:0:0:0:
329,192,284864,1,0,0:0:0:0:
182,192,284864,1,0,0:0:0:0:
475,192,284864,1,2,0:0:0:0:
256,192,284973,1,0,0:0:0:0:
36,192,284973,1,0,0:0:0:0:
182,192,285082,1,0,0:0:0:0:
109,192,285082,1,0,0:0:0:0:
402,192,285190,1,0,0:0:0:0:
36,192,285190,1,0,0:0:0:0:
329,192,285299,1,0,0:0:0:0:
109,192,285299,1,0,0:0:0:0:
475,192,285299,1,2,0:0:0:0:
182,192,285408,1,0,0:0:0:0:
256,192,285408,1,0,0:0:0:0:
329,192,285516,1,0,0:0:0:0:
475,192,285516,1,2,0:0:0:0:
36,192,285516,1,0,0:0:0:0:
256,192,285625,1,0,0:0:0:0:
109,192,285625,1,0,0:0:0:0:
36,192,285734,1,2,0:0:0:0:
182,192,285734,1,0,0:0:0:0:
475,192,285734,1,4,0:0:0:0:
329,192,285734,1,0,0:0:0:0:
402,192,285734,1,0,0:0:0:0:
256,192,285843,1,0,0:0:0:0:
109,192,285843,1,0,0:0:0:0:
182,192,285951,1,0,0:0:0:0:
402,192,285951,1,0,0:0:0:0:
256,192,286060,1,0,0:0:0:0:
475,192,286060,1,0,0:0:0:0:
402,192,286169,1,0,0:0:0:0:
36,192,286169,1,2,0:0:0:0:
109,192,286169,1,0,0:0:0:0:
329,192,286277,1,0,0:0:0:0:
182,192,286277,1,0,0:0:0:0:
402,192,286386,1,0,0:0:0:0:
256,192,286386,1,0,0:0:0:0:
182,192,286495,1,0,0:0:0:0:
109,192,286495,1,0,0:0:0:0:
329,192,286603,1,0,0:0:0:0:
475,192,286603,1,0,0:0:0:0:
36,192,286603,1,2,0:0:0:0:
256,192,286712,1,0,0:0:0:0:
402,192,286712,1,0,0:0:0:0:
182,192,286821,1,0,0:0:0:0:
329,192,286821,1,0,0:0:0:0:
109,192,286930,1,0,0:0:0:0:
256,192,286930,1,0,0:0:0:0:
182,192,287038,1,0,0:0:0:0:
36,192,287038,1,2,0:0:0:0:
402,192,287038,1,0,0:0:0:0:
109,192,287147,1,0,0:0:0:0:
329,192,287147,1,0,0:0:0:0:
182,192,287256,1,0,0:0:0:0:
402,192,287256,1,0,0:0:0:0:
256,192,287364,1,0,0:0:0:0:
475,192,287364,1,0,0:0:0:0:
329,192,287473,1,0,0:0:0:0:
36,192,287473,1,2,0:0:0:0:
109,192,287473,1,0,0:0:0:0:
402,192,287473,1,0,0:0:0:0:
182,192,287582,1,0,0:0:0:0:
475,192,287582,1,0,0:0:0:0:
256,192,287690,1,0,0:0:0:0:
329,192,287690,1,0,0:0:0:0:
182,192,287799,1,0,0:0:0:0:
402,192,287799,1,0,0:0:0:0:
256,192,287908,1,0,0:0:0:0:
36,192,287908,1,2,0:0:0:0:
109,192,287908,1,0,0:0:0:0:
475,192,288016,1,0,0:0:0:0:
402,192,288016,1,0,0:0:0:0:
329,192,288125,1,0,0:0:0:0:
182,192,288125,1,0,0:0:0:0:
256,192,288234,1,0,0:0:0:0:
109,192,288234,1,0,0:0:0:0:
36,192,288343,1,2,0:0:0:0:
182,192,288343,1,0,0:0:0:0:
402,192,288343,1,0,0:0:0:0:
109,192,288451,1,0,0:0:0:0:
256,192,288451,1,0,0:0:0:0:
475,192,288560,1,0,0:0:0:0:
329,192,288560,1,0,0:0:0:0:
402,192,288669,1,0,0:0:0:0:
256,192,288669,1,0,0:0:0:0:
182,192,288777,1,0,0:0:0:0:
36,192,288777,1,2,0:0:0:0:
109,192,288777,1,0,0:0:0:0:
475,192,288777,1,0,0:0:0:0:
329,192,288886,1,0,0:0:0:0:
256,192,288886,1,0,0:0:0:0:
402,192,288995,1,0,0:0:0:0:
109,192,288995,1,0,0:0:0:0:
182,192,289103,1,0,0:0:0:0:
329,192,289103,1,0,0:0:0:0:
109,192,289212,1,0,0:0:0:0:
402,192,289212,1,0,0:0:0:0:
36,192,289212,1,2,0:0:0:0:
475,192,289212,1,0,0:0:0:0:
182,192,289321,1,0,0:0:0:0:
256,192,289321,1,0,0:0:0:0:
109,192,289430,1,0,0:0:0:0:
329,192,289430,1,0,0:0:0:0:
182,192,289538,1,0,0:0:0:0:
402,192,289538,1,0,0:0:0:0:
329,192,289647,1,0,0:0:0:0:
36,192,289647,1,2,0:0:0:0:
256,192,289647,1,0,0:0:0:0:
402,192,289756,1,0,0:0:0:0:
182,192,289756,1,0,0:0:0:0:
475,192,289864,1,0,0:0:0:0:
256,192,289864,1,0,0:0:0:0:
109,192,289973,1,0,0:0:0:0:
329,192,289973,1,0,0:0:0:0:
256,192,290082,1,0,0:0:0:0:
475,192,290082,1,0,0:0:0:0:
36,192,290082,1,2,0:0:0:0:
182,192,290190,1,0,0:0:0:0:
402,192,290190,1,0,0:0:0:0:
256,192,290299,1,0,0:0:0:0:
329,192,290299,1,0,0:0:0:0:
402,192,290408,1,0,0:0:0:0:
182,192,290408,1,0,0:0:0:0:
329,192,290516,1,0,0:0:0:0:
109,192,290516,1,0,0:0:0:0:
36,192,290516,1,2,0:0:0:0:
475,192,290625,1,0,0:0:0:0:
256,192,290625,1,0,0:0:0:0:
109,192,290734,1,0,0:0:0:0:
329,192,290734,1,0,0:0:0:0:
182,192,290843,1,0,0:0:0:0:
402,192,290843,1,0,0:0:0:0:
256,192,290951,1,0,0:0:0:0:
36,192,290951,1,2,0:0:0:0:
475,192,290951,1,0,0:0:0:0:
329,192,290951,1,0,0:0:0:0:
109,192,291060,1,0,0:0:0:0:
402,192,291060,1,0,0:0:0:0:
182,192,291169,1,0,0:0:0:0:
475,192,291169,1,0,0:0:0:0:
329,192,291277,1,0,0:0:0:0:
256,192,291277,1,0,0:0:0:0:
109,192,291386,1,0,0:0:0:0:
36,192,291386,1,2,0:0:0:0:
402,192,291386,1,0,0:0:0:0:
256,192,291495,1,0,0:0:0:0:
475,192,291495,1,0,0:0:0:0:
182,192,291603,1,0,0:0:0:0:
402,192,291603,1,0,0:0:0:0:
109,192,291712,1,0,0:0:0:0:
329,192,291712,1,0,0:0:0:0:
36,192,291821,1,2,0:0:0:0:
256,192,291821,1,0,0:0:0:0:
182,192,291821,1,0,0:0:0:0:
402,192,291930,1,0,0:0:0:0:
109,192,291930,1,0,0:0:0:0:
475,192,292038,1,0,0:0:0:0:
182,192,292038,1,0,0:0:0:0:
109,192,292147,1,0,0:0:0:0:
329,192,292147,1,0,0:0:0:0:
256,192,292256,1,0,0:0:0:0:
402,192,292256,1,0,0:0:0:0:
36,192,292256,1,2,0:0:0:0:
182,192,292364,1,0,0:0:0:0:
475,192,292364,1,0,0:0:0:0:
402,192,292473,1,0,0:0:0:0:
109,192,292473,1,0,0:0:0:0:
329,192,292582,1,0,0:0:0:0:
182,192,292582,1,0,0:0:0:0:
109,192,292690,1,0,0:0:0:0:
475,192,292690,1,2,0:0:0:0:
256,192,292690,1,0,0:0:0:0:
402,192,292690,1,0,0:0:0:0:
36,192,292799,1,0,0:0:0:0:
182,192,292799,1,0,0:0:0:0:
329,192,292908,1,0,0:0:0:0:
109,192,292908,1,0,0:0:0:0:
475,192,292908,1,2,0:0:0:0:
256,192,293016,1,0,0:0:0:0:
402,192,293016,1,0,0:0:0:0:
109,192,293125,1,0,0:0:0:0:
475,192,293125,1,2,0:0:0:0:
36,192,293125,1,0,0:0:0:0:
182,192,293234,1,0,0:0:0:0:
329,192,293234,1,0,0:0:0:0:
256,192,293343,1,0,0:0:0:0:
402,192,293343,1,0,0:0:0:0:
475,192,293343,1,2,0:0:0:0:
109,192,293451,1,0,0:0:0:0:
36,192,293451,1,0,0:0:0:0:
475,192,293560,1,2,0:0:0:0:
402,192,293560,1,0,0:0:0:0:
256,192,293560,1,0,0:0:0:0:
329,192,293669,1,0,0:0:0:0:
182,192,293669,1,0,0:0:0:0:
109,192,293777,1,0,0:0:0:0:
256,192,293777,1,0,0:0:0:0:
475,192,293777,1,2,0:0:0:0:
182,192,293886,1,0,0:0:0:0:
36,192,293886,1,0,0:0:0:0:
109,192,293995,1,0,0:0:0:0:
475,192,293995,1,2,0:0:0:0:
329,192,293995,1,0,0:0:0:0:
36,192,294103,1,0,0:0:0:0:
256,192,294103,1,0,0:0:0:0:
109,192,294212,1,0,0:0:0:0:
329,192,294212,1,0,0:0:0:0:
475,192,294212,1,2,0:0:0:0:
256,192,294321,1,0,0:0:0:0:
402,192,294321,1,0,0:0:0:0:
182,192,294430,1,0,0:0:0:0:
475,192,294430,1,2,0:0:0:0:
36,192,294430,1,0,0:0:0:0:
329,192,294430,1,0,0:0:0:0:
109,192,294538,1,0,0:0:0:0:
256,192,294538,1,0,0:0:0:0:
329,192,294647,1,0,0:0:0:0:
182,192,294647,1,0,0:0:0:0:
475,192,294647,1,2,0:0:0:0:
109,192,294756,1,0,0:0:0:0:
36,192,294756,1,0,0:0:0:0:
182,192,294864,1,0,0:0:0:0:
475,192,294864,1,2,0:0:0:0:
256,192,294864,1,0,0:0:0:0:
329,192,294973,1,0,0:0:0:0:
402,192,294973,1,0,0:0:0:0:
256,192,295082,1,0,0:0:0:0:
109,192,295082,1,0,0:0:0:0:
475,192,295082,1,2,0:0:0:0:
182,192,295190,1,0,0:0:0:0:
36,192,295190,1,0,0:0:0:0:
109,192,295299,1,0,0:0:0:0:
256,192,295299,1,0,0:0:0:0:
475,192,295299,1,2,0:0:0:0:
36,192,295408,1,0,0:0:0:0:
329,192,295408,1,0,0:0:0:0:
256,192,295516,1,0,0:0:0:0:
402,192,295516,1,0,0:0:0:0:
475,192,295516,1,2,0:0:0:0:
329,192,295625,1,0,0:0:0:0:
182,192,295625,1,0,0:0:0:0:
109,192,295734,1,0,0:0:0:0:
36,192,295734,1,0,0:0:0:0:
475,192,295734,1,2,0:0:0:0:
182,192,295843,1,0,0:0:0:0:
256,192,295843,1,0,0:0:0:0:
109,192,295951,1,0,0:0:0:0:
36,192,295951,1,0,0:0:0:0:
475,192,295951,1,2,0:0:0:0:
329,192,296060,1,0,0:0:0:0:
182,192,296060,1,0,0:0:0:0:
256,192,296169,1,0,0:0:0:0:
475,192,296169,1,2,0:0:0:0:
36,192,296169,1,0,0:0:0:0:
109,192,296277,1,0,0:0:0:0:
182,192,296277,1,0,0:0:0:0:
402,192,296277,1,2,0:0:0:0:
256,192,296386,1,0,0:0:0:0:
36,192,296386,1,0,0:0:0:0:
475,192,296386,1,2,0:0:0:0:
109,192,296495,1,0,0:0:0:0:
329,192,296495,1,2,0:0:0:0:
402,192,296495,1,0,0:0:0:0:
182,192,296603,1,0,0:0:0:0:
475,192,296603,1,2,0:0:0:0:
256,192,296603,1,0,0:0:0:0:
109,192,296712,1,0,0:0:0:0:
329,192,296712,1,2,0:0:0:0:
402,192,296712,1,0,0:0:0:0:
182,192,296821,1,0,0:0:0:0:
475,192,296821,1,2,0:0:0:0:
36,192,296821,1,0,0:0:0:0:
256,192,296930,1,0,0:0:0:0:
402,192,296930,1,0,0:0:0:0:
329,192,296930,1,2,0:0:0:0:
475,192,297038,1,2,0:0:0:0:
182,192,297038,1,0,0:0:0:0:
36,192,297038,1,0,0:0:0:0:
109,192,297147,1,0,0:0:0:0:
329,192,297147,1,2,0:0:0:0:
402,192,297147,1,0,0:0:0:0:
182,192,297256,1,0,0:0:0:0:
256,192,297256,1,0,0:0:0:0:
475,192,297256,1,2,0:0:0:0:
329,192,297364,1,2,0:0:0:0:
109,192,297364,1,0,0:0:0:0:
402,192,297364,1,0,0:0:0:0:
36,192,297473,1,0,0:0:0:0:
256,192,297473,1,0,0:0:0:0:
475,192,297473,1,2,0:0:0:0:
329,192,297582,1,2,0:0:0:0:
182,192,297582,1,0,0:0:0:0:
402,192,297582,1,0,0:0:0:0:
36,192,297690,1,0,0:0:0:0:
256,192,297690,1,0,0:0:0:0:
475,192,297690,1,2,0:0:0:0:
329,192,297799,1,2,0:0:0:0:
109,192,297799,1,0,0:0:0:0:
402,192,297799,1,0,0:0:0:0:
182,192,297908,1,0,0:0:0:0:
475,192,297908,1,2,0:0:0:0:
256,192,298016,1,0,0:0:0:0:
36,192,298016,1,0,0:0:0:0:
109,192,298125,1,0,0:0:0:0:
329,192,298125,1,0,0:0:0:0:
182,192,298234,1,0,0:0:0:0:
256,192,298234,1,0,0:0:0:0:
329,192,298343,1,0,0:0:0:0:
36,192,298343,1,0,0:0:0:0:
182,192,298451,1,0,0:0:0:0:
402,192,298451,1,0,0:0:0:0:
109,192,298560,1,0,0:0:0:0:
329,192,298560,1,0,0:0:0:0:
256,192,298669,1,0,0:0:0:0:
36,192,298669,1,0,0:0:0:0:
182,192,298777,1,0,0:0:0:0:
109,192,298777,1,0,0:0:0:0:
256,192,298886,1,0,0:0:0:0:
36,192,298886,1,0,0:0:0:0:
109,192,298995,1,0,0:0:0:0:
182,192,298995,1,0,0:0:0:0:
402,192,299103,1,2,0:0:0:0:
36,192,299103,1,0,0:0:0:0:
256,192,299103,1,0,0:0:0:0:
329,192,299212,1,0,0:0:0:0:
475,192,299212,1,2,0:0:0:0:
109,192,299212,1,0,0:0:0:0:
256,192,299321,1,0,0:0:0:0:
182,192,299321,1,0,0:0:0:0:
109,192,299430,1,0,0:0:0:0:
475,192,299430,1,2,0:0:0:0:
329,192,299430,1,0,0:0:0:0:
402,192,299538,1,0,0:0:0:0:
36,192,299538,1,0,0:0:0:0:
109,192,299647,1,0,0:0:0:0:
256,192,299647,1,0,0:0:0:0:
475,192,299647,1,2,0:0:0:0:
402,192,300082,1,0,0:0:0:0:
182,192,300734,1,0,0:0:0:0:
256,192,301169,1,0,0:0:0:0:
256,192,301277,1,0,0:0:0:0:
109,192,301386,1,0,0:0:0:0:
402,192,301386,1,0,0:0:0:0:
329,192,302038,1,0,0:0:0:0:
402,192,302690,1,0,0:0:0:0:
109,192,302690,1,0,0:0:0:0:
475,192,303125,1,0,0:0:0:0:
36,192,303125,1,0,0:0:0:0:
402,192,303560,1,0,0:0:0:0:
109,192,304212,1,0,0:0:0:0:
256,192,304647,1,0,0:0:0:0:
256,192,304756,1,0,0:0:0:0:
402,192,304864,1,0,0:0:0:0:
182,192,304864,1,0,0:0:0:0:
475,192,305516,1,0,0:0:0:0:
36,192,306169,1,0,0:0:0:0:
109,192,306603,1,0,0:0:0:0:
256,192,306603,1,0,0:0:0:0:
402,192,307038,1,0,0:0:0:0:
182,192,307690,1,0,0:0:0:0:
256,192,308125,1,0,0:0:0:0:
256,192,308234,1,0,0:0:0:0:
329,192,308343,1,0,0:0:0:0:
36,192,308343,1,0,0:0:0:0:
402,192,308995,1,0,0:0:0:0:
475,192,309647,1,0,0:0:0:0:
109,192,309647,1,0,0:0:0:0:
36,192,310082,1,0,0:0:0:0:
256,192,310516,1,0,0:0:0:0:
329,192,311169,1,0,0:0:0:0:
402,192,311603,1,0,0:0:0:0:
402,192,311712,1,0,0:0:0:0:
36,192,311821,1,0,0:0:0:0:
182,192,311821,1,0,0:0:0:0:
329,192,312473,1,0,0:0:0:0:
36,192,312690,1,0,0:0:0:0:
182,192,312835,1,0,0:0:0:0:
329,192,312980,1,0,0:0:0:0:
109,192,313125,1,0,0:0:0:0:
475,192,313125,1,0,0:0:0:0:
402,192,313270,1,0,0:0:0:0:
256,192,313415,1,0,0:0:0:0:
36,192,313560,1,8,0:0:0:0:
475,192,313560,1,4,0:0:0:0:
182,192,313560,1,0,0:0:0:0:
329,192,313560,1,0,0:0:0:0:
