osu file format v14

[General]
AudioFilename: audio.mp3
AudioLeadIn: 0
PreviewTime: 102689
Countdown: 0
SampleSet: Normal
StackLeniency: 0.7
Mode: 1
LetterboxInBreaks: 0
WidescreenStoryboard: 1

[Editor]
DistanceSpacing: 1.5
BeatDivisor: 4
GridSize: 32
TimelineZoom: 1.6

[Metadata]
Title:Testify
TitleUnicode:Testify
Artist:void (Mournfinale) feat. Hoshikuma Minami
ArtistUnicode:void (Mournfinale) feat. 星熊南巫
Creator:_mtk
Version:Muzukashii
Source:Arcaea
Tags:lowiro final verdict video rhythm game electronic instrumental ft. orchestral pop trance fatal choice hikari tairitsu 光 対立
BeatmapID:3700984
BeatmapSetID:1802506

[Difficulty]
HPDrainRate:6.5
CircleSize:5
OverallDifficulty:5
ApproachRate:5
SliderMultiplier:1.4
SliderTickRate:1

[Events]
//Background and Video events
0,0,"bg.jpg",0,145
//Break Periods
2,2904,7234
2,147173,149818
//Storyboard Layer 0 (Background)
//Storyboard Layer 1 (Fail)
//Storyboard Layer 2 (Pass)
//Storyboard Layer 3 (Foreground)
//Storyboard Layer 4 (Overlay)
//Storyboard Sound Samples

[TimingPoints]
1355,337.078651685393,4,1,0,100,1,0
7718,-100,4,1,0,70,0,0
12099,-100,4,1,0,100,0,0
12141,337.078651685393,4,1,0,100,1,8
12142,337.078651685393,4,1,0,100,1,0
12142,-100,4,1,0,100,0,1
17535,-100,4,1,0,100,0,0
69571,-100,4,1,0,70,0,0
71425,-100,4,1,0,100,0,0
75302,-100,4,1,0,70,0,0
76819,-100,4,1,0,100,0,0
106524,-100,4,1,0,100,0,1
124052,-100,4,1,0,100,0,0
125737,-100,4,1,0,100,0,1
130793,-100,4,1,0,100,0,0
136186,-100,4,1,0,100,0,1
141580,-100,4,1,0,100,0,0
144276,-100,4,1,0,100,0,1
146973,-100,4,1,0,100,0,0
157759,-100,4,1,0,100,0,1
167872,-100,4,1,0,100,0,0
168546,-100,4,1,0,100,0,1
171369,-100,4,1,0,100,0,0

[HitObjects]
256,192,2704,5,4,0:0:0:0:
256,192,8434,5,0,0:0:0:0:
256,192,8771,1,0,0:0:0:0:
256,192,9108,1,8,0:0:0:0:
256,192,9445,1,8,0:0:0:0:
256,192,9951,1,0,0:0:0:0:
256,192,10119,1,8,0:0:0:0:
256,192,10456,1,0,0:0:0:0:
256,192,10793,1,0,0:0:0:0:
256,192,10962,1,8,0:0:0:0:
256,192,12142,5,4,0:0:0:0:
320,192,12479,1,8,0:0:0:0:
288,192,12816,1,4,0:0:0:0:
288,192,13153,1,8,0:0:0:0:
288,192,13321,1,8,0:0:0:0:
288,192,13490,1,4,0:0:0:0:
288,192,13827,1,8,0:0:0:0:
288,192,14164,1,4,0:0:0:0:
288,192,14501,1,0,0:0:0:0:
288,192,14670,1,8,0:0:0:0:
288,192,14838,1,4,0:0:0:0:
288,192,15175,1,8,0:0:0:0:
288,192,15512,1,4,0:0:0:0:
288,192,15850,1,8,0:0:0:0:
288,192,16018,1,8,0:0:0:0:
288,192,16187,1,4,0:0:0:0:
288,192,16524,1,8,0:0:0:0:
288,192,16861,1,4,0:0:0:0:
288,192,17198,1,0,0:0:0:0:
288,192,17366,1,8,0:0:0:0:
256,192,17535,1,4,0:0:0:0:
256,192,17872,12,0,19557,0:0:0:0:
288,192,20232,5,0,0:0:0:0:
288,192,20569,1,8,0:0:0:0:
288,192,20737,1,8,0:0:0:0:
288,192,20906,1,0,0:0:0:0:
288,192,21243,1,0,0:0:0:0:
288,192,21411,1,8,0:0:0:0:
288,192,21580,1,0,0:0:0:0:
224,160,22086,1,0,0:0:0:0:
288,192,22254,1,0,0:0:0:0:
320,192,22338,1,0,0:0:0:0:
288,192,22423,1,0,0:0:0:0:
288,192,22591,1,8,0:0:0:0:
288,192,22760,1,8,0:0:0:0:
320,192,22928,1,4,0:0:0:0:
288,192,23265,1,0,0:0:0:0:
288,192,23434,1,8,0:0:0:0:
288,192,23602,1,0,0:0:0:0:
288,192,23687,1,0,0:0:0:0:
288,192,23771,1,0,0:0:0:0:
288,192,23939,1,8,0:0:0:0:
288,192,24108,1,0,0:0:0:0:
288,192,24277,1,0,0:0:0:0:
288,192,24614,1,0,0:0:0:0:
288,192,24782,1,8,0:0:0:0:
288,192,24951,1,0,0:0:0:0:
288,192,25035,1,0,0:0:0:0:
288,192,25119,1,0,0:0:0:0:
288,192,25288,1,8,0:0:0:0:
288,192,25456,1,8,0:0:0:0:
288,160,25625,1,0,0:0:0:0:
256,192,25962,1,0,0:0:0:0:
256,192,26130,1,8,0:0:0:0:
256,192,26299,1,0,0:0:0:0:
256,192,26383,1,0,0:0:0:0:
256,192,26468,1,0,0:0:0:0:
256,192,26636,1,8,0:0:0:0:
256,160,26805,1,0,0:0:0:0:
256,192,26973,1,0,0:0:0:0:
288,160,27310,1,0,0:0:0:0:
288,160,27479,1,8,0:0:0:0:
288,160,27647,1,0,0:0:0:0:
288,160,27732,1,0,0:0:0:0:
288,160,27816,1,0,0:0:0:0:
288,160,27984,1,8,0:0:0:0:
288,160,28153,1,8,0:0:0:0:
288,160,28321,1,4,0:0:0:0:
288,160,28659,1,8,0:0:0:0:
288,160,28996,1,0,0:0:0:0:
288,160,29333,1,8,0:0:0:0:
288,160,29501,1,0,0:0:0:0:
288,160,29670,1,0,0:0:0:0:
288,160,29838,1,0,0:0:0:0:
288,160,30007,1,8,0:0:0:0:
288,160,30175,1,8,0:0:0:0:
288,160,30344,1,0,0:0:0:0:
288,160,30428,1,0,0:0:0:0:
288,160,30512,1,0,0:0:0:0:
288,160,30681,1,8,0:0:0:0:
288,160,30850,1,8,0:0:0:0:
256,160,31018,1,0,0:0:0:0:
256,160,31355,1,8,0:0:0:0:
256,160,31524,1,0,0:0:0:0:
256,160,31692,1,0,0:0:0:0:
256,160,31777,1,0,0:0:0:0:
256,160,31861,1,0,0:0:0:0:
256,160,32029,1,8,0:0:0:0:
288,160,32198,1,0,0:0:0:0:
288,160,32366,1,0,0:0:0:0:
288,160,32535,1,0,0:0:0:0:
256,160,32703,1,8,0:0:0:0:
256,160,32872,1,8,0:0:0:0:
256,160,33041,1,0,0:0:0:0:
256,160,33125,1,0,0:0:0:0:
256,160,33209,1,0,0:0:0:0:
256,160,33378,1,8,0:0:0:0:
256,160,33547,1,8,0:0:0:0:
256,128,34052,1,4,0:0:0:0:
256,128,34220,1,8,0:0:0:0:
256,128,34389,1,0,0:0:0:0:
256,128,34557,1,8,0:0:0:0:
224,128,34895,1,0,0:0:0:0:
224,128,35063,1,8,0:0:0:0:
224,128,35400,1,8,0:0:0:0:
224,128,35569,1,0,0:0:0:0:
224,128,35906,1,8,0:0:0:0:
224,128,36074,1,0,0:0:0:0:
224,128,36159,1,0,0:0:0:0:
224,128,36243,1,0,0:0:0:0:
224,128,36411,1,8,0:0:0:0:
224,96,36748,1,8,0:0:0:0:
224,128,36917,1,8,0:0:0:0:
224,128,37086,1,0,0:0:0:0:
192,128,37254,1,0,0:0:0:0:
192,128,37423,1,8,0:0:0:0:
192,96,37591,1,0,0:0:0:0:
192,128,37760,1,8,0:0:0:0:
160,128,37928,1,8,0:0:0:0:
160,128,38097,1,0,0:0:0:0:
224,128,38265,1,8,0:0:0:0:
224,128,38434,1,0,0:0:0:0:
224,128,38518,1,0,0:0:0:0:
224,128,38602,1,0,0:0:0:0:
224,160,38771,1,8,0:0:0:0:
224,160,39108,1,0,0:0:0:0:
224,128,39445,1,8,0:0:0:0:
224,160,39782,1,0,0:0:0:0:
224,128,39951,1,8,0:0:0:0:
224,128,40119,1,0,0:0:0:0:
224,128,40288,1,8,0:0:0:0:
224,128,40372,1,8,0:0:0:0:
224,128,40456,1,8,0:0:0:0:
224,128,40625,1,0,0:0:0:0:
224,128,40793,1,8,0:0:0:0:
224,128,41130,1,8,0:0:0:0:
224,128,41299,1,0,0:0:0:0:
224,128,41468,1,0,0:0:0:0:
224,128,41552,1,0,0:0:0:0:
224,128,41636,1,0,0:0:0:0:
224,128,41805,1,8,0:0:0:0:
224,128,42142,1,0,0:0:0:0:
224,128,42226,1,0,0:0:0:0:
224,128,42310,1,0,0:0:0:0:
320,160,42647,1,0,0:0:0:0:
320,160,42732,1,0,0:0:0:0:
256,128,42816,1,0,0:0:0:0:
256,128,42984,1,8,0:0:0:0:
256,128,43069,1,8,0:0:0:0:
256,128,43153,1,8,0:0:0:0:
256,128,43490,1,0,0:0:0:0:
256,128,43574,1,0,0:0:0:0:
256,128,43659,1,0,0:0:0:0:
256,128,44164,1,8,0:0:0:0:
288,128,44501,1,4,0:0:0:0:
288,128,44670,1,0,0:0:0:0:
288,128,44838,1,8,0:0:0:0:
256,128,45175,1,8,0:0:0:0:
256,128,45260,1,8,0:0:0:0:
256,128,45344,1,8,0:0:0:0:
256,128,45512,1,0,0:0:0:0:
256,128,45681,1,8,0:0:0:0:
256,128,45850,1,0,0:0:0:0:
256,128,45934,1,0,0:0:0:0:
256,128,46018,1,0,0:0:0:0:
256,128,46187,1,8,0:0:0:0:
256,128,46355,1,0,0:0:0:0:
256,128,46692,1,0,0:0:0:0:
256,128,46861,1,8,0:0:0:0:
256,128,47198,1,0,0:0:0:0:
320,96,47366,1,8,0:0:0:0:
256,96,47451,1,8,0:0:0:0:
320,128,47535,1,8,0:0:0:0:
320,128,47703,1,0,0:0:0:0:
320,128,47872,1,8,0:0:0:0:
320,128,48041,1,8,0:0:0:0:
320,128,48209,1,0,0:0:0:0:
320,128,48378,1,8,0:0:0:0:
320,128,48546,1,0,0:0:0:0:
320,128,48883,1,8,0:0:0:0:
320,128,49220,1,0,0:0:0:0:
320,160,49389,1,8,0:0:0:0:
320,128,49895,1,0,0:0:0:0:
288,128,50063,1,0,0:0:0:0:
288,128,50147,1,0,0:0:0:0:
320,128,50232,1,0,0:0:0:0:
320,128,50400,1,8,0:0:0:0:
352,128,50569,1,0,0:0:0:0:
352,128,50737,1,0,0:0:0:0:
352,128,50906,1,8,0:0:0:0:
352,128,51074,1,8,0:0:0:0:
352,128,51243,1,0,0:0:0:0:
352,128,51327,1,0,0:0:0:0:
352,128,51411,1,0,0:0:0:0:
352,128,51580,1,8,0:0:0:0:
352,128,51748,1,0,0:0:0:0:
352,128,51917,1,8,0:0:0:0:
352,128,52254,1,0,0:0:0:0:
352,128,52423,1,8,0:0:0:0:
352,128,52591,1,0,0:0:0:0:
352,128,52675,1,0,0:0:0:0:
352,128,52760,1,0,0:0:0:0:
352,128,53097,1,0,0:0:0:0:
288,128,53181,1,0,0:0:0:0:
352,128,53266,1,0,0:0:0:0:
352,128,53602,1,8,0:0:0:0:
352,128,53687,1,8,0:0:0:0:
352,128,53771,1,8,0:0:0:0:
352,128,53939,1,8,0:0:0:0:
352,128,54108,1,8,0:0:0:0:
352,128,54445,1,8,0:0:0:0:
352,128,54614,1,8,0:0:0:0:
352,128,54951,1,8,0:0:0:0:
352,128,55288,1,4,0:0:0:0:
320,128,55456,1,4,0:0:0:0:
320,128,55793,1,4,0:0:0:0:
320,128,56299,1,4,0:0:0:0:
288,160,56805,1,12,0:0:0:0:
288,160,57310,1,12,0:0:0:0:
288,160,57984,1,4,0:0:0:0:
288,160,58153,1,4,0:0:0:0:
288,160,58490,1,4,0:0:0:0:
288,160,58996,1,4,0:0:0:0:
288,160,59501,1,12,0:0:0:0:
288,160,60007,1,12,0:0:0:0:
256,128,60681,1,4,0:0:0:0:
288,160,61187,1,8,0:0:0:0:
288,192,61692,1,0,0:0:0:0:
256,160,61805,1,0,0:0:0:0:
256,160,61917,1,0,0:0:0:0:
288,192,62029,1,8,0:0:0:0:
256,160,62254,1,8,0:0:0:0:
256,160,62479,1,8,0:0:0:0:
256,160,62703,1,0,0:0:0:0:
256,160,62928,1,0,0:0:0:0:
256,160,63153,1,0,0:0:0:0:
288,160,63378,1,0,0:0:0:0:
288,160,63462,1,0,0:0:0:0:
288,160,63546,1,0,0:0:0:0:
256,160,63715,1,8,0:0:0:0:
256,160,63883,1,8,0:0:0:0:
256,160,64052,1,0,0:0:0:0:
256,160,64136,1,0,0:0:0:0:
256,160,64220,1,0,0:0:0:0:
256,160,64389,1,8,0:0:0:0:
256,160,64557,1,0,0:0:0:0:
256,160,64726,1,8,0:0:0:0:
256,160,64810,1,8,0:0:0:0:
256,160,64895,1,8,0:0:0:0:
256,160,65063,1,8,0:0:0:0:
256,160,65232,1,0,0:0:0:0:
256,160,65400,1,8,0:0:0:0:
256,160,66074,1,4,0:0:0:0:
224,160,66580,1,0,0:0:0:0:
256,160,67086,1,8,0:0:0:0:
256,160,67423,1,0,0:0:0:0:
288,160,67675,1,0,0:0:0:0:
256,160,67928,1,8,0:0:0:0:
288,160,68434,1,0,0:0:0:0:
288,160,68771,1,0,0:0:0:0:
288,160,69277,1,8,0:0:0:0:
256,192,69614,1,8,0:0:0:0:
256,192,69782,1,8,0:0:0:0:
256,192,69951,1,0,0:0:0:0:
256,192,70456,1,8,0:0:0:0:
288,160,70793,1,8,0:0:0:0:
288,160,71130,1,8,0:0:0:0:
288,160,71299,1,8,0:0:0:0:
288,160,71468,1,4,0:0:0:0:
288,160,71973,1,0,0:0:0:0:
288,160,72479,1,8,0:0:0:0:
288,160,72816,1,0,0:0:0:0:
288,160,73069,1,0,0:0:0:0:
288,160,73321,1,8,0:0:0:0:
256,160,73827,1,0,0:0:0:0:
288,160,74164,1,0,0:0:0:0:
256,160,74670,1,8,0:0:0:0:
256,160,75175,1,8,0:0:0:0:
256,192,75512,1,0,0:0:0:0:
224,160,75850,1,8,0:0:0:0:
224,160,76187,1,0,0:0:0:0:
288,160,76411,1,8,0:0:0:0:
256,160,76636,1,8,0:0:0:0:
256,160,76861,1,4,0:0:0:0:
288,192,77198,1,0,0:0:0:0:
256,160,77366,1,8,0:0:0:0:
288,192,77535,1,0,0:0:0:0:
288,192,77703,1,0,0:0:0:0:
288,192,77788,1,0,0:0:0:0:
320,160,77872,1,0,0:0:0:0:
288,192,78041,1,8,0:0:0:0:
288,192,78209,1,0,0:0:0:0:
288,192,78546,1,0,0:0:0:0:
288,192,78715,1,8,0:0:0:0:
288,192,78883,1,0,0:0:0:0:
288,192,78968,1,0,0:0:0:0:
288,192,79052,1,0,0:0:0:0:
288,192,79220,1,8,0:0:0:0:
288,192,79389,1,8,0:0:0:0:
320,192,79557,1,0,0:0:0:0:
320,192,79895,1,0,0:0:0:0:
320,192,80063,1,8,0:0:0:0:
320,192,80232,1,0,0:0:0:0:
320,192,80400,1,0,0:0:0:0:
320,192,80484,1,0,0:0:0:0:
320,192,80569,1,0,0:0:0:0:
320,192,80737,1,8,0:0:0:0:
320,192,80906,1,0,0:0:0:0:
320,224,81243,1,0,0:0:0:0:
320,192,81411,1,8,0:0:0:0:
320,224,81580,1,0,0:0:0:0:
320,224,81664,1,0,0:0:0:0:
320,224,81748,1,0,0:0:0:0:
320,224,81917,1,8,0:0:0:0:
320,224,82086,1,8,0:0:0:0:
320,224,82254,1,4,0:0:0:0:
320,224,82591,1,8,0:0:0:0:
320,224,82928,1,0,0:0:0:0:
320,224,83265,1,8,0:0:0:0:
320,224,83434,1,8,0:0:0:0:
320,224,83602,1,0,0:0:0:0:
320,224,83771,1,0,0:0:0:0:
320,224,83939,1,0,0:0:0:0:
320,224,84108,1,8,0:0:0:0:
320,224,84277,1,0,0:0:0:0:
320,224,84361,1,0,0:0:0:0:
320,224,84445,1,0,0:0:0:0:
320,224,84614,1,8,0:0:0:0:
320,224,84782,1,8,0:0:0:0:
320,224,84951,1,0,0:0:0:0:
320,224,85288,1,8,0:0:0:0:
320,224,85456,1,0,0:0:0:0:
320,224,85625,1,0,0:0:0:0:
288,224,85793,1,0,0:0:0:0:
256,224,85878,1,0,0:0:0:0:
320,224,85962,1,0,0:0:0:0:
320,224,86130,1,8,0:0:0:0:
320,224,86299,1,0,0:0:0:0:
320,224,86468,1,0,0:0:0:0:
288,256,86636,1,8,0:0:0:0:
288,256,86805,1,8,0:0:0:0:
288,256,86973,1,0,0:0:0:0:
288,256,87057,1,0,0:0:0:0:
288,256,87142,1,0,0:0:0:0:
256,256,87310,1,8,0:0:0:0:
256,256,87647,1,4,0:0:0:0:
288,224,88321,1,8,0:0:0:0:
288,224,88996,1,0,0:0:0:0:
320,224,89670,1,0,0:0:0:0:
256,224,89838,1,0,0:0:0:0:
256,224,89923,1,0,0:0:0:0:
256,192,90007,1,0,0:0:0:0:
256,224,90175,1,8,0:0:0:0:
256,224,90344,1,0,0:0:0:0:
256,192,90569,1,8,0:0:0:0:
256,192,90681,1,8,0:0:0:0:
256,192,90906,1,8,0:0:0:0:
256,192,91018,1,8,0:0:0:0:
256,192,91243,1,8,0:0:0:0:
256,192,91355,1,8,0:0:0:0:
256,192,91580,1,8,0:0:0:0:
256,192,91692,1,8,0:0:0:0:
256,192,91861,1,0,0:0:0:0:
256,192,92029,1,8,0:0:0:0:
256,192,92198,1,0,0:0:0:0:
256,192,92366,1,8,0:0:0:0:
256,160,92535,1,0,0:0:0:0:
256,160,92619,1,0,0:0:0:0:
256,160,92703,1,0,0:0:0:0:
256,160,93041,1,0,0:0:0:0:
288,160,93715,1,8,0:0:0:0:
256,160,94389,1,0,0:0:0:0:
256,160,95063,1,0,0:0:0:0:
256,160,95232,1,0,0:0:0:0:
256,160,95316,1,0,0:0:0:0:
256,160,95400,1,0,0:0:0:0:
256,160,95569,1,8,0:0:0:0:
224,128,95737,1,0,0:0:0:0:
224,160,95962,1,8,0:0:0:0:
256,160,96074,1,8,0:0:0:0:
256,160,96299,1,0,0:0:0:0:
256,160,96411,1,0,0:0:0:0:
224,160,96636,1,8,0:0:0:0:
256,160,96748,1,8,0:0:0:0:
256,128,96973,1,0,0:0:0:0:
256,160,97086,1,0,0:0:0:0:
256,160,97310,1,8,0:0:0:0:
256,160,97423,1,8,0:0:0:0:
256,160,97647,1,8,0:0:0:0:
256,160,97760,1,8,0:0:0:0:
256,160,97984,1,0,0:0:0:0:
256,160,98097,1,0,0:0:0:0:
288,160,98434,1,0,0:0:0:0:
256,128,98602,1,8,0:0:0:0:
256,160,98771,1,0,0:0:0:0:
256,160,98855,1,0,0:0:0:0:
256,128,99108,1,0,0:0:0:0:
256,128,99277,1,8,0:0:0:0:
256,128,99445,1,0,0:0:0:0:
256,160,99529,1,0,0:0:0:0:
288,160,99782,1,0,0:0:0:0:
256,160,99951,1,8,0:0:0:0:
256,160,100119,1,0,0:0:0:0:
256,192,100203,1,0,0:0:0:0:
256,160,100456,1,0,0:0:0:0:
256,160,100625,1,8,0:0:0:0:
256,160,100793,1,0,0:0:0:0:
256,192,100878,1,0,0:0:0:0:
256,160,101130,1,0,0:0:0:0:
256,160,101299,1,8,0:0:0:0:
256,160,101468,1,0,0:0:0:0:
256,160,101636,1,8,0:0:0:0:
288,160,101805,1,0,0:0:0:0:
288,160,101973,1,8,0:0:0:0:
288,160,102142,1,0,0:0:0:0:
288,160,102226,1,0,0:0:0:0:
288,160,102310,1,0,0:0:0:0:
288,160,102395,1,0,0:0:0:0:
352,192,103153,1,8,0:0:0:0:
320,160,103827,1,0,0:0:0:0:
320,160,103996,1,8,0:0:0:0:
320,160,104333,1,8,0:0:0:0:
320,160,104838,1,8,0:0:0:0:
320,160,105175,1,0,0:0:0:0:
288,160,105681,1,0,0:0:0:0:
288,160,105850,1,8,0:0:0:0:
288,160,106187,1,8,0:0:0:0:
288,160,106271,1,8,0:0:0:0:
256,192,106355,1,8,0:0:0:0:
288,160,106524,1,0,0:0:0:0:
256,160,106692,1,8,0:0:0:0:
288,160,106861,1,0,0:0:0:0:
288,160,107114,1,0,0:0:0:0:
288,160,107198,1,0,0:0:0:0:
288,160,107366,1,8,0:0:0:0:
288,160,107535,1,0,0:0:0:0:
288,160,107872,1,0,0:0:0:0:
288,160,108097,1,8,0:0:0:0:
288,160,108209,1,8,0:0:0:0:
320,128,108434,1,0,0:0:0:0:
288,128,108546,1,0,0:0:0:0:
256,128,108715,1,8,0:0:0:0:
256,128,108883,1,0,0:0:0:0:
320,128,109220,1,0,0:0:0:0:
288,160,109473,1,8,0:0:0:0:
288,128,109726,1,0,0:0:0:0:
288,160,109810,1,0,0:0:0:0:
288,160,109979,1,8,0:0:0:0:
288,160,110232,1,8,0:0:0:0:
288,160,110316,1,8,0:0:0:0:
288,160,110400,1,8,0:0:0:0:
288,160,110569,1,0,0:0:0:0:
288,160,110737,1,0,0:0:0:0:
288,160,110906,1,8,0:0:0:0:
288,160,111074,1,8,0:0:0:0:
288,160,111243,1,0,0:0:0:0:
288,160,111327,1,0,0:0:0:0:
288,160,111411,1,0,0:0:0:0:
288,160,111580,1,8,0:0:0:0:
288,160,111748,1,8,0:0:0:0:
288,160,111917,1,0,0:0:0:0:
288,160,112142,1,8,0:0:0:0:
288,160,112254,1,8,0:0:0:0:
288,160,112479,1,0,0:0:0:0:
288,160,112591,1,0,0:0:0:0:
288,160,112816,1,0,0:0:0:0:
288,160,112928,1,0,0:0:0:0:
288,128,113153,1,8,0:0:0:0:
288,128,113265,1,8,0:0:0:0:
288,128,113939,1,0,0:0:0:0:
288,160,114108,1,0,0:0:0:0:
288,128,114277,1,8,0:0:0:0:
288,128,114361,1,8,0:0:0:0:
288,128,114445,1,8,0:0:0:0:
288,128,114614,1,4,0:0:0:0:
256,160,114782,1,8,0:0:0:0:
256,160,115035,1,8,0:0:0:0:
256,160,115288,1,0,0:0:0:0:
256,160,115541,1,0,0:0:0:0:
256,160,115793,1,8,0:0:0:0:
256,160,115962,1,0,0:0:0:0:
256,128,116046,1,0,0:0:0:0:
256,128,116130,1,0,0:0:0:0:
256,128,116299,1,8,0:0:0:0:
224,128,116468,1,0,0:0:0:0:
256,128,116636,1,0,0:0:0:0:
256,128,116720,1,0,0:0:0:0:
256,128,116805,1,0,0:0:0:0:
256,128,116973,1,8,0:0:0:0:
256,128,117142,1,8,0:0:0:0:
256,128,117310,1,0,0:0:0:0:
224,128,117647,1,8,0:0:0:0:
256,128,117760,1,8,0:0:0:0:
256,128,117872,1,8,0:0:0:0:
224,128,117984,1,0,0:0:0:0:
224,128,118321,1,8,0:0:0:0:
256,128,118434,1,8,0:0:0:0:
224,128,118546,1,8,0:0:0:0:
224,128,118659,1,0,0:0:0:0:
224,160,118827,1,0,0:0:0:0:
224,160,118996,1,8,0:0:0:0:
256,128,119164,1,8,0:0:0:0:
224,160,119333,1,0,0:0:0:0:
256,128,119417,1,0,0:0:0:0:
224,160,119501,1,0,0:0:0:0:
224,160,119670,1,8,0:0:0:0:
192,128,119838,1,0,0:0:0:0:
224,128,120007,1,8,0:0:0:0:
256,160,120512,1,8,0:0:0:0:
256,160,120681,1,0,0:0:0:0:
256,160,121018,1,0,0:0:0:0:
256,160,121102,1,0,0:0:0:0:
256,160,121187,1,0,0:0:0:0:
256,160,121355,1,8,0:0:0:0:
320,128,121580,1,8,0:0:0:0:
256,160,121692,1,8,0:0:0:0:
320,128,121917,1,0,0:0:0:0:
320,128,122029,1,0,0:0:0:0:
288,128,122254,1,8,0:0:0:0:
288,128,122366,1,8,0:0:0:0:
288,128,122591,1,8,0:0:0:0:
288,128,122703,1,8,0:0:0:0:
288,128,122872,1,0,0:0:0:0:
288,128,123041,1,8,0:0:0:0:
288,128,123378,1,0,0:0:0:0:
288,128,123546,1,0,0:0:0:0:
288,128,123630,1,0,0:0:0:0:
288,128,123715,1,0,0:0:0:0:
320,128,123883,1,8,0:0:0:0:
288,128,124052,1,0,0:0:0:0:
320,128,125400,1,8,0:0:0:0:
352,128,125737,1,4,0:0:0:0:
288,128,125906,1,8,0:0:0:0:
256,128,126159,1,0,0:0:0:0:
256,128,126243,1,0,0:0:0:0:
288,128,126411,1,8,0:0:0:0:
288,128,126748,1,0,0:0:0:0:
288,128,126917,1,8,0:0:0:0:
288,128,127001,1,8,0:0:0:0:
288,128,127170,1,8,0:0:0:0:
288,128,127254,1,8,0:0:0:0:
288,128,127423,1,0,0:0:0:0:
288,128,127760,1,8,0:0:0:0:
288,128,128097,1,0,0:0:0:0:
288,128,128321,1,8,0:0:0:0:
288,128,128434,1,8,0:0:0:0:
288,128,128659,1,8,0:0:0:0:
256,128,128771,1,8,0:0:0:0:
256,128,128939,1,0,0:0:0:0:
256,128,129108,1,8,0:0:0:0:
256,128,129277,1,0,0:0:0:0:
256,128,129361,1,0,0:0:0:0:
256,128,129445,1,0,0:0:0:0:
288,128,129614,1,0,0:0:0:0:
256,96,129782,1,8,0:0:0:0:
256,96,129951,1,0,0:0:0:0:
256,96,130119,1,8,0:0:0:0:
256,96,130203,1,8,0:0:0:0:
256,96,130288,1,8,0:0:0:0:
256,96,130456,1,8,0:0:0:0:
256,128,130793,1,4,0:0:0:0:
256,96,131130,1,8,0:0:0:0:
256,128,131468,1,0,0:0:0:0:
256,128,131636,1,8,0:0:0:0:
256,128,131805,1,0,0:0:0:0:
256,128,131973,1,8,0:0:0:0:
256,128,132310,1,8,0:0:0:0:
256,128,132479,1,0,0:0:0:0:
256,128,132647,1,8,0:0:0:0:
256,128,132984,1,8,0:0:0:0:
256,128,133153,1,0,0:0:0:0:
256,160,133265,1,0,0:0:0:0:
256,160,133378,1,0,0:0:0:0:
256,128,133490,1,8,0:0:0:0:
256,160,133715,1,8,0:0:0:0:
256,160,133827,1,8,0:0:0:0:
256,128,134052,1,0,0:0:0:0:
256,128,134164,1,0,0:0:0:0:
256,128,134389,1,8,0:0:0:0:
256,128,134501,1,8,0:0:0:0:
256,128,134726,1,0,0:0:0:0:
256,128,134838,1,0,0:0:0:0:
256,128,135063,1,8,0:0:0:0:
256,128,135175,1,8,0:0:0:0:
256,128,135400,1,8,0:0:0:0:
256,128,135512,1,8,0:0:0:0:
256,128,135737,1,0,0:0:0:0:
256,128,135850,1,0,0:0:0:0:
224,128,136187,1,4,0:0:0:0:
256,128,136355,1,8,0:0:0:0:
256,128,136439,1,8,0:0:0:0:
256,128,136608,1,8,0:0:0:0:
256,128,136692,1,8,0:0:0:0:
288,160,136861,1,0,0:0:0:0:
224,160,137198,1,8,0:0:0:0:
256,160,137535,1,0,0:0:0:0:
256,128,138041,1,8,0:0:0:0:
256,128,138209,1,0,0:0:0:0:
256,128,138546,1,8,0:0:0:0:
256,128,138630,1,8,0:0:0:0:
256,128,138715,1,8,0:0:0:0:
256,128,138883,1,0,0:0:0:0:
256,128,139052,1,8,0:0:0:0:
256,128,139389,1,0,0:0:0:0:
256,128,139557,1,8,0:0:0:0:
256,128,139642,1,8,0:0:0:0:
256,128,139726,1,8,0:0:0:0:
256,128,139895,1,0,0:0:0:0:
256,128,140063,1,8,0:0:0:0:
256,128,140232,1,0,0:0:0:0:
256,128,140737,1,8,0:0:0:0:
256,128,140905,1,0,0:0:0:0:
288,128,141074,1,8,0:0:0:0:
224,128,141159,1,8,0:0:0:0:
224,128,141243,1,8,0:0:0:0:
224,128,141411,1,0,0:0:0:0:
224,128,141580,1,0,0:0:0:0:
224,128,141748,1,8,0:0:0:0:
224,128,142086,1,0,0:0:0:0:
224,128,142254,1,8,0:0:0:0:
192,128,142423,1,8,0:0:0:0:
192,128,142507,1,8,0:0:0:0:
224,128,142675,1,8,0:0:0:0:
224,128,142759,1,8,0:0:0:0:
224,128,142928,1,0,0:0:0:0:
192,128,143097,1,8,0:0:0:0:
192,128,143434,1,0,0:0:0:0:
192,128,143602,1,8,0:0:0:0:
192,128,143939,1,8,0:0:0:0:
224,128,144024,1,8,0:0:0:0:
224,128,144108,1,8,0:0:0:0:
224,128,144277,1,0,0:0:0:0:
224,128,144389,1,0,0:0:0:0:
224,128,144501,1,0,0:0:0:0:
224,128,144614,1,8,0:0:0:0:
256,128,144838,1,0,0:0:0:0:
256,128,144951,1,0,0:0:0:0:
256,128,145288,1,8,0:0:0:0:
256,128,145400,1,8,0:0:0:0:
256,128,145512,1,8,0:0:0:0:
256,128,145625,1,0,0:0:0:0:
256,128,145850,1,8,0:0:0:0:
256,128,145962,1,8,0:0:0:0:
256,128,146187,1,0,0:0:0:0:
256,128,146299,1,0,0:0:0:0:
256,128,146636,1,8,0:0:0:0:
256,128,146973,1,0,0:0:0:0:
256,128,151018,5,0,0:0:0:0:
256,128,151692,1,8,0:0:0:0:
320,192,152366,5,0,0:0:0:0:
288,160,152703,1,0,0:0:0:0:
288,160,153041,1,8,0:0:0:0:
288,192,153378,1,8,0:0:0:0:
320,192,153715,1,0,0:0:0:0:
320,192,154389,1,8,0:0:0:0:
320,192,155063,1,4,0:0:0:0:
320,192,155232,1,4,0:0:0:0:
320,192,155569,1,4,0:0:0:0:
320,192,155737,1,4,0:0:0:0:
320,192,156074,1,12,0:0:0:0:
320,192,156243,1,12,0:0:0:0:
320,192,156580,1,12,0:0:0:0:
320,192,156748,1,12,0:0:0:0:
256,160,157760,5,0,0:0:0:0:
256,160,157872,1,0,0:0:0:0:
256,160,157984,1,0,0:0:0:0:
256,160,158097,1,0,0:0:0:0:
256,192,158434,1,0,0:0:0:0:
288,160,158602,1,8,0:0:0:0:
288,160,158771,1,0,0:0:0:0:
256,128,158855,1,0,0:0:0:0:
288,160,158939,1,0,0:0:0:0:
256,160,159108,1,8,0:0:0:0:
256,160,159277,1,0,0:0:0:0:
256,160,159445,1,8,0:0:0:0:
256,160,159529,1,8,0:0:0:0:
256,160,159614,1,8,0:0:0:0:
256,160,159782,1,0,0:0:0:0:
256,160,160007,1,8,0:0:0:0:
256,160,160119,1,8,0:0:0:0:
256,160,160344,1,0,0:0:0:0:
256,160,160456,1,0,0:0:0:0:
256,160,160681,1,8,0:0:0:0:
256,160,160793,1,8,0:0:0:0:
256,160,161018,1,0,0:0:0:0:
256,160,161130,1,0,0:0:0:0:
288,160,161355,1,8,0:0:0:0:
288,160,161468,1,8,0:0:0:0:
288,160,161636,1,0,0:0:0:0:
288,128,161805,1,8,0:0:0:0:
256,160,161973,1,0,0:0:0:0:
256,160,162057,1,0,0:0:0:0:
256,160,162142,1,0,0:0:0:0:
256,160,162310,1,8,0:0:0:0:
256,192,162647,1,0,0:0:0:0:
256,160,162816,1,8,0:0:0:0:
256,160,162900,1,8,0:0:0:0:
256,160,162984,1,8,0:0:0:0:
288,160,163153,1,0,0:0:0:0:
288,160,163321,1,0,0:0:0:0:
288,160,163406,1,0,0:0:0:0:
288,160,163490,1,0,0:0:0:0:
256,160,163659,1,8,0:0:0:0:
320,160,164164,1,0,0:0:0:0:
256,160,164277,1,0,0:0:0:0:
256,160,164389,1,0,0:0:0:0:
256,128,164501,1,8,0:0:0:0:
256,160,164726,1,8,0:0:0:0:
256,160,164838,1,8,0:0:0:0:
256,160,165063,1,0,0:0:0:0:
256,160,165175,1,0,0:0:0:0:
256,160,165400,1,8,0:0:0:0:
256,160,165512,1,8,0:0:0:0:
256,160,165850,1,8,0:0:0:0:
256,160,166018,1,0,0:0:0:0:
256,160,166102,1,0,0:0:0:0:
256,160,166187,1,0,0:0:0:0:
256,160,166355,1,8,0:0:0:0:
224,160,166608,1,8,0:0:0:0:
256,160,166692,1,8,0:0:0:0:
224,128,166861,1,0,0:0:0:0:
224,160,167029,1,8,0:0:0:0:
224,160,167198,1,0,0:0:0:0:
256,160,167366,1,0,0:0:0:0:
256,160,167451,1,0,0:0:0:0:
256,160,167535,1,0,0:0:0:0:
224,160,167703,1,8,0:0:0:0:
288,160,168546,1,4,0:0:0:0:
288,128,168883,1,8,0:0:0:0:
288,128,169220,1,4,0:0:0:0:
288,128,169557,1,8,0:0:0:0:
304,150,169726,1,8,0:0:0:0:
288,128,169895,1,4,0:0:0:0:
251,145,170232,1,0,0:0:0:0:
251,145,170400,1,8,0:0:0:0:
288,128,170569,1,4,0:0:0:0:
256,128,170906,1,8,0:0:0:0:
288,128,171074,1,8,0:0:0:0:
288,128,171243,1,4,0:0:0:0:
256,192,171411,12,0,173939,0:0:0:0:
