osu file format v14

[General]
AudioFilename: audio.ogg
AudioLeadIn: 0
PreviewTime: 102614
Countdown: 0
SampleSet: Soft
StackLeniency: 0.7
Mode: 3
LetterboxInBreaks: 0
SpecialStyle: 0
WidescreenStoryboard: 1

[Editor]
DistanceSpacing: 1.5
BeatDivisor: 4
GridSize: 4
TimelineZoom: 1.899997

[Metadata]
Title:Testify
TitleUnicode:Testify
Artist:void (Mournfinale) feat. Hoshikuma Minami
ArtistUnicode:void (Mournfinale) feat. 星熊南巫
Creator:Kyousuke-
Version:_VK's Beyond
Source:Arcaea
Tags:WAGAMAMARAKIA DEATHNYANN 我儘ラキア ぼれ lowiro Main Story Final Verdict Axiom of The End Last Chapter Ending Boss Stage 光 Fatalis Hikari シエラ cierra Piano Instrumental Video Game English Electronic A Fatal Decision Choice Arzenvald ajeemaniz ExUsagi _VianK_
BeatmapID:3933048
BeatmapSetID:1866121

[Difficulty]
HPDrainRate:8.2
CircleSize:5
OverallDifficulty:7
ApproachRate:5
SliderMultiplier:1.4
SliderTickRate:1

[Events]
//Background and Video events
0,0,"image.jpg",0,0
//Break Periods
//Storyboard Layer 0 (Background)
//Storyboard Layer 1 (Fail)
//Storyboard Layer 2 (Pass)
//Storyboard Layer 3 (Foreground)
//Storyboard Layer 4 (Overlay)
//Storyboard Sound Samples

[TimingPoints]
1322,337.078651685393,4,2,1,50,1,0
125704,-100,4,2,1,50,0,1
135479,-100,4,2,1,50,0,0
136153,-100,4,2,1,50,0,1
146939,-100,4,2,1,50,0,0
157726,-100,4,2,1,50,0,1
168513,-100,4,2,1,50,0,0

[HitObjects]
51,192,2670,5,0,0:0:0:0:
460,192,2670,128,0,7979:0:0:0:0:
256,192,2670,1,0,0:0:0:0:
153,192,3344,128,0,5366:0:0:0:0:
256,192,4018,128,0,5704:0:0:0:0:
358,192,4692,128,0,6041:0:0:0:0:
51,192,5366,128,0,6041:0:0:0:0:
153,192,5704,128,0,6378:0:0:0:0:
256,192,6041,128,0,7979:0:0:0:0:
358,192,6378,128,0,7979:0:0:0:0:
51,192,6715,128,0,7979:0:0:0:0:
153,192,6715,1,0,0:0:0:0:
51,192,8063,1,0,0:0:0:0:
460,192,8063,1,0,0:0:0:0:
256,192,8400,128,0,8456:0:0:0:0:
51,192,8737,128,0,8793:0:0:0:0:
153,192,9074,128,0,9130:0:0:0:0:
256,192,9411,128,0,9468:0:0:0:0:
460,192,9411,1,0,0:0:0:0:
51,192,9580,1,0,0:0:0:0:
153,192,9748,1,0,0:0:0:0:
358,192,9917,128,0,9973:0:0:0:0:
256,192,10029,128,0,10086:0:0:0:0:
51,192,10086,128,0,10142:0:0:0:0:
460,192,10086,1,0,0:0:0:0:
153,192,10423,128,0,10479:0:0:0:0:
358,192,10423,1,0,0:0:0:0:
256,192,10760,128,0,10928:0:0:0:0:
51,192,10816,128,0,10872:0:0:0:0:
358,192,10872,128,0,10984:0:0:0:0:
460,192,10928,128,0,12024:0:0:0:0:
51,192,11434,128,0,11687:0:0:0:0:
256,192,11518,128,0,11602:0:0:0:0:
358,192,11602,128,0,12024:0:0:0:0:
153,192,11687,128,0,11771:0:0:0:0:
256,192,11771,128,0,11855:0:0:0:0:
51,192,11855,128,0,11939:0:0:0:0:
153,192,11939,128,0,12024:0:0:0:0:
256,192,12024,128,0,12108:0:0:0:0:
358,192,12108,1,0,0:0:0:0:
460,192,12108,1,0,0:0:0:0:
51,192,12108,128,0,12782:0:0:0:0:
358,192,12277,128,0,12698:0:0:0:0:
153,192,12445,128,0,12529:0:0:0:0:
256,192,12614,128,0,12698:0:0:0:0:
460,192,12782,128,0,13456:0:0:0:0:
153,192,12782,1,0,0:0:0:0:
358,192,12782,1,0,0:0:0:0:
153,192,12951,128,0,13372:0:0:0:0:
358,192,13119,128,0,13204:0:0:0:0:
256,192,13288,128,0,13372:0:0:0:0:
51,192,13456,1,0,0:0:0:0:
153,192,13456,1,0,0:0:0:0:
358,192,13456,128,0,14130:0:0:0:0:
51,192,13625,128,0,14046:0:0:0:0:
153,192,13793,128,0,13878:0:0:0:0:
256,192,13962,128,0,14046:0:0:0:0:
153,192,14130,128,0,14805:0:0:0:0:
51,192,14130,1,0,0:0:0:0:
460,192,14130,1,0,0:0:0:0:
460,192,14299,128,0,14720:0:0:0:0:
358,192,14468,128,0,14552:0:0:0:0:
256,192,14636,128,0,14720:0:0:0:0:
460,192,14805,1,0,0:0:0:0:
51,192,14805,128,0,15479:0:0:0:0:
358,192,14805,1,0,0:0:0:0:
460,192,14973,128,0,15310:0:0:0:0:
153,192,15142,128,0,15226:0:0:0:0:
256,192,15310,128,0,15395:0:0:0:0:
153,192,15479,128,0,16153:0:0:0:0:
358,192,15479,1,0,0:0:0:0:
460,192,15479,1,0,0:0:0:0:
460,192,15647,128,0,16069:0:0:0:0:
358,192,15816,128,0,15900:0:0:0:0:
256,192,15984,128,0,16069:0:0:0:0:
358,192,16153,128,0,16827:0:0:0:0:
51,192,16153,1,0,0:0:0:0:
460,192,16153,1,0,0:0:0:0:
51,192,16321,128,0,16743:0:0:0:0:
153,192,16490,128,0,16574:0:0:0:0:
256,192,16659,128,0,16743:0:0:0:0:
460,192,16827,128,0,17501:0:0:0:0:
51,192,16827,1,0,0:0:0:0:
153,192,16827,1,0,0:0:0:0:
51,192,16996,128,0,17417:0:0:0:0:
256,192,17164,128,0,17248:0:0:0:0:
153,192,17333,128,0,17417:0:0:0:0:
256,192,17501,128,0,21462:0:0:0:0:
51,192,17501,1,0,0:0:0:0:
358,192,17501,1,0,0:0:0:0:
460,192,17838,128,0,18175:0:0:0:0:
358,192,18007,128,0,18175:0:0:0:0:
51,192,18175,128,0,18344:0:0:0:0:
358,192,18513,128,0,18850:0:0:0:0:
153,192,18681,128,0,18850:0:0:0:0:
51,192,18850,128,0,19018:0:0:0:0:
460,192,19187,128,0,19524:0:0:0:0:
358,192,19355,128,0,19524:0:0:0:0:
51,192,19524,128,0,19692:0:0:0:0:
358,192,19861,128,0,20198:0:0:0:0:
153,192,20029,128,0,20198:0:0:0:0:
51,192,20198,128,0,20366:0:0:0:0:
460,192,20535,128,0,20872:0:0:0:0:
358,192,20704,128,0,20872:0:0:0:0:
51,192,20872,128,0,21041:0:0:0:0:
358,192,21209,128,0,21546:0:0:0:0:
153,192,21378,128,0,21546:0:0:0:0:
256,192,21546,128,0,21630:0:0:0:0:
460,192,21546,1,0,0:0:0:0:
51,192,21546,128,0,22810:0:0:0:0:
460,192,21883,128,0,21968:0:0:0:0:
358,192,22052,128,0,22136:0:0:0:0:
460,192,22136,1,0,0:0:0:0:
153,192,22220,1,0,0:0:0:0:
256,192,22220,1,0,0:0:0:0:
358,192,22305,1,0,0:0:0:0:
460,192,22389,1,0,0:0:0:0:
256,192,22473,1,0,0:0:0:0:
358,192,22557,128,0,22642:0:0:0:0:
460,192,22557,1,0,0:0:0:0:
153,192,22642,1,0,0:0:0:0:
256,192,22726,128,0,22810:0:0:0:0:
358,192,22810,1,0,0:0:0:0:
460,192,22895,1,0,0:0:0:0:
51,192,22895,1,0,0:0:0:0:
358,192,22979,1,0,0:0:0:0:
256,192,23063,1,0,0:0:0:0:
153,192,23147,1,0,0:0:0:0:
358,192,23232,1,0,0:0:0:0:
51,192,23232,128,0,23400:0:0:0:0:
460,192,23232,1,0,0:0:0:0:
256,192,23316,1,0,0:0:0:0:
153,192,23400,128,0,23569:0:0:0:0:
460,192,23400,1,0,0:0:0:0:
358,192,23484,1,0,0:0:0:0:
460,192,23569,1,0,0:0:0:0:
51,192,23569,1,0,0:0:0:0:
153,192,23653,1,0,0:0:0:0:
256,192,23737,1,0,0:0:0:0:
358,192,23821,1,0,0:0:0:0:
51,192,23906,1,0,0:0:0:0:
153,192,23906,1,0,0:0:0:0:
460,192,23906,128,0,24074:0:0:0:0:
256,192,23990,1,0,0:0:0:0:
358,192,24074,128,0,24243:0:0:0:0:
51,192,24074,1,0,0:0:0:0:
153,192,24159,1,0,0:0:0:0:
256,192,24243,1,0,0:0:0:0:
460,192,24243,1,0,0:0:0:0:
51,192,24327,1,0,0:0:0:0:
358,192,24411,1,0,0:0:0:0:
153,192,24496,1,0,0:0:0:0:
256,192,24580,1,0,0:0:0:0:
51,192,24580,1,0,0:0:0:0:
460,192,24580,128,0,24748:0:0:0:0:
358,192,24664,1,0,0:0:0:0:
51,192,24748,128,0,24917:0:0:0:0:
153,192,24748,1,0,0:0:0:0:
256,192,24833,1,0,0:0:0:0:
358,192,24917,1,0,0:0:0:0:
460,192,24917,1,0,0:0:0:0:
256,192,25001,1,0,0:0:0:0:
153,192,25086,1,0,0:0:0:0:
358,192,25170,1,0,0:0:0:0:
256,192,25254,1,0,0:0:0:0:
460,192,25254,1,0,0:0:0:0:
51,192,25254,128,0,25423:0:0:0:0:
153,192,25338,1,0,0:0:0:0:
460,192,25423,128,0,25591:0:0:0:0:
358,192,25423,1,0,0:0:0:0:
256,192,25507,1,0,0:0:0:0:
153,192,25591,1,0,0:0:0:0:
51,192,25591,1,0,0:0:0:0:
358,192,25675,1,0,0:0:0:0:
256,192,25760,1,0,0:0:0:0:
460,192,25844,1,0,0:0:0:0:
358,192,25928,1,0,0:0:0:0:
153,192,25928,1,0,0:0:0:0:
51,192,25928,128,0,26097:0:0:0:0:
460,192,26013,1,0,0:0:0:0:
256,192,26097,128,0,26265:0:0:0:0:
153,192,26097,1,0,0:0:0:0:
51,192,26181,1,0,0:0:0:0:
460,192,26265,1,0,0:0:0:0:
358,192,26265,1,0,0:0:0:0:
256,192,26350,1,0,0:0:0:0:
51,192,26434,1,0,0:0:0:0:
153,192,26518,1,0,0:0:0:0:
256,192,26602,128,0,26771:0:0:0:0:
358,192,26602,1,0,0:0:0:0:
460,192,26602,1,0,0:0:0:0:
51,192,26687,1,0,0:0:0:0:
460,192,26771,128,0,26939:0:0:0:0:
153,192,26771,1,0,0:0:0:0:
256,192,26855,1,0,0:0:0:0:
51,192,26939,1,0,0:0:0:0:
358,192,26939,1,0,0:0:0:0:
256,192,27024,1,0,0:0:0:0:
153,192,27108,1,0,0:0:0:0:
358,192,27192,1,0,0:0:0:0:
256,192,27277,1,0,0:0:0:0:
51,192,27277,1,0,0:0:0:0:
460,192,27277,128,0,27445:0:0:0:0:
153,192,27361,1,0,0:0:0:0:
358,192,27445,128,0,27614:0:0:0:0:
51,192,27445,1,0,0:0:0:0:
256,192,27529,1,0,0:0:0:0:
153,192,27614,1,0,0:0:0:0:
460,192,27614,1,0,0:0:0:0:
358,192,27698,1,0,0:0:0:0:
256,192,27782,1,0,0:0:0:0:
358,192,27866,1,0,0:0:0:0:
153,192,27951,128,0,28119:0:0:0:0:
460,192,27951,1,0,0:0:0:0:
51,192,27951,1,0,0:0:0:0:
256,192,28035,1,0,0:0:0:0:
51,192,28119,128,0,28288:0:0:0:0:
358,192,28119,1,0,0:0:0:0:
153,192,28204,1,0,0:0:0:0:
256,192,28288,1,0,0:0:0:0:
460,192,28288,1,0,0:0:0:0:
358,192,28288,1,0,0:0:0:0:
51,192,28372,1,0,0:0:0:0:
153,192,28456,1,0,0:0:0:0:
358,192,28541,1,0,0:0:0:0:
460,192,28625,128,0,28878:0:0:0:0:
51,192,28625,128,0,28709:0:0:0:0:
153,192,28625,128,0,28709:0:0:0:0:
256,192,28793,128,0,28878:0:0:0:0:
358,192,28793,128,0,28878:0:0:0:0:
51,192,28962,1,0,0:0:0:0:
153,192,28962,1,0,0:0:0:0:
460,192,28962,1,0,0:0:0:0:
358,192,29046,1,0,0:0:0:0:
256,192,29130,1,0,0:0:0:0:
153,192,29215,1,0,0:0:0:0:
51,192,29299,128,0,29552:0:0:0:0:
358,192,29299,128,0,29383:0:0:0:0:
460,192,29299,128,0,29383:0:0:0:0:
153,192,29468,128,0,29552:0:0:0:0:
256,192,29468,128,0,29552:0:0:0:0:
51,192,29636,1,0,0:0:0:0:
358,192,29636,1,0,0:0:0:0:
460,192,29636,1,0,0:0:0:0:
256,192,29720,1,0,0:0:0:0:
460,192,29805,1,0,0:0:0:0:
358,192,29889,1,0,0:0:0:0:
153,192,29973,128,0,30057:0:0:0:0:
51,192,29973,128,0,30057:0:0:0:0:
256,192,29973,128,0,30226:0:0:0:0:
358,192,30142,128,0,30226:0:0:0:0:
460,192,30142,128,0,30226:0:0:0:0:
51,192,30310,1,0,0:0:0:0:
153,192,30310,1,0,0:0:0:0:
460,192,30310,1,0,0:0:0:0:
358,192,30395,1,0,0:0:0:0:
153,192,30479,1,0,0:0:0:0:
51,192,30563,1,0,0:0:0:0:
256,192,30647,128,0,30900:0:0:0:0:
358,192,30647,128,0,30732:0:0:0:0:
460,192,30647,128,0,30732:0:0:0:0:
153,192,30816,128,0,30900:0:0:0:0:
51,192,30816,128,0,30900:0:0:0:0:
51,192,30984,1,0,0:0:0:0:
460,192,30984,1,0,0:0:0:0:
358,192,30984,1,0,0:0:0:0:
153,192,31069,1,0,0:0:0:0:
256,192,31153,1,0,0:0:0:0:
51,192,31237,1,0,0:0:0:0:
153,192,31321,128,0,31574:0:0:0:0:
460,192,31321,128,0,31406:0:0:0:0:
358,192,31321,128,0,31406:0:0:0:0:
51,192,31490,128,0,31574:0:0:0:0:
256,192,31490,128,0,31574:0:0:0:0:
51,192,31659,1,0,0:0:0:0:
460,192,31659,1,0,0:0:0:0:
153,192,31659,1,0,0:0:0:0:
358,192,31743,1,0,0:0:0:0:
256,192,31827,1,0,0:0:0:0:
460,192,31911,1,0,0:0:0:0:
358,192,31996,128,0,32248:0:0:0:0:
51,192,31996,128,0,32080:0:0:0:0:
153,192,31996,128,0,32080:0:0:0:0:
256,192,32164,128,0,32248:0:0:0:0:
460,192,32164,128,0,32248:0:0:0:0:
51,192,32333,1,0,0:0:0:0:
358,192,32333,1,0,0:0:0:0:
460,192,32333,1,0,0:0:0:0:
256,192,32417,1,0,0:0:0:0:
153,192,32501,1,0,0:0:0:0:
358,192,32586,1,0,0:0:0:0:
256,192,32670,128,0,32923:0:0:0:0:
51,192,32670,128,0,32754:0:0:0:0:
460,192,32670,128,0,32754:0:0:0:0:
153,192,32838,128,0,32923:0:0:0:0:
358,192,32838,128,0,32923:0:0:0:0:
256,192,33007,128,0,33597:0:0:0:0:
153,192,33007,1,0,0:0:0:0:
358,192,33007,1,0,0:0:0:0:
51,192,33091,1,0,0:0:0:0:
460,192,33175,1,0,0:0:0:0:
51,192,33260,1,0,0:0:0:0:
153,192,33344,128,0,33597:0:0:0:0:
358,192,33344,128,0,33597:0:0:0:0:
51,192,33513,128,0,33597:0:0:0:0:
460,192,33513,128,0,33597:0:0:0:0:
256,192,33681,128,0,33737:0:0:0:0:
460,192,34018,1,0,0:0:0:0:
51,192,34018,128,0,34355:0:0:0:0:
153,192,34018,1,0,0:0:0:0:
256,192,34018,1,0,0:0:0:0:
153,192,34187,128,0,34355:0:0:0:0:
358,192,34187,1,0,0:0:0:0:
256,192,34355,1,0,0:0:0:0:
460,192,34355,1,0,0:0:0:0:
358,192,34355,128,0,34524:0:0:0:0:
460,192,34524,128,0,35029:0:0:0:0:
153,192,34524,1,0,0:0:0:0:
51,192,34692,1,0,0:0:0:0:
256,192,34692,1,0,0:0:0:0:
358,192,34692,1,0,0:0:0:0:
153,192,34861,1,0,0:0:0:0:
256,192,35029,128,0,35114:0:0:0:0:
358,192,35029,1,0,0:0:0:0:
153,192,35071,128,0,35156:0:0:0:0:
51,192,35114,128,0,35535:0:0:0:0:
460,192,35198,1,0,0:0:0:0:
460,192,35366,1,0,0:0:0:0:
153,192,35366,1,0,0:0:0:0:
358,192,35366,1,0,0:0:0:0:
256,192,35535,128,0,35619:0:0:0:0:
358,192,35577,128,0,35661:0:0:0:0:
460,192,35619,128,0,36209:0:0:0:0:
153,192,35704,1,0,0:0:0:0:
51,192,35704,1,0,0:0:0:0:
256,192,35872,1,0,0:0:0:0:
358,192,36041,1,0,0:0:0:0:
51,192,36041,1,0,0:0:0:0:
153,192,36041,128,0,36125:0:0:0:0:
256,192,36125,128,0,36209:0:0:0:0:
358,192,36209,128,0,36293:0:0:0:0:
460,192,36293,128,0,36378:0:0:0:0:
51,192,36378,128,0,37052:0:0:0:0:
153,192,36378,128,0,36883:0:0:0:0:
256,192,36378,128,0,36715:0:0:0:0:
460,192,36546,1,0,0:0:0:0:
358,192,36715,1,0,0:0:0:0:
460,192,36715,128,0,37726:0:0:0:0:
256,192,36883,1,0,0:0:0:0:
358,192,36883,128,0,37557:0:0:0:0:
256,192,37052,128,0,37389:0:0:0:0:
153,192,37052,1,0,0:0:0:0:
51,192,37220,1,0,0:0:0:0:
153,192,37389,1,0,0:0:0:0:
51,192,37389,128,0,38737:0:0:0:0:
256,192,37557,1,0,0:0:0:0:
153,192,37557,128,0,38232:0:0:0:0:
358,192,37726,1,0,0:0:0:0:
256,192,37726,128,0,38063:0:0:0:0:
460,192,37895,1,0,0:0:0:0:
358,192,38063,1,0,0:0:0:0:
460,192,38063,128,0,38400:0:0:0:0:
256,192,38232,1,0,0:0:0:0:
358,192,38232,128,0,38484:0:0:0:0:
256,192,38400,128,0,38569:0:0:0:0:
153,192,38400,128,0,38653:0:0:0:0:
460,192,38484,128,0,38569:0:0:0:0:
358,192,38569,128,0,38653:0:0:0:0:
256,192,38653,128,0,38737:0:0:0:0:
153,192,38737,128,0,38821:0:0:0:0:
358,192,38737,128,0,38821:0:0:0:0:
256,192,38821,128,0,38906:0:0:0:0:
153,192,38906,128,0,38990:0:0:0:0:
51,192,38990,128,0,39074:0:0:0:0:
256,192,39074,1,0,0:0:0:0:
358,192,39074,1,0,0:0:0:0:
460,192,39074,1,0,0:0:0:0:
358,192,39243,1,0,0:0:0:0:
256,192,39411,128,0,39496:0:0:0:0:
51,192,39411,128,0,39496:0:0:0:0:
460,192,39411,128,0,40086:0:0:0:0:
51,192,39580,1,0,0:0:0:0:
153,192,39748,1,0,0:0:0:0:
256,192,39748,1,0,0:0:0:0:
358,192,39748,1,0,0:0:0:0:
153,192,39917,128,0,40001:0:0:0:0:
51,192,40001,128,0,40086:0:0:0:0:
256,192,40086,128,0,40170:0:0:0:0:
358,192,40086,1,0,0:0:0:0:
153,192,40170,128,0,40254:0:0:0:0:
358,192,40254,128,0,40338:0:0:0:0:
256,192,40338,128,0,40423:0:0:0:0:
460,192,40423,1,0,0:0:0:0:
51,192,40423,1,0,0:0:0:0:
153,192,40423,1,0,0:0:0:0:
153,192,40591,128,0,40760:0:0:0:0:
51,192,40760,128,0,41434:0:0:0:0:
358,192,40760,128,0,40844:0:0:0:0:
460,192,40760,128,0,40844:0:0:0:0:
460,192,40928,1,0,0:0:0:0:
153,192,41097,1,0,0:0:0:0:
256,192,41097,1,0,0:0:0:0:
460,192,41097,128,0,41181:0:0:0:0:
358,192,41181,128,0,41265:0:0:0:0:
256,192,41265,128,0,41350:0:0:0:0:
153,192,41434,1,0,0:0:0:0:
460,192,41434,1,0,0:0:0:0:
358,192,41434,128,0,41518:0:0:0:0:
256,192,41518,128,0,41602:0:0:0:0:
51,192,41602,128,0,41687:0:0:0:0:
153,192,41687,128,0,41771:0:0:0:0:
358,192,41771,1,0,0:0:0:0:
256,192,41771,128,0,41939:0:0:0:0:
460,192,41771,1,0,0:0:0:0:
51,192,41855,128,0,41939:0:0:0:0:
460,192,41939,1,0,0:0:0:0:
51,192,42108,128,0,42445:0:0:0:0:
256,192,42108,1,0,0:0:0:0:
153,192,42108,1,0,0:0:0:0:
256,192,42277,128,0,42445:0:0:0:0:
358,192,42445,1,0,0:0:0:0:
460,192,42445,1,0,0:0:0:0:
358,192,42614,1,0,0:0:0:0:
51,192,42782,1,0,0:0:0:0:
153,192,42782,1,0,0:0:0:0:
460,192,42782,128,0,42866:0:0:0:0:
358,192,42866,128,0,42951:0:0:0:0:
256,192,42951,128,0,43035:0:0:0:0:
153,192,43035,128,0,43119:0:0:0:0:
460,192,43119,1,0,0:0:0:0:
51,192,43119,128,0,43288:0:0:0:0:
256,192,43204,128,0,43288:0:0:0:0:
358,192,43288,1,0,0:0:0:0:
51,192,43456,1,0,0:0:0:0:
460,192,43456,1,0,0:0:0:0:
256,192,43456,1,0,0:0:0:0:
153,192,43625,128,0,43793:0:0:0:0:
51,192,43625,128,0,44130:0:0:0:0:
256,192,43793,1,0,0:0:0:0:
460,192,43793,1,0,0:0:0:0:
358,192,43793,1,0,0:0:0:0:
256,192,43962,1,0,0:0:0:0:
358,192,44130,128,0,44299:0:0:0:0:
460,192,44130,128,0,44468:0:0:0:0:
51,192,44299,1,0,0:0:0:0:
153,192,44468,1,0,0:0:0:0:
51,192,44468,1,0,0:0:0:0:
358,192,44468,1,0,0:0:0:0:
460,192,44552,1,0,0:0:0:0:
51,192,44636,128,0,44805:0:0:0:0:
256,192,44636,1,0,0:0:0:0:
358,192,44720,1,0,0:0:0:0:
153,192,44805,1,0,0:0:0:0:
460,192,44805,128,0,45057:0:0:0:0:
256,192,44889,1,0,0:0:0:0:
51,192,44973,1,0,0:0:0:0:
153,192,45057,1,0,0:0:0:0:
460,192,45142,128,0,45310:0:0:0:0:
358,192,45142,128,0,45226:0:0:0:0:
51,192,45142,128,0,45395:0:0:0:0:
153,192,45226,128,0,45563:0:0:0:0:
256,192,45310,128,0,45479:0:0:0:0:
358,192,45395,1,0,0:0:0:0:
51,192,45479,128,0,45647:0:0:0:0:
460,192,45479,128,0,45647:0:0:0:0:
358,192,45563,128,0,45732:0:0:0:0:
256,192,45647,128,0,45816:0:0:0:0:
153,192,45732,128,0,45900:0:0:0:0:
460,192,45816,128,0,46153:0:0:0:0:
51,192,45816,128,0,45984:0:0:0:0:
358,192,45900,1,0,0:0:0:0:
256,192,45984,128,0,46069:0:0:0:0:
153,192,46069,128,0,46153:0:0:0:0:
51,192,46153,128,0,46659:0:0:0:0:
358,192,46153,128,0,46237:0:0:0:0:
256,192,46237,128,0,46321:0:0:0:0:
460,192,46321,128,0,46406:0:0:0:0:
358,192,46406,128,0,46490:0:0:0:0:
153,192,46490,1,0,0:0:0:0:
256,192,46490,1,0,0:0:0:0:
460,192,46574,1,0,0:0:0:0:
256,192,46659,128,0,46827:0:0:0:0:
358,192,46743,128,0,46911:0:0:0:0:
460,192,46827,128,0,46996:0:0:0:0:
51,192,46827,128,0,46911:0:0:0:0:
153,192,46911,128,0,46996:0:0:0:0:
256,192,46996,128,0,47080:0:0:0:0:
358,192,47080,128,0,47164:0:0:0:0:
460,192,47164,128,0,47248:0:0:0:0:
51,192,47164,128,0,47248:0:0:0:0:
153,192,47248,128,0,47333:0:0:0:0:
358,192,47333,128,0,47417:0:0:0:0:
153,192,47417,128,0,47501:0:0:0:0:
51,192,47501,128,0,47586:0:0:0:0:
256,192,47501,128,0,47586:0:0:0:0:
358,192,47586,128,0,47670:0:0:0:0:
460,192,47670,128,0,47754:0:0:0:0:
51,192,47754,128,0,47838:0:0:0:0:
358,192,47838,128,0,47923:0:0:0:0:
153,192,47838,128,0,47923:0:0:0:0:
256,192,47923,128,0,48007:0:0:0:0:
460,192,48007,128,0,48091:0:0:0:0:
51,192,48007,128,0,48091:0:0:0:0:
358,192,48091,128,0,48175:0:0:0:0:
153,192,48175,128,0,48260:0:0:0:0:
51,192,48175,128,0,48260:0:0:0:0:
256,192,48260,128,0,48344:0:0:0:0:
460,192,48344,128,0,48513:0:0:0:0:
358,192,48344,128,0,48513:0:0:0:0:
153,192,48428,1,0,0:0:0:0:
51,192,48513,128,0,48850:0:0:0:0:
256,192,48513,1,0,0:0:0:0:
460,192,48597,1,0,0:0:0:0:
153,192,48681,128,0,49018:0:0:0:0:
358,192,48765,1,0,0:0:0:0:
256,192,48850,128,0,49187:0:0:0:0:
460,192,48850,1,0,0:0:0:0:
51,192,48934,1,0,0:0:0:0:
358,192,49018,128,0,49355:0:0:0:0:
153,192,49102,1,0,0:0:0:0:
460,192,49187,128,0,49524:0:0:0:0:
51,192,49187,1,0,0:0:0:0:
256,192,49271,1,0,0:0:0:0:
153,192,49355,128,0,49692:0:0:0:0:
358,192,49439,1,0,0:0:0:0:
256,192,49524,128,0,49861:0:0:0:0:
51,192,49524,1,0,0:0:0:0:
460,192,49608,1,0,0:0:0:0:
358,192,49692,128,0,49861:0:0:0:0:
153,192,49777,1,0,0:0:0:0:
51,192,49861,1,0,0:0:0:0:
460,192,49861,1,0,0:0:0:0:
358,192,49945,1,0,0:0:0:0:
256,192,50029,1,0,0:0:0:0:
153,192,50114,1,0,0:0:0:0:
358,192,50198,128,0,50282:0:0:0:0:
460,192,50198,128,0,50366:0:0:0:0:
51,192,50198,128,0,50282:0:0:0:0:
153,192,50282,128,0,50366:0:0:0:0:
256,192,50366,128,0,50451:0:0:0:0:
358,192,50451,128,0,50535:0:0:0:0:
153,192,50535,128,0,50619:0:0:0:0:
51,192,50535,128,0,50704:0:0:0:0:
460,192,50535,128,0,50619:0:0:0:0:
256,192,50619,128,0,50704:0:0:0:0:
358,192,50704,128,0,50788:0:0:0:0:
153,192,50704,128,0,50788:0:0:0:0:
256,192,50788,128,0,50872:0:0:0:0:
51,192,50872,128,0,50956:0:0:0:0:
358,192,50872,128,0,50956:0:0:0:0:
460,192,50872,128,0,51041:0:0:0:0:
153,192,50956,128,0,51041:0:0:0:0:
256,192,51041,128,0,51125:0:0:0:0:
358,192,51125,128,0,51209:0:0:0:0:
51,192,51209,128,0,51293:0:0:0:0:
460,192,51209,128,0,51378:0:0:0:0:
153,192,51293,128,0,51378:0:0:0:0:
256,192,51378,128,0,51546:0:0:0:0:
358,192,51378,128,0,51462:0:0:0:0:
460,192,51462,128,0,51546:0:0:0:0:
51,192,51546,128,0,51715:0:0:0:0:
153,192,51546,128,0,51630:0:0:0:0:
358,192,51546,128,0,51630:0:0:0:0:
256,192,51630,128,0,51715:0:0:0:0:
153,192,51715,128,0,51799:0:0:0:0:
51,192,51799,128,0,51968:0:0:0:0:
358,192,51883,128,0,51968:0:0:0:0:
460,192,51883,128,0,52052:0:0:0:0:
153,192,51883,128,0,52052:0:0:0:0:
256,192,51968,128,0,52220:0:0:0:0:
358,192,52052,128,0,52136:0:0:0:0:
460,192,52136,128,0,52305:0:0:0:0:
51,192,52220,128,0,52389:0:0:0:0:
153,192,52220,128,0,52305:0:0:0:0:
358,192,52220,128,0,52389:0:0:0:0:
256,192,52305,128,0,52473:0:0:0:0:
153,192,52389,128,0,52557:0:0:0:0:
51,192,52473,128,0,52557:0:0:0:0:
460,192,52557,128,0,52642:0:0:0:0:
358,192,52557,128,0,52642:0:0:0:0:
256,192,52642,1,0,0:0:0:0:
460,192,52726,128,0,52810:0:0:0:0:
358,192,52726,128,0,52810:0:0:0:0:
153,192,52810,1,0,0:0:0:0:
51,192,52895,1,0,0:0:0:0:
460,192,52895,1,0,0:0:0:0:
256,192,52895,1,0,0:0:0:0:
358,192,52979,1,0,0:0:0:0:
153,192,53063,128,0,53147:0:0:0:0:
51,192,53063,128,0,53147:0:0:0:0:
256,192,53147,1,0,0:0:0:0:
153,192,53232,128,0,53316:0:0:0:0:
51,192,53232,128,0,53316:0:0:0:0:
460,192,53232,1,0,0:0:0:0:
358,192,53316,1,0,0:0:0:0:
460,192,53400,1,0,0:0:0:0:
51,192,53400,1,0,0:0:0:0:
153,192,53484,1,0,0:0:0:0:
358,192,53569,128,0,53653:0:0:0:0:
460,192,53569,128,0,53653:0:0:0:0:
256,192,53569,1,0,0:0:0:0:
51,192,53653,1,0,0:0:0:0:
460,192,53737,128,0,53821:0:0:0:0:
358,192,53737,128,0,53821:0:0:0:0:
153,192,53821,1,0,0:0:0:0:
51,192,53906,1,0,0:0:0:0:
460,192,53906,1,0,0:0:0:0:
358,192,53906,1,0,0:0:0:0:
256,192,53990,1,0,0:0:0:0:
153,192,53990,1,0,0:0:0:0:
51,192,54074,1,0,0:0:0:0:
358,192,54159,1,0,0:0:0:0:
460,192,54159,1,0,0:0:0:0:
256,192,54159,1,0,0:0:0:0:
153,192,54243,1,0,0:0:0:0:
51,192,54243,1,0,0:0:0:0:
460,192,54327,1,0,0:0:0:0:
256,192,54411,1,0,0:0:0:0:
358,192,54411,1,0,0:0:0:0:
153,192,54411,1,0,0:0:0:0:
51,192,54496,1,0,0:0:0:0:
460,192,54580,1,0,0:0:0:0:
358,192,54580,1,0,0:0:0:0:
256,192,54664,1,0,0:0:0:0:
51,192,54664,1,0,0:0:0:0:
153,192,54664,1,0,0:0:0:0:
358,192,54748,1,0,0:0:0:0:
460,192,54748,1,0,0:0:0:0:
153,192,54833,1,0,0:0:0:0:
51,192,54833,1,0,0:0:0:0:
256,192,54917,128,0,54973:0:0:0:0:
358,192,54917,128,0,55029:0:0:0:0:
460,192,54917,128,0,55086:0:0:0:0:
51,192,54973,1,0,0:0:0:0:
153,192,55029,1,0,0:0:0:0:
256,192,55086,1,0,0:0:0:0:
358,192,55142,1,0,0:0:0:0:
460,192,55198,1,0,0:0:0:0:
256,192,55254,128,0,55338:0:0:0:0:
153,192,55254,128,0,55338:0:0:0:0:
51,192,55254,128,0,55338:0:0:0:0:
460,192,55423,128,0,55507:0:0:0:0:
358,192,55423,128,0,55507:0:0:0:0:
51,192,55423,1,0,0:0:0:0:
153,192,55507,1,0,0:0:0:0:
256,192,55591,1,0,0:0:0:0:
358,192,55675,1,0,0:0:0:0:
153,192,55760,128,0,55928:0:0:0:0:
51,192,55760,128,0,55928:0:0:0:0:
460,192,55760,128,0,55928:0:0:0:0:
358,192,55928,128,0,56055:0:0:0:0:
153,192,56013,128,0,56139:0:0:0:0:
358,192,56097,128,0,56181:0:0:0:0:
153,192,56181,128,0,56265:0:0:0:0:
358,192,56265,128,0,56350:0:0:0:0:
460,192,56265,128,0,56350:0:0:0:0:
51,192,56265,128,0,56350:0:0:0:0:
256,192,56350,1,0,0:0:0:0:
153,192,56434,1,0,0:0:0:0:
358,192,56518,1,0,0:0:0:0:
256,192,56602,1,0,0:0:0:0:
460,192,56687,1,0,0:0:0:0:
51,192,56771,128,0,56939:0:0:0:0:
153,192,56771,128,0,56939:0:0:0:0:
256,192,56771,128,0,56939:0:0:0:0:
358,192,56939,128,0,57066:0:0:0:0:
153,192,57024,128,0,57150:0:0:0:0:
358,192,57108,128,0,57192:0:0:0:0:
153,192,57192,128,0,57277:0:0:0:0:
256,192,57277,128,0,57403:0:0:0:0:
358,192,57277,128,0,57445:0:0:0:0:
460,192,57277,128,0,57487:0:0:0:0:
51,192,57445,128,0,57529:0:0:0:0:
153,192,57487,128,0,57571:0:0:0:0:
256,192,57529,128,0,57614:0:0:0:0:
358,192,57571,128,0,57656:0:0:0:0:
460,192,57614,128,0,57698:0:0:0:0:
51,192,57656,1,0,0:0:0:0:
153,192,57698,1,0,0:0:0:0:
256,192,57740,1,0,0:0:0:0:
358,192,57782,1,0,0:0:0:0:
460,192,57824,1,0,0:0:0:0:
256,192,57951,128,0,58035:0:0:0:0:
153,192,57951,128,0,58035:0:0:0:0:
51,192,57951,128,0,58035:0:0:0:0:
358,192,58119,128,0,58204:0:0:0:0:
460,192,58119,128,0,58204:0:0:0:0:
51,192,58119,1,0,0:0:0:0:
153,192,58204,1,0,0:0:0:0:
256,192,58288,1,0,0:0:0:0:
358,192,58372,1,0,0:0:0:0:
460,192,58456,128,0,58625:0:0:0:0:
153,192,58456,128,0,58625:0:0:0:0:
51,192,58456,128,0,58625:0:0:0:0:
358,192,58625,128,0,58751:0:0:0:0:
153,192,58709,128,0,58836:0:0:0:0:
358,192,58793,128,0,58878:0:0:0:0:
153,192,58878,128,0,58962:0:0:0:0:
460,192,58962,128,0,59046:0:0:0:0:
51,192,58962,128,0,59046:0:0:0:0:
358,192,58962,128,0,59046:0:0:0:0:
256,192,59046,1,0,0:0:0:0:
153,192,59130,1,0,0:0:0:0:
358,192,59215,1,0,0:0:0:0:
153,192,59299,1,0,0:0:0:0:
256,192,59383,1,0,0:0:0:0:
358,192,59468,128,0,59636:0:0:0:0:
51,192,59468,128,0,59636:0:0:0:0:
460,192,59468,128,0,59636:0:0:0:0:
153,192,59636,128,0,59763:0:0:0:0:
358,192,59720,128,0,59847:0:0:0:0:
153,192,59805,128,0,59889:0:0:0:0:
358,192,59889,128,0,59973:0:0:0:0:
51,192,59973,1,0,0:0:0:0:
153,192,60015,1,0,0:0:0:0:
460,192,60057,1,0,0:0:0:0:
358,192,60100,1,0,0:0:0:0:
256,192,60142,1,0,0:0:0:0:
51,192,60184,1,0,0:0:0:0:
153,192,60226,1,0,0:0:0:0:
460,192,60268,1,0,0:0:0:0:
358,192,60310,1,0,0:0:0:0:
51,192,60352,1,0,0:0:0:0:
153,192,60395,1,0,0:0:0:0:
256,192,60437,1,0,0:0:0:0:
460,192,60479,1,0,0:0:0:0:
358,192,60521,1,0,0:0:0:0:
153,192,60563,1,0,0:0:0:0:
51,192,60605,1,0,0:0:0:0:
460,192,60647,128,0,61659:0:0:0:0:
256,192,60647,1,0,0:0:0:0:
358,192,61153,128,0,61659:0:0:0:0:
153,192,61153,1,0,0:0:0:0:
51,192,61659,128,0,62333:0:0:0:0:
153,192,61771,128,0,62108:0:0:0:0:
256,192,61883,128,0,61996:0:0:0:0:
358,192,61996,128,0,62108:0:0:0:0:
460,192,61996,1,0,0:0:0:0:
256,192,62108,128,0,62220:0:0:0:0:
153,192,62220,1,0,0:0:0:0:
460,192,62220,128,0,62333:0:0:0:0:
256,192,62333,128,0,62445:0:0:0:0:
51,192,62445,128,0,62557:0:0:0:0:
256,192,62557,128,0,62670:0:0:0:0:
460,192,62670,128,0,63007:0:0:0:0:
153,192,62670,128,0,62782:0:0:0:0:
358,192,62782,128,0,62895:0:0:0:0:
153,192,62895,128,0,63007:0:0:0:0:
358,192,63007,128,0,63119:0:0:0:0:
51,192,63007,128,0,63513:0:0:0:0:
256,192,63119,128,0,63344:0:0:0:0:
460,192,63232,128,0,63344:0:0:0:0:
153,192,63344,1,0,0:0:0:0:
358,192,63344,128,0,63428:0:0:0:0:
256,192,63428,128,0,63513:0:0:0:0:
153,192,63513,128,0,63597:0:0:0:0:
51,192,63597,128,0,63681:0:0:0:0:
460,192,63681,1,0,0:0:0:0:
358,192,63681,128,0,63765:0:0:0:0:
256,192,63765,128,0,63850:0:0:0:0:
153,192,63850,128,0,63934:0:0:0:0:
51,192,63934,128,0,64018:0:0:0:0:
358,192,63934,128,0,64018:0:0:0:0:
460,192,64018,128,0,64355:0:0:0:0:
256,192,64018,128,0,64102:0:0:0:0:
358,192,64102,128,0,64187:0:0:0:0:
153,192,64187,128,0,64271:0:0:0:0:
51,192,64271,128,0,64355:0:0:0:0:
153,192,64355,1,0,0:0:0:0:
358,192,64355,128,0,64439:0:0:0:0:
256,192,64439,128,0,64524:0:0:0:0:
153,192,64524,128,0,64608:0:0:0:0:
51,192,64608,128,0,64692:0:0:0:0:
460,192,64692,1,0,0:0:0:0:
358,192,64692,128,0,64748:0:0:0:0:
256,192,64748,128,0,64917:0:0:0:0:
51,192,64805,128,0,64917:0:0:0:0:
460,192,64861,128,0,64917:0:0:0:0:
358,192,64917,128,0,65029:0:0:0:0:
153,192,64973,128,0,65029:0:0:0:0:
460,192,65029,128,0,65142:0:0:0:0:
256,192,65086,128,0,65198:0:0:0:0:
153,192,65142,128,0,65254:0:0:0:0:
51,192,65198,128,0,65310:0:0:0:0:
460,192,65254,128,0,65366:0:0:0:0:
358,192,65310,128,0,65423:0:0:0:0:
153,192,65366,1,0,0:0:0:0:
256,192,65366,128,0,66041:0:0:0:0:
460,192,66041,128,0,66462:0:0:0:0:
51,192,66041,128,0,66462:0:0:0:0:
153,192,66041,1,0,0:0:0:0:
358,192,66041,1,0,0:0:0:0:
256,192,66293,128,0,66378:0:0:0:0:
460,192,66546,128,0,66968:0:0:0:0:
51,192,66546,128,0,66968:0:0:0:0:
256,192,66546,128,0,66630:0:0:0:0:
256,192,66799,1,0,0:0:0:0:
460,192,67052,128,0,67305:0:0:0:0:
51,192,67052,1,0,0:0:0:0:
358,192,67052,1,0,0:0:0:0:
256,192,67136,1,0,0:0:0:0:
51,192,67220,1,0,0:0:0:0:
256,192,67305,1,0,0:0:0:0:
51,192,67389,128,0,67810:0:0:0:0:
460,192,67389,128,0,67810:0:0:0:0:
358,192,67389,1,0,0:0:0:0:
153,192,67473,1,0,0:0:0:0:
358,192,67557,1,0,0:0:0:0:
256,192,67642,1,0,0:0:0:0:
153,192,67726,1,0,0:0:0:0:
256,192,67810,1,0,0:0:0:0:
51,192,67895,128,0,68316:0:0:0:0:
460,192,67895,128,0,68316:0:0:0:0:
358,192,67895,1,0,0:0:0:0:
153,192,67895,1,0,0:0:0:0:
153,192,68400,128,0,68653:0:0:0:0:
358,192,68400,128,0,68653:0:0:0:0:
256,192,68400,128,0,68653:0:0:0:0:
460,192,68737,128,0,69159:0:0:0:0:
51,192,68737,128,0,69159:0:0:0:0:
256,192,68737,128,0,68821:0:0:0:0:
256,192,68990,128,0,69074:0:0:0:0:
460,192,69243,128,0,69580:0:0:0:0:
51,192,69243,128,0,69580:0:0:0:0:
358,192,69243,1,0,0:0:0:0:
153,192,69243,1,0,0:0:0:0:
256,192,69580,128,0,70254:0:0:0:0:
358,192,69748,128,0,70423:0:0:0:0:
460,192,69917,128,0,70591:0:0:0:0:
51,192,70086,128,0,70760:0:0:0:0:
153,192,70254,128,0,70338:0:0:0:0:
256,192,70423,128,0,71097:0:0:0:0:
358,192,70591,128,0,70675:0:0:0:0:
460,192,70760,128,0,71434:0:0:0:0:
51,192,70928,128,0,71013:0:0:0:0:
153,192,71097,128,0,71181:0:0:0:0:
256,192,71265,128,0,71350:0:0:0:0:
358,192,71434,128,0,71518:0:0:0:0:
51,192,71434,128,0,71855:0:0:0:0:
153,192,71434,128,0,71855:0:0:0:0:
358,192,71687,128,0,71771:0:0:0:0:
51,192,71939,128,0,72361:0:0:0:0:
153,192,71939,128,0,72361:0:0:0:0:
358,192,71939,128,0,72024:0:0:0:0:
358,192,72192,1,0,0:0:0:0:
51,192,72445,128,0,72698:0:0:0:0:
460,192,72445,128,0,72698:0:0:0:0:
256,192,72445,1,0,0:0:0:0:
358,192,72529,1,0,0:0:0:0:
153,192,72614,1,0,0:0:0:0:
256,192,72698,1,0,0:0:0:0:
460,192,72782,128,0,73204:0:0:0:0:
358,192,72782,128,0,73204:0:0:0:0:
153,192,72782,1,0,0:0:0:0:
51,192,72866,1,0,0:0:0:0:
256,192,72951,1,0,0:0:0:0:
153,192,73035,1,0,0:0:0:0:
51,192,73119,1,0,0:0:0:0:
153,192,73204,1,0,0:0:0:0:
358,192,73288,128,0,73709:0:0:0:0:
460,192,73288,128,0,73709:0:0:0:0:
256,192,73288,1,0,0:0:0:0:
51,192,73288,1,0,0:0:0:0:
51,192,73793,128,0,74046:0:0:0:0:
460,192,73793,128,0,74046:0:0:0:0:
256,192,73793,128,0,74046:0:0:0:0:
153,192,74130,128,0,74552:0:0:0:0:
51,192,74130,128,0,74552:0:0:0:0:
358,192,74130,128,0,74215:0:0:0:0:
358,192,74383,128,0,74468:0:0:0:0:
51,192,74636,128,0,75057:0:0:0:0:
153,192,74636,128,0,75057:0:0:0:0:
358,192,74636,128,0,74720:0:0:0:0:
358,192,74889,1,0,0:0:0:0:
51,192,75142,128,0,75226:0:0:0:0:
460,192,75142,128,0,75395:0:0:0:0:
256,192,75142,128,0,75591:0:0:0:0:
51,192,75310,128,0,76265:0:0:0:0:
460,192,75479,128,0,76041:0:0:0:0:
358,192,75591,128,0,75928:0:0:0:0:
256,192,75704,128,0,75816:0:0:0:0:
153,192,75816,128,0,76490:0:0:0:0:
256,192,75928,128,0,76265:0:0:0:0:
358,192,76041,128,0,76153:0:0:0:0:
460,192,76153,128,0,76321:0:0:0:0:
358,192,76265,128,0,76490:0:0:0:0:
51,192,76378,128,0,76602:0:0:0:0:
256,192,76378,128,0,76715:0:0:0:0:
460,192,76490,128,0,76715:0:0:0:0:
358,192,76602,128,0,76715:0:0:0:0:
153,192,76602,128,0,76827:0:0:0:0:
51,192,76715,128,0,76827:0:0:0:0:
256,192,76827,1,0,0:0:0:0:
460,192,76827,1,0,0:0:0:0:
358,192,76827,1,0,0:0:0:0:
51,192,76996,1,0,0:0:0:0:
153,192,76996,1,0,0:0:0:0:
256,192,77080,1,0,0:0:0:0:
460,192,77164,1,0,0:0:0:0:
358,192,77164,128,0,77333:0:0:0:0:
51,192,77248,1,0,0:0:0:0:
256,192,77333,128,0,77501:0:0:0:0:
153,192,77333,1,0,0:0:0:0:
460,192,77417,1,0,0:0:0:0:
153,192,77501,128,0,77670:0:0:0:0:
51,192,77501,1,0,0:0:0:0:
460,192,77670,1,0,0:0:0:0:
358,192,77670,1,0,0:0:0:0:
256,192,77754,1,0,0:0:0:0:
51,192,77838,1,0,0:0:0:0:
153,192,77838,128,0,78007:0:0:0:0:
460,192,77923,1,0,0:0:0:0:
256,192,78007,128,0,78175:0:0:0:0:
358,192,78007,1,0,0:0:0:0:
51,192,78091,1,0,0:0:0:0:
358,192,78175,128,0,78344:0:0:0:0:
460,192,78175,1,0,0:0:0:0:
153,192,78175,1,0,0:0:0:0:
256,192,78344,1,0,0:0:0:0:
153,192,78428,1,0,0:0:0:0:
51,192,78513,128,0,78681:0:0:0:0:
358,192,78513,1,0,0:0:0:0:
256,192,78597,1,0,0:0:0:0:
153,192,78681,128,0,78850:0:0:0:0:
460,192,78681,1,0,0:0:0:0:
358,192,78765,1,0,0:0:0:0:
256,192,78850,128,0,79018:0:0:0:0:
460,192,78850,1,0,0:0:0:0:
51,192,79018,1,0,0:0:0:0:
153,192,79018,1,0,0:0:0:0:
256,192,79102,1,0,0:0:0:0:
460,192,79187,128,0,79355:0:0:0:0:
358,192,79187,1,0,0:0:0:0:
153,192,79271,1,0,0:0:0:0:
358,192,79355,128,0,79524:0:0:0:0:
256,192,79355,1,0,0:0:0:0:
51,192,79439,1,0,0:0:0:0:
256,192,79524,128,0,79692:0:0:0:0:
153,192,79524,1,0,0:0:0:0:
460,192,79524,1,0,0:0:0:0:
460,192,79692,1,0,0:0:0:0:
358,192,79692,1,0,0:0:0:0:
256,192,79777,1,0,0:0:0:0:
51,192,79861,1,0,0:0:0:0:
153,192,79861,128,0,80029:0:0:0:0:
460,192,79945,1,0,0:0:0:0:
256,192,80029,128,0,80198:0:0:0:0:
358,192,80029,1,0,0:0:0:0:
51,192,80114,1,0,0:0:0:0:
358,192,80198,128,0,80366:0:0:0:0:
460,192,80198,1,0,0:0:0:0:
51,192,80366,1,0,0:0:0:0:
153,192,80366,1,0,0:0:0:0:
256,192,80451,1,0,0:0:0:0:
460,192,80535,1,0,0:0:0:0:
358,192,80535,128,0,80704:0:0:0:0:
51,192,80619,1,0,0:0:0:0:
256,192,80704,128,0,80872:0:0:0:0:
153,192,80704,1,0,0:0:0:0:
460,192,80788,1,0,0:0:0:0:
153,192,80872,128,0,81041:0:0:0:0:
51,192,80872,1,0,0:0:0:0:
358,192,80872,1,0,0:0:0:0:
256,192,81041,1,0,0:0:0:0:
358,192,81125,1,0,0:0:0:0:
460,192,81209,128,0,81378:0:0:0:0:
153,192,81209,1,0,0:0:0:0:
256,192,81293,1,0,0:0:0:0:
358,192,81378,128,0,81546:0:0:0:0:
51,192,81378,1,0,0:0:0:0:
153,192,81462,1,0,0:0:0:0:
256,192,81546,128,0,81715:0:0:0:0:
51,192,81546,1,0,0:0:0:0:
460,192,81715,1,0,0:0:0:0:
358,192,81715,1,0,0:0:0:0:
256,192,81799,1,0,0:0:0:0:
51,192,81883,128,0,82052:0:0:0:0:
153,192,81883,1,0,0:0:0:0:
358,192,81968,1,0,0:0:0:0:
153,192,82052,128,0,82220:0:0:0:0:
256,192,82052,1,0,0:0:0:0:
460,192,82136,1,0,0:0:0:0:
256,192,82220,128,0,82389:0:0:0:0:
51,192,82220,1,0,0:0:0:0:
358,192,82220,128,0,82389:0:0:0:0:
51,192,82389,1,0,0:0:0:0:
460,192,82389,1,0,0:0:0:0:
153,192,82473,1,0,0:0:0:0:
460,192,82557,128,0,82895:0:0:0:0:
256,192,82557,1,0,0:0:0:0:
51,192,82642,1,0,0:0:0:0:
358,192,82726,128,0,83063:0:0:0:0:
153,192,82726,1,0,0:0:0:0:
256,192,82810,1,0,0:0:0:0:
51,192,82895,128,0,83232:0:0:0:0:
153,192,82895,1,0,0:0:0:0:
256,192,83063,1,0,0:0:0:0:
153,192,83063,1,0,0:0:0:0:
358,192,83147,1,0,0:0:0:0:
256,192,83232,128,0,83569:0:0:0:0:
460,192,83232,1,0,0:0:0:0:
51,192,83316,1,0,0:0:0:0:
153,192,83400,128,0,83737:0:0:0:0:
358,192,83400,1,0,0:0:0:0:
460,192,83484,1,0,0:0:0:0:
51,192,83569,128,0,83906:0:0:0:0:
358,192,83569,128,0,83737:0:0:0:0:
460,192,83737,1,0,0:0:0:0:
358,192,83821,1,0,0:0:0:0:
256,192,83906,128,0,84243:0:0:0:0:
153,192,83906,1,0,0:0:0:0:
460,192,83990,1,0,0:0:0:0:
358,192,84074,128,0,84411:0:0:0:0:
153,192,84074,1,0,0:0:0:0:
51,192,84159,1,0,0:0:0:0:
460,192,84243,128,0,84580:0:0:0:0:
153,192,84243,1,0,0:0:0:0:
51,192,84411,1,0,0:0:0:0:
256,192,84411,1,0,0:0:0:0:
153,192,84496,1,0,0:0:0:0:
51,192,84580,128,0,84917:0:0:0:0:
358,192,84580,1,0,0:0:0:0:
256,192,84664,1,0,0:0:0:0:
153,192,84748,128,0,85086:0:0:0:0:
460,192,84748,1,0,0:0:0:0:
358,192,84833,1,0,0:0:0:0:
460,192,84917,128,0,85254:0:0:0:0:
256,192,84917,128,0,85086:0:0:0:0:
358,192,85086,1,0,0:0:0:0:
51,192,85086,1,0,0:0:0:0:
256,192,85170,1,0,0:0:0:0:
153,192,85254,1,0,0:0:0:0:
51,192,85254,128,0,85591:0:0:0:0:
358,192,85338,1,0,0:0:0:0:
153,192,85423,128,0,85760:0:0:0:0:
256,192,85423,1,0,0:0:0:0:
460,192,85507,1,0,0:0:0:0:
256,192,85591,128,0,85928:0:0:0:0:
358,192,85591,1,0,0:0:0:0:
51,192,85760,1,0,0:0:0:0:
460,192,85760,1,0,0:0:0:0:
358,192,85844,1,0,0:0:0:0:
153,192,85928,128,0,86265:0:0:0:0:
51,192,85928,1,0,0:0:0:0:
460,192,86013,1,0,0:0:0:0:
256,192,86097,128,0,86434:0:0:0:0:
358,192,86097,1,0,0:0:0:0:
51,192,86181,1,0,0:0:0:0:
358,192,86265,128,0,86602:0:0:0:0:
460,192,86265,1,0,0:0:0:0:
51,192,86434,1,0,0:0:0:0:
153,192,86518,1,0,0:0:0:0:
256,192,86602,128,0,86939:0:0:0:0:
460,192,86602,1,0,0:0:0:0:
51,192,86687,1,0,0:0:0:0:
358,192,86771,128,0,87108:0:0:0:0:
460,192,86771,1,0,0:0:0:0:
153,192,86855,1,0,0:0:0:0:
460,192,86939,128,0,87277:0:0:0:0:
51,192,86939,1,0,0:0:0:0:
256,192,87024,1,0,0:0:0:0:
153,192,87108,1,0,0:0:0:0:
51,192,87108,1,0,0:0:0:0:
358,192,87192,1,0,0:0:0:0:
153,192,87277,1,0,0:0:0:0:
256,192,87277,1,0,0:0:0:0:
51,192,87277,1,0,0:0:0:0:
256,192,87614,1,0,0:0:0:0:
51,192,87614,1,0,0:0:0:0:
460,192,87614,1,0,0:0:0:0:
153,192,87782,128,0,87951:0:0:0:0:
358,192,87866,128,0,87951:0:0:0:0:
51,192,87951,128,0,88035:0:0:0:0:
256,192,87951,128,0,88035:0:0:0:0:
358,192,88035,128,0,88204:0:0:0:0:
153,192,88119,128,0,88204:0:0:0:0:
153,192,88288,1,0,0:0:0:0:
51,192,88288,1,0,0:0:0:0:
358,192,88456,128,0,88625:0:0:0:0:
153,192,88541,128,0,88625:0:0:0:0:
460,192,88625,128,0,88709:0:0:0:0:
256,192,88625,128,0,88709:0:0:0:0:
153,192,88709,128,0,88878:0:0:0:0:
358,192,88793,128,0,88878:0:0:0:0:
358,192,88962,1,0,0:0:0:0:
460,192,88962,1,0,0:0:0:0:
153,192,89130,128,0,89299:0:0:0:0:
358,192,89215,128,0,89299:0:0:0:0:
256,192,89299,128,0,89383:0:0:0:0:
51,192,89299,128,0,89383:0:0:0:0:
358,192,89383,128,0,89552:0:0:0:0:
153,192,89468,128,0,89552:0:0:0:0:
256,192,89636,128,0,89805:0:0:0:0:
51,192,89636,128,0,89720:0:0:0:0:
358,192,89720,128,0,89889:0:0:0:0:
460,192,89805,128,0,90226:0:0:0:0:
153,192,89805,128,0,89973:0:0:0:0:
256,192,89889,128,0,90057:0:0:0:0:
51,192,89973,128,0,90057:0:0:0:0:
358,192,89973,128,0,90142:0:0:0:0:
153,192,90057,128,0,90142:0:0:0:0:
256,192,90142,128,0,90226:0:0:0:0:
358,192,90226,128,0,90310:0:0:0:0:
460,192,90310,128,0,90647:0:0:0:0:
153,192,90310,128,0,90535:0:0:0:0:
51,192,90423,128,0,90535:0:0:0:0:
358,192,90535,128,0,90647:0:0:0:0:
51,192,90647,128,0,90984:0:0:0:0:
256,192,90647,128,0,90872:0:0:0:0:
153,192,90760,128,0,90872:0:0:0:0:
460,192,90872,128,0,90984:0:0:0:0:
358,192,90984,128,0,91237:0:0:0:0:
256,192,90984,128,0,91069:0:0:0:0:
153,192,91069,128,0,91321:0:0:0:0:
51,192,91153,128,0,91237:0:0:0:0:
460,192,91153,128,0,91237:0:0:0:0:
256,192,91237,128,0,91406:0:0:0:0:
460,192,91321,128,0,91574:0:0:0:0:
358,192,91406,128,0,91490:0:0:0:0:
51,192,91490,128,0,91743:0:0:0:0:
153,192,91574,128,0,91659:0:0:0:0:
256,192,91659,128,0,91911:0:0:0:0:
358,192,91743,128,0,91827:0:0:0:0:
51,192,91827,128,0,91911:0:0:0:0:
460,192,91827,128,0,92080:0:0:0:0:
153,192,91911,128,0,92248:0:0:0:0:
256,192,91996,128,0,92080:0:0:0:0:
358,192,92080,128,0,92417:0:0:0:0:
460,192,92164,128,0,92248:0:0:0:0:
51,192,92248,128,0,92586:0:0:0:0:
153,192,92333,128,0,92417:0:0:0:0:
256,192,92417,128,0,92754:0:0:0:0:
358,192,92501,128,0,92586:0:0:0:0:
460,192,92586,128,0,92923:0:0:0:0:
51,192,92670,128,0,93007:0:0:0:0:
153,192,92754,128,0,93007:0:0:0:0:
256,192,92838,128,0,93007:0:0:0:0:
358,192,92923,128,0,93007:0:0:0:0:
460,192,93007,1,0,0:0:0:0:
358,192,93175,128,0,93344:0:0:0:0:
153,192,93260,128,0,93344:0:0:0:0:
153,192,93428,128,0,93597:0:0:0:0:
358,192,93513,128,0,93597:0:0:0:0:
358,192,93681,1,0,0:0:0:0:
460,192,93681,1,0,0:0:0:0:
153,192,93850,128,0,94018:0:0:0:0:
358,192,93934,128,0,94018:0:0:0:0:
358,192,94102,128,0,94271:0:0:0:0:
153,192,94187,128,0,94271:0:0:0:0:
51,192,94355,1,0,0:0:0:0:
153,192,94355,1,0,0:0:0:0:
358,192,94524,128,0,94692:0:0:0:0:
153,192,94608,128,0,94692:0:0:0:0:
153,192,94777,128,0,94945:0:0:0:0:
358,192,94861,128,0,94945:0:0:0:0:
358,192,95029,1,0,0:0:0:0:
460,192,95029,1,0,0:0:0:0:
51,192,95198,128,0,95423:0:0:0:0:
256,192,95254,1,0,0:0:0:0:
358,192,95310,1,0,0:0:0:0:
460,192,95366,1,0,0:0:0:0:
153,192,95366,128,0,95479:0:0:0:0:
256,192,95423,128,0,95535:0:0:0:0:
358,192,95479,128,0,95591:0:0:0:0:
460,192,95535,128,0,95704:0:0:0:0:
51,192,95591,1,0,0:0:0:0:
153,192,95647,1,0,0:0:0:0:
51,192,95704,128,0,95872:0:0:0:0:
358,192,95704,128,0,95984:0:0:0:0:
153,192,95872,1,0,0:0:0:0:
256,192,95928,128,0,96041:0:0:0:0:
153,192,95984,128,0,96097:0:0:0:0:
460,192,96041,128,0,96209:0:0:0:0:
51,192,96041,128,0,96321:0:0:0:0:
358,192,96209,1,0,0:0:0:0:
256,192,96265,128,0,96378:0:0:0:0:
358,192,96321,128,0,96434:0:0:0:0:
153,192,96378,128,0,96546:0:0:0:0:
460,192,96378,128,0,96659:0:0:0:0:
256,192,96546,1,0,0:0:0:0:
358,192,96602,128,0,96715:0:0:0:0:
256,192,96659,128,0,96771:0:0:0:0:
51,192,96715,128,0,96883:0:0:0:0:
153,192,96715,128,0,96799:0:0:0:0:
460,192,96799,128,0,97052:0:0:0:0:
358,192,96883,128,0,97052:0:0:0:0:
256,192,96968,128,0,97052:0:0:0:0:
153,192,97052,128,0,97220:0:0:0:0:
51,192,97052,128,0,97277:0:0:0:0:
358,192,97220,128,0,97333:0:0:0:0:
256,192,97277,128,0,97389:0:0:0:0:
153,192,97333,128,0,97445:0:0:0:0:
460,192,97389,128,0,97557:0:0:0:0:
51,192,97389,128,0,97614:0:0:0:0:
153,192,97557,128,0,97670:0:0:0:0:
256,192,97614,128,0,97726:0:0:0:0:
358,192,97670,128,0,97782:0:0:0:0:
460,192,97726,128,0,97838:0:0:0:0:
51,192,97726,128,0,97782:0:0:0:0:
153,192,97782,128,0,97838:0:0:0:0:
256,192,97838,128,0,97895:0:0:0:0:
51,192,97895,128,0,97951:0:0:0:0:
460,192,97951,128,0,98007:0:0:0:0:
358,192,98007,128,0,98063:0:0:0:0:
256,192,98063,128,0,98119:0:0:0:0:
460,192,98119,128,0,98175:0:0:0:0:
51,192,98175,128,0,98232:0:0:0:0:
153,192,98232,128,0,98288:0:0:0:0:
256,192,98288,128,0,98344:0:0:0:0:
358,192,98344,128,0,98400:0:0:0:0:
460,192,98400,1,0,0:0:0:0:
51,192,98400,1,0,0:0:0:0:
153,192,98400,1,0,0:0:0:0:
358,192,98569,128,0,98737:0:0:0:0:
153,192,98653,128,0,98821:0:0:0:0:
256,192,98737,1,0,0:0:0:0:
51,192,98737,1,0,0:0:0:0:
460,192,98737,1,0,0:0:0:0:
358,192,98821,128,0,98990:0:0:0:0:
153,192,98906,128,0,98990:0:0:0:0:
256,192,99074,1,0,0:0:0:0:
51,192,99074,1,0,0:0:0:0:
460,192,99074,1,0,0:0:0:0:
153,192,99243,128,0,99411:0:0:0:0:
358,192,99327,128,0,99496:0:0:0:0:
460,192,99411,1,0,0:0:0:0:
256,192,99411,1,0,0:0:0:0:
51,192,99411,1,0,0:0:0:0:
153,192,99496,128,0,99664:0:0:0:0:
358,192,99580,128,0,99664:0:0:0:0:
460,192,99748,1,0,0:0:0:0:
51,192,99748,1,0,0:0:0:0:
256,192,99748,1,0,0:0:0:0:
358,192,99917,128,0,100086:0:0:0:0:
153,192,100001,128,0,100170:0:0:0:0:
256,192,100086,1,0,0:0:0:0:
51,192,100086,1,0,0:0:0:0:
460,192,100086,1,0,0:0:0:0:
358,192,100170,128,0,100338:0:0:0:0:
153,192,100254,128,0,100338:0:0:0:0:
256,192,100423,1,0,0:0:0:0:
51,192,100423,1,0,0:0:0:0:
460,192,100423,1,0,0:0:0:0:
153,192,100591,128,0,100760:0:0:0:0:
358,192,100675,128,0,100844:0:0:0:0:
460,192,100760,1,0,0:0:0:0:
256,192,100760,1,0,0:0:0:0:
51,192,100760,1,0,0:0:0:0:
153,192,100844,128,0,101013:0:0:0:0:
358,192,100928,128,0,101013:0:0:0:0:
460,192,101097,1,0,0:0:0:0:
51,192,101097,1,0,0:0:0:0:
256,192,101097,1,0,0:0:0:0:
358,192,101265,128,0,101434:0:0:0:0:
460,192,101265,1,0,0:0:0:0:
153,192,101350,128,0,101518:0:0:0:0:
460,192,101434,1,0,0:0:0:0:
51,192,101434,1,0,0:0:0:0:
256,192,101434,1,0,0:0:0:0:
358,192,101518,128,0,101687:0:0:0:0:
153,192,101602,128,0,101687:0:0:0:0:
51,192,101602,1,0,0:0:0:0:
460,192,101771,1,0,0:0:0:0:
256,192,101771,1,0,0:0:0:0:
153,192,101827,1,0,0:0:0:0:
51,192,101883,1,0,0:0:0:0:
358,192,101939,1,0,0:0:0:0:
256,192,101996,1,0,0:0:0:0:
153,192,102052,1,0,0:0:0:0:
460,192,102108,1,0,0:0:0:0:
51,192,102108,1,0,0:0:0:0:
358,192,102164,1,0,0:0:0:0:
256,192,102220,1,0,0:0:0:0:
153,192,102277,1,0,0:0:0:0:
460,192,102333,1,0,0:0:0:0:
358,192,102389,1,0,0:0:0:0:
51,192,102445,1,0,0:0:0:0:
153,192,102445,1,0,0:0:0:0:
256,192,102445,1,0,0:0:0:0:
256,192,102698,128,0,102782:0:0:0:0:
51,192,103119,1,0,0:0:0:0:
153,192,103161,1,0,0:0:0:0:
256,192,103204,1,0,0:0:0:0:
358,192,103246,1,0,0:0:0:0:
460,192,103288,1,0,0:0:0:0:
51,192,103330,1,0,0:0:0:0:
153,192,103372,1,0,0:0:0:0:
256,192,103414,1,0,0:0:0:0:
358,192,103456,1,0,0:0:0:0:
460,192,103498,1,0,0:0:0:0:
51,192,103541,1,0,0:0:0:0:
153,192,103583,1,0,0:0:0:0:
256,192,103625,1,0,0:0:0:0:
358,192,103667,1,0,0:0:0:0:
460,192,103709,1,0,0:0:0:0:
153,192,103793,128,0,103878:0:0:0:0:
51,192,103793,128,0,104383:0:0:0:0:
358,192,103962,128,0,104046:0:0:0:0:
460,192,103962,128,0,104383:0:0:0:0:
358,192,104299,128,0,104383:0:0:0:0:
256,192,104299,128,0,104636:0:0:0:0:
460,192,104636,128,0,105057:0:0:0:0:
51,192,104636,128,0,104889:0:0:0:0:
358,192,104720,128,0,104973:0:0:0:0:
256,192,104805,128,0,104889:0:0:0:0:
153,192,104889,128,0,104973:0:0:0:0:
256,192,104973,128,0,105057:0:0:0:0:
358,192,105057,128,0,105142:0:0:0:0:
51,192,105142,128,0,105563:0:0:0:0:
460,192,105142,128,0,105395:0:0:0:0:
153,192,105226,128,0,105479:0:0:0:0:
256,192,105310,128,0,105395:0:0:0:0:
358,192,105395,128,0,105479:0:0:0:0:
256,192,105479,128,0,105563:0:0:0:0:
153,192,105563,128,0,105647:0:0:0:0:
51,192,105647,128,0,105732:0:0:0:0:
460,192,105647,1,0,0:0:0:0:
358,192,105647,1,0,0:0:0:0:
256,192,105732,128,0,105816:0:0:0:0:
460,192,105816,128,0,105984:0:0:0:0:
153,192,105816,128,0,105900:0:0:0:0:
358,192,105900,128,0,106069:0:0:0:0:
256,192,105984,128,0,106153:0:0:0:0:
153,192,106069,128,0,106237:0:0:0:0:
460,192,106153,128,0,106237:0:0:0:0:
51,192,106153,128,0,106321:0:0:0:0:
358,192,106237,128,0,106321:0:0:0:0:
256,192,106321,128,0,106406:0:0:0:0:
153,192,106406,128,0,106490:0:0:0:0:
51,192,106490,128,0,106574:0:0:0:0:
460,192,106490,1,0,0:0:0:0:
358,192,106490,1,0,0:0:0:0:
153,192,106574,1,0,0:0:0:0:
256,192,106659,1,0,0:0:0:0:
358,192,106743,1,0,0:0:0:0:
51,192,106827,1,0,0:0:0:0:
460,192,106827,128,0,106911:0:0:0:0:
358,192,106911,1,0,0:0:0:0:
256,192,106996,1,0,0:0:0:0:
153,192,107080,1,0,0:0:0:0:
460,192,107164,1,0,0:0:0:0:
51,192,107164,128,0,107248:0:0:0:0:
153,192,107248,1,0,0:0:0:0:
256,192,107333,1,0,0:0:0:0:
358,192,107417,1,0,0:0:0:0:
460,192,107501,128,0,107586:0:0:0:0:
51,192,107501,1,0,0:0:0:0:
358,192,107586,128,0,107670:0:0:0:0:
256,192,107670,128,0,107754:0:0:0:0:
153,192,107754,128,0,107838:0:0:0:0:
358,192,107838,128,0,107951:0:0:0:0:
51,192,107838,128,0,107951:0:0:0:0:
460,192,107838,128,0,108063:0:0:0:0:
256,192,107951,128,0,108063:0:0:0:0:
153,192,108063,128,0,108175:0:0:0:0:
256,192,108175,128,0,108288:0:0:0:0:
51,192,108175,128,0,108400:0:0:0:0:
460,192,108175,128,0,108288:0:0:0:0:
358,192,108288,128,0,108400:0:0:0:0:
256,192,108400,128,0,108513:0:0:0:0:
153,192,108513,128,0,108597:0:0:0:0:
51,192,108513,128,0,108681:0:0:0:0:
460,192,108513,128,0,108765:0:0:0:0:
358,192,108597,128,0,108765:0:0:0:0:
256,192,108681,128,0,108850:0:0:0:0:
153,192,108765,1,0,0:0:0:0:
358,192,108850,128,0,108934:0:0:0:0:
460,192,108850,128,0,109018:0:0:0:0:
51,192,108850,128,0,109102:0:0:0:0:
153,192,108934,128,0,109102:0:0:0:0:
256,192,109018,128,0,109102:0:0:0:0:
358,192,109102,1,0,0:0:0:0:
460,192,109187,1,0,0:0:0:0:
153,192,109187,1,0,0:0:0:0:
51,192,109187,1,0,0:0:0:0:
358,192,109271,1,0,0:0:0:0:
256,192,109355,1,0,0:0:0:0:
153,192,109439,128,0,109524:0:0:0:0:
51,192,109439,128,0,109524:0:0:0:0:
358,192,109524,1,0,0:0:0:0:
460,192,109524,1,0,0:0:0:0:
256,192,109608,1,0,0:0:0:0:
153,192,109692,1,0,0:0:0:0:
256,192,109777,1,0,0:0:0:0:
358,192,109861,1,0,0:0:0:0:
460,192,109861,1,0,0:0:0:0:
153,192,109945,128,0,110029:0:0:0:0:
51,192,109945,128,0,110029:0:0:0:0:
460,192,110029,1,0,0:0:0:0:
358,192,110114,1,0,0:0:0:0:
51,192,110198,128,0,110282:0:0:0:0:
460,192,110198,1,0,0:0:0:0:
256,192,110198,1,0,0:0:0:0:
153,192,110282,128,0,110366:0:0:0:0:
256,192,110366,128,0,110451:0:0:0:0:
358,192,110451,128,0,110535:0:0:0:0:
153,192,110535,1,0,0:0:0:0:
51,192,110535,1,0,0:0:0:0:
460,192,110535,1,0,0:0:0:0:
358,192,110619,1,0,0:0:0:0:
256,192,110704,1,0,0:0:0:0:
153,192,110788,1,0,0:0:0:0:
51,192,110872,128,0,111041:0:0:0:0:
460,192,110872,1,0,0:0:0:0:
358,192,110872,128,0,110956:0:0:0:0:
256,192,110956,128,0,111041:0:0:0:0:
153,192,111041,128,0,111125:0:0:0:0:
51,192,111125,128,0,111321:0:0:0:0:
256,192,111209,1,0,0:0:0:0:
358,192,111209,1,0,0:0:0:0:
460,192,111209,1,0,0:0:0:0:
153,192,111265,128,0,111378:0:0:0:0:
256,192,111321,128,0,111434:0:0:0:0:
358,192,111378,128,0,111490:0:0:0:0:
460,192,111434,128,0,111546:0:0:0:0:
51,192,111490,128,0,111602:0:0:0:0:
153,192,111546,128,0,111659:0:0:0:0:
256,192,111546,1,0,0:0:0:0:
358,192,111602,128,0,111715:0:0:0:0:
460,192,111659,128,0,111771:0:0:0:0:
256,192,111715,128,0,111771:0:0:0:0:
153,192,111771,128,0,111827:0:0:0:0:
51,192,111827,128,0,111883:0:0:0:0:
358,192,111883,1,0,0:0:0:0:
460,192,111883,1,0,0:0:0:0:
256,192,111883,1,0,0:0:0:0:
358,192,111996,128,0,112108:0:0:0:0:
460,192,111996,128,0,112108:0:0:0:0:
256,192,112108,128,0,112220:0:0:0:0:
51,192,112220,1,0,0:0:0:0:
460,192,112220,1,0,0:0:0:0:
153,192,112220,1,0,0:0:0:0:
51,192,112333,128,0,112445:0:0:0:0:
153,192,112333,128,0,112445:0:0:0:0:
358,192,112445,128,0,112557:0:0:0:0:
460,192,112557,1,0,0:0:0:0:
256,192,112557,1,0,0:0:0:0:
51,192,112557,128,0,112782:0:0:0:0:
153,192,112670,128,0,112782:0:0:0:0:
358,192,112782,128,0,112895:0:0:0:0:
51,192,112895,1,0,0:0:0:0:
460,192,112895,128,0,113119:0:0:0:0:
256,192,112895,1,0,0:0:0:0:
358,192,113007,128,0,113119:0:0:0:0:
153,192,113119,128,0,113232:0:0:0:0:
51,192,113232,128,0,113484:0:0:0:0:
460,192,113232,128,0,113400:0:0:0:0:
358,192,113232,128,0,113316:0:0:0:0:
153,192,113316,128,0,113484:0:0:0:0:
256,192,113400,128,0,113569:0:0:0:0:
358,192,113484,1,0,0:0:0:0:
51,192,113569,128,0,113737:0:0:0:0:
460,192,113569,128,0,113821:0:0:0:0:
153,192,113569,128,0,113653:0:0:0:0:
358,192,113653,128,0,113821:0:0:0:0:
256,192,113737,128,0,113821:0:0:0:0:
153,192,113821,1,0,0:0:0:0:
51,192,113906,1,0,0:0:0:0:
460,192,113906,1,0,0:0:0:0:
358,192,113906,1,0,0:0:0:0:
256,192,113962,128,0,114074:0:0:0:0:
358,192,114018,128,0,114130:0:0:0:0:
460,192,114074,128,0,114130:0:0:0:0:
153,192,114130,128,0,114243:0:0:0:0:
256,192,114187,128,0,114299:0:0:0:0:
358,192,114243,128,0,114299:0:0:0:0:
51,192,114299,128,0,114411:0:0:0:0:
153,192,114355,128,0,114468:0:0:0:0:
256,192,114411,128,0,114468:0:0:0:0:
460,192,114468,1,0,0:0:0:0:
358,192,114524,1,0,0:0:0:0:
256,192,114580,1,0,0:0:0:0:
153,192,114580,1,0,0:0:0:0:
51,192,114580,1,0,0:0:0:0:
460,192,114664,1,0,0:0:0:0:
51,192,114748,128,0,114833:0:0:0:0:
256,192,114748,128,0,115086:0:0:0:0:
460,192,114833,1,0,0:0:0:0:
51,192,114917,1,0,0:0:0:0:
153,192,115001,128,0,115086:0:0:0:0:
358,192,115001,128,0,115338:0:0:0:0:
460,192,115086,1,0,0:0:0:0:
153,192,115170,1,0,0:0:0:0:
256,192,115254,128,0,115338:0:0:0:0:
460,192,115254,128,0,115591:0:0:0:0:
51,192,115338,1,0,0:0:0:0:
256,192,115423,1,0,0:0:0:0:
153,192,115507,128,0,115591:0:0:0:0:
51,192,115507,128,0,115844:0:0:0:0:
358,192,115591,1,0,0:0:0:0:
256,192,115675,1,0,0:0:0:0:
460,192,115760,128,0,115844:0:0:0:0:
358,192,115760,128,0,115844:0:0:0:0:
256,192,115844,1,0,0:0:0:0:
153,192,115928,128,0,116013:0:0:0:0:
51,192,115928,128,0,116097:0:0:0:0:
460,192,115928,128,0,116013:0:0:0:0:
358,192,116013,128,0,116097:0:0:0:0:
256,192,116097,128,0,116181:0:0:0:0:
153,192,116181,128,0,116265:0:0:0:0:
51,192,116265,128,0,116434:0:0:0:0:
256,192,116265,128,0,116350:0:0:0:0:
460,192,116265,128,0,116350:0:0:0:0:
358,192,116350,128,0,116434:0:0:0:0:
256,192,116434,128,0,116518:0:0:0:0:
153,192,116518,128,0,116602:0:0:0:0:
358,192,116602,128,0,116687:0:0:0:0:
460,192,116602,128,0,116771:0:0:0:0:
51,192,116602,128,0,116771:0:0:0:0:
153,192,116687,128,0,116855:0:0:0:0:
256,192,116771,128,0,116939:0:0:0:0:
358,192,116855,128,0,117024:0:0:0:0:
460,192,116939,128,0,117108:0:0:0:0:
51,192,116939,128,0,117024:0:0:0:0:
153,192,116939,128,0,117108:0:0:0:0:
256,192,117024,128,0,117192:0:0:0:0:
358,192,117108,128,0,117277:0:0:0:0:
460,192,117192,128,0,117277:0:0:0:0:
153,192,117277,128,0,117361:0:0:0:0:
51,192,117277,128,0,117361:0:0:0:0:
256,192,117277,128,0,117361:0:0:0:0:
460,192,117361,128,0,117445:0:0:0:0:
256,192,117445,128,0,117529:0:0:0:0:
51,192,117529,128,0,117614:0:0:0:0:
460,192,117614,1,0,0:0:0:0:
358,192,117614,128,0,117726:0:0:0:0:
256,192,117614,128,0,117838:0:0:0:0:
153,192,117726,128,0,117838:0:0:0:0:
358,192,117838,128,0,117951:0:0:0:0:
460,192,117838,128,0,117951:0:0:0:0:
256,192,117951,128,0,118035:0:0:0:0:
153,192,117951,128,0,118035:0:0:0:0:
51,192,117951,128,0,118035:0:0:0:0:
460,192,118035,128,0,118119:0:0:0:0:
256,192,118119,128,0,118204:0:0:0:0:
51,192,118204,128,0,118288:0:0:0:0:
460,192,118288,1,0,0:0:0:0:
358,192,118288,128,0,118400:0:0:0:0:
153,192,118288,128,0,118513:0:0:0:0:
256,192,118400,128,0,118513:0:0:0:0:
358,192,118513,128,0,118625:0:0:0:0:
460,192,118513,128,0,118625:0:0:0:0:
153,192,118625,1,0,0:0:0:0:
256,192,118625,128,0,118709:0:0:0:0:
51,192,118625,128,0,118793:0:0:0:0:
460,192,118709,1,0,0:0:0:0:
153,192,118793,128,0,118962:0:0:0:0:
358,192,118793,128,0,118878:0:0:0:0:
51,192,118878,1,0,0:0:0:0:
358,192,118962,1,0,0:0:0:0:
256,192,118962,128,0,119130:0:0:0:0:
460,192,118962,128,0,119046:0:0:0:0:
153,192,119046,1,0,0:0:0:0:
460,192,119130,1,0,0:0:0:0:
358,192,119130,128,0,119299:0:0:0:0:
51,192,119130,128,0,119215:0:0:0:0:
256,192,119215,1,0,0:0:0:0:
460,192,119299,1,0,0:0:0:0:
51,192,119299,128,0,119355:0:0:0:0:
153,192,119299,128,0,119411:0:0:0:0:
256,192,119355,128,0,119468:0:0:0:0:
358,192,119411,128,0,119524:0:0:0:0:
460,192,119468,128,0,119524:0:0:0:0:
51,192,119524,128,0,119636:0:0:0:0:
153,192,119580,128,0,119636:0:0:0:0:
460,192,119636,128,0,119692:0:0:0:0:
358,192,119636,128,0,119748:0:0:0:0:
256,192,119692,128,0,119805:0:0:0:0:
153,192,119748,128,0,119861:0:0:0:0:
51,192,119805,128,0,119861:0:0:0:0:
358,192,119861,128,0,119973:0:0:0:0:
256,192,119917,128,0,119973:0:0:0:0:
460,192,119973,128,0,120142:0:0:0:0:
51,192,119973,1,0,0:0:0:0:
153,192,119973,1,0,0:0:0:0:
358,192,120057,128,0,120226:0:0:0:0:
256,192,120142,128,0,120310:0:0:0:0:
153,192,120226,128,0,120310:0:0:0:0:
51,192,120310,128,0,120395:0:0:0:0:
358,192,120310,128,0,120395:0:0:0:0:
460,192,120310,1,0,0:0:0:0:
153,192,120395,128,0,120563:0:0:0:0:
51,192,120479,128,0,120647:0:0:0:0:
460,192,120479,128,0,120647:0:0:0:0:
358,192,120563,128,0,120732:0:0:0:0:
256,192,120647,128,0,120816:0:0:0:0:
153,192,120732,128,0,120900:0:0:0:0:
51,192,120816,128,0,120900:0:0:0:0:
460,192,120816,1,0,0:0:0:0:
358,192,120900,1,0,0:0:0:0:
51,192,120984,128,0,121153:0:0:0:0:
153,192,120984,128,0,121069:0:0:0:0:
460,192,120984,128,0,121069:0:0:0:0:
358,192,121069,128,0,121153:0:0:0:0:
256,192,121153,128,0,121237:0:0:0:0:
153,192,121237,128,0,121321:0:0:0:0:
358,192,121321,128,0,121434:0:0:0:0:
51,192,121321,1,0,0:0:0:0:
460,192,121321,128,0,121434:0:0:0:0:
256,192,121434,128,0,121546:0:0:0:0:
153,192,121434,128,0,121546:0:0:0:0:
51,192,121546,128,0,121659:0:0:0:0:
460,192,121546,128,0,121659:0:0:0:0:
358,192,121659,128,0,121771:0:0:0:0:
256,192,121659,128,0,121771:0:0:0:0:
153,192,121771,128,0,121883:0:0:0:0:
51,192,121771,128,0,121883:0:0:0:0:
358,192,121883,128,0,121996:0:0:0:0:
460,192,121883,128,0,121996:0:0:0:0:
256,192,121996,128,0,122108:0:0:0:0:
153,192,121996,128,0,122108:0:0:0:0:
51,192,122108,128,0,122220:0:0:0:0:
460,192,122108,128,0,122220:0:0:0:0:
358,192,122220,128,0,122333:0:0:0:0:
256,192,122220,128,0,122333:0:0:0:0:
153,192,122333,128,0,122445:0:0:0:0:
51,192,122333,128,0,122445:0:0:0:0:
358,192,122445,128,0,122557:0:0:0:0:
460,192,122445,128,0,122557:0:0:0:0:
256,192,122557,128,0,122670:0:0:0:0:
153,192,122557,128,0,122670:0:0:0:0:
460,192,122670,128,0,122838:0:0:0:0:
51,192,122670,128,0,122923:0:0:0:0:
358,192,122670,128,0,122754:0:0:0:0:
153,192,122754,128,0,122923:0:0:0:0:
256,192,122838,128,0,123007:0:0:0:0:
358,192,122923,1,0,0:0:0:0:
153,192,123007,128,0,123091:0:0:0:0:
51,192,123007,128,0,123175:0:0:0:0:
460,192,123007,128,0,123260:0:0:0:0:
358,192,123091,128,0,123260:0:0:0:0:
256,192,123175,128,0,123260:0:0:0:0:
153,192,123260,128,0,123344:0:0:0:0:
51,192,123260,128,0,123344:0:0:0:0:
460,192,123344,1,0,0:0:0:0:
358,192,123344,128,0,123400:0:0:0:0:
256,192,123400,128,0,123456:0:0:0:0:
153,192,123456,128,0,123513:0:0:0:0:
51,192,123513,128,0,123569:0:0:0:0:
256,192,123569,128,0,123625:0:0:0:0:
358,192,123625,128,0,123681:0:0:0:0:
460,192,123681,128,0,123737:0:0:0:0:
51,192,123681,128,0,123737:0:0:0:0:
153,192,123737,128,0,123793:0:0:0:0:
256,192,123793,128,0,123850:0:0:0:0:
460,192,123850,128,0,123906:0:0:0:0:
358,192,123906,128,0,123962:0:0:0:0:
256,192,123962,128,0,124018:0:0:0:0:
153,192,124018,128,0,124102:0:0:0:0:
51,192,124018,128,0,124102:0:0:0:0:
460,192,124018,128,0,124102:0:0:0:0:
358,192,124102,128,0,124187:0:0:0:0:
256,192,124187,128,0,124271:0:0:0:0:
51,192,124271,128,0,124355:0:0:0:0:
153,192,124271,128,0,124355:0:0:0:0:
460,192,124271,128,0,124355:0:0:0:0:
358,192,124355,128,0,124439:0:0:0:0:
256,192,124439,128,0,124524:0:0:0:0:
153,192,124524,128,0,124608:0:0:0:0:
51,192,124524,128,0,124608:0:0:0:0:
358,192,124608,128,0,124692:0:0:0:0:
460,192,124608,128,0,124692:0:0:0:0:
256,192,124608,128,0,124692:0:0:0:0:
153,192,124692,128,0,124777:0:0:0:0:
256,192,124777,128,0,124861:0:0:0:0:
358,192,124861,128,0,124945:0:0:0:0:
460,192,124861,128,0,124945:0:0:0:0:
51,192,124861,128,0,124945:0:0:0:0:
153,192,124945,128,0,125029:0:0:0:0:
460,192,125029,128,0,125114:0:0:0:0:
51,192,125029,128,0,125114:0:0:0:0:
358,192,125071,128,0,125156:0:0:0:0:
256,192,125114,128,0,125198:0:0:0:0:
153,192,125156,128,0,125240:0:0:0:0:
51,192,125198,128,0,125282:0:0:0:0:
460,192,125240,1,0,0:0:0:0:
358,192,125282,1,0,0:0:0:0:
256,192,125324,1,0,0:0:0:0:
51,192,125366,1,0,0:0:0:0:
153,192,125409,1,0,0:0:0:0:
460,192,125451,1,0,0:0:0:0:
358,192,125493,1,0,0:0:0:0:
51,192,125535,1,0,0:0:0:0:
153,192,125577,1,0,0:0:0:0:
460,192,125619,1,0,0:0:0:0:
358,192,125661,1,0,0:0:0:0:
256,192,125704,128,0,125788:0:0:0:0:
153,192,125704,128,0,125788:0:0:0:0:
51,192,125704,128,0,125788:0:0:0:0:
460,192,125788,128,0,125956:0:0:0:0:
358,192,125788,1,0,0:0:0:0:
256,192,125872,128,0,125956:0:0:0:0:
51,192,125956,1,0,0:0:0:0:
256,192,126041,128,0,126125:0:0:0:0:
358,192,126041,128,0,126125:0:0:0:0:
460,192,126041,128,0,126125:0:0:0:0:
51,192,126209,128,0,126378:0:0:0:0:
153,192,126293,128,0,126462:0:0:0:0:
358,192,126378,128,0,126462:0:0:0:0:
460,192,126378,128,0,126462:0:0:0:0:
256,192,126378,128,0,126462:0:0:0:0:
51,192,126462,128,0,126630:0:0:0:0:
256,192,126546,128,0,126630:0:0:0:0:
460,192,126630,1,0,0:0:0:0:
256,192,126715,128,0,126799:0:0:0:0:
153,192,126715,128,0,126799:0:0:0:0:
51,192,126715,128,0,126799:0:0:0:0:
358,192,126883,128,0,126968:0:0:0:0:
460,192,126883,128,0,127305:0:0:0:0:
153,192,126968,128,0,127052:0:0:0:0:
256,192,126968,128,0,127052:0:0:0:0:
51,192,127052,1,0,0:0:0:0:
256,192,127136,128,0,127220:0:0:0:0:
358,192,127136,128,0,127305:0:0:0:0:
153,192,127220,128,0,127305:0:0:0:0:
51,192,127220,128,0,127305:0:0:0:0:
460,192,127389,128,0,127473:0:0:0:0:
256,192,127389,128,0,127557:0:0:0:0:
51,192,127389,128,0,127473:0:0:0:0:
153,192,127473,128,0,127642:0:0:0:0:
51,192,127557,128,0,127979:0:0:0:0:
358,192,127557,128,0,127726:0:0:0:0:
256,192,127642,128,0,127810:0:0:0:0:
460,192,127726,128,0,127810:0:0:0:0:
153,192,127726,128,0,127895:0:0:0:0:
358,192,127810,128,0,127895:0:0:0:0:
256,192,127895,128,0,127979:0:0:0:0:
153,192,127979,128,0,128063:0:0:0:0:
51,192,128063,128,0,128400:0:0:0:0:
358,192,128063,128,0,128288:0:0:0:0:
460,192,128175,128,0,128288:0:0:0:0:
153,192,128288,128,0,128400:0:0:0:0:
460,192,128400,128,0,128737:0:0:0:0:
256,192,128400,128,0,128625:0:0:0:0:
358,192,128513,128,0,128625:0:0:0:0:
51,192,128625,128,0,128737:0:0:0:0:
153,192,128737,128,0,128990:0:0:0:0:
256,192,128737,128,0,128821:0:0:0:0:
358,192,128821,128,0,129074:0:0:0:0:
460,192,128906,128,0,128990:0:0:0:0:
51,192,128906,128,0,128990:0:0:0:0:
256,192,128990,128,0,129159:0:0:0:0:
51,192,129074,128,0,129327:0:0:0:0:
460,192,129074,1,0,0:0:0:0:
153,192,129159,128,0,129243:0:0:0:0:
460,192,129243,128,0,129496:0:0:0:0:
256,192,129243,1,0,0:0:0:0:
358,192,129327,128,0,129411:0:0:0:0:
256,192,129411,128,0,129664:0:0:0:0:
51,192,129411,1,0,0:0:0:0:
153,192,129496,128,0,129580:0:0:0:0:
460,192,129580,128,0,129664:0:0:0:0:
51,192,129580,128,0,129833:0:0:0:0:
358,192,129664,128,0,130001:0:0:0:0:
256,192,129748,128,0,129833:0:0:0:0:
460,192,129748,1,0,0:0:0:0:
153,192,129833,128,0,130170:0:0:0:0:
51,192,129917,128,0,130001:0:0:0:0:
256,192,129917,1,0,0:0:0:0:
460,192,130001,128,0,130338:0:0:0:0:
358,192,130086,128,0,130170:0:0:0:0:
256,192,130170,128,0,130507:0:0:0:0:
153,192,130254,128,0,130338:0:0:0:0:
51,192,130338,128,0,130675:0:0:0:0:
460,192,130423,128,0,130760:0:0:0:0:
358,192,130507,128,0,130760:0:0:0:0:
256,192,130591,128,0,130760:0:0:0:0:
153,192,130675,128,0,130760:0:0:0:0:
51,192,130760,1,0,0:0:0:0:
358,192,130928,128,0,131097:0:0:0:0:
256,192,130928,128,0,131013:0:0:0:0:
460,192,131013,128,0,131097:0:0:0:0:
51,192,131097,1,0,0:0:0:0:
153,192,131097,1,0,0:0:0:0:
256,192,131139,1,0,0:0:0:0:
358,192,131181,1,0,0:0:0:0:
51,192,131265,1,0,0:0:0:0:
153,192,131307,1,0,0:0:0:0:
256,192,131350,1,0,0:0:0:0:
358,192,131434,1,0,0:0:0:0:
460,192,131434,1,0,0:0:0:0:
153,192,131602,128,0,131771:0:0:0:0:
256,192,131602,128,0,131687:0:0:0:0:
51,192,131687,128,0,131771:0:0:0:0:
460,192,131771,1,0,0:0:0:0:
358,192,131771,1,0,0:0:0:0:
256,192,131813,1,0,0:0:0:0:
153,192,131855,1,0,0:0:0:0:
460,192,131939,1,0,0:0:0:0:
358,192,131982,1,0,0:0:0:0:
256,192,132024,1,0,0:0:0:0:
153,192,132108,1,0,0:0:0:0:
51,192,132108,1,0,0:0:0:0:
358,192,132277,128,0,132445:0:0:0:0:
256,192,132277,128,0,132361:0:0:0:0:
460,192,132361,128,0,132445:0:0:0:0:
51,192,132445,1,0,0:0:0:0:
153,192,132445,1,0,0:0:0:0:
256,192,132487,1,0,0:0:0:0:
358,192,132529,1,0,0:0:0:0:
51,192,132614,1,0,0:0:0:0:
153,192,132656,1,0,0:0:0:0:
256,192,132698,1,0,0:0:0:0:
358,192,132782,1,0,0:0:0:0:
460,192,132782,1,0,0:0:0:0:
153,192,132951,128,0,133119:0:0:0:0:
256,192,132951,128,0,133035:0:0:0:0:
51,192,133035,128,0,133119:0:0:0:0:
460,192,133119,1,0,0:0:0:0:
358,192,133119,1,0,0:0:0:0:
256,192,133161,1,0,0:0:0:0:
153,192,133204,1,0,0:0:0:0:
51,192,133246,1,0,0:0:0:0:
460,192,133288,1,0,0:0:0:0:
358,192,133330,1,0,0:0:0:0:
256,192,133372,1,0,0:0:0:0:
153,192,133414,1,0,0:0:0:0:
460,192,133456,128,0,133625:0:0:0:0:
51,192,133456,128,0,133681:0:0:0:0:
358,192,133625,1,0,0:0:0:0:
256,192,133681,128,0,133793:0:0:0:0:
358,192,133737,128,0,133850:0:0:0:0:
51,192,133793,128,0,133962:0:0:0:0:
460,192,133793,128,0,134018:0:0:0:0:
153,192,133962,1,0,0:0:0:0:
256,192,134018,128,0,134130:0:0:0:0:
153,192,134074,128,0,134187:0:0:0:0:
358,192,134130,128,0,134299:0:0:0:0:
51,192,134130,128,0,134411:0:0:0:0:
460,192,134130,1,0,0:0:0:0:
256,192,134299,1,0,0:0:0:0:
153,192,134355,128,0,134468:0:0:0:0:
256,192,134411,128,0,134524:0:0:0:0:
460,192,134468,128,0,134636:0:0:0:0:
358,192,134468,128,0,134552:0:0:0:0:
51,192,134552,128,0,134805:0:0:0:0:
153,192,134636,128,0,134805:0:0:0:0:
256,192,134720,128,0,134805:0:0:0:0:
358,192,134805,128,0,134973:0:0:0:0:
460,192,134805,128,0,135029:0:0:0:0:
153,192,134973,128,0,135086:0:0:0:0:
256,192,135029,128,0,135142:0:0:0:0:
358,192,135086,128,0,135198:0:0:0:0:
51,192,135142,128,0,135310:0:0:0:0:
460,192,135142,128,0,135366:0:0:0:0:
358,192,135310,128,0,135423:0:0:0:0:
256,192,135366,128,0,135479:0:0:0:0:
153,192,135423,128,0,135535:0:0:0:0:
51,192,135479,128,0,135591:0:0:0:0:
460,192,135479,128,0,135535:0:0:0:0:
358,192,135535,128,0,135591:0:0:0:0:
256,192,135591,128,0,135647:0:0:0:0:
460,192,135647,128,0,135704:0:0:0:0:
51,192,135704,128,0,135760:0:0:0:0:
153,192,135760,128,0,135816:0:0:0:0:
256,192,135816,128,0,135872:0:0:0:0:
51,192,135872,128,0,135928:0:0:0:0:
460,192,135928,128,0,135984:0:0:0:0:
358,192,135984,128,0,136041:0:0:0:0:
256,192,136041,128,0,136097:0:0:0:0:
153,192,136097,128,0,136153:0:0:0:0:
51,192,136153,1,0,0:0:0:0:
460,192,136153,1,0,0:0:0:0:
358,192,136153,1,0,0:0:0:0:
153,192,136321,128,0,136406:0:0:0:0:
51,192,136321,128,0,136743:0:0:0:0:
256,192,136406,128,0,136574:0:0:0:0:
460,192,136406,128,0,136490:0:0:0:0:
153,192,136574,128,0,136659:0:0:0:0:
358,192,136574,128,0,136659:0:0:0:0:
256,192,136659,128,0,136743:0:0:0:0:
460,192,136659,128,0,136743:0:0:0:0:
153,192,136827,1,0,0:0:0:0:
51,192,136827,1,0,0:0:0:0:
358,192,136996,128,0,137080:0:0:0:0:
460,192,136996,128,0,137417:0:0:0:0:
256,192,137080,128,0,137248:0:0:0:0:
51,192,137080,128,0,137164:0:0:0:0:
153,192,137248,128,0,137333:0:0:0:0:
358,192,137248,128,0,137333:0:0:0:0:
51,192,137333,128,0,137417:0:0:0:0:
256,192,137333,128,0,137417:0:0:0:0:
358,192,137501,1,0,0:0:0:0:
460,192,137501,1,0,0:0:0:0:
51,192,137670,128,0,138091:0:0:0:0:
153,192,137670,128,0,137754:0:0:0:0:
460,192,137754,128,0,137838:0:0:0:0:
256,192,137754,128,0,137923:0:0:0:0:
153,192,137923,128,0,138007:0:0:0:0:
358,192,137923,128,0,138007:0:0:0:0:
256,192,138007,128,0,138091:0:0:0:0:
460,192,138007,128,0,138091:0:0:0:0:
358,192,138091,128,0,138175:0:0:0:0:
460,192,138175,128,0,138260:0:0:0:0:
51,192,138175,128,0,138260:0:0:0:0:
153,192,138175,128,0,138344:0:0:0:0:
256,192,138260,128,0,138428:0:0:0:0:
358,192,138344,128,0,138428:0:0:0:0:
153,192,138513,1,0,0:0:0:0:
51,192,138513,1,0,0:0:0:0:
358,192,138681,128,0,138850:0:0:0:0:
153,192,138681,128,0,138850:0:0:0:0:
460,192,138765,128,0,138850:0:0:0:0:
256,192,138765,128,0,138850:0:0:0:0:
51,192,138850,1,0,0:0:0:0:
256,192,139018,128,0,139102:0:0:0:0:
51,192,139018,128,0,139102:0:0:0:0:
153,192,139102,128,0,139187:0:0:0:0:
460,192,139102,128,0,139187:0:0:0:0:
358,192,139187,128,0,139271:0:0:0:0:
51,192,139187,128,0,139355:0:0:0:0:
256,192,139271,128,0,139355:0:0:0:0:
460,192,139271,128,0,139355:0:0:0:0:
460,192,139524,128,0,139608:0:0:0:0:
256,192,139524,128,0,139608:0:0:0:0:
358,192,139608,128,0,139692:0:0:0:0:
51,192,139608,128,0,139692:0:0:0:0:
153,192,139692,128,0,139777:0:0:0:0:
460,192,139692,128,0,139861:0:0:0:0:
51,192,139777,128,0,139861:0:0:0:0:
256,192,139777,128,0,139861:0:0:0:0:
358,192,139861,1,0,0:0:0:0:
153,192,139945,128,0,140198:0:0:0:0:
256,192,140029,128,0,140114:0:0:0:0:
460,192,140029,128,0,140198:0:0:0:0:
358,192,140114,128,0,140198:0:0:0:0:
51,192,140198,1,0,0:0:0:0:
153,192,140366,128,0,140451:0:0:0:0:
358,192,140366,128,0,140535:0:0:0:0:
51,192,140451,128,0,140535:0:0:0:0:
256,192,140451,128,0,140619:0:0:0:0:
153,192,140535,128,0,140704:0:0:0:0:
51,192,140619,128,0,140704:0:0:0:0:
460,192,140704,1,0,0:0:0:0:
358,192,140704,1,0,0:0:0:0:
153,192,140788,1,0,0:0:0:0:
51,192,140788,1,0,0:0:0:0:
256,192,140872,128,0,140956:0:0:0:0:
358,192,140872,128,0,140956:0:0:0:0:
460,192,140872,128,0,140956:0:0:0:0:
51,192,140956,128,0,141041:0:0:0:0:
460,192,141041,128,0,141125:0:0:0:0:
358,192,141125,128,0,141209:0:0:0:0:
256,192,141125,128,0,141209:0:0:0:0:
153,192,141125,128,0,141209:0:0:0:0:
51,192,141209,128,0,141293:0:0:0:0:
460,192,141293,128,0,141378:0:0:0:0:
256,192,141378,128,0,141462:0:0:0:0:
153,192,141378,128,0,141462:0:0:0:0:
51,192,141378,128,0,141462:0:0:0:0:
256,192,141546,128,0,141630:0:0:0:0:
358,192,141546,128,0,141630:0:0:0:0:
460,192,141546,128,0,141630:0:0:0:0:
153,192,141715,1,0,0:0:0:0:
256,192,141757,1,0,0:0:0:0:
358,192,141799,1,0,0:0:0:0:
51,192,141883,1,0,0:0:0:0:
153,192,141925,1,0,0:0:0:0:
256,192,141968,1,0,0:0:0:0:
460,192,142052,1,0,0:0:0:0:
51,192,142052,1,0,0:0:0:0:
358,192,142220,1,0,0:0:0:0:
460,192,142220,1,0,0:0:0:0:
256,192,142263,1,0,0:0:0:0:
153,192,142305,1,0,0:0:0:0:
460,192,142389,1,0,0:0:0:0:
358,192,142431,1,0,0:0:0:0:
256,192,142473,1,0,0:0:0:0:
460,192,142557,1,0,0:0:0:0:
51,192,142557,128,0,142642:0:0:0:0:
51,192,142726,128,0,142810:0:0:0:0:
51,192,142895,1,0,0:0:0:0:
460,192,142895,1,0,0:0:0:0:
256,192,142895,1,0,0:0:0:0:
153,192,143063,1,0,0:0:0:0:
256,192,143105,1,0,0:0:0:0:
358,192,143147,1,0,0:0:0:0:
51,192,143232,1,0,0:0:0:0:
153,192,143274,1,0,0:0:0:0:
256,192,143316,1,0,0:0:0:0:
51,192,143400,1,0,0:0:0:0:
460,192,143400,1,0,0:0:0:0:
153,192,143569,128,0,143737:0:0:0:0:
358,192,143569,128,0,143737:0:0:0:0:
51,192,143653,128,0,143737:0:0:0:0:
256,192,143737,128,0,143906:0:0:0:0:
153,192,143821,128,0,143906:0:0:0:0:
358,192,143906,128,0,144074:0:0:0:0:
51,192,143906,1,0,0:0:0:0:
256,192,143990,128,0,144074:0:0:0:0:
460,192,144074,128,0,144243:0:0:0:0:
153,192,144074,1,0,0:0:0:0:
358,192,144159,128,0,144243:0:0:0:0:
256,192,144243,1,0,0:0:0:0:
51,192,144243,128,0,144355:0:0:0:0:
153,192,144299,128,0,144411:0:0:0:0:
358,192,144355,128,0,144468:0:0:0:0:
460,192,144411,128,0,144524:0:0:0:0:
256,192,144468,128,0,144580:0:0:0:0:
153,192,144524,128,0,144636:0:0:0:0:
51,192,144580,128,0,144692:0:0:0:0:
358,192,144636,128,0,144748:0:0:0:0:
256,192,144692,128,0,144805:0:0:0:0:
153,192,144748,128,0,144861:0:0:0:0:
460,192,144805,128,0,144917:0:0:0:0:
358,192,144861,128,0,144973:0:0:0:0:
256,192,144917,128,0,145029:0:0:0:0:
51,192,144973,128,0,145086:0:0:0:0:
153,192,145029,128,0,145142:0:0:0:0:
358,192,145086,128,0,145198:0:0:0:0:
460,192,145142,128,0,145254:0:0:0:0:
51,192,145198,128,0,145310:0:0:0:0:
256,192,145254,128,0,145366:0:0:0:0:
358,192,145310,128,0,145423:0:0:0:0:
460,192,145366,128,0,145479:0:0:0:0:
153,192,145423,128,0,145535:0:0:0:0:
256,192,145479,128,0,145591:0:0:0:0:
358,192,145535,128,0,145647:0:0:0:0:
460,192,145591,128,0,145704:0:0:0:0:
51,192,145591,128,0,145704:0:0:0:0:
153,192,145704,128,0,145816:0:0:0:0:
256,192,145704,128,0,145816:0:0:0:0:
358,192,145816,128,0,145928:0:0:0:0:
460,192,145816,128,0,145928:0:0:0:0:
51,192,145928,128,0,146041:0:0:0:0:
153,192,145928,128,0,146041:0:0:0:0:
256,192,146041,128,0,146153:0:0:0:0:
358,192,146041,128,0,146153:0:0:0:0:
460,192,146153,128,0,146265:0:0:0:0:
51,192,146153,128,0,146265:0:0:0:0:
358,192,146265,1,0,0:0:0:0:
153,192,146265,128,0,146350:0:0:0:0:
256,192,146350,128,0,146434:0:0:0:0:
460,192,146434,128,0,146518:0:0:0:0:
358,192,146518,128,0,146602:0:0:0:0:
153,192,146602,128,0,146687:0:0:0:0:
51,192,146687,128,0,146771:0:0:0:0:
256,192,146771,128,0,146855:0:0:0:0:
358,192,146855,128,0,146939:0:0:0:0:
460,192,146939,128,0,147024:0:0:0:0:
51,192,146939,128,0,147164:0:0:0:0:
153,192,147052,128,0,147277:0:0:0:0:
256,192,147164,128,0,147389:0:0:0:0:
358,192,147277,128,0,147501:0:0:0:0:
153,192,147389,128,0,147501:0:0:0:0:
256,192,147501,128,0,147614:0:0:0:0:
358,192,147614,128,0,148288:0:0:0:0:
460,192,147614,128,0,147726:0:0:0:0:
256,192,148288,128,0,148513:0:0:0:0:
153,192,148400,128,0,148625:0:0:0:0:
460,192,148456,128,0,148625:0:0:0:0:
51,192,148513,128,0,148737:0:0:0:0:
358,192,148625,128,0,148737:0:0:0:0:
460,192,148709,128,0,148878:0:0:0:0:
256,192,148737,128,0,148850:0:0:0:0:
153,192,148850,128,0,148962:0:0:0:0:
51,192,148962,128,0,149215:0:0:0:0:
256,192,148962,128,0,149636:0:0:0:0:
460,192,149215,128,0,149383:0:0:0:0:
460,192,149468,128,0,149636:0:0:0:0:
51,192,149636,128,0,149861:0:0:0:0:
153,192,149636,128,0,149748:0:0:0:0:
358,192,149748,128,0,149861:0:0:0:0:
460,192,149805,128,0,149973:0:0:0:0:
153,192,149861,128,0,149973:0:0:0:0:
256,192,149973,128,0,150086:0:0:0:0:
460,192,150057,128,0,150226:0:0:0:0:
153,192,150086,128,0,150198:0:0:0:0:
256,192,150198,128,0,150310:0:0:0:0:
51,192,150310,128,0,150563:0:0:0:0:
358,192,150310,128,0,150423:0:0:0:0:
256,192,150423,128,0,150535:0:0:0:0:
358,192,150535,128,0,150647:0:0:0:0:
460,192,150563,128,0,150732:0:0:0:0:
153,192,150647,128,0,150760:0:0:0:0:
256,192,150760,128,0,150872:0:0:0:0:
460,192,150816,128,0,150984:0:0:0:0:
358,192,150872,128,0,150984:0:0:0:0:
51,192,150984,128,0,151097:0:0:0:0:
153,192,151097,128,0,151209:0:0:0:0:
460,192,151153,128,0,151321:0:0:0:0:
256,192,151209,128,0,151434:0:0:0:0:
460,192,151406,128,0,151574:0:0:0:0:
153,192,151434,128,0,151546:0:0:0:0:
358,192,151546,128,0,151659:0:0:0:0:
51,192,151659,128,0,151911:0:0:0:0:
256,192,151659,128,0,152333:0:0:0:0:
460,192,151911,128,0,152080:0:0:0:0:
153,192,152108,128,0,152333:0:0:0:0:
460,192,152164,128,0,152333:0:0:0:0:
358,192,152333,128,0,152445:0:0:0:0:
256,192,152445,128,0,152557:0:0:0:0:
51,192,152501,128,0,152670:0:0:0:0:
460,192,152557,128,0,152670:0:0:0:0:
153,192,152670,128,0,152782:0:0:0:0:
358,192,152670,128,0,153007:0:0:0:0:
51,192,152754,128,0,152923:0:0:0:0:
460,192,153007,128,0,153260:0:0:0:0:
153,192,153007,128,0,153119:0:0:0:0:
256,192,153119,128,0,153232:0:0:0:0:
358,192,153232,128,0,153344:0:0:0:0:
51,192,153260,128,0,153428:0:0:0:0:
460,192,153344,128,0,153456:0:0:0:0:
256,192,153344,128,0,153906:0:0:0:0:
51,192,153513,128,0,153681:0:0:0:0:
153,192,153681,128,0,153793:0:0:0:0:
460,192,153793,128,0,153906:0:0:0:0:
51,192,153850,128,0,154018:0:0:0:0:
358,192,153906,128,0,154018:0:0:0:0:
256,192,154018,128,0,154130:0:0:0:0:
460,192,154018,128,0,154130:0:0:0:0:
51,192,154102,128,0,154271:0:0:0:0:
153,192,154130,128,0,154468:0:0:0:0:
460,192,154355,128,0,154608:0:0:0:0:
358,192,154468,128,0,154580:0:0:0:0:
256,192,154580,128,0,154692:0:0:0:0:
51,192,154608,128,0,154777:0:0:0:0:
153,192,154692,128,0,155029:0:0:0:0:
358,192,154692,128,0,154805:0:0:0:0:
51,192,154861,128,0,154945:0:0:0:0:
51,192,155029,128,0,155282:0:0:0:0:
358,192,155029,128,0,155114:0:0:0:0:
460,192,155029,128,0,155114:0:0:0:0:
358,192,155198,128,0,155282:0:0:0:0:
460,192,155198,128,0,155282:0:0:0:0:
256,192,155535,128,0,155788:0:0:0:0:
51,192,155535,128,0,155619:0:0:0:0:
460,192,155535,128,0,155619:0:0:0:0:
460,192,155704,128,0,155788:0:0:0:0:
51,192,155704,128,0,155788:0:0:0:0:
51,192,156041,128,0,156125:0:0:0:0:
153,192,156041,128,0,156125:0:0:0:0:
460,192,156041,128,0,156293:0:0:0:0:
51,192,156209,128,0,156293:0:0:0:0:
153,192,156209,128,0,156293:0:0:0:0:
256,192,156546,128,0,156799:0:0:0:0:
153,192,156546,128,0,156630:0:0:0:0:
358,192,156546,128,0,156630:0:0:0:0:
153,192,156715,128,0,156799:0:0:0:0:
358,192,156715,128,0,156799:0:0:0:0:
51,192,157052,128,0,157164:0:0:0:0:
153,192,157108,128,0,157220:0:0:0:0:
256,192,157164,128,0,157277:0:0:0:0:
358,192,157220,128,0,157277:0:0:0:0:
51,192,157277,128,0,157389:0:0:0:0:
153,192,157333,128,0,157389:0:0:0:0:
460,192,157389,128,0,157501:0:0:0:0:
358,192,157445,128,0,157557:0:0:0:0:
256,192,157501,128,0,157614:0:0:0:0:
153,192,157557,128,0,157614:0:0:0:0:
460,192,157614,128,0,157726:0:0:0:0:
358,192,157670,128,0,157726:0:0:0:0:
153,192,157726,1,0,0:0:0:0:
51,192,157726,128,0,157838:0:0:0:0:
256,192,157726,128,0,157838:0:0:0:0:
358,192,157838,128,0,157951:0:0:0:0:
460,192,157838,128,0,157951:0:0:0:0:
153,192,157951,128,0,158063:0:0:0:0:
51,192,157951,128,0,158063:0:0:0:0:
358,192,158063,1,0,0:0:0:0:
256,192,158063,128,0,158147:0:0:0:0:
460,192,158063,128,0,158147:0:0:0:0:
153,192,158147,128,0,158232:0:0:0:0:
51,192,158147,128,0,158232:0:0:0:0:
358,192,158232,1,0,0:0:0:0:
460,192,158232,1,0,0:0:0:0:
256,192,158316,1,0,0:0:0:0:
153,192,158400,1,0,0:0:0:0:
460,192,158400,1,0,0:0:0:0:
51,192,158400,1,0,0:0:0:0:
358,192,158484,1,0,0:0:0:0:
153,192,158569,1,0,0:0:0:0:
256,192,158569,1,0,0:0:0:0:
358,192,158653,1,0,0:0:0:0:
51,192,158737,1,0,0:0:0:0:
460,192,158737,1,0,0:0:0:0:
153,192,158821,1,0,0:0:0:0:
256,192,158906,1,0,0:0:0:0:
358,192,158906,1,0,0:0:0:0:
153,192,158990,1,0,0:0:0:0:
460,192,159074,1,0,0:0:0:0:
51,192,159074,1,0,0:0:0:0:
358,192,159074,1,0,0:0:0:0:
256,192,159159,1,0,0:0:0:0:
153,192,159201,1,0,0:0:0:0:
51,192,159243,1,0,0:0:0:0:
256,192,159327,1,0,0:0:0:0:
358,192,159369,1,0,0:0:0:0:
460,192,159411,1,0,0:0:0:0:
51,192,159411,1,0,0:0:0:0:
153,192,159496,1,0,0:0:0:0:
256,192,159538,1,0,0:0:0:0:
358,192,159580,1,0,0:0:0:0:
51,192,159664,1,0,0:0:0:0:
153,192,159706,1,0,0:0:0:0:
460,192,159748,1,0,0:0:0:0:
256,192,159748,128,0,159861:0:0:0:0:
358,192,159748,128,0,159861:0:0:0:0:
153,192,159861,128,0,159973:0:0:0:0:
51,192,159861,128,0,159973:0:0:0:0:
358,192,159973,128,0,160086:0:0:0:0:
460,192,159973,128,0,160086:0:0:0:0:
256,192,160086,128,0,160198:0:0:0:0:
153,192,160086,128,0,160198:0:0:0:0:
51,192,160198,128,0,160310:0:0:0:0:
460,192,160198,128,0,160310:0:0:0:0:
358,192,160310,128,0,160423:0:0:0:0:
256,192,160310,128,0,160423:0:0:0:0:
153,192,160423,1,0,0:0:0:0:
51,192,160423,128,0,160591:0:0:0:0:
460,192,160423,128,0,160591:0:0:0:0:
358,192,160591,128,0,160647:0:0:0:0:
256,192,160647,128,0,160704:0:0:0:0:
153,192,160704,128,0,160760:0:0:0:0:
51,192,160760,128,0,160928:0:0:0:0:
460,192,160760,128,0,160928:0:0:0:0:
358,192,160760,1,0,0:0:0:0:
153,192,160928,128,0,160984:0:0:0:0:
256,192,160984,128,0,161041:0:0:0:0:
358,192,161041,128,0,161097:0:0:0:0:
460,192,161097,128,0,161265:0:0:0:0:
51,192,161097,128,0,161265:0:0:0:0:
153,192,161097,1,0,0:0:0:0:
358,192,161265,128,0,161321:0:0:0:0:
256,192,161321,128,0,161378:0:0:0:0:
153,192,161378,128,0,161434:0:0:0:0:
460,192,161434,128,0,161602:0:0:0:0:
358,192,161434,1,0,0:0:0:0:
51,192,161434,128,0,161602:0:0:0:0:
153,192,161602,128,0,161659:0:0:0:0:
256,192,161659,128,0,161715:0:0:0:0:
358,192,161715,128,0,161771:0:0:0:0:
460,192,161771,1,0,0:0:0:0:
51,192,161771,128,0,161855:0:0:0:0:
153,192,161771,128,0,161939:0:0:0:0:
256,192,161855,128,0,162024:0:0:0:0:
358,192,161939,128,0,162108:0:0:0:0:
460,192,162024,128,0,162108:0:0:0:0:
153,192,162108,128,0,162192:0:0:0:0:
51,192,162108,128,0,162192:0:0:0:0:
256,192,162192,128,0,162277:0:0:0:0:
51,192,162277,128,0,162361:0:0:0:0:
460,192,162277,128,0,162361:0:0:0:0:
256,192,162361,128,0,162445:0:0:0:0:
460,192,162445,128,0,162529:0:0:0:0:
358,192,162445,128,0,162614:0:0:0:0:
51,192,162445,128,0,162529:0:0:0:0:
256,192,162529,128,0,162698:0:0:0:0:
153,192,162614,128,0,162782:0:0:0:0:
51,192,162698,128,0,162782:0:0:0:0:
460,192,162782,128,0,163007:0:0:0:0:
256,192,162782,128,0,162895:0:0:0:0:
358,192,162866,128,0,162951:0:0:0:0:
153,192,162951,1,0,0:0:0:0:
256,192,163007,1,0,0:0:0:0:
358,192,163063,1,0,0:0:0:0:
460,192,163119,1,0,0:0:0:0:
51,192,163119,1,0,0:0:0:0:
153,192,163175,1,0,0:0:0:0:
256,192,163232,1,0,0:0:0:0:
460,192,163288,1,0,0:0:0:0:
358,192,163344,1,0,0:0:0:0:
256,192,163400,1,0,0:0:0:0:
153,192,163456,1,0,0:0:0:0:
51,192,163456,1,0,0:0:0:0:
460,192,163456,1,0,0:0:0:0:
358,192,163541,1,0,0:0:0:0:
256,192,163625,128,0,163793:0:0:0:0:
51,192,163625,128,0,163793:0:0:0:0:
153,192,163793,1,0,0:0:0:0:
358,192,163793,1,0,0:0:0:0:
460,192,163793,1,0,0:0:0:0:
256,192,163878,1,0,0:0:0:0:
51,192,163962,1,0,0:0:0:0:
153,192,164046,1,0,0:0:0:0:
51,192,164130,1,0,0:0:0:0:
358,192,164130,128,0,164299:0:0:0:0:
460,192,164130,128,0,164215:0:0:0:0:
256,192,164215,128,0,164383:0:0:0:0:
153,192,164299,128,0,164468:0:0:0:0:
51,192,164383,128,0,164468:0:0:0:0:
460,192,164468,1,0,0:0:0:0:
256,192,164468,128,0,164580:0:0:0:0:
358,192,164468,128,0,164580:0:0:0:0:
153,192,164580,128,0,164692:0:0:0:0:
51,192,164580,128,0,164692:0:0:0:0:
358,192,164692,128,0,164805:0:0:0:0:
460,192,164692,128,0,164805:0:0:0:0:
256,192,164805,128,0,164917:0:0:0:0:
153,192,164805,128,0,164917:0:0:0:0:
51,192,164917,128,0,165029:0:0:0:0:
460,192,164917,128,0,165029:0:0:0:0:
256,192,165029,128,0,165142:0:0:0:0:
358,192,165029,128,0,165142:0:0:0:0:
460,192,165142,128,0,165254:0:0:0:0:
51,192,165142,128,0,165254:0:0:0:0:
358,192,165254,128,0,165366:0:0:0:0:
153,192,165254,128,0,165366:0:0:0:0:
256,192,165366,128,0,165479:0:0:0:0:
51,192,165366,128,0,165479:0:0:0:0:
460,192,165479,128,0,165591:0:0:0:0:
153,192,165479,128,0,165591:0:0:0:0:
358,192,165591,128,0,165704:0:0:0:0:
51,192,165591,128,0,165704:0:0:0:0:
256,192,165704,128,0,165816:0:0:0:0:
460,192,165704,128,0,165816:0:0:0:0:
358,192,165816,1,0,0:0:0:0:
153,192,165816,1,0,0:0:0:0:
51,192,165816,128,0,166041:0:0:0:0:
256,192,165984,128,0,166097:0:0:0:0:
358,192,166041,128,0,166153:0:0:0:0:
460,192,166097,128,0,166209:0:0:0:0:
51,192,166153,1,0,0:0:0:0:
153,192,166209,1,0,0:0:0:0:
256,192,166265,1,0,0:0:0:0:
358,192,166321,128,0,166490:0:0:0:0:
460,192,166321,128,0,166490:0:0:0:0:
256,192,166490,1,0,0:0:0:0:
153,192,166490,1,0,0:0:0:0:
51,192,166490,1,0,0:0:0:0:
153,192,166659,128,0,166827:0:0:0:0:
51,192,166659,128,0,166827:0:0:0:0:
256,192,166827,1,0,0:0:0:0:
358,192,166827,1,0,0:0:0:0:
460,192,166827,1,0,0:0:0:0:
460,192,166996,1,0,0:0:0:0:
358,192,167052,1,0,0:0:0:0:
256,192,167108,1,0,0:0:0:0:
153,192,167164,1,0,0:0:0:0:
51,192,167164,128,0,167838:0:0:0:0:
358,192,167333,1,0,0:0:0:0:
460,192,167389,1,0,0:0:0:0:
256,192,167445,1,0,0:0:0:0:
358,192,167501,1,0,0:0:0:0:
153,192,167557,1,0,0:0:0:0:
256,192,167614,1,0,0:0:0:0:
460,192,167670,1,0,0:0:0:0:
358,192,167726,1,0,0:0:0:0:
256,192,167782,1,0,0:0:0:0:
153,192,167838,1,0,0:0:0:0:
358,192,167895,1,0,0:0:0:0:
460,192,167951,1,0,0:0:0:0:
51,192,168007,1,0,0:0:0:0:
153,192,168063,1,0,0:0:0:0:
256,192,168119,1,0,0:0:0:0:
358,192,168175,1,0,0:0:0:0:
460,192,168232,1,0,0:0:0:0:
51,192,168288,1,0,0:0:0:0:
153,192,168344,1,0,0:0:0:0:
358,192,168400,1,0,0:0:0:0:
460,192,168456,1,0,0:0:0:0:
256,192,168513,128,0,169187:0:0:0:0:
153,192,168513,1,0,0:0:0:0:
51,192,168513,1,0,0:0:0:0:
51,192,168850,128,0,169018:0:0:0:0:
358,192,168850,128,0,168934:0:0:0:0:
153,192,169018,128,0,169102:0:0:0:0:
460,192,169018,128,0,169102:0:0:0:0:
51,192,169187,128,0,169861:0:0:0:0:
358,192,169187,1,0,0:0:0:0:
460,192,169187,1,0,0:0:0:0:
358,192,169524,128,0,169692:0:0:0:0:
153,192,169524,128,0,169608:0:0:0:0:
460,192,169692,128,0,169777:0:0:0:0:
256,192,169692,128,0,169777:0:0:0:0:
153,192,169861,1,0,0:0:0:0:
460,192,169861,128,0,170535:0:0:0:0:
358,192,169861,1,0,0:0:0:0:
256,192,170198,128,0,170282:0:0:0:0:
153,192,170198,128,0,170451:0:0:0:0:
358,192,170366,128,0,170451:0:0:0:0:
51,192,170366,128,0,170451:0:0:0:0:
256,192,170535,128,0,171209:0:0:0:0:
153,192,170535,1,0,0:0:0:0:
51,192,170535,1,0,0:0:0:0:
153,192,170872,128,0,170956:0:0:0:0:
460,192,170872,128,0,171125:0:0:0:0:
51,192,171041,128,0,171125:0:0:0:0:
358,192,171041,128,0,171125:0:0:0:0:
51,192,171209,128,0,175254:0:0:0:0:
358,192,171209,128,0,175254:0:0:0:0:
460,192,171209,128,0,175254:0:0:0:0:
153,192,171209,128,0,175254:0:0:0:0:
