osu file format v14

[General]
AudioFilename: audio.ogg
AudioLeadIn: 0
PreviewTime: 102614
Countdown: 0
SampleSet: Soft
StackLeniency: 0.7
Mode: 3
LetterboxInBreaks: 0
SpecialStyle: 0
WidescreenStoryboard: 1

[Editor]
DistanceSpacing: 1.5
BeatDivisor: 4
GridSize: 4
TimelineZoom: 1.499997

[Metadata]
Title:Testify
TitleUnicode:Testify
Artist:void (Mournfinale) feat. Hoshikuma Minami
ArtistUnicode:void (Mournfinale) feat. 星熊南巫
Creator:Kyousuke-
Version:Past
Source:Arcaea
Tags:WAGAMAMARAKIA DEATHNYANN 我儘ラキア ぼれ lowiro Main Story Final Verdict Axiom of The End Last Chapter Ending Boss Stage 光 Fatalis Hikari シエラ cierra Piano Instrumental Video Game English Electronic A Fatal Decision Choice Arzenvald ajeemaniz ExUsagi _VianK_
BeatmapID:3875395
BeatmapSetID:1866121

[Difficulty]
HPDrainRate:7
CircleSize:5
OverallDifficulty:7
ApproachRate:5
SliderMultiplier:1.4
SliderTickRate:1

[Events]
//Background and Video events
0,0,"image.jpg",0,0
//Break Periods
//Storyboard Layer 0 (Background)
//Storyboard Layer 1 (Fail)
//Storyboard Layer 2 (Pass)
//Storyboard Layer 3 (Foreground)
//Storyboard Layer 4 (Overlay)
//Storyboard Sound Samples

[TimingPoints]
1322,337.078651685393,4,2,1,50,1,0
125704,-100,4,2,1,50,0,1
135479,-100,4,2,1,50,0,0
136153,-100,4,2,1,50,0,1
146939,-100,4,2,1,50,0,0
157726,-100,4,2,1,50,0,1
168513,-100,4,2,1,50,0,0

[HitObjects]
51,192,2670,128,0,3344:0:0:0:0:
153,192,2670,1,0,0:0:0:0:
358,192,3344,128,0,4018:0:0:0:0:
460,192,4018,128,0,4692:0:0:0:0:
256,192,4692,128,0,5366:0:0:0:0:
51,192,5366,128,0,5704:0:0:0:0:
153,192,5704,128,0,6041:0:0:0:0:
358,192,6041,128,0,6378:0:0:0:0:
460,192,6378,128,0,6715:0:0:0:0:
256,192,6715,128,0,8063:0:0:0:0:
153,192,8063,1,0,0:0:0:0:
51,192,8400,1,0,0:0:0:0:
256,192,8737,1,0,0:0:0:0:
460,192,9074,1,0,0:0:0:0:
460,192,9411,1,0,0:0:0:0:
153,192,9748,1,0,0:0:0:0:
256,192,9917,1,0,0:0:0:0:
358,192,10086,1,0,0:0:0:0:
51,192,10423,1,0,0:0:0:0:
153,192,10760,1,0,0:0:0:0:
256,192,10928,128,0,12108:0:0:0:0:
358,192,11434,128,0,12108:0:0:0:0:
460,192,12108,1,0,0:0:0:0:
51,192,12108,1,0,0:0:0:0:
153,192,12445,128,0,12614:0:0:0:0:
256,192,12614,128,0,12782:0:0:0:0:
358,192,12782,1,0,0:0:0:0:
460,192,12782,1,0,0:0:0:0:
256,192,13119,128,0,13288:0:0:0:0:
153,192,13288,128,0,13456:0:0:0:0:
51,192,13456,1,0,0:0:0:0:
460,192,13456,1,0,0:0:0:0:
358,192,13793,128,0,13962:0:0:0:0:
256,192,13962,128,0,14130:0:0:0:0:
51,192,14130,1,0,0:0:0:0:
153,192,14130,1,0,0:0:0:0:
256,192,14468,128,0,14636:0:0:0:0:
358,192,14636,128,0,14805:0:0:0:0:
460,192,14805,1,0,0:0:0:0:
51,192,14805,1,0,0:0:0:0:
256,192,15142,128,0,15310:0:0:0:0:
51,192,15310,128,0,15479:0:0:0:0:
358,192,15479,1,0,0:0:0:0:
460,192,15479,1,0,0:0:0:0:
153,192,15816,128,0,15984:0:0:0:0:
358,192,15984,128,0,16153:0:0:0:0:
460,192,16153,1,0,0:0:0:0:
51,192,16153,1,0,0:0:0:0:
256,192,16490,128,0,16659:0:0:0:0:
460,192,16659,128,0,16827:0:0:0:0:
51,192,16827,1,0,0:0:0:0:
153,192,16827,1,0,0:0:0:0:
358,192,17164,128,0,17333:0:0:0:0:
153,192,17333,128,0,17501:0:0:0:0:
51,192,17501,1,0,0:0:0:0:
460,192,17838,128,0,18007:0:0:0:0:
358,192,18007,128,0,18175:0:0:0:0:
358,192,18513,128,0,18681:0:0:0:0:
256,192,18681,128,0,18850:0:0:0:0:
51,192,19187,128,0,19355:0:0:0:0:
153,192,19355,128,0,19524:0:0:0:0:
153,192,19861,128,0,20029:0:0:0:0:
256,192,20029,128,0,20198:0:0:0:0:
460,192,20535,128,0,20704:0:0:0:0:
358,192,20704,128,0,20872:0:0:0:0:
358,192,21209,128,0,21378:0:0:0:0:
256,192,21378,128,0,21546:0:0:0:0:
51,192,21546,1,0,0:0:0:0:
153,192,21883,128,0,22052:0:0:0:0:
256,192,22052,1,0,0:0:0:0:
460,192,22220,1,0,0:0:0:0:
51,192,22389,1,0,0:0:0:0:
256,192,22557,128,0,22726:0:0:0:0:
460,192,22726,128,0,22895:0:0:0:0:
153,192,22895,1,0,0:0:0:0:
51,192,22895,1,0,0:0:0:0:
358,192,23232,1,0,0:0:0:0:
460,192,23232,128,0,23400:0:0:0:0:
153,192,23400,128,0,23569:0:0:0:0:
358,192,23569,1,0,0:0:0:0:
256,192,23569,1,0,0:0:0:0:
153,192,23906,128,0,24074:0:0:0:0:
51,192,23906,1,0,0:0:0:0:
460,192,24074,128,0,24243:0:0:0:0:
51,192,24243,1,0,0:0:0:0:
358,192,24243,1,0,0:0:0:0:
153,192,24580,1,0,0:0:0:0:
51,192,24580,128,0,24748:0:0:0:0:
358,192,24748,128,0,24917:0:0:0:0:
256,192,24917,1,0,0:0:0:0:
153,192,24917,1,0,0:0:0:0:
460,192,25254,1,0,0:0:0:0:
358,192,25254,128,0,25423:0:0:0:0:
51,192,25423,128,0,25591:0:0:0:0:
460,192,25591,1,0,0:0:0:0:
153,192,25591,1,0,0:0:0:0:
460,192,25928,128,0,26097:0:0:0:0:
358,192,25928,1,0,0:0:0:0:
256,192,26097,128,0,26265:0:0:0:0:
358,192,26265,1,0,0:0:0:0:
51,192,26265,1,0,0:0:0:0:
153,192,26602,1,0,0:0:0:0:
256,192,26602,128,0,26771:0:0:0:0:
460,192,26771,128,0,26939:0:0:0:0:
153,192,26939,1,0,0:0:0:0:
51,192,26939,1,0,0:0:0:0:
153,192,27277,1,0,0:0:0:0:
51,192,27277,128,0,27445:0:0:0:0:
256,192,27445,128,0,27614:0:0:0:0:
358,192,27614,1,0,0:0:0:0:
460,192,27614,1,0,0:0:0:0:
256,192,27951,128,0,28119:0:0:0:0:
153,192,27951,1,0,0:0:0:0:
51,192,28119,128,0,28288:0:0:0:0:
153,192,28288,1,0,0:0:0:0:
460,192,28288,1,0,0:0:0:0:
460,192,28625,128,0,28793:0:0:0:0:
358,192,28625,1,0,0:0:0:0:
153,192,28793,128,0,28962:0:0:0:0:
358,192,28962,1,0,0:0:0:0:
256,192,28962,1,0,0:0:0:0:
153,192,29299,128,0,29468:0:0:0:0:
51,192,29299,1,0,0:0:0:0:
460,192,29468,128,0,29636:0:0:0:0:
358,192,29636,1,0,0:0:0:0:
51,192,29636,1,0,0:0:0:0:
153,192,29973,1,0,0:0:0:0:
51,192,29973,128,0,30142:0:0:0:0:
358,192,30142,128,0,30310:0:0:0:0:
153,192,30310,1,0,0:0:0:0:
256,192,30310,1,0,0:0:0:0:
358,192,30647,128,0,30816:0:0:0:0:
460,192,30647,1,0,0:0:0:0:
51,192,30816,128,0,30984:0:0:0:0:
460,192,30984,1,0,0:0:0:0:
153,192,30984,1,0,0:0:0:0:
358,192,31321,1,0,0:0:0:0:
460,192,31321,128,0,31490:0:0:0:0:
256,192,31490,128,0,31659:0:0:0:0:
51,192,31659,1,0,0:0:0:0:
358,192,31659,1,0,0:0:0:0:
153,192,31996,1,0,0:0:0:0:
256,192,31996,128,0,32164:0:0:0:0:
460,192,32164,128,0,32333:0:0:0:0:
51,192,32333,1,0,0:0:0:0:
153,192,32333,1,0,0:0:0:0:
153,192,32670,1,0,0:0:0:0:
51,192,32670,128,0,32838:0:0:0:0:
256,192,32838,128,0,33007:0:0:0:0:
358,192,33007,1,0,0:0:0:0:
460,192,33007,1,0,0:0:0:0:
256,192,33344,128,0,33513:0:0:0:0:
51,192,33513,128,0,33681:0:0:0:0:
460,192,34018,1,0,0:0:0:0:
51,192,34018,1,0,0:0:0:0:
358,192,34187,1,0,0:0:0:0:
153,192,34355,1,0,0:0:0:0:
256,192,34524,1,0,0:0:0:0:
460,192,34692,1,0,0:0:0:0:
51,192,34861,1,0,0:0:0:0:
256,192,35029,1,0,0:0:0:0:
153,192,35029,1,0,0:0:0:0:
358,192,35198,1,0,0:0:0:0:
51,192,35366,1,0,0:0:0:0:
153,192,35535,1,0,0:0:0:0:
460,192,35535,1,0,0:0:0:0:
358,192,35704,1,0,0:0:0:0:
256,192,35872,1,0,0:0:0:0:
51,192,36041,1,0,0:0:0:0:
153,192,36041,128,0,36209:0:0:0:0:
256,192,36209,128,0,36378:0:0:0:0:
460,192,36378,1,0,0:0:0:0:
358,192,36378,1,0,0:0:0:0:
51,192,36546,1,0,0:0:0:0:
153,192,36715,1,0,0:0:0:0:
256,192,36883,1,0,0:0:0:0:
460,192,37052,1,0,0:0:0:0:
358,192,37052,1,0,0:0:0:0:
153,192,37220,1,0,0:0:0:0:
256,192,37389,1,0,0:0:0:0:
358,192,37557,1,0,0:0:0:0:
153,192,37726,1,0,0:0:0:0:
51,192,37726,1,0,0:0:0:0:
256,192,37895,1,0,0:0:0:0:
358,192,38063,1,0,0:0:0:0:
460,192,38232,1,0,0:0:0:0:
256,192,38400,1,0,0:0:0:0:
153,192,38400,128,0,38569:0:0:0:0:
51,192,38569,128,0,38737:0:0:0:0:
358,192,38737,1,0,0:0:0:0:
256,192,38737,128,0,38906:0:0:0:0:
153,192,38906,128,0,39074:0:0:0:0:
460,192,39074,1,0,0:0:0:0:
51,192,39074,1,0,0:0:0:0:
358,192,39243,1,0,0:0:0:0:
153,192,39411,1,0,0:0:0:0:
256,192,39411,1,0,0:0:0:0:
460,192,39580,1,0,0:0:0:0:
51,192,39748,1,0,0:0:0:0:
153,192,39917,1,0,0:0:0:0:
358,192,40086,128,0,40254:0:0:0:0:
256,192,40086,1,0,0:0:0:0:
460,192,40254,128,0,40423:0:0:0:0:
153,192,40423,1,0,0:0:0:0:
51,192,40423,1,0,0:0:0:0:
256,192,40591,1,0,0:0:0:0:
358,192,40760,1,0,0:0:0:0:
460,192,40760,1,0,0:0:0:0:
153,192,40928,1,0,0:0:0:0:
358,192,41097,1,0,0:0:0:0:
256,192,41265,1,0,0:0:0:0:
153,192,41434,128,0,41602:0:0:0:0:
51,192,41434,1,0,0:0:0:0:
358,192,41602,128,0,41771:0:0:0:0:
460,192,41771,1,0,0:0:0:0:
51,192,41771,1,0,0:0:0:0:
256,192,41939,1,0,0:0:0:0:
153,192,42108,1,0,0:0:0:0:
358,192,42277,1,0,0:0:0:0:
460,192,42277,1,0,0:0:0:0:
51,192,42445,1,0,0:0:0:0:
256,192,42614,1,0,0:0:0:0:
358,192,42782,128,0,42951:0:0:0:0:
460,192,42782,1,0,0:0:0:0:
153,192,42951,128,0,43119:0:0:0:0:
460,192,43119,1,0,0:0:0:0:
51,192,43119,1,0,0:0:0:0:
256,192,43288,1,0,0:0:0:0:
358,192,43456,1,0,0:0:0:0:
51,192,43625,1,0,0:0:0:0:
153,192,43625,1,0,0:0:0:0:
256,192,43793,1,0,0:0:0:0:
51,192,43962,1,0,0:0:0:0:
358,192,44130,1,0,0:0:0:0:
460,192,44130,1,0,0:0:0:0:
51,192,44468,1,0,0:0:0:0:
153,192,44468,1,0,0:0:0:0:
256,192,44636,1,0,0:0:0:0:
358,192,44805,1,0,0:0:0:0:
51,192,44973,1,0,0:0:0:0:
153,192,45142,128,0,45310:0:0:0:0:
460,192,45310,128,0,45479:0:0:0:0:
358,192,45479,1,0,0:0:0:0:
256,192,45647,1,0,0:0:0:0:
51,192,45816,1,0,0:0:0:0:
153,192,45816,1,0,0:0:0:0:
358,192,45984,1,0,0:0:0:0:
460,192,46153,1,0,0:0:0:0:
256,192,46321,1,0,0:0:0:0:
51,192,46490,1,0,0:0:0:0:
153,192,46659,1,0,0:0:0:0:
358,192,46827,1,0,0:0:0:0:
256,192,46996,1,0,0:0:0:0:
153,192,47164,1,0,0:0:0:0:
51,192,47164,1,0,0:0:0:0:
460,192,47333,1,0,0:0:0:0:
358,192,47417,1,0,0:0:0:0:
256,192,47501,1,0,0:0:0:0:
51,192,47670,1,0,0:0:0:0:
358,192,47838,1,0,0:0:0:0:
153,192,48007,1,0,0:0:0:0:
460,192,48175,1,0,0:0:0:0:
256,192,48344,1,0,0:0:0:0:
358,192,48513,1,0,0:0:0:0:
460,192,48513,1,0,0:0:0:0:
51,192,48681,1,0,0:0:0:0:
153,192,48850,1,0,0:0:0:0:
256,192,48850,1,0,0:0:0:0:
460,192,49018,1,0,0:0:0:0:
358,192,49187,1,0,0:0:0:0:
256,192,49187,1,0,0:0:0:0:
153,192,49355,1,0,0:0:0:0:
51,192,49524,1,0,0:0:0:0:
256,192,49692,1,0,0:0:0:0:
460,192,49861,1,0,0:0:0:0:
153,192,49861,1,0,0:0:0:0:
358,192,50029,1,0,0:0:0:0:
256,192,50198,128,0,50366:0:0:0:0:
153,192,50366,128,0,50535:0:0:0:0:
460,192,50535,1,0,0:0:0:0:
51,192,50535,1,0,0:0:0:0:
358,192,50704,1,0,0:0:0:0:
256,192,50872,1,0,0:0:0:0:
358,192,51041,1,0,0:0:0:0:
460,192,51209,1,0,0:0:0:0:
51,192,51209,1,0,0:0:0:0:
153,192,51378,1,0,0:0:0:0:
358,192,51546,1,0,0:0:0:0:
256,192,51715,1,0,0:0:0:0:
460,192,51883,1,0,0:0:0:0:
51,192,52052,1,0,0:0:0:0:
256,192,52220,1,0,0:0:0:0:
153,192,52389,1,0,0:0:0:0:
358,192,52557,1,0,0:0:0:0:
460,192,52557,1,0,0:0:0:0:
51,192,52726,1,0,0:0:0:0:
256,192,52895,1,0,0:0:0:0:
51,192,53063,1,0,0:0:0:0:
153,192,53232,1,0,0:0:0:0:
358,192,53232,1,0,0:0:0:0:
460,192,53400,1,0,0:0:0:0:
256,192,53569,1,0,0:0:0:0:
358,192,53737,1,0,0:0:0:0:
51,192,53906,1,0,0:0:0:0:
153,192,53906,1,0,0:0:0:0:
51,192,54074,1,0,0:0:0:0:
460,192,54243,1,0,0:0:0:0:
460,192,54411,1,0,0:0:0:0:
153,192,54580,1,0,0:0:0:0:
153,192,54748,1,0,0:0:0:0:
358,192,54917,128,0,55254:0:0:0:0:
460,192,55254,1,0,0:0:0:0:
51,192,55254,1,0,0:0:0:0:
460,192,55423,1,0,0:0:0:0:
51,192,55423,1,0,0:0:0:0:
358,192,55760,1,0,0:0:0:0:
256,192,55760,1,0,0:0:0:0:
153,192,55928,128,0,56265:0:0:0:0:
460,192,56265,1,0,0:0:0:0:
51,192,56265,1,0,0:0:0:0:
256,192,56771,1,0,0:0:0:0:
153,192,56771,1,0,0:0:0:0:
358,192,56939,128,0,57277:0:0:0:0:
460,192,57277,1,0,0:0:0:0:
51,192,57277,128,0,57951:0:0:0:0:
256,192,57951,1,0,0:0:0:0:
460,192,57951,1,0,0:0:0:0:
460,192,58119,1,0,0:0:0:0:
256,192,58119,1,0,0:0:0:0:
51,192,58456,1,0,0:0:0:0:
153,192,58456,1,0,0:0:0:0:
358,192,58625,128,0,58962:0:0:0:0:
51,192,58962,1,0,0:0:0:0:
256,192,58962,1,0,0:0:0:0:
358,192,59468,1,0,0:0:0:0:
460,192,59468,1,0,0:0:0:0:
153,192,59636,128,0,59973:0:0:0:0:
256,192,59973,1,0,0:0:0:0:
358,192,60142,1,0,0:0:0:0:
153,192,60310,1,0,0:0:0:0:
256,192,60479,1,0,0:0:0:0:
51,192,60647,1,0,0:0:0:0:
460,192,60647,1,0,0:0:0:0:
358,192,61153,1,0,0:0:0:0:
153,192,61659,1,0,0:0:0:0:
256,192,61771,1,0,0:0:0:0:
358,192,61883,1,0,0:0:0:0:
51,192,61996,1,0,0:0:0:0:
153,192,62108,1,0,0:0:0:0:
256,192,62220,1,0,0:0:0:0:
460,192,62333,1,0,0:0:0:0:
358,192,62445,1,0,0:0:0:0:
256,192,62557,1,0,0:0:0:0:
51,192,62670,1,0,0:0:0:0:
460,192,62782,1,0,0:0:0:0:
153,192,62895,1,0,0:0:0:0:
358,192,63007,1,0,0:0:0:0:
256,192,63119,1,0,0:0:0:0:
153,192,63232,1,0,0:0:0:0:
51,192,63344,128,0,63513:0:0:0:0:
358,192,63513,128,0,63681:0:0:0:0:
153,192,63681,128,0,63850:0:0:0:0:
256,192,63850,128,0,64018:0:0:0:0:
358,192,64018,128,0,64187:0:0:0:0:
51,192,64187,128,0,64355:0:0:0:0:
153,192,64355,128,0,64524:0:0:0:0:
256,192,64524,128,0,64692:0:0:0:0:
460,192,64692,128,0,64861:0:0:0:0:
153,192,64861,128,0,65029:0:0:0:0:
358,192,65029,128,0,65198:0:0:0:0:
51,192,65198,128,0,65366:0:0:0:0:
153,192,65366,1,0,0:0:0:0:
256,192,66041,1,0,0:0:0:0:
460,192,66041,1,0,0:0:0:0:
358,192,66041,1,0,0:0:0:0:
358,192,66546,1,0,0:0:0:0:
153,192,66546,1,0,0:0:0:0:
256,192,66546,1,0,0:0:0:0:
256,192,67052,1,0,0:0:0:0:
51,192,67052,1,0,0:0:0:0:
153,192,67052,1,0,0:0:0:0:
153,192,67389,1,0,0:0:0:0:
51,192,67389,1,0,0:0:0:0:
460,192,67389,1,0,0:0:0:0:
358,192,67895,1,0,0:0:0:0:
153,192,67895,1,0,0:0:0:0:
256,192,67895,1,0,0:0:0:0:
460,192,68400,1,0,0:0:0:0:
256,192,68400,1,0,0:0:0:0:
358,192,68400,1,0,0:0:0:0:
358,192,68737,1,0,0:0:0:0:
460,192,68737,1,0,0:0:0:0:
51,192,68737,1,0,0:0:0:0:
51,192,69243,1,0,0:0:0:0:
153,192,69243,1,0,0:0:0:0:
256,192,69243,1,0,0:0:0:0:
460,192,69580,1,0,0:0:0:0:
358,192,69748,1,0,0:0:0:0:
256,192,69917,1,0,0:0:0:0:
51,192,70086,1,0,0:0:0:0:
153,192,70423,1,0,0:0:0:0:
256,192,70760,1,0,0:0:0:0:
358,192,71097,1,0,0:0:0:0:
51,192,71434,1,0,0:0:0:0:
460,192,71434,1,0,0:0:0:0:
153,192,71434,1,0,0:0:0:0:
256,192,71939,1,0,0:0:0:0:
358,192,71939,1,0,0:0:0:0:
153,192,71939,1,0,0:0:0:0:
358,192,72445,1,0,0:0:0:0:
460,192,72445,1,0,0:0:0:0:
51,192,72445,1,0,0:0:0:0:
358,192,72782,1,0,0:0:0:0:
460,192,72782,1,0,0:0:0:0:
256,192,72782,1,0,0:0:0:0:
153,192,73288,1,0,0:0:0:0:
51,192,73288,1,0,0:0:0:0:
460,192,73288,1,0,0:0:0:0:
256,192,73793,1,0,0:0:0:0:
153,192,73793,1,0,0:0:0:0:
358,192,73793,1,0,0:0:0:0:
460,192,74130,1,0,0:0:0:0:
358,192,74130,1,0,0:0:0:0:
256,192,74130,1,0,0:0:0:0:
51,192,74636,1,0,0:0:0:0:
358,192,74636,1,0,0:0:0:0:
460,192,74636,1,0,0:0:0:0:
460,192,75142,1,0,0:0:0:0:
256,192,75310,1,0,0:0:0:0:
51,192,75479,128,0,75816:0:0:0:0:
153,192,75816,128,0,76153:0:0:0:0:
256,192,76153,128,0,76490:0:0:0:0:
358,192,76490,128,0,76827:0:0:0:0:
51,192,76827,5,0,0:0:0:0:
460,192,76827,1,0,0:0:0:0:
256,192,76996,1,0,0:0:0:0:
153,192,77164,128,0,77333:0:0:0:0:
256,192,77333,128,0,77501:0:0:0:0:
460,192,77501,1,0,0:0:0:0:
358,192,77501,1,0,0:0:0:0:
51,192,77670,1,0,0:0:0:0:
256,192,77838,128,0,78007:0:0:0:0:
153,192,78007,128,0,78175:0:0:0:0:
460,192,78175,1,0,0:0:0:0:
51,192,78175,1,0,0:0:0:0:
256,192,78344,1,0,0:0:0:0:
358,192,78513,128,0,78681:0:0:0:0:
256,192,78681,128,0,78850:0:0:0:0:
51,192,78850,1,0,0:0:0:0:
153,192,78850,1,0,0:0:0:0:
460,192,79018,1,0,0:0:0:0:
256,192,79187,128,0,79355:0:0:0:0:
358,192,79355,128,0,79524:0:0:0:0:
51,192,79524,1,0,0:0:0:0:
460,192,79524,1,0,0:0:0:0:
153,192,79692,1,0,0:0:0:0:
256,192,79861,128,0,80029:0:0:0:0:
51,192,80029,128,0,80198:0:0:0:0:
460,192,80198,1,0,0:0:0:0:
358,192,80198,1,0,0:0:0:0:
256,192,80366,1,0,0:0:0:0:
153,192,80535,128,0,80704:0:0:0:0:
358,192,80704,128,0,80872:0:0:0:0:
460,192,80872,1,0,0:0:0:0:
51,192,80872,1,0,0:0:0:0:
153,192,81041,1,0,0:0:0:0:
256,192,81209,128,0,81378:0:0:0:0:
460,192,81378,128,0,81546:0:0:0:0:
51,192,81546,1,0,0:0:0:0:
153,192,81546,1,0,0:0:0:0:
256,192,81715,1,0,0:0:0:0:
358,192,81883,128,0,82052:0:0:0:0:
153,192,82052,128,0,82220:0:0:0:0:
51,192,82220,1,0,0:0:0:0:
460,192,82220,1,0,0:0:0:0:
256,192,82389,1,0,0:0:0:0:
358,192,82557,128,0,82726:0:0:0:0:
256,192,82726,128,0,82895:0:0:0:0:
153,192,82895,1,0,0:0:0:0:
51,192,82895,1,0,0:0:0:0:
460,192,83063,1,0,0:0:0:0:
256,192,83232,128,0,83400:0:0:0:0:
358,192,83400,128,0,83569:0:0:0:0:
51,192,83569,1,0,0:0:0:0:
460,192,83569,1,0,0:0:0:0:
256,192,83737,1,0,0:0:0:0:
153,192,83906,128,0,84074:0:0:0:0:
256,192,84074,128,0,84243:0:0:0:0:
460,192,84243,1,0,0:0:0:0:
358,192,84243,1,0,0:0:0:0:
51,192,84411,1,0,0:0:0:0:
256,192,84580,128,0,84748:0:0:0:0:
153,192,84748,128,0,84917:0:0:0:0:
51,192,84917,1,0,0:0:0:0:
460,192,84917,1,0,0:0:0:0:
358,192,85086,1,0,0:0:0:0:
256,192,85254,128,0,85423:0:0:0:0:
460,192,85423,128,0,85591:0:0:0:0:
153,192,85591,1,0,0:0:0:0:
51,192,85591,1,0,0:0:0:0:
256,192,85760,1,0,0:0:0:0:
358,192,85928,128,0,86097:0:0:0:0:
153,192,86097,128,0,86265:0:0:0:0:
51,192,86265,1,0,0:0:0:0:
460,192,86265,1,0,0:0:0:0:
358,192,86434,1,0,0:0:0:0:
256,192,86602,128,0,86771:0:0:0:0:
51,192,86771,128,0,86939:0:0:0:0:
358,192,86939,1,0,0:0:0:0:
460,192,86939,1,0,0:0:0:0:
256,192,87108,1,0,0:0:0:0:
153,192,87277,1,0,0:0:0:0:
51,192,87277,1,0,0:0:0:0:
358,192,87614,1,0,0:0:0:0:
460,192,87614,1,0,0:0:0:0:
153,192,87782,1,0,0:0:0:0:
256,192,87866,1,0,0:0:0:0:
51,192,88035,1,0,0:0:0:0:
153,192,88119,1,0,0:0:0:0:
460,192,88288,1,0,0:0:0:0:
358,192,88456,1,0,0:0:0:0:
256,192,88541,1,0,0:0:0:0:
460,192,88709,1,0,0:0:0:0:
358,192,88793,1,0,0:0:0:0:
51,192,88962,1,0,0:0:0:0:
153,192,89130,1,0,0:0:0:0:
256,192,89215,1,0,0:0:0:0:
51,192,89383,1,0,0:0:0:0:
153,192,89468,1,0,0:0:0:0:
460,192,89636,128,0,89805:0:0:0:0:
256,192,89805,128,0,89973:0:0:0:0:
358,192,89973,128,0,90142:0:0:0:0:
153,192,90142,128,0,90310:0:0:0:0:
51,192,90310,128,0,90479:0:0:0:0:
256,192,90647,128,0,90816:0:0:0:0:
460,192,90984,128,0,91153:0:0:0:0:
153,192,91153,128,0,91321:0:0:0:0:
358,192,91321,128,0,91490:0:0:0:0:
51,192,91490,128,0,91659:0:0:0:0:
256,192,91659,128,0,91827:0:0:0:0:
153,192,91827,128,0,91996:0:0:0:0:
358,192,91996,128,0,92164:0:0:0:0:
256,192,92164,128,0,92333:0:0:0:0:
460,192,92333,128,0,92501:0:0:0:0:
51,192,92501,128,0,92670:0:0:0:0:
358,192,92670,128,0,92838:0:0:0:0:
153,192,92838,128,0,93007:0:0:0:0:
256,192,93007,1,0,0:0:0:0:
358,192,93175,1,0,0:0:0:0:
256,192,93260,1,0,0:0:0:0:
460,192,93428,1,0,0:0:0:0:
358,192,93513,1,0,0:0:0:0:
256,192,93681,1,0,0:0:0:0:
153,192,93850,1,0,0:0:0:0:
256,192,93934,1,0,0:0:0:0:
51,192,94102,1,0,0:0:0:0:
153,192,94187,1,0,0:0:0:0:
256,192,94355,1,0,0:0:0:0:
358,192,94524,1,0,0:0:0:0:
256,192,94608,1,0,0:0:0:0:
460,192,94777,1,0,0:0:0:0:
358,192,94861,1,0,0:0:0:0:
256,192,95029,128,0,95198:0:0:0:0:
51,192,95198,128,0,95366:0:0:0:0:
153,192,95366,128,0,95535:0:0:0:0:
256,192,95535,128,0,95704:0:0:0:0:
358,192,95704,128,0,95872:0:0:0:0:
460,192,95872,1,0,0:0:0:0:
256,192,96041,128,0,96209:0:0:0:0:
358,192,96209,1,0,0:0:0:0:
153,192,96378,128,0,96546:0:0:0:0:
256,192,96546,1,0,0:0:0:0:
51,192,96715,1,0,0:0:0:0:
153,192,96799,1,0,0:0:0:0:
460,192,96883,1,0,0:0:0:0:
358,192,96968,1,0,0:0:0:0:
256,192,97052,128,0,97220:0:0:0:0:
153,192,97220,1,0,0:0:0:0:
358,192,97389,128,0,97557:0:0:0:0:
256,192,97557,1,0,0:0:0:0:
460,192,97726,128,0,97895:0:0:0:0:
358,192,97895,128,0,98063:0:0:0:0:
51,192,98063,128,0,98232:0:0:0:0:
153,192,98232,128,0,98400:0:0:0:0:
256,192,98400,1,0,0:0:0:0:
460,192,98400,1,0,0:0:0:0:
358,192,98569,1,0,0:0:0:0:
153,192,98737,1,0,0:0:0:0:
460,192,98737,1,0,0:0:0:0:
51,192,99074,1,0,0:0:0:0:
256,192,99074,1,0,0:0:0:0:
153,192,99243,1,0,0:0:0:0:
51,192,99411,1,0,0:0:0:0:
358,192,99411,1,0,0:0:0:0:
256,192,99748,1,0,0:0:0:0:
460,192,99748,1,0,0:0:0:0:
153,192,99917,1,0,0:0:0:0:
51,192,100086,1,0,0:0:0:0:
460,192,100086,1,0,0:0:0:0:
256,192,100423,1,0,0:0:0:0:
51,192,100423,1,0,0:0:0:0:
358,192,100591,1,0,0:0:0:0:
460,192,100760,1,0,0:0:0:0:
51,192,100760,1,0,0:0:0:0:
153,192,101097,1,0,0:0:0:0:
460,192,101097,1,0,0:0:0:0:
460,192,101265,1,0,0:0:0:0:
51,192,101434,1,0,0:0:0:0:
358,192,101434,1,0,0:0:0:0:
51,192,101602,1,0,0:0:0:0:
256,192,101771,128,0,101939:0:0:0:0:
153,192,101771,1,0,0:0:0:0:
460,192,101939,128,0,102108:0:0:0:0:
153,192,102108,128,0,102277:0:0:0:0:
51,192,102108,1,0,0:0:0:0:
358,192,102277,128,0,102445:0:0:0:0:
256,192,103119,128,0,103793:0:0:0:0:
153,192,103793,1,0,0:0:0:0:
460,192,103962,1,0,0:0:0:0:
460,192,104299,1,0,0:0:0:0:
256,192,104636,128,0,104805:0:0:0:0:
51,192,104805,128,0,104973:0:0:0:0:
460,192,104973,128,0,105142:0:0:0:0:
256,192,105142,128,0,105310:0:0:0:0:
358,192,105310,128,0,105479:0:0:0:0:
153,192,105479,128,0,105647:0:0:0:0:
256,192,105647,128,0,105816:0:0:0:0:
51,192,105816,128,0,105984:0:0:0:0:
358,192,105984,128,0,106153:0:0:0:0:
256,192,106153,128,0,106321:0:0:0:0:
460,192,106321,128,0,106490:0:0:0:0:
51,192,106490,1,0,0:0:0:0:
153,192,106490,1,0,0:0:0:0:
153,192,106659,1,0,0:0:0:0:
358,192,106827,1,0,0:0:0:0:
460,192,106827,1,0,0:0:0:0:
358,192,106996,1,0,0:0:0:0:
256,192,107164,1,0,0:0:0:0:
51,192,107164,1,0,0:0:0:0:
153,192,107501,1,0,0:0:0:0:
358,192,107501,1,0,0:0:0:0:
256,192,107670,1,0,0:0:0:0:
51,192,107838,128,0,108175:0:0:0:0:
460,192,107838,1,0,0:0:0:0:
153,192,108175,128,0,108513:0:0:0:0:
358,192,108175,1,0,0:0:0:0:
256,192,108513,128,0,108850:0:0:0:0:
51,192,108513,1,0,0:0:0:0:
358,192,108850,128,0,109187:0:0:0:0:
460,192,109187,1,0,0:0:0:0:
51,192,109187,1,0,0:0:0:0:
153,192,109439,1,0,0:0:0:0:
256,192,109524,1,0,0:0:0:0:
358,192,109524,1,0,0:0:0:0:
51,192,109692,1,0,0:0:0:0:
153,192,109861,1,0,0:0:0:0:
256,192,109861,1,0,0:0:0:0:
358,192,109945,1,0,0:0:0:0:
460,192,110198,128,0,110366:0:0:0:0:
51,192,110198,1,0,0:0:0:0:
358,192,110366,128,0,110535:0:0:0:0:
153,192,110535,128,0,110704:0:0:0:0:
256,192,110535,1,0,0:0:0:0:
460,192,110704,128,0,110872:0:0:0:0:
51,192,110872,128,0,111041:0:0:0:0:
153,192,110872,1,0,0:0:0:0:
358,192,111041,128,0,111209:0:0:0:0:
460,192,111209,128,0,111378:0:0:0:0:
51,192,111209,1,0,0:0:0:0:
256,192,111378,128,0,111546:0:0:0:0:
51,192,111546,128,0,111715:0:0:0:0:
460,192,111546,1,0,0:0:0:0:
256,192,111715,128,0,111883:0:0:0:0:
460,192,111883,128,0,112220:0:0:0:0:
51,192,111883,1,0,0:0:0:0:
358,192,112220,128,0,112557:0:0:0:0:
153,192,112220,1,0,0:0:0:0:
256,192,112557,128,0,112895:0:0:0:0:
460,192,112557,1,0,0:0:0:0:
153,192,112895,128,0,113232:0:0:0:0:
358,192,112895,1,0,0:0:0:0:
51,192,113232,1,0,0:0:0:0:
460,192,113232,128,0,113400:0:0:0:0:
256,192,113400,128,0,113569:0:0:0:0:
358,192,113569,128,0,113737:0:0:0:0:
460,192,113569,1,0,0:0:0:0:
153,192,113737,128,0,113906:0:0:0:0:
51,192,113906,1,0,0:0:0:0:
256,192,113906,128,0,114074:0:0:0:0:
460,192,114074,128,0,114243:0:0:0:0:
358,192,114243,128,0,114411:0:0:0:0:
256,192,114411,128,0,114580:0:0:0:0:
153,192,114580,1,0,0:0:0:0:
51,192,114580,1,0,0:0:0:0:
460,192,114748,1,0,0:0:0:0:
256,192,114917,1,0,0:0:0:0:
358,192,114917,1,0,0:0:0:0:
153,192,115001,1,0,0:0:0:0:
358,192,115254,1,0,0:0:0:0:
460,192,115254,1,0,0:0:0:0:
256,192,115507,1,0,0:0:0:0:
51,192,115591,1,0,0:0:0:0:
153,192,115591,1,0,0:0:0:0:
358,192,115760,1,0,0:0:0:0:
460,192,115928,1,0,0:0:0:0:
51,192,115928,1,0,0:0:0:0:
153,192,116097,1,0,0:0:0:0:
256,192,116265,1,0,0:0:0:0:
358,192,116265,1,0,0:0:0:0:
460,192,116350,1,0,0:0:0:0:
256,192,116602,128,0,116771:0:0:0:0:
153,192,116602,1,0,0:0:0:0:
51,192,116771,128,0,116939:0:0:0:0:
358,192,116939,128,0,117108:0:0:0:0:
153,192,117108,128,0,117277:0:0:0:0:
51,192,117277,1,0,0:0:0:0:
460,192,117277,128,0,117614:0:0:0:0:
358,192,117614,128,0,117951:0:0:0:0:
256,192,117614,1,0,0:0:0:0:
51,192,117951,128,0,118288:0:0:0:0:
460,192,117951,1,0,0:0:0:0:
153,192,118288,128,0,118625:0:0:0:0:
256,192,118288,1,0,0:0:0:0:
51,192,118625,1,0,0:0:0:0:
460,192,118625,1,0,0:0:0:0:
358,192,118793,1,0,0:0:0:0:
51,192,118962,1,0,0:0:0:0:
460,192,118962,1,0,0:0:0:0:
153,192,119130,1,0,0:0:0:0:
256,192,119299,128,0,119468:0:0:0:0:
358,192,119299,1,0,0:0:0:0:
153,192,119468,128,0,119636:0:0:0:0:
358,192,119636,128,0,119805:0:0:0:0:
460,192,119636,1,0,0:0:0:0:
256,192,119805,128,0,119973:0:0:0:0:
153,192,119973,1,0,0:0:0:0:
51,192,119973,128,0,120142:0:0:0:0:
358,192,120142,128,0,120310:0:0:0:0:
153,192,120310,1,0,0:0:0:0:
256,192,120310,1,0,0:0:0:0:
460,192,120479,128,0,120647:0:0:0:0:
51,192,120647,128,0,120816:0:0:0:0:
153,192,120647,1,0,0:0:0:0:
256,192,120816,1,0,0:0:0:0:
460,192,120984,128,0,121153:0:0:0:0:
358,192,120984,1,0,0:0:0:0:
153,192,121153,128,0,121321:0:0:0:0:
256,192,121321,1,0,0:0:0:0:
358,192,121321,128,0,121659:0:0:0:0:
460,192,121659,128,0,121996:0:0:0:0:
51,192,121659,1,0,0:0:0:0:
153,192,121996,128,0,122333:0:0:0:0:
256,192,121996,1,0,0:0:0:0:
51,192,122333,128,0,122670:0:0:0:0:
358,192,122333,1,0,0:0:0:0:
460,192,122670,128,0,122838:0:0:0:0:
256,192,122670,1,0,0:0:0:0:
358,192,122838,128,0,123007:0:0:0:0:
153,192,123007,128,0,123175:0:0:0:0:
51,192,123007,1,0,0:0:0:0:
256,192,123175,128,0,123344:0:0:0:0:
51,192,123344,128,0,123513:0:0:0:0:
460,192,123344,1,0,0:0:0:0:
358,192,123513,128,0,123681:0:0:0:0:
153,192,123681,128,0,123850:0:0:0:0:
51,192,123681,1,0,0:0:0:0:
460,192,123850,128,0,124018:0:0:0:0:
358,192,124018,1,0,0:0:0:0:
256,192,124018,128,0,124187:0:0:0:0:
51,192,124187,1,0,0:0:0:0:
153,192,124355,128,0,124524:0:0:0:0:
460,192,124355,1,0,0:0:0:0:
358,192,124524,1,0,0:0:0:0:
256,192,124692,128,0,124861:0:0:0:0:
51,192,124692,1,0,0:0:0:0:
460,192,124861,1,0,0:0:0:0:
358,192,125029,128,0,125198:0:0:0:0:
153,192,125029,1,0,0:0:0:0:
256,192,125198,1,0,0:0:0:0:
51,192,125366,128,0,125704:0:0:0:0:
153,192,125704,1,0,0:0:0:0:
256,192,125704,1,0,0:0:0:0:
358,192,125788,1,0,0:0:0:0:
460,192,125872,1,0,0:0:0:0:
51,192,126041,1,0,0:0:0:0:
256,192,126041,1,0,0:0:0:0:
153,192,126209,1,0,0:0:0:0:
358,192,126293,1,0,0:0:0:0:
51,192,126462,1,0,0:0:0:0:
256,192,126546,1,0,0:0:0:0:
358,192,126715,1,0,0:0:0:0:
460,192,126715,1,0,0:0:0:0:
256,192,126883,1,0,0:0:0:0:
51,192,126968,1,0,0:0:0:0:
358,192,127136,1,0,0:0:0:0:
153,192,127220,1,0,0:0:0:0:
51,192,127389,1,0,0:0:0:0:
460,192,127389,1,0,0:0:0:0:
358,192,127557,1,0,0:0:0:0:
256,192,127642,1,0,0:0:0:0:
153,192,127726,1,0,0:0:0:0:
51,192,127726,1,0,0:0:0:0:
256,192,127895,1,0,0:0:0:0:
358,192,127979,1,0,0:0:0:0:
460,192,128063,1,0,0:0:0:0:
51,192,128063,128,0,128232:0:0:0:0:
256,192,128232,128,0,128400:0:0:0:0:
153,192,128400,128,0,128569:0:0:0:0:
51,192,128400,1,0,0:0:0:0:
358,192,128569,128,0,128737:0:0:0:0:
256,192,128737,128,0,128906:0:0:0:0:
460,192,128737,1,0,0:0:0:0:
153,192,128906,128,0,129074:0:0:0:0:
358,192,129074,128,0,129243:0:0:0:0:
51,192,129074,1,0,0:0:0:0:
256,192,129243,128,0,129411:0:0:0:0:
153,192,129411,1,0,0:0:0:0:
460,192,129411,128,0,129580:0:0:0:0:
358,192,129580,128,0,129748:0:0:0:0:
256,192,129748,128,0,129917:0:0:0:0:
51,192,129748,1,0,0:0:0:0:
153,192,129917,128,0,130086:0:0:0:0:
358,192,130086,128,0,130254:0:0:0:0:
256,192,130254,128,0,130423:0:0:0:0:
153,192,130423,128,0,130591:0:0:0:0:
51,192,130591,128,0,130760:0:0:0:0:
358,192,130760,1,0,0:0:0:0:
460,192,130760,1,0,0:0:0:0:
256,192,130928,1,0,0:0:0:0:
153,192,131013,1,0,0:0:0:0:
358,192,131181,1,0,0:0:0:0:
460,192,131265,1,0,0:0:0:0:
51,192,131434,1,0,0:0:0:0:
256,192,131434,1,0,0:0:0:0:
358,192,131602,1,0,0:0:0:0:
256,192,131771,1,0,0:0:0:0:
460,192,131939,1,0,0:0:0:0:
51,192,132108,1,0,0:0:0:0:
153,192,132108,1,0,0:0:0:0:
256,192,132277,1,0,0:0:0:0:
153,192,132445,1,0,0:0:0:0:
358,192,132614,1,0,0:0:0:0:
51,192,132782,1,0,0:0:0:0:
460,192,132782,1,0,0:0:0:0:
256,192,132951,1,0,0:0:0:0:
153,192,133119,128,0,133288:0:0:0:0:
358,192,133288,128,0,133456:0:0:0:0:
460,192,133456,1,0,0:0:0:0:
51,192,133625,1,0,0:0:0:0:
153,192,133709,1,0,0:0:0:0:
256,192,133793,1,0,0:0:0:0:
153,192,133962,1,0,0:0:0:0:
256,192,134046,1,0,0:0:0:0:
358,192,134130,1,0,0:0:0:0:
460,192,134130,1,0,0:0:0:0:
51,192,134299,1,0,0:0:0:0:
153,192,134383,1,0,0:0:0:0:
358,192,134468,128,0,134636:0:0:0:0:
153,192,134636,128,0,134805:0:0:0:0:
51,192,134805,1,0,0:0:0:0:
460,192,134973,1,0,0:0:0:0:
358,192,135057,1,0,0:0:0:0:
256,192,135142,1,0,0:0:0:0:
358,192,135310,1,0,0:0:0:0:
256,192,135395,1,0,0:0:0:0:
153,192,135479,1,0,0:0:0:0:
51,192,135479,128,0,135647:0:0:0:0:
358,192,135647,128,0,135816:0:0:0:0:
153,192,135816,128,0,135984:0:0:0:0:
460,192,135984,128,0,136153:0:0:0:0:
358,192,136153,1,0,0:0:0:0:
51,192,136153,1,0,0:0:0:0:
256,192,136321,1,0,0:0:0:0:
153,192,136406,1,0,0:0:0:0:
460,192,136574,1,0,0:0:0:0:
256,192,136659,1,0,0:0:0:0:
153,192,136827,1,0,0:0:0:0:
51,192,136827,1,0,0:0:0:0:
256,192,136996,1,0,0:0:0:0:
460,192,137080,1,0,0:0:0:0:
153,192,137248,1,0,0:0:0:0:
256,192,137333,1,0,0:0:0:0:
358,192,137501,1,0,0:0:0:0:
460,192,137501,1,0,0:0:0:0:
51,192,137670,1,0,0:0:0:0:
256,192,137754,1,0,0:0:0:0:
153,192,137838,1,0,0:0:0:0:
358,192,138007,1,0,0:0:0:0:
460,192,138175,1,0,0:0:0:0:
51,192,138175,128,0,138344:0:0:0:0:
153,192,138344,1,0,0:0:0:0:
256,192,138513,1,0,0:0:0:0:
358,192,138513,128,0,138681:0:0:0:0:
153,192,138681,128,0,138850:0:0:0:0:
460,192,138850,1,0,0:0:0:0:
51,192,138850,1,0,0:0:0:0:
256,192,139018,1,0,0:0:0:0:
153,192,139102,1,0,0:0:0:0:
358,192,139187,128,0,139355:0:0:0:0:
460,192,139187,1,0,0:0:0:0:
256,192,139355,1,0,0:0:0:0:
153,192,139524,128,0,139692:0:0:0:0:
51,192,139524,1,0,0:0:0:0:
256,192,139692,128,0,139861:0:0:0:0:
358,192,139861,128,0,140029:0:0:0:0:
460,192,139861,1,0,0:0:0:0:
256,192,140029,128,0,140198:0:0:0:0:
51,192,140198,1,0,0:0:0:0:
153,192,140198,1,0,0:0:0:0:
358,192,140366,1,0,0:0:0:0:
460,192,140451,1,0,0:0:0:0:
51,192,140535,128,0,140704:0:0:0:0:
256,192,140535,1,0,0:0:0:0:
153,192,140704,1,0,0:0:0:0:
358,192,140872,1,0,0:0:0:0:
460,192,140872,1,0,0:0:0:0:
51,192,140956,1,0,0:0:0:0:
153,192,141125,1,0,0:0:0:0:
256,192,141125,1,0,0:0:0:0:
358,192,141209,1,0,0:0:0:0:
51,192,141378,1,0,0:0:0:0:
153,192,141378,1,0,0:0:0:0:
256,192,141462,1,0,0:0:0:0:
460,192,141546,1,0,0:0:0:0:
358,192,141546,1,0,0:0:0:0:
51,192,141715,1,0,0:0:0:0:
256,192,141883,1,0,0:0:0:0:
153,192,142052,1,0,0:0:0:0:
51,192,142052,1,0,0:0:0:0:
358,192,142220,1,0,0:0:0:0:
256,192,142389,1,0,0:0:0:0:
460,192,142557,128,0,142726:0:0:0:0:
358,192,142726,128,0,142895:0:0:0:0:
256,192,142895,1,0,0:0:0:0:
51,192,142895,1,0,0:0:0:0:
460,192,143063,1,0,0:0:0:0:
256,192,143232,1,0,0:0:0:0:
460,192,143400,1,0,0:0:0:0:
358,192,143400,1,0,0:0:0:0:
153,192,143569,1,0,0:0:0:0:
256,192,143737,1,0,0:0:0:0:
51,192,143906,128,0,144074:0:0:0:0:
358,192,143906,1,0,0:0:0:0:
256,192,144074,128,0,144243:0:0:0:0:
460,192,144243,128,0,144580:0:0:0:0:
153,192,144243,1,0,0:0:0:0:
358,192,144580,128,0,144748:0:0:0:0:
256,192,144748,1,0,0:0:0:0:
153,192,144917,128,0,145254:0:0:0:0:
51,192,145254,1,0,0:0:0:0:
256,192,145423,1,0,0:0:0:0:
460,192,145591,128,0,145928:0:0:0:0:
153,192,145928,128,0,146265:0:0:0:0:
256,192,146265,1,0,0:0:0:0:
358,192,146434,128,0,146602:0:0:0:0:
460,192,146602,1,0,0:0:0:0:
51,192,146771,128,0,146939:0:0:0:0:
153,192,146939,1,0,0:0:0:0:
256,192,146939,1,0,0:0:0:0:
358,192,147277,1,0,0:0:0:0:
460,192,147614,128,0,148288:0:0:0:0:
358,192,148288,1,0,0:0:0:0:
256,192,148625,1,0,0:0:0:0:
153,192,148962,1,0,0:0:0:0:
460,192,149215,1,0,0:0:0:0:
51,192,149468,1,0,0:0:0:0:
358,192,149805,1,0,0:0:0:0:
153,192,150057,1,0,0:0:0:0:
256,192,150310,1,0,0:0:0:0:
358,192,150563,1,0,0:0:0:0:
460,192,150816,1,0,0:0:0:0:
51,192,151153,1,0,0:0:0:0:
358,192,151406,1,0,0:0:0:0:
256,192,151659,1,0,0:0:0:0:
153,192,151911,1,0,0:0:0:0:
51,192,152164,1,0,0:0:0:0:
358,192,152501,1,0,0:0:0:0:
460,192,152754,1,0,0:0:0:0:
256,192,153007,1,0,0:0:0:0:
153,192,153260,1,0,0:0:0:0:
51,192,153513,1,0,0:0:0:0:
460,192,153850,1,0,0:0:0:0:
358,192,154102,1,0,0:0:0:0:
51,192,154355,1,0,0:0:0:0:
153,192,154608,1,0,0:0:0:0:
256,192,154861,1,0,0:0:0:0:
358,192,155029,1,0,0:0:0:0:
460,192,155029,1,0,0:0:0:0:
460,192,155198,1,0,0:0:0:0:
358,192,155198,1,0,0:0:0:0:
51,192,155535,1,0,0:0:0:0:
153,192,155535,1,0,0:0:0:0:
51,192,155704,1,0,0:0:0:0:
153,192,155704,1,0,0:0:0:0:
153,192,156041,1,0,0:0:0:0:
460,192,156041,1,0,0:0:0:0:
153,192,156209,1,0,0:0:0:0:
460,192,156209,1,0,0:0:0:0:
51,192,156546,1,0,0:0:0:0:
358,192,156546,1,0,0:0:0:0:
51,192,156715,1,0,0:0:0:0:
358,192,156715,1,0,0:0:0:0:
256,192,157052,128,0,157726:0:0:0:0:
358,192,157726,1,0,0:0:0:0:
460,192,157726,1,0,0:0:0:0:
51,192,157838,1,0,0:0:0:0:
153,192,157951,1,0,0:0:0:0:
256,192,158063,1,0,0:0:0:0:
358,192,158232,1,0,0:0:0:0:
153,192,158400,1,0,0:0:0:0:
51,192,158400,1,0,0:0:0:0:
460,192,158569,1,0,0:0:0:0:
358,192,158737,1,0,0:0:0:0:
256,192,158737,1,0,0:0:0:0:
153,192,158906,1,0,0:0:0:0:
358,192,159074,1,0,0:0:0:0:
460,192,159074,1,0,0:0:0:0:
256,192,159243,1,0,0:0:0:0:
153,192,159411,1,0,0:0:0:0:
51,192,159411,1,0,0:0:0:0:
358,192,159580,1,0,0:0:0:0:
256,192,159748,1,0,0:0:0:0:
460,192,159748,1,0,0:0:0:0:
51,192,159917,1,0,0:0:0:0:
358,192,160086,1,0,0:0:0:0:
153,192,160254,1,0,0:0:0:0:
256,192,160338,1,0,0:0:0:0:
358,192,160423,1,0,0:0:0:0:
460,192,160423,1,0,0:0:0:0:
256,192,160591,1,0,0:0:0:0:
358,192,160675,1,0,0:0:0:0:
460,192,160760,1,0,0:0:0:0:
51,192,160760,1,0,0:0:0:0:
256,192,160928,1,0,0:0:0:0:
153,192,161013,1,0,0:0:0:0:
460,192,161097,1,0,0:0:0:0:
51,192,161097,1,0,0:0:0:0:
358,192,161265,1,0,0:0:0:0:
153,192,161434,1,0,0:0:0:0:
256,192,161434,1,0,0:0:0:0:
51,192,161602,1,0,0:0:0:0:
358,192,161771,1,0,0:0:0:0:
460,192,161771,1,0,0:0:0:0:
153,192,161939,1,0,0:0:0:0:
256,192,162108,1,0,0:0:0:0:
358,192,162108,1,0,0:0:0:0:
460,192,162277,1,0,0:0:0:0:
51,192,162445,1,0,0:0:0:0:
153,192,162445,1,0,0:0:0:0:
358,192,162614,1,0,0:0:0:0:
153,192,162782,1,0,0:0:0:0:
256,192,162782,1,0,0:0:0:0:
51,192,162951,1,0,0:0:0:0:
358,192,163119,128,0,163456:0:0:0:0:
460,192,163119,1,0,0:0:0:0:
153,192,163456,1,0,0:0:0:0:
51,192,163456,1,0,0:0:0:0:
460,192,163625,1,0,0:0:0:0:
256,192,163793,1,0,0:0:0:0:
358,192,163793,1,0,0:0:0:0:
51,192,163962,1,0,0:0:0:0:
153,192,164130,1,0,0:0:0:0:
256,192,164215,1,0,0:0:0:0:
460,192,164299,1,0,0:0:0:0:
358,192,164383,1,0,0:0:0:0:
51,192,164468,1,0,0:0:0:0:
153,192,164468,1,0,0:0:0:0:
256,192,164636,1,0,0:0:0:0:
358,192,164805,1,0,0:0:0:0:
460,192,164805,1,0,0:0:0:0:
153,192,164973,1,0,0:0:0:0:
256,192,165142,1,0,0:0:0:0:
358,192,165142,1,0,0:0:0:0:
51,192,165310,1,0,0:0:0:0:
153,192,165479,1,0,0:0:0:0:
256,192,165479,1,0,0:0:0:0:
460,192,165647,1,0,0:0:0:0:
358,192,165732,1,0,0:0:0:0:
51,192,165816,1,0,0:0:0:0:
153,192,165816,1,0,0:0:0:0:
256,192,165984,1,0,0:0:0:0:
51,192,166153,1,0,0:0:0:0:
460,192,166153,1,0,0:0:0:0:
153,192,166321,1,0,0:0:0:0:
256,192,166406,1,0,0:0:0:0:
358,192,166490,1,0,0:0:0:0:
460,192,166490,1,0,0:0:0:0:
256,192,166659,1,0,0:0:0:0:
153,192,166743,1,0,0:0:0:0:
51,192,166827,1,0,0:0:0:0:
460,192,166827,1,0,0:0:0:0:
358,192,166996,1,0,0:0:0:0:
153,192,167164,128,0,167333:0:0:0:0:
256,192,167333,1,0,0:0:0:0:
51,192,167501,128,0,167670:0:0:0:0:
256,192,167670,128,0,167838:0:0:0:0:
460,192,167838,128,0,168513:0:0:0:0:
51,192,168513,1,0,0:0:0:0:
153,192,168513,1,0,0:0:0:0:
256,192,168850,128,0,169018:0:0:0:0:
358,192,169018,128,0,169187:0:0:0:0:
460,192,169187,1,0,0:0:0:0:
51,192,169187,1,0,0:0:0:0:
256,192,169524,128,0,169692:0:0:0:0:
153,192,169692,128,0,169861:0:0:0:0:
460,192,169861,1,0,0:0:0:0:
51,192,169861,1,0,0:0:0:0:
358,192,170198,128,0,170366:0:0:0:0:
256,192,170366,128,0,170535:0:0:0:0:
153,192,170535,1,0,0:0:0:0:
51,192,170535,1,0,0:0:0:0:
153,192,170872,128,0,171041:0:0:0:0:
256,192,171041,128,0,171209:0:0:0:0:
460,192,171209,128,0,175254:0:0:0:0:
358,192,171209,1,0,0:0:0:0:
