osu file format v14

[General]
AudioFilename: audio.ogg
AudioLeadIn: 0
PreviewTime: 66041
Countdown: 0
SampleSet: Soft
StackLeniency: 0.7
Mode: 3
LetterboxInBreaks: 0
EpilepsyWarning: 1
SpecialStyle: 0
WidescreenStoryboard: 1

[Editor]
DistanceSpacing: 1.5
BeatDivisor: 4
GridSize: 4
TimelineZoom: 2.500001

[Metadata]
Title:Testify
TitleUnicode:Testify
Artist:void (Mournfinale) feat. Hoshikuma Minami
ArtistUnicode:void (Mournfinale) feat. 星熊南巫
Creator:Akasha-
Version:Retrace our Journey | Normal
Source:Arcaea
Tags:Rakia Minami DEATHNYANN 我儘ラキア ぼれ lowiro Main Story Final Verdict Axiom of The End Last Chapter Ending Boss Stage 光 Fatalis Hikari シエラ cierra Piano Instrumental Video Game English Electronic A Fatal Decision Choice Kuo Kyoka Shortthu Critical_Star Maxus DixonBlackwing [RT]Alleyne [Crz]Alleyne Maxim-Miau -_Inui_Toko_- Inui Toko ML-ysg
BeatmapID:3878910
BeatmapSetID:1802351

[Difficulty]
HPDrainRate:6.8
CircleSize:4
OverallDifficulty:6.8
ApproachRate:5
SliderMultiplier:1.4
SliderTickRate:1

[Events]
//Background and Video events
0,0,"BG1.jpg",0,0
//Break Periods
//Storyboard Layer 0 (Background)
Sprite,Background,Centre,"BG1.jpg",320,240 S,0,-1000,,0.333 F,0,-1000,0,1,0
//Storyboard Layer 1 (Fail)
//Storyboard Layer 2 (Pass)
//Storyboard Layer 3 (Foreground)
Sprite,Foreground,TopCentre,"Storyboard\pixel.png",320,0 C,0,124018,,0,0,0 V,19,124018,,870,480 F,19,124018,125029,0,0.5
Animation,Foreground,Centre,"Storyboard\Testify\Testify.jpg",320,240,53,8,LoopOnce S,0,125029,,0.5 F,0,125029,125366,0.5 F,29,125366,125704,0.5,0
Animation,Foreground,Centre,"Storyboard\Testify\Testify.jpg",320,240,53,8,LoopOnce S,0,125029,,0.5 P,0,125029,,A F,0,125029,125366,0.5 F,29,125366,125704,0.5,0
Sprite,Foreground,Centre,"Storyboard\high-distort.jpg",320,240 F,19,130760,132108,1,0 S,5,130760,132108,0.525,0.5
Sprite,Foreground,Centre,"Storyboard\Hikari_Fatalis.png",320,240 M,0,130760,,320,320 S,5,130760,,0.45 F,19,130760,132108,1,0
Sprite,Foreground,Centre,"Storyboard\Hikari_Fatalis_zoom.png",320,240 M,0,130760,,320,320 S,5,130760,,0.45 F,19,130760,132108,1,0
Sprite,Foreground,Centre,"Storyboard\transp_low.png",320,240 S,5,130760,,0.5 F,19,130760,132108,1,0
Sprite,Foreground,Centre,"Storyboard\transp_low.png",320,240 S,5,130760,,0.5 F,19,130760,132108,1,0
Sprite,Foreground,Centre,"Storyboard\transp_high.png",320,240 F,19,130760,132108,1,0 S,5,130760,132108,0.525,0.5
Sprite,Foreground,Centre,"Storyboard\edge_lens_flare.png",320,240 P,0,130760,,A F,19,130760,132108,0.5,0 S,0,130760,132108,1.125
Sprite,Foreground,Centre,"Storyboard\edge_lens_flare.png",320,240 F,19,130760,132108,0.5,0 S,19,130760,132108,1.055,1.125
Sprite,Foreground,Centre,"Storyboard\edge_lens_flare.png",320,240 P,0,130760,,A F,29,130760,132108,0.5,0 S,29,130760,132108,1.15,1.055
Sprite,Foreground,Centre,"Storyboard\max.jpg",320,240 F,0,171209,175928,1,0 S,5,171209,175928,0.5
Sprite,Foreground,Centre,"Storyboard\max.jpg",320,240 P,0,171209,,A F,0,171209,175928,1,0 S,5,171209,175928,0.5
Sprite,Foreground,TopCentre,"Storyboard\pixel.png",320,0 C,0,171209,,255,255,255 V,19,171209,,870,480 F,19,171209,173232,0.25,0
Sprite,Foreground,TopCentre,"Storyboard\pixel.png",320,0 C,0,171209,,255,255,255 V,19,171209,,870,480 P,0,171209,,A F,19,171209,173232,0.25,0
Sprite,Foreground,Centre,"Storyboard\edge_lens_flare.png",320,240 L,0,2 F,18,141546,141715,0,0.5 P,0,141715,,A F,19,141715,142895,0.5,0 S,0,141715,142895,1.125
Sprite,Foreground,Centre,"Storyboard\edge_lens_flare.png",320,240 L,0,2 F,18,141546,141715,0,0.5 F,19,141715,142895,0.5,0 S,19,141715,142895,1.055,1.125
Sprite,Foreground,Centre,"Storyboard\edge_lens_flare.png",320,240 L,0,2 F,18,141546,141715,0,0.5 P,0,141715,,A F,29,141715,142895,0.5,0 S,29,141715,142895,1.15,1.055
Sprite,Foreground,Centre,"Storyboard\edge_lens_flare.png",320,240 S,0,167838,,1.125 F,18,167838,168513,0,0.5 P,0,168513,171209,A
Sprite,Foreground,Centre,"Storyboard\edge_lens_flare.png",320,240 L,0,4 F,19,168513,169187,0.5,0 S,19,168513,169187,1.055,1.15
Sprite,Foreground,Centre,"Storyboard\edge_lens_flare.png",320,240 L,0,4 P,0,168513,,A F,29,168513,169187,0.5,0 S,29,168513,169187,1.15,1.055
Sprite,Foreground,Centre,"Storyboard\edge_lens_flare.png",320,240 P,0,171209,,A F,18,171209,175928,1,0 S,19,171209,175928,1.125
Sprite,Foreground,Centre,"Storyboard\edge_lens_flare.png",320,240 F,19,171209,175928,0.5,0 S,19,171209,175928,1.075,1.3
Sprite,Foreground,Centre,"Storyboard\edge_lens_flare.png",320,240 P,0,171209,,A F,29,171209,175928,0.5,0 S,29,171209,175928,1.25,1.125
Sprite,Foreground,Centre,"Storyboard\vig.png",320,240 S,0,69580,,0.445 F,19,69580,70254,0,0.75 F,19,71434,72108,0.75,0 F,19,75310,75984,0,0.75 F,19,76827,77501,0.75,0
//Storyboard Layer 4 (Overlay)
//Storyboard Sound Samples
Sample,34187,0,"Bass.wav",40
Sample,34524,0,"Bass.wav",40
Sample,35198,0,"Bass.wav",40
Sample,36209,0,"Bass.wav",40
Sample,36546,0,"Bass.wav",40
Sample,37220,0,"Bass.wav",40
Sample,37895,0,"Bass.wav",40
Sample,38569,0,"Bass.wav",40
Sample,38906,0,"Bass.wav",40
Sample,39243,0,"Bass.wav",40
Sample,39917,0,"Bass.wav",40
Sample,40254,0,"Bass.wav",40
Sample,40591,0,"Bass.wav",40
Sample,41265,0,"Bass.wav",40
Sample,41602,0,"Bass.wav",40
Sample,42951,0,"Bass.wav",40
Sample,44636,0,"Bass.wav",40
Sample,45310,0,"Bass.wav",40
Sample,45479,0,"Hat Close1.wav",50
Sample,45647,0,"Bass.wav",40
Sample,46321,0,"Bass.wav",40
Sample,46659,0,"Bass.wav",40
Sample,46827,0,"Hat Close1.wav",50
Sample,46996,0,"Bass.wav",40
Sample,47164,0,"Hat Close1.wav",50
Sample,47333,0,"Bass.wav",40
Sample,47670,0,"Bass.wav",40
Sample,47838,0,"Hat Close1.wav",50
Sample,48007,0,"Bass.wav",40
Sample,48175,0,"Hat Close1.wav",50
Sample,48344,0,"Bass.wav",40
Sample,49355,0,"Bass.wav",40
Sample,49524,0,"Hat Close1.wav",50
Sample,49861,0,"Hat Close1.wav",50
Sample,50366,0,"Bass.wav",40
Sample,50704,0,"Bass.wav",40
Sample,51041,0,"Bass.wav",40
Sample,51209,0,"Hat Close1.wav",50
Sample,51378,0,"Bass.wav",40
Sample,52726,0,"Bass.wav",40
Sample,52895,0,"Hat Close1.wav",50
Sample,53737,0,"Bass.wav",40
Sample,55423,0,"fast-crash.wav",50
Sample,58119,0,"fast-crash.wav",50
Sample,78681,0,"Tom.wav",50
Sample,79187,0,"Tom.wav",50
Sample,79355,0,"Tom.wav",50
Sample,79524,0,"Tom.wav",50
Sample,81378,0,"Tom.wav",50
Sample,81883,0,"Tom.wav",50
Sample,82726,0,"Tom.wav",50
Sample,83400,0,"Tom.wav",50
Sample,84580,0,"Tom.wav",50
Sample,84748,0,"Tom.wav",50
Sample,84917,0,"Tom.wav",50
Sample,85423,0,"Tom.wav",50
Sample,86097,0,"Tom.wav",50
Sample,86265,0,"Tom.wav",50
Sample,86771,0,"Tom.wav",50
Sample,114748,0,"Bass.wav",40
Sample,115760,0,"Bass.wav",40
Sample,116434,0,"Bass.wav",40
Sample,116771,0,"Bass.wav",40
Sample,117108,0,"Bass.wav",40
Sample,117445,0,"Bass.wav",40
Sample,117782,0,"Bass.wav",40
Sample,118119,0,"Bass.wav",40
Sample,118456,0,"Bass.wav",40
Sample,119468,0,"Bass.wav",40
Sample,119805,0,"Bass.wav",40
Sample,120142,0,"Bass.wav",40
Sample,120479,0,"Bass.wav",40
Sample,120816,0,"Bass.wav",40
Sample,121153,0,"Bass.wav",40
Sample,121490,0,"Bass.wav",40
Sample,121827,0,"Bass.wav",40
Sample,122164,0,"Bass.wav",40
Sample,122501,0,"Bass.wav",40
Sample,122838,0,"Bass.wav",40
Sample,123175,0,"Bass.wav",40
Sample,123513,0,"Bass.wav",40
Sample,123850,0,"Bass.wav",40
Sample,124018,0,"Snare1.wav",50
Sample,141378,0,"Bass.wav",40
Sample,158737,0,"Hat Open.wav",40
Sample,159411,0,"Hat Open.wav",40
Sample,160086,0,"Hat Open.wav",40
Sample,160760,0,"Hat Open.wav",40
Sample,161434,0,"Hat Open.wav",40
Sample,162108,0,"Hat Open.wav",40
Sample,162782,0,"Hat Open.wav",40
Sample,164130,0,"Hat Open.wav",40
Sample,164805,0,"Hat Open.wav",40
Sample,165479,0,"Hat Open.wav",40
Sample,166153,0,"Hat Open.wav",40
Sample,166827,0,"Hat Open.wav",40
Sample,169187,0,"fast-crash.wav",30
Sample,169861,0,"fast-crash.wav",30
Sample,170535,0,"fast-crash.wav",30
Sample,176939,0,"break.ogg",100

[TimingPoints]
1322,337.078651685393,4,2,1,20,1,0
12108,-100,4,2,1,40,0,0
60647,-100,4,2,1,30,0,0
66041,-100,4,2,1,40,0,0
69580,-100,4,2,1,10,0,0
71434,-100,4,2,1,40,0,0
75310,-100,4,2,1,10,0,0
76827,-100,4,2,1,40,0,0
125704,-100,4,2,1,40,0,1
130591,-100,4,2,1,40,0,0
130760,-100,4,2,1,40,0,1
135479,-100,4,2,1,40,0,0
136153,-100,4,2,1,40,0,1
141546,-100,4,2,1,40,0,0
141715,-100,4,2,1,40,0,1
146939,-100,4,2,1,20,0,0
155029,-100,4,2,1,30,0,0
157726,-100,4,2,1,40,0,1
168513,-100,4,2,1,40,0,0

[HitObjects]
64,192,1322,128,0,2670:0:0:0:0:
320,192,2670,1,0,0:0:0:60:Kick1.wav
448,192,2670,128,0,3344:0:0:0:0:
192,192,3344,128,0,4018:0:0:0:0:
320,192,4018,128,0,4692:0:0:0:0:
448,192,4692,128,0,5366:0:0:0:0:
192,192,5366,128,0,5704:0:0:0:0:
64,192,5704,128,0,6041:0:0:0:0:
320,192,6041,128,0,6378:0:0:0:0:
192,192,6378,128,0,6715:0:0:0:0:
448,192,6715,128,0,8063:0:0:0:0:
64,192,8063,1,0,0:0:0:0:
192,192,8063,1,0,0:0:0:0:
320,192,8400,1,0,0:0:0:0:
192,192,8737,1,0,0:0:0:0:
320,192,9074,1,0,0:0:0:0:
320,192,9411,1,0,0:0:0:0:
64,192,9917,1,0,0:0:0:0:
448,192,10086,1,0,0:0:0:0:
192,192,10423,1,0,0:0:0:0:
192,192,10760,128,0,11771:0:0:0:0:
448,192,11434,128,0,12108:0:0:0:0:
64,192,12108,1,0,0:0:0:60:Kick1.wav
192,192,12108,1,0,0:0:0:30:fast-crash.wav
192,192,12445,1,0,0:0:0:0:
320,192,12614,1,0,0:0:0:0:
64,192,12782,1,0,0:0:0:60:Kick1.wav
192,192,12782,1,0,0:0:0:30:fast-crash.wav
192,192,13119,1,0,0:0:0:0:
320,192,13288,1,0,0:0:0:0:
64,192,13456,1,0,0:0:0:60:Kick1.wav
448,192,13456,1,0,0:0:0:30:fast-crash.wav
320,192,13793,1,0,0:0:0:0:
192,192,13962,1,0,0:0:0:0:
320,192,14130,1,0,0:0:0:60:Kick1.wav
448,192,14130,1,0,0:0:0:30:fast-crash.wav
320,192,14468,1,0,0:0:0:0:
192,192,14636,1,0,0:0:0:0:
64,192,14805,1,0,0:0:0:60:Kick1.wav
448,192,14805,1,0,0:0:0:30:fast-crash.wav
64,192,15142,1,0,0:0:0:0:
192,192,15310,1,0,0:0:0:0:
64,192,15479,1,0,0:0:0:60:Kick1.wav
320,192,15479,1,0,0:0:0:30:fast-crash.wav
192,192,15816,1,0,0:0:0:0:
320,192,15984,1,0,0:0:0:0:
192,192,16153,1,0,0:0:0:60:Kick1.wav
448,192,16153,1,0,0:0:0:30:fast-crash.wav
192,192,16490,1,0,0:0:0:0:
64,192,16659,1,0,0:0:0:0:
192,192,16827,1,0,0:0:0:60:Kick1.wav
320,192,16827,1,0,0:0:0:30:fast-crash.wav
320,192,17164,1,0,0:0:0:0:
448,192,17333,1,0,0:0:0:0:
64,192,17501,1,0,0:0:0:0:
320,192,17501,1,0,0:0:0:0:
64,192,17838,1,0,0:0:0:0:
64,192,18007,128,0,20198:0:0:0:0:
448,192,21041,128,0,21546:0:0:0:0:
320,192,21546,1,0,0:0:0:0:
320,192,22052,1,0,0:0:0:0:
448,192,22220,1,0,0:0:0:0:
192,192,22389,1,0,0:0:0:0:
320,192,22557,1,0,0:0:0:0:
64,192,22726,1,0,0:0:0:0:
192,192,22895,1,2,0:0:0:0:
448,192,22895,1,0,0:0:0:0:
64,192,23232,1,2,0:0:0:0:
192,192,23232,1,0,0:0:0:0:
320,192,23400,1,0,0:0:0:0:
192,192,23569,1,2,0:0:0:0:
320,192,23906,1,2,0:0:0:0:
448,192,23906,1,0,0:0:0:0:
192,192,24074,1,0,0:0:0:0:
320,192,24243,1,2,0:0:0:0:
64,192,24580,1,2,0:0:0:0:
448,192,24580,1,0,0:0:0:0:
192,192,24748,1,0,0:0:0:0:
320,192,24917,1,2,0:0:0:0:
64,192,25254,1,2,0:0:0:0:
192,192,25254,1,0,0:0:0:0:
320,192,25423,1,0,0:0:0:0:
448,192,25591,1,2,0:0:0:0:
64,192,25928,1,2,0:0:0:0:
192,192,25928,1,0,0:0:0:0:
320,192,26097,1,0,0:0:0:0:
192,192,26265,1,2,0:0:0:0:
320,192,26602,1,2,0:0:0:0:
448,192,26602,1,0,0:0:0:0:
192,192,26771,1,0,0:0:0:0:
320,192,26939,1,2,0:0:0:0:
64,192,27277,1,2,0:0:0:0:
448,192,27277,1,0,0:0:0:0:
192,192,27445,1,0,0:0:0:0:
320,192,27614,1,2,0:0:0:0:
64,192,27951,1,2,0:0:0:0:
192,192,27951,1,0,0:0:0:0:
320,192,28119,1,0,0:0:0:0:
64,192,28288,1,2,0:0:0:0:
448,192,28288,1,0,0:0:0:0:
192,192,28625,1,2,0:0:0:0:
320,192,28625,1,0,0:0:0:0:
64,192,28793,1,0,0:0:0:0:
192,192,28962,1,2,0:0:0:0:
64,192,29299,1,2,0:0:0:0:
192,192,29299,1,0,0:0:0:0:
320,192,29468,1,0,0:0:0:0:
448,192,29636,1,2,0:0:0:0:
64,192,29973,1,2,0:0:0:0:
448,192,29973,1,0,0:0:0:0:
192,192,30142,1,0,0:0:0:0:
64,192,30310,1,2,0:0:0:0:
192,192,30647,1,2,0:0:0:0:
448,192,30647,1,0,0:0:0:0:
320,192,30816,1,0,0:0:0:0:
448,192,30984,1,2,0:0:0:0:
192,192,31321,1,2,0:0:0:0:
320,192,31321,1,0,0:0:0:0:
64,192,31490,1,0,0:0:0:0:
192,192,31659,1,2,0:0:0:0:
64,192,31996,1,2,0:0:0:0:
192,192,31996,1,0,0:0:0:0:
320,192,32164,1,0,0:0:0:0:
448,192,32333,1,2,0:0:0:0:
64,192,32670,1,2,0:0:0:0:
448,192,32670,1,0,0:0:0:0:
192,192,32838,1,0,0:0:0:50:long cymbal.wav
64,192,33007,1,2,0:0:0:0:
192,192,33344,1,0,0:0:0:0:
448,192,33344,1,0,0:0:0:0:
320,192,33513,1,0,0:0:0:0:
448,192,33681,1,0,0:0:0:0:
64,192,34018,1,2,0:0:0:0:
192,192,34018,1,4,0:0:0:0:
320,192,34187,1,0,0:0:0:40:Hat Open.wav
192,192,34355,1,2,0:0:0:0:
448,192,34524,1,0,0:0:0:40:Hat Open.wav
320,192,34692,1,2,0:0:0:0:
64,192,35029,1,2,0:0:0:0:
192,192,35029,1,0,0:0:0:0:
320,192,35198,1,0,0:0:0:40:Hat Open.wav
192,192,35366,1,2,0:0:0:0:
320,192,35535,1,0,0:0:0:40:Hat Open.wav
448,192,35535,1,0,0:0:0:40:Bass.wav
64,192,35704,1,2,0:0:0:0:
192,192,36041,1,2,0:0:0:0:
320,192,36041,1,0,0:0:0:0:
64,192,36209,1,0,0:0:0:40:Hat Open.wav
192,192,36378,1,2,0:0:0:0:
448,192,36378,1,0,0:0:0:0:
320,192,36546,1,0,0:0:0:40:Hat Open.wav
64,192,36715,1,2,0:0:0:0:
448,192,36715,1,0,0:0:0:0:
192,192,37052,1,2,0:0:0:0:
320,192,37052,1,0,0:0:0:0:
64,192,37220,1,0,0:0:0:40:Hat Open.wav
192,192,37389,1,2,0:0:0:0:
320,192,37389,1,0,0:0:0:0:
320,192,37726,1,2,0:0:0:0:
448,192,37726,1,0,0:0:0:0:
192,192,37895,1,0,0:0:0:40:Hat Open.wav
320,192,38063,1,2,0:0:0:0:
448,192,38063,1,0,0:0:0:0:
64,192,38400,1,2,0:0:0:0:
448,192,38400,1,0,0:0:0:0:
320,192,38569,1,0,0:0:0:40:Hat Open.wav
192,192,38737,1,2,0:0:0:0:
64,192,38906,1,0,0:0:0:40:Hat Open.wav
320,192,39074,1,2,0:0:0:0:
448,192,39243,1,0,0:0:0:40:Hat Open.wav
192,192,39411,1,2,0:0:0:0:
320,192,39411,1,0,0:0:0:0:
192,192,39748,1,2,0:0:0:0:
64,192,39917,1,0,0:0:0:40:Hat Open.wav
320,192,40086,1,2,0:0:0:0:
448,192,40086,1,0,0:0:0:0:
192,192,40254,1,0,0:0:0:40:Hat Open.wav
448,192,40423,1,2,0:0:0:0:
320,192,40591,1,0,0:0:0:40:Hat Open.wav
64,192,40760,1,2,0:0:0:0:
448,192,40760,1,0,0:0:0:0:
192,192,41097,1,2,0:0:0:0:
64,192,41265,1,0,0:0:0:40:Hat Open.wav
192,192,41434,1,2,0:0:0:0:
320,192,41434,1,0,0:0:0:0:
448,192,41602,1,0,0:0:0:40:Hat Open.wav
64,192,41771,1,2,0:0:0:0:
320,192,41771,1,0,0:0:0:0:
320,192,42277,1,0,0:0:0:40:Hat Open.wav
448,192,42277,1,0,0:0:0:40:Bass.wav
64,192,42782,1,2,0:0:0:0:
448,192,42782,1,0,0:0:0:0:
192,192,42951,1,0,0:0:0:40:Hat Open.wav
320,192,43119,1,2,0:0:0:0:
448,192,43119,1,0,0:0:0:0:
64,192,43625,1,0,0:0:0:40:Hat Open.wav
448,192,43625,1,0,0:0:0:40:Bass.wav
64,192,44130,1,0,0:0:0:0:
192,192,44130,1,0,0:0:0:0:
320,192,44468,1,2,0:0:0:0:
448,192,44468,1,4,0:0:0:0:
64,192,44636,1,0,0:0:0:40:Hat Open.wav
320,192,44805,1,2,0:0:0:0:
448,192,44805,1,0,0:0:0:0:
64,192,45142,1,2,0:0:0:0:
448,192,45142,1,0,0:0:0:0:
320,192,45310,1,0,0:0:0:40:Hat Open.wav
192,192,45479,1,2,0:0:0:0:
64,192,45647,1,0,0:0:0:40:Hat Open.wav
320,192,45816,1,2,0:0:0:0:
320,192,46153,1,2,0:0:0:0:
448,192,46153,1,0,0:0:0:50:Hat Close1.wav
192,192,46321,1,0,0:0:0:40:Hat Open.wav
64,192,46490,1,2,0:0:0:0:
320,192,46659,1,0,0:0:0:40:Hat Open.wav
192,192,46827,1,2,0:0:0:0:
448,192,46996,1,0,0:0:0:40:Hat Open.wav
64,192,47164,1,2,0:0:0:0:
320,192,47333,1,0,0:0:0:40:Hat Open.wav
64,192,47501,1,2,0:0:0:0:
448,192,47501,1,0,0:0:0:50:Hat Close1.wav
192,192,47670,1,0,0:0:0:40:Hat Open.wav
64,192,47838,1,2,0:0:0:0:
320,192,48007,1,0,0:0:0:40:Hat Open.wav
192,192,48175,1,2,0:0:0:0:
448,192,48344,1,0,0:0:0:40:Hat Open.wav
64,192,48513,1,2,0:0:0:0:
320,192,48513,1,0,0:0:0:50:Hat Close1.wav
320,192,48850,1,2,0:0:0:0:
448,192,48850,1,0,0:0:0:50:Hat Close1.wav
64,192,49187,1,2,0:0:0:0:
192,192,49187,1,0,0:0:0:0:
448,192,49355,1,0,0:0:0:40:Hat Open.wav
64,192,49524,1,2,0:0:0:0:
320,192,49861,1,2,0:0:0:0:
320,192,50198,1,2,0:0:0:0:
448,192,50198,1,0,0:0:0:50:Hat Close1.wav
192,192,50366,1,0,0:0:0:40:Hat Open.wav
64,192,50535,1,2,0:0:0:0:
192,192,50704,1,0,0:0:0:40:Hat Open.wav
320,192,50872,1,2,0:0:0:0:
448,192,50872,1,0,0:0:0:50:Hat Close1.wav
64,192,51041,1,0,0:0:0:40:Hat Open.wav
192,192,51209,1,2,0:0:0:0:
320,192,51378,1,0,0:0:0:40:Hat Open.wav
64,192,51546,1,2,0:0:0:0:
448,192,51546,1,0,0:0:0:50:Hat Close1.wav
64,192,51883,1,2,0:0:0:0:
192,192,51883,1,0,0:0:0:0:
320,192,52220,1,2,0:0:0:0:
448,192,52220,1,0,0:0:0:50:Hat Close1.wav
64,192,52557,1,2,0:0:0:0:
448,192,52557,1,0,0:0:0:0:
64,192,52726,1,0,0:0:0:40:Hat Open.wav
320,192,52895,1,2,0:0:0:0:
64,192,53063,1,0,0:0:0:40:Hat Open.wav
192,192,53063,1,0,0:0:0:40:Bass.wav
192,192,53232,1,2,0:0:0:0:
320,192,53569,1,2,0:0:0:0:
448,192,53569,1,0,0:0:0:0:
320,192,53737,1,0,0:0:0:40:Hat Open.wav
64,192,53906,1,0,0:0:0:50:Tom.wav
448,192,53906,1,0,0:0:0:0:
64,192,54074,1,0,0:0:0:50:Tom.wav
192,192,54243,1,0,0:0:0:40:Hat Open.wav
320,192,54411,1,0,0:0:0:50:Tom.wav
448,192,54411,1,0,0:0:0:0:
448,192,54580,1,0,0:0:0:0:
192,192,54748,1,0,0:0:0:50:Tom.wav
320,192,54917,1,0,0:0:0:40:Hat Open.wav
192,192,55086,1,0,0:0:0:0:
64,192,55254,1,0,0:0:0:60:Kick1.wav
448,192,55254,1,0,0:0:0:50:fast-crash.wav
64,192,55423,1,2,0:0:0:0:
64,192,55760,1,2,0:0:0:0:
192,192,55760,1,0,0:0:0:50:fast-crash.wav
448,192,55928,128,0,56265:0:0:0:0:
192,192,56265,1,2,0:0:0:0:
320,192,56265,1,0,0:0:0:50:fast-crash.wav
320,192,56771,1,2,0:0:0:0:
448,192,56771,1,0,0:0:0:50:fast-crash.wav
64,192,56939,128,0,57277:0:0:0:0:
320,192,57277,128,2,57951:0:0:0:0:
448,192,57277,1,0,0:0:0:50:fast-crash.wav
64,192,57951,1,2,0:0:0:0:
192,192,57951,1,0,0:0:0:50:fast-crash.wav
64,192,58119,1,2,0:0:0:0:
320,192,58456,1,2,0:0:0:0:
448,192,58456,1,0,0:0:0:50:fast-crash.wav
64,192,58625,128,0,58962:0:0:0:0:
192,192,58962,1,2,0:0:0:0:
320,192,58962,1,0,0:0:0:50:fast-crash.wav
64,192,59468,1,2,0:0:0:0:
192,192,59468,1,0,0:0:0:50:fast-crash.wav
448,192,59636,128,0,59973:0:0:0:0:
64,192,59973,128,0,60647:0:0:0:0:
192,192,60142,128,0,60647:0:0:0:0:
320,192,60647,1,2,0:0:0:0:
448,192,60647,1,0,0:0:0:0:
320,192,60816,1,0,0:0:0:0:
320,192,61153,128,0,61659:0:0:0:0:
448,192,61659,128,0,61996:0:0:0:0:
192,192,61996,128,0,62333:0:0:0:0:
320,192,62333,128,0,62670:0:0:0:0:
64,192,62670,128,0,63007:0:0:0:0:
192,192,63007,128,0,63344:0:0:0:0:
448,192,63344,1,0,0:0:0:0:
320,192,63513,1,0,0:0:0:0:
192,192,63681,1,0,0:0:0:0:
448,192,63850,1,0,0:0:0:0:
320,192,64018,1,0,0:0:0:0:
64,192,64187,1,0,0:0:0:0:
448,192,64355,1,0,0:0:0:0:
192,192,64524,1,0,0:0:0:0:
64,192,64692,1,0,0:0:0:0:
320,192,64861,1,0,0:0:0:0:
192,192,65029,1,0,0:0:0:0:
64,192,65198,1,0,0:0:0:0:
320,192,65366,128,0,66041:0:0:0:0:
64,192,66041,128,0,66378:0:0:0:30:Hat Close2.wav
448,192,66041,1,0,0:0:0:50:Tom.wav
320,192,66546,1,0,0:0:0:50:Hat Close1.wav
448,192,66546,128,0,66883:0:0:0:50:Tom.wav
64,192,67052,1,0,0:0:0:50:Hat Close1.wav
192,192,67052,128,0,67389:0:0:0:0:
320,192,67389,128,0,67726:0:0:0:50:Hat Close1.wav
448,192,67389,1,0,0:0:0:50:Tom.wav
64,192,67895,128,0,68232:0:0:0:50:Hat Close1.wav
320,192,67895,1,0,0:0:0:50:Tom.wav
192,192,68400,1,0,0:0:0:50:Hat Close1.wav
448,192,68400,128,0,68737:0:0:0:0:
192,192,68737,128,0,69074:0:0:0:50:Hat Close1.wav
320,192,68737,1,0,0:0:0:50:Tom.wav
64,192,69243,1,0,0:0:0:50:Hat Close1.wav
320,192,69243,128,0,69580:0:0:0:50:Tom.wav
448,192,69580,1,0,0:0:0:50:SCG_F6.ogg
192,192,69748,1,0,0:0:0:50:SCG_A5.ogg
320,192,69917,1,0,0:0:0:50:SCG_G5.ogg
64,192,70086,1,0,0:0:0:0:
448,192,70254,1,0,0:0:0:50:SCG_E5.ogg
320,192,70423,1,0,0:0:0:50:SCG_C6.ogg
192,192,70591,1,0,0:0:0:50:SCG_C5.ogg
448,192,70760,1,0,0:0:0:50:SCG_A5.ogg
192,192,70928,1,0,0:0:0:50:SCG_A4.ogg
64,192,71097,1,0,0:0:0:50:SCG_E5.ogg
320,192,71265,1,0,0:0:0:0:
64,192,71434,1,0,0:0:0:50:Tom.wav
448,192,71434,128,0,71771:0:0:0:0:
64,192,71939,128,0,72277:0:0:0:50:Hat Close1.wav
192,192,71939,1,0,0:0:0:50:Tom.wav
320,192,72445,128,0,72782:0:0:0:50:Hat Close1.wav
448,192,72445,1,0,0:0:0:0:
64,192,72782,1,0,0:0:0:50:Hat Close1.wav
192,192,72782,128,0,73119:0:0:0:50:Tom.wav
192,192,73288,1,0,0:0:0:50:Hat Close1.wav
448,192,73288,128,0,73625:0:0:0:50:Tom.wav
64,192,73793,128,0,74130:0:0:0:50:Hat Close1.wav
320,192,73793,1,0,0:0:0:0:
192,192,74130,1,0,0:0:0:50:Hat Close1.wav
320,192,74130,128,0,74468:0:0:0:50:Tom.wav
192,192,74636,128,0,74973:0:0:0:50:Tom.wav
448,192,74636,1,0,0:0:0:0:
64,192,75142,128,0,75479:0:0:0:0:
192,192,75142,1,0,0:0:0:0:
448,192,75310,1,0,0:0:0:50:SCG_D6.ogg
320,192,75479,1,0,0:0:0:50:SCG_C#6.ogg
192,192,75647,1,0,0:0:0:0:
64,192,75816,1,0,0:0:0:0:
320,192,75984,1,0,0:0:0:50:long cymbal.wav
448,192,76153,1,0,0:0:0:0:
192,192,76321,1,0,0:0:0:0:
320,192,76490,1,0,0:0:0:0:
64,192,76659,1,0,0:0:0:0:
192,192,76827,1,2,0:0:0:0:
448,192,76827,1,0,0:0:0:50:Tom.wav
64,192,77164,128,0,77333:0:0:0:50:Tom.wav
192,192,77164,1,0,0:0:0:0:
448,192,77333,128,0,77501:0:0:0:50:Tom.wav
320,192,77501,1,0,0:0:0:50:Tom.wav
64,192,77838,1,0,0:0:0:50:Hat Close1.wav
192,192,77838,128,0,78007:0:0:0:50:Tom.wav
448,192,78007,128,0,78175:0:0:0:50:Tom.wav
320,192,78175,1,0,0:0:0:50:Tom.wav
64,192,78513,1,0,0:0:0:50:Tom.wav
320,192,78513,128,0,78681:0:0:0:0:
448,192,78681,128,0,78850:0:0:0:50:Hat Close1.wav
320,192,78850,128,0,79018:0:0:0:50:Tom.wav
192,192,79018,128,0,79187:0:0:0:50:Tom.wav
64,192,79187,128,0,79355:0:0:0:50:Hat Close1.wav
192,192,79355,128,0,79524:0:0:0:50:Hat Close1.wav
448,192,79524,1,0,0:0:0:50:Hat Close1.wav
64,192,79861,128,0,80029:0:0:0:50:Tom.wav
192,192,79861,1,0,0:0:0:0:
448,192,80029,128,0,80198:0:0:0:50:Tom.wav
320,192,80198,1,0,0:0:0:50:Tom.wav
64,192,80535,1,0,0:0:0:50:Hat Close1.wav
192,192,80535,128,0,80704:0:0:0:50:Tom.wav
448,192,80704,128,0,80872:0:0:0:50:Tom.wav
320,192,80872,1,0,0:0:0:50:Tom.wav
64,192,81209,1,0,0:0:0:50:Tom.wav
320,192,81209,128,0,81378:0:0:0:0:
448,192,81378,128,0,81546:0:0:0:50:Hat Close1.wav
320,192,81546,128,0,81715:0:0:0:50:Tom.wav
192,192,81715,128,0,81883:0:0:0:50:Tom.wav
64,192,81883,128,0,82052:0:0:0:50:Hat Close1.wav
192,192,82052,128,0,82220:0:0:0:50:Tom.wav
320,192,82220,1,2,0:0:0:0:
448,192,82220,1,0,0:0:0:50:Tom.wav
320,192,82557,128,0,82726:0:0:0:50:Tom.wav
448,192,82557,1,0,0:0:0:0:
64,192,82726,128,0,82895:0:0:0:50:Hat Close1.wav
192,192,82895,1,0,0:0:0:50:Tom.wav
320,192,83232,128,0,83400:0:0:0:50:Hat Close1.wav
448,192,83232,1,0,0:0:0:50:Tom.wav
192,192,83400,128,0,83569:0:0:0:50:Hat Close1.wav
64,192,83569,1,0,0:0:0:50:Tom.wav
320,192,83906,1,0,0:0:0:50:Hat Close1.wav
448,192,83906,128,0,84074:0:0:0:50:Tom.wav
192,192,84074,128,0,84243:0:0:0:50:Tom.wav
448,192,84243,128,0,84411:0:0:0:50:Tom.wav
64,192,84411,128,0,84580:0:0:0:50:Tom.wav
320,192,84580,128,0,84748:0:0:0:50:Hat Close1.wav
64,192,84748,128,0,84917:0:0:0:50:Hat Close1.wav
192,192,84917,1,0,0:0:0:50:Hat Close1.wav
320,192,85254,128,0,85423:0:0:0:50:Tom.wav
448,192,85254,1,0,0:0:0:0:
64,192,85423,128,0,85591:0:0:0:50:Hat Close1.wav
192,192,85591,1,0,0:0:0:50:Tom.wav
320,192,85928,128,0,86097:0:0:0:50:Hat Close1.wav
448,192,85928,1,0,0:0:0:50:Tom.wav
192,192,86097,128,0,86265:0:0:0:50:Hat Close1.wav
64,192,86265,1,0,0:0:0:50:Hat Close1.wav
64,192,86602,1,0,0:0:0:50:Hat Close1.wav
448,192,86602,128,0,86771:0:0:0:50:Tom.wav
192,192,86771,128,0,86939:0:0:0:50:Hat Close1.wav
320,192,86939,128,0,87108:0:0:0:50:Tom.wav
64,192,87108,128,0,87277:0:0:0:50:Tom.wav
320,192,87277,1,0,0:0:0:60:Snare1.wav
448,192,87277,1,0,0:0:0:0:
64,192,87614,1,2,0:0:0:0:
192,192,87614,1,0,0:0:0:0:
192,192,87782,1,0,0:0:0:0:
320,192,87866,1,0,0:0:0:0:
192,192,88035,1,0,0:0:0:0:
320,192,88119,1,0,0:0:0:0:
192,192,88456,1,0,0:0:0:0:
320,192,88541,1,0,0:0:0:0:
192,192,88709,1,0,0:0:0:0:
320,192,88793,1,0,0:0:0:0:
320,192,89130,1,0,0:0:0:0:
448,192,89215,1,0,0:0:0:0:
320,192,89383,1,0,0:0:0:0:
448,192,89468,1,0,0:0:0:0:
192,192,89636,1,0,0:0:0:0:
64,192,89805,1,0,0:0:0:0:
320,192,89973,1,0,0:0:0:0:
192,192,90142,1,0,0:0:0:0:
448,192,90310,128,0,90647:0:0:0:0:
320,192,90647,128,0,90984:0:0:0:0:
192,192,90984,128,0,91321:0:0:0:0:
64,192,91321,128,0,91659:0:0:0:0:
320,192,91659,1,0,0:0:0:0:
448,192,91827,1,0,0:0:0:0:
320,192,91996,1,0,0:0:0:0:
192,192,92164,1,0,0:0:0:0:
448,192,92333,1,0,0:0:0:0:
320,192,92501,1,0,0:0:0:0:
192,192,92670,1,0,0:0:0:0:
64,192,92838,1,0,0:0:0:0:
448,192,93007,1,0,0:0:0:0:
192,192,93175,1,0,0:0:0:0:
320,192,93260,1,0,0:0:0:0:
192,192,93428,1,0,0:0:0:0:
320,192,93513,1,0,0:0:0:0:
64,192,93850,1,0,0:0:0:0:
320,192,93934,1,0,0:0:0:0:
64,192,94102,1,0,0:0:0:0:
320,192,94187,1,0,0:0:0:0:
192,192,94524,1,0,0:0:0:0:
448,192,94608,1,0,0:0:0:0:
192,192,94777,1,0,0:0:0:0:
448,192,94861,1,0,0:0:0:0:
64,192,95198,128,0,95366:0:0:0:0:
192,192,95366,128,0,95535:0:0:0:0:
320,192,95535,128,0,95704:0:0:0:0:
448,192,95704,128,0,96041:0:0:0:0:
64,192,95872,1,0,0:0:0:0:
192,192,96041,128,0,96209:0:0:0:0:
448,192,96209,1,0,0:0:0:0:
320,192,96378,128,0,96715:0:0:0:0:
64,192,96715,128,0,96883:0:0:0:0:
448,192,96883,128,0,97052:0:0:0:0:
192,192,97052,128,0,97389:0:0:0:0:
320,192,97220,1,0,0:0:0:0:
64,192,97389,128,0,97557:0:0:0:0:
192,192,97726,128,0,97895:0:0:0:0:
64,192,97895,128,0,98063:0:0:0:0:
320,192,98063,128,0,98232:0:0:0:0:
192,192,98232,128,0,98400:0:0:0:0:
64,192,98400,1,2,0:0:0:0:
448,192,98400,1,0,0:0:0:35:Snare1.wav
320,192,98737,1,0,0:0:0:35:Snare1.wav
448,192,98737,1,0,0:0:0:0:
64,192,99074,1,0,0:0:0:35:Snare1.wav
320,192,99074,1,0,0:0:0:0:
192,192,99411,1,0,0:0:0:35:Snare1.wav
448,192,99411,1,0,0:0:0:0:
64,192,99748,1,0,0:0:0:35:Snare1.wav
192,192,99748,1,0,0:0:0:0:
320,192,100086,1,0,0:0:0:35:Snare1.wav
448,192,100086,1,0,0:0:0:0:
64,192,100423,1,0,0:0:0:35:Snare1.wav
448,192,100423,1,0,0:0:0:0:
64,192,100760,1,0,0:0:0:35:Snare1.wav
192,192,100760,1,0,0:0:0:0:
320,192,101097,1,0,0:0:0:25:Snare1.wav
448,192,101097,1,0,0:0:0:0:
192,192,101265,1,0,0:0:0:25:Snare1.wav
320,192,101434,1,0,0:0:0:25:Snare1.wav
64,192,101602,1,0,0:0:0:25:Snare1.wav
448,192,101771,128,0,101939:0:0:0:20:Snare1.wav
320,192,101939,128,0,102108:0:0:0:20:Snare1.wav
192,192,102108,128,0,102277:0:0:0:20:Snare1.wav
64,192,102277,128,0,102445:0:0:0:20:Snare1.wav
448,192,103119,128,0,103793:0:0:0:0:
320,192,103793,1,0,0:0:0:0:
64,192,103962,1,0,0:0:0:0:
192,192,103962,1,0,0:0:0:0:
320,192,104299,1,0,0:0:0:0:
448,192,104299,1,0,0:0:0:0:
320,192,104636,1,0,0:0:0:0:
192,192,104805,1,0,0:0:0:0:
64,192,104973,1,0,0:0:0:0:
448,192,105142,1,0,0:0:0:0:
192,192,105310,1,0,0:0:0:0:
64,192,105479,1,0,0:0:0:0:
448,192,105647,1,0,0:0:0:0:
320,192,105816,1,0,0:0:0:0:
64,192,105984,1,0,0:0:0:0:
448,192,106153,1,0,0:0:0:0:
320,192,106321,1,0,0:0:0:0:
64,192,106490,1,0,0:0:0:60:Kick1.wav
192,192,106490,1,0,0:0:0:0:
192,192,106827,1,0,0:0:0:60:Kick1.wav
192,192,107164,1,0,0:0:0:60:Kick1.wav
320,192,107333,1,0,0:0:0:0:
192,192,107501,1,0,0:0:0:60:Kick1.wav
448,192,107670,1,0,0:0:0:0:
320,192,107838,1,0,0:0:0:60:Kick1.wav
192,192,108007,1,0,0:0:0:0:
64,192,108175,1,0,0:0:0:60:Kick1.wav
320,192,108344,1,0,0:0:0:0:
448,192,108513,1,0,0:0:0:60:Kick1.wav
192,192,108681,1,0,0:0:0:0:
320,192,108850,1,0,0:0:0:0:
64,192,109018,1,0,0:0:0:0:
192,192,109187,1,2,0:0:0:0:
448,192,109187,1,0,0:0:0:0:
448,192,109439,1,0,0:0:0:40:Bass.wav
64,192,109524,1,2,0:0:0:0:
320,192,109692,1,0,0:0:0:40:Bass.wav
64,192,109861,1,2,0:0:0:0:
448,192,109945,1,0,0:0:0:40:Bass.wav
192,192,110198,1,2,0:0:0:0:
320,192,110366,1,0,0:0:0:40:Bass.wav
448,192,110535,1,2,0:0:0:0:
192,192,110704,1,0,0:0:0:40:Bass.wav
64,192,110872,1,2,0:0:0:0:
320,192,111041,1,0,0:0:0:40:Bass.wav
192,192,111209,1,2,0:0:0:0:
448,192,111378,1,0,0:0:0:40:Bass.wav
320,192,111546,1,2,0:0:0:0:
192,192,111715,1,0,0:0:0:40:Bass.wav
64,192,111883,1,2,0:0:0:0:
448,192,111883,1,0,0:0:0:0:
320,192,112052,1,0,0:0:0:40:Bass.wav
448,192,112220,1,2,0:0:0:0:
320,192,112389,1,0,0:0:0:40:Bass.wav
64,192,112557,1,2,0:0:0:0:
192,192,112726,1,0,0:0:0:40:Bass.wav
448,192,112895,1,2,0:0:0:0:
192,192,113063,1,0,0:0:0:40:Bass.wav
320,192,113232,1,2,0:0:0:0:
64,192,113400,1,0,0:0:0:40:Bass.wav
192,192,113569,1,2,0:0:0:0:
64,192,113737,1,0,0:0:0:40:Bass.wav
320,192,113906,1,2,0:0:0:0:
448,192,114074,1,0,0:0:0:40:Bass.wav
192,192,114243,1,0,0:0:0:0:
448,192,114411,1,0,0:0:0:40:Bass.wav
64,192,114580,1,4,0:0:0:0:
192,192,114580,1,2,0:0:0:0:
320,192,114748,1,0,0:0:0:40:Hat Open.wav
448,192,114917,1,2,0:0:0:0:
64,192,115001,1,0,0:0:0:40:Bass.wav
320,192,115254,1,2,0:0:0:0:
64,192,115507,1,0,0:0:0:40:Bass.wav
448,192,115591,1,2,0:0:0:0:
320,192,115760,1,0,0:0:0:40:Hat Open.wav
192,192,115928,1,2,0:0:0:0:
64,192,116181,1,0,0:0:0:40:Bass.wav
448,192,116265,1,2,0:0:0:0:
320,192,116434,1,0,0:0:0:40:Hat Open.wav
448,192,116602,1,2,0:0:0:0:
192,192,116771,1,0,0:0:0:40:Hat Open.wav
320,192,116939,1,2,0:0:0:0:
64,192,117108,1,0,0:0:0:40:Hat Open.wav
192,192,117277,1,2,0:0:0:0:
64,192,117445,1,0,0:0:0:40:Hat Open.wav
448,192,117614,1,2,0:0:0:0:
448,192,117782,1,0,0:0:0:40:Hat Open.wav
64,192,117951,1,2,0:0:0:0:
320,192,118119,1,0,0:0:0:40:Hat Open.wav
192,192,118288,1,2,0:0:0:0:
448,192,118456,1,0,0:0:0:40:Hat Open.wav
320,192,118625,128,2,118962:0:0:0:0:
64,192,118962,128,2,119299:0:0:0:0:
448,192,119299,1,2,0:0:0:0:
192,192,119468,1,0,0:0:0:40:Hat Open.wav
320,192,119636,1,2,0:0:0:0:
64,192,119805,1,0,0:0:0:40:Hat Open.wav
192,192,119973,1,2,0:0:0:0:
448,192,120142,1,0,0:0:0:40:Hat Open.wav
64,192,120310,1,2,0:0:0:0:
192,192,120479,1,0,0:0:0:40:Hat Open.wav
448,192,120647,1,2,0:0:0:0:
64,192,120816,1,0,0:0:0:40:Hat Open.wav
320,192,120984,1,2,0:0:0:0:
192,192,121153,1,0,0:0:0:40:Hat Open.wav
448,192,121321,1,2,0:0:0:0:
320,192,121490,1,0,0:0:0:40:Hat Open.wav
192,192,121659,1,2,0:0:0:0:
64,192,121827,1,0,0:0:0:40:Hat Open.wav
320,192,121996,1,2,0:0:0:0:
448,192,122164,1,0,0:0:0:40:Hat Open.wav
64,192,122333,1,2,0:0:0:0:
192,192,122501,1,0,0:0:0:40:Hat Open.wav
448,192,122670,1,2,0:0:0:0:
320,192,122838,1,0,0:0:0:40:Hat Open.wav
192,192,123007,1,2,0:0:0:0:
448,192,123175,1,0,0:0:0:40:Hat Open.wav
320,192,123344,1,2,0:0:0:0:
64,192,123513,1,0,0:0:0:40:Hat Open.wav
448,192,123681,1,2,0:0:0:0:
192,192,123850,1,0,0:0:0:40:Hat Open.wav
64,192,124018,1,2,0:0:0:0:
320,192,124187,1,0,0:0:0:40:Bass.wav
192,192,124355,1,0,0:0:0:35:Snare2.wav
64,192,124524,1,0,0:0:0:0:
320,192,124692,1,0,0:0:0:0:
448,192,124861,1,0,0:0:0:35:Snare1.wav
192,192,125029,1,0,0:0:0:0:
320,192,125198,1,0,0:0:0:0:
64,192,125366,128,0,125704:0:0:0:0:
320,192,125704,1,2,0:0:0:0:
448,192,125704,1,0,0:0:0:0:
192,192,125872,1,0,0:0:0:40:Bass.wav
320,192,126041,1,2,0:0:0:0:
64,192,126209,1,0,0:0:0:40:Bass.wav
192,192,126378,1,2,0:0:0:0:
320,192,126546,1,0,0:0:0:40:Bass.wav
448,192,126715,1,2,0:0:0:0:
192,192,126883,1,0,0:0:0:40:Bass.wav
64,192,127052,1,2,0:0:0:0:
448,192,127220,1,0,0:0:0:40:Bass.wav
320,192,127389,1,2,0:0:0:0:
64,192,127557,1,0,0:0:0:40:Bass.wav
320,192,127726,1,2,0:0:0:0:
192,192,127895,1,0,0:0:0:40:Bass.wav
448,192,128063,1,2,0:0:0:0:
192,192,128232,1,0,0:0:0:40:Bass.wav
64,192,128400,1,2,0:0:0:0:
192,192,128569,1,0,0:0:0:40:Bass.wav
320,192,128737,1,2,0:0:0:0:
64,192,128906,1,0,0:0:0:40:Bass.wav
320,192,129074,1,2,0:0:0:0:
448,192,129243,1,0,0:0:0:40:Bass.wav
192,192,129411,1,2,0:0:0:0:
320,192,129580,1,0,0:0:0:40:Bass.wav
64,192,129748,1,2,0:0:0:0:
192,192,129917,1,0,0:0:0:40:Bass.wav
448,192,130086,1,0,0:0:0:60:Kick1.wav
320,192,130254,1,0,0:0:0:40:Bass.wav
192,192,130423,1,0,0:0:0:0:
64,192,130591,1,0,0:0:0:40:Bass.wav
320,192,130760,1,2,0:0:0:0:
448,192,130760,1,0,0:0:0:0:
448,192,131097,128,0,131265:0:0:0:0:
64,192,131265,128,0,131434:0:0:0:0:
192,192,131434,1,2,0:0:0:0:
448,192,131602,1,0,0:0:0:0:
320,192,131771,1,0,0:0:0:0:
448,192,131939,1,0,0:0:0:0:
192,192,132108,1,2,0:0:0:0:
64,192,132277,1,0,0:0:0:0:
320,192,132445,1,0,0:0:0:0:
64,192,132614,1,0,0:0:0:0:
192,192,132782,1,2,0:0:0:0:
448,192,132951,128,0,133119:0:0:0:0:
320,192,133119,128,0,133288:0:0:0:0:
192,192,133288,128,0,133456:0:0:0:0:
64,192,133456,128,0,133793:0:0:0:0:
448,192,133625,1,0,0:0:0:0:
320,192,133793,128,2,133962:0:0:0:0:
64,192,133962,1,2,0:0:0:0:
192,192,134130,128,0,134468:0:0:0:45:Snare2.wav
448,192,134468,128,0,134636:0:0:0:0:
64,192,134636,128,2,134805:0:0:0:0:
320,192,134805,128,0,135142:0:0:0:0:
192,192,134973,1,2,0:0:0:0:
448,192,135142,128,0,135310:0:0:0:0:
320,192,135479,128,0,135647:0:0:0:40:Snare2.wav
64,192,135647,128,2,135816:0:0:0:0:
448,192,135816,128,0,135984:0:0:0:50:Tom.wav
192,192,135984,128,0,136153:0:0:0:50:Tom.wav
64,192,136153,1,2,0:0:0:0:
448,192,136153,1,0,0:0:0:0:
320,192,136321,1,0,0:0:0:0:
192,192,136490,1,2,0:0:0:0:
448,192,136659,1,0,0:0:0:40:Bass.wav
320,192,136827,1,2,0:0:0:0:
64,192,136996,1,0,0:0:0:40:Bass.wav
448,192,137164,1,2,0:0:0:0:
192,192,137333,1,0,0:0:0:40:Bass.wav
320,192,137501,1,2,0:0:0:0:
64,192,137670,1,0,0:0:0:40:Bass.wav
448,192,137838,1,2,0:0:0:0:
192,192,138007,1,0,0:0:0:40:Bass.wav
64,192,138175,1,2,0:0:0:0:
320,192,138344,1,0,0:0:0:40:Bass.wav
192,192,138513,1,2,0:0:0:0:
448,192,138681,1,0,0:0:0:40:Bass.wav
320,192,138850,1,2,0:0:0:0:
64,192,139018,1,0,0:0:0:40:Bass.wav
192,192,139187,1,2,0:0:0:0:
320,192,139355,1,0,0:0:0:40:Bass.wav
64,192,139524,1,2,0:0:0:0:
448,192,139692,1,0,0:0:0:40:Bass.wav
192,192,139861,1,2,0:0:0:0:
320,192,140029,1,0,0:0:0:40:Bass.wav
448,192,140198,1,2,0:0:0:0:
192,192,140366,1,0,0:0:0:40:Bass.wav
64,192,140535,1,2,0:0:0:0:
320,192,140704,1,0,0:0:0:40:Bass.wav
64,192,140872,1,2,0:0:0:0:
448,192,141041,1,0,0:0:0:40:Bass.wav
192,192,141209,1,2,0:0:0:0:
64,192,141378,1,2,0:0:0:0:
192,192,141546,1,2,0:0:0:0:
320,192,141546,1,0,0:0:0:0:
448,192,141715,128,0,141883:0:0:0:0:
64,192,141883,128,0,142052:0:0:0:0:
320,192,142052,1,2,0:0:0:0:
320,192,142220,128,0,142557:0:0:0:0:
64,192,142557,1,0,0:0:0:0:
320,192,142895,1,2,0:0:0:0:
448,192,142895,1,0,0:0:0:0:
64,192,143063,128,0,143232:0:0:0:0:
448,192,143232,128,0,143400:0:0:0:0:
192,192,143400,1,2,0:0:0:0:
192,192,143569,128,0,143906:0:0:0:0:
320,192,143906,1,0,0:0:0:40:Snare2.wav
64,192,144074,1,2,0:0:0:0:
320,192,144243,1,2,0:0:0:30:soft-hitwhistle.wav
448,192,144411,1,0,0:0:0:0:
320,192,144580,1,0,0:0:0:0:
192,192,144748,1,2,0:0:0:30:soft-hitwhistle.wav
64,192,144917,1,0,0:0:0:40:Snare2.wav
192,192,145086,1,0,0:0:0:0:
448,192,145254,1,0,0:0:0:0:
320,192,145423,1,2,0:0:0:30:soft-hitwhistle.wav
192,192,145591,1,0,0:0:0:0:
448,192,145760,1,2,0:0:0:30:soft-hitwhistle.wav
192,192,145928,1,0,0:0:0:0:
64,192,146097,1,2,0:0:0:30:soft-hitwhistle.wav
320,192,146265,1,0,0:0:0:40:Snare2.wav
192,192,146434,1,0,0:0:0:0:
448,192,146602,1,0,0:0:0:0:
320,192,146771,1,0,0:0:0:0:
64,192,146939,128,2,147614:0:0:0:0:
320,192,147614,128,0,148288:0:0:0:0:
192,192,148288,128,0,148962:0:0:0:0:
448,192,148962,128,0,149636:0:0:0:0:
64,192,149636,128,0,149973:0:0:0:0:
192,192,149973,128,0,150310:0:0:0:0:
320,192,150310,128,0,150647:0:0:0:0:
448,192,150647,128,0,150984:0:0:0:0:
192,192,150984,128,0,151490:0:0:0:0:
320,192,151659,128,0,152333:0:0:0:0:
64,192,152333,1,0,0:0:0:0:
192,192,152670,128,0,153007:0:0:0:0:
64,192,153007,128,0,153344:0:0:0:0:
448,192,153344,128,0,153681:0:0:0:0:
320,192,153681,128,0,154355:0:0:0:0:
64,192,154355,128,0,155029:0:0:0:0:
192,192,155029,1,0,0:0:0:0:
448,192,155029,128,0,155704:0:0:0:0:
192,192,155198,1,0,0:0:0:0:
192,192,155535,1,0,0:0:0:0:
192,192,155704,1,0,0:0:0:0:
64,192,156041,128,0,156209:0:0:0:0:
448,192,156041,1,0,0:0:0:0:
448,192,156209,1,0,0:0:0:0:
320,192,156378,128,0,156715:0:0:0:0:
64,192,156546,1,0,0:0:0:0:
64,192,156715,1,0,0:0:0:0:
192,192,157052,128,0,157726:0:0:0:0:
320,192,157726,1,2,0:0:0:0:
448,192,157726,128,0,158063:0:0:0:0:
64,192,158063,1,2,0:0:0:0:
192,192,158063,1,0,0:0:0:0:
320,192,158232,1,0,0:0:0:0:
64,192,158400,1,2,0:0:0:0:
320,192,158569,1,0,0:0:0:0:
192,192,158737,1,2,0:0:0:0:
320,192,158906,1,0,0:0:0:0:
192,192,159074,1,2,0:0:0:0:
448,192,159243,1,0,0:0:0:0:
64,192,159411,1,2,0:0:0:0:
448,192,159580,1,0,0:0:0:0:
64,192,159748,1,2,0:0:0:0:
320,192,159917,1,0,0:0:0:0:
64,192,160086,1,2,0:0:0:0:
192,192,160254,1,0,0:0:0:0:
448,192,160423,128,2,160591:0:0:0:0:
64,192,160591,1,0,0:0:0:0:
320,192,160760,128,2,160928:0:0:0:0:
448,192,160928,1,0,0:0:0:0:
192,192,161097,128,2,161265:0:0:0:0:
320,192,161265,1,0,0:0:0:0:
64,192,161434,128,2,161602:0:0:0:0:
192,192,161602,1,0,0:0:0:0:
448,192,161771,1,2,0:0:0:0:
320,192,161939,1,0,0:0:0:0:
192,192,162108,1,2,0:0:0:0:
64,192,162277,1,0,0:0:0:0:
320,192,162445,1,2,0:0:0:0:
448,192,162614,1,0,0:0:0:0:
192,192,162782,1,2,0:0:0:0:
320,192,162951,1,0,0:0:0:0:
64,192,163119,128,2,163456:0:0:0:0:
320,192,163456,1,2,0:0:0:0:
448,192,163456,1,0,0:0:0:0:
192,192,163625,1,0,0:0:0:0:
320,192,163793,1,2,0:0:0:0:
448,192,164130,1,2,0:0:0:0:
320,192,164299,1,0,0:0:0:0:
192,192,164468,1,2,0:0:0:0:
64,192,164636,1,0,0:0:0:40:Hat Open.wav
320,192,164805,1,2,0:0:0:0:
448,192,164973,1,0,0:0:0:0:
192,192,165142,1,2,0:0:0:0:
320,192,165310,1,0,0:0:0:40:Hat Open.wav
64,192,165479,1,2,0:0:0:0:
192,192,165647,1,0,0:0:0:0:
448,192,165816,128,2,165984:0:0:0:0:
64,192,165984,1,0,0:0:0:40:Hat Open.wav
320,192,166153,1,2,0:0:0:0:
64,192,166321,128,0,166490:0:0:0:0:
192,192,166490,1,2,0:0:0:0:
64,192,166659,128,0,166827:0:0:0:40:Hat Open.wav
448,192,166827,1,2,0:0:0:0:
192,192,166996,1,0,0:0:0:0:
320,192,167164,128,0,167333:0:0:0:0:
64,192,167501,128,0,167670:0:0:0:0:
448,192,167670,128,0,168513:0:0:0:0:
64,192,168513,1,0,0:0:0:60:Kick1.wav
192,192,168513,1,0,0:0:0:30:fast-crash.wav
64,192,168850,128,0,169018:0:0:0:0:
320,192,168850,1,0,0:0:0:0:
448,192,169018,128,0,169187:0:0:0:0:
192,192,169187,1,0,0:0:0:60:Kick1.wav
192,192,169524,128,0,169692:0:0:0:0:
320,192,169524,1,0,0:0:0:0:
448,192,169692,128,0,169861:0:0:0:0:
64,192,169861,1,0,0:0:0:60:Kick1.wav
64,192,170198,128,0,170366:0:0:0:0:
448,192,170198,1,0,0:0:0:0:
320,192,170366,128,0,170535:0:0:0:0:
192,192,170535,1,0,0:0:0:60:Kick1.wav
64,192,170872,128,0,171041:0:0:0:0:
320,192,170872,1,0,0:0:0:0:
448,192,171041,128,0,171209:0:0:0:0:
64,192,171209,128,4,175928:0:0:0:0:
192,192,171209,128,0,175928:0:0:0:60:Kick1.wav
