osu file format v14

[General]
AudioFilename: audio.mp3
AudioLeadIn: 0
PreviewTime: -1
Countdown: 0
SampleSet: None
StackLeniency: 0.7
Mode: 2
LetterboxInBreaks: 0
WidescreenStoryboard: 1

[Editor]
DistanceSpacing: 0.8
BeatDivisor: 4
GridSize: 4
TimelineZoom: 2.699999

[Metadata]
Title:World Vanquisher
TitleUnicode:World Vanquisher
Artist:void (Mournfinale)
ArtistUnicode:void (Mournfinale)
Creator:-Ken
Version:Salchow's Overdose
Source:CHUNITHM STAR
Tags:maimai ultimate catch mapping contest 3 III
BeatmapID:1800804
BeatmapSetID:860334

[Difficulty]
HPDrainRate:6
CircleSize:4.3
OverallDifficulty:9.5
ApproachRate:9.5
SliderMultiplier:2
SliderTickRate:2

[Events]
//Background and Video events
0,0,"58505184_p0.jpg",0,0
//Break Periods
//Storyboard Layer 0 (Background)
//Storyboard Layer 1 (Fail)
//Storyboard Layer 2 (Pass)
//Storyboard Layer 3 (Foreground)
//Storyboard Sound Samples

[TimingPoints]
580,352.941176470588,4,1,1,60,1,0
13285,-100,4,1,1,85,0,0
23697,-100,4,1,1,75,0,0
24227,-100,4,1,1,60,0,0
24579,-71.4285714285714,4,1,1,75,0,1
35874,-71.4285714285714,4,1,1,75,0,0
44168,-71.4285714285714,4,1,1,45,0,0
44344,-71.4285714285714,4,1,1,75,0,0
44521,-71.4285714285714,4,1,1,45,0,0
44697,-71.4285714285714,4,1,1,75,0,0
44874,-71.4285714285714,4,1,1,45,0,0
45050,-71.4285714285714,4,1,1,75,0,0
45227,-71.4285714285714,4,1,1,45,0,0
45403,-71.4285714285714,4,1,1,75,0,0
45756,-55.5555555555556,4,1,1,55,0,0
47168,-55.5555555555556,4,1,1,70,0,0
47874,-71.4285714285714,4,1,1,70,0,0
51403,-71.4285714285714,4,1,1,50,0,0
52109,-71.4285714285714,4,1,1,70,0,0
55991,-71.4285714285714,4,1,1,80,0,0
56609,-71.4285714285714,4,1,1,70,0,0
56697,-71.4285714285714,4,1,1,80,0,0
57050,-71.4285714285714,4,1,1,90,0,0
57756,-71.4285714285714,4,1,1,80,0,0
58109,-71.4285714285714,4,1,1,60,0,0
58462,-222.222222222221,4,1,1,55,0,0
69756,-71.4285714285714,4,1,1,65,0,0
70285,-133.333333333333,4,1,1,75,0,0
79285,-117.647058823529,4,1,1,75,0,0
80344,-79.9999999999998,4,1,1,75,0,0
81050,-71.4285714285714,4,1,1,55,0,0
81403,-71.4285714285714,4,1,1,75,0,0
86697,-71.4285714285714,4,1,1,75,0,0
97991,-33.3333333333333,4,1,1,45,0,0
98521,-71.4285714285714,4,1,1,75,0,0
102227,-71.4285714285714,4,1,1,60,0,0
102579,-71.4285714285714,4,1,1,75,0,0
103638,-71.4285714285714,4,1,1,60,0,0
116344,-71.4285714285714,4,1,1,15,0,0
117403,-71.4285714285714,4,1,1,75,0,1
128874,-71.4285714285714,4,1,1,55,0,1
129050,-71.4285714285714,4,1,1,75,0,0
134344,-71.4285714285714,4,1,1,55,0,0
134697,-71.4285714285714,4,1,1,75,0,0
135932,-71.4285714285714,4,1,1,55,0,0
136109,-71.4285714285714,4,1,1,75,0,0
137344,-71.4285714285714,4,1,1,45,0,0
137521,-71.4285714285714,4,1,1,75,0,0
137697,-71.4285714285714,4,1,1,45,0,0
137874,-71.4285714285714,4,1,1,75,0,0
138050,-71.4285714285714,4,1,1,45,0,0
138227,-71.4285714285714,4,1,1,75,0,0
138403,-71.4285714285714,4,1,1,45,0,0
138579,-71.4285714285714,4,1,1,75,0,0
138932,-71.4285714285714,4,1,1,55,0,0
140344,-71.4285714285714,4,1,1,75,0,0
150227,-71.4285714285714,4,1,1,55,0,0
151109,-71.4285714285714,4,1,1,75,0,0
154815,-71.4285714285714,4,1,1,95,0,0
156579,-71.4285714285714,4,1,1,55,0,0
157285,-71.4285714285714,4,1,1,65,0,0
158344,-71.4285714285714,4,1,1,75,0,0
158697,-71.4285714285714,4,1,1,85,0,0

[Colours]
Combo1 : 192,192,192
Combo2 : 255,0,128
Combo3 : 128,128,192
Combo4 : 128,0,64

[HitObjects]
192,264,1638,5,0,0:0:0:0:
143,258,1726,1,0,0:0:0:0:
109,222,1814,1,0,0:0:0:0:
104,174,1902,1,0,0:0:0:0:
280,192,1991,2,0,P|344:184|368:64,1,200,8|0,0:0|0:0,0:0:0:0:
96,96,2521,5,0,0:0:0:0:
176,96,2609,1,0,0:0:0:0:
256,96,2697,1,0,0:0:0:0:
96,72,2962,1,0,0:0:0:0:
280,72,3227,1,0,0:0:0:0:
48,72,3403,6,0,L|168:72,1,100,8|0,0:0|0:0,0:0:0:0:
232,72,3668,1,0,0:0:0:0:
312,72,3756,1,0,0:0:0:0:
72,112,3932,1,0,0:0:0:0:
360,120,4109,2,0,L|360:304,1,150
128,288,4462,5,0,0:0:0:0:
83,273,4550,1,0,0:0:0:0:
72,226,4638,1,0,0:0:0:0:
106,193,4726,1,0,0:0:0:0:
272,192,4815,2,0,P|248:112|128:64,1,200,8|0,0:0|0:0,0:0:0:0:
472,56,5344,5,0,0:0:0:0:
400,80,5432,1,0,0:0:0:0:
472,104,5521,1,0,0:0:0:0:
232,128,5785,1,0,0:0:0:0:
368,160,6050,1,0,0:0:0:0:
328,224,6227,1,8,0:0:0:0:
168,224,6491,1,0,0:0:0:0:
312,160,6756,1,0,0:0:0:0:
144,160,6932,1,0,0:0:0:0:
288,160,7285,5,0,0:0:0:0:
305,114,7373,1,0,0:0:0:0:
285,69,7461,1,0,0:0:0:0:
240,51,7549,1,0,0:0:0:0:
440,56,7638,2,0,P|472:128|392:224,1,200,8|0,0:0|0:0,0:0:0:0:
232,224,8168,5,0,0:0:0:0:
312,224,8256,1,0,0:0:0:0:
392,224,8344,1,0,0:0:0:0:
208,288,8609,1,0,0:0:0:0:
392,296,8874,1,0,0:0:0:0:
160,328,9050,6,0,P|128:272|152:176,1,150,8|0,0:0|0:0,0:0:0:0:
224,184,9403,1,0,0:0:0:0:
80,184,9579,1,0,0:0:0:0:
320,128,9756,1,0,0:0:0:0:
208,96,10021,1,0,0:0:0:0:
368,64,10285,1,0,0:0:0:0:
88,56,10462,6,0,L|88:288,1,200,8|0,0:0|0:0,0:0:0:0:
400,224,10991,1,0,0:0:0:0:
304,256,11080,1,0,0:0:0:0:
400,272,11168,1,0,0:0:0:0:
208,192,11432,1,0,0:0:0:0:
352,176,11697,1,0,0:0:0:0:
80,160,11874,6,0,B|32:232|64:312|64:312|136:352|216:312|216:312,2,300,8|8|0,0:0|0:0|0:0,0:0:0:0:
432,96,13285,5,8,0:0:0:0:
192,136,13462,1,0,0:0:0:0:
432,184,13638,1,8,0:0:0:0:
160,215,13815,6,0,L|40:151,1,100,4|0,0:0|0:0,0:0:0:0:
352,208,14168,2,0,L|456:160,1,100,4|0,0:0|0:0,0:0:0:0:
72,168,14521,2,0,L|72:64,1,100,4|0,0:0|0:0,0:0:0:0:
440,168,14874,2,0,L|440:64,1,100,4|0,0:0|0:0,0:0:0:0:
160,96,15227,5,0,0:0:0:0:
424,112,15403,1,8,0:0:0:0:
160,152,15579,1,8,0:0:0:0:
115,172,15667,1,0,0:0:0:0:
90,214,15756,1,0,0:0:0:0:
94,263,15843,1,0,0:0:0:0:
125,300,15932,1,8,0:0:0:0:
173,313,16020,1,0,0:0:0:0:
440,296,16109,5,8,0:0:0:0:
192,240,16285,1,0,0:0:0:0:
320,240,16462,1,8,0:0:0:0:
72,296,16638,6,0,L|72:184,1,100,4|0,0:0|0:0,0:0:0:0:
440,296,16991,2,0,L|440:184,1,100,4|0,0:0|0:0,0:0:0:0:
72,296,17344,2,0,L|192:296,1,100,4|0,0:0|0:0,0:0:0:0:
440,296,17697,2,0,L|320:296,1,100,4|0,0:0|0:0,0:0:0:0:
72,296,18050,5,0,0:0:0:0:
320,248,18227,1,8,0:0:0:0:
354,213,18315,1,0,0:0:0:0:
356,164,18403,1,0,0:0:0:0:
326,126,18491,1,0,0:0:0:0:
168,152,18579,1,8,0:0:0:0:
138,112,18667,1,0,0:0:0:0:
122,64,18755,1,0,0:0:0:0:
122,15,18843,1,0,0:0:0:0:
432,96,18932,5,8,0:0:0:0:
192,136,19109,1,0,0:0:0:0:
432,184,19285,1,8,0:0:0:0:
184,216,19462,6,0,L|64:152,1,100,4|0,0:0|0:0,0:0:0:0:
368,216,19815,2,0,L|472:168,1,100,4|0,0:0|0:0,0:0:0:0:
72,168,20168,2,0,L|72:64,1,100,4|0,0:0|0:0,0:0:0:0:
440,168,20521,2,0,L|440:64,1,100,4|0,0:0|0:0,0:0:0:0:
160,96,20874,5,0,0:0:0:0:
423,111,21050,1,8,0:0:0:0:
160,152,21226,1,0,0:0:0:0:
115,172,21314,1,0,0:0:0:0:
90,214,21402,1,0,0:0:0:0:
94,263,21490,1,0,0:0:0:0:
125,300,21578,1,0,0:0:0:0:
173,313,21667,1,0,0:0:0:0:
408,296,21756,5,8,0:0:0:0:
256,256,21932,1,0,0:0:0:0:
408,224,22109,1,0,0:0:0:0:
256,176,22285,1,0,0:0:0:0:
104,296,22462,5,8,0:0:0:0:
256,256,22638,1,0,0:0:0:0:
104,224,22815,1,0,0:0:0:0:
256,192,22991,1,0,0:0:0:0:
408,296,23168,5,8,0:0:0:0:
256,256,23344,1,0,0:0:0:0:
408,224,23521,1,0,0:0:0:0:
80,272,23697,6,0,B|48:248|56:208|64:184|80:168|128:168|152:184|168:192|200:184|208:160|224:128|208:88|192:80|160:80|136:88,1,300
88,88,24315,1,0,0:0:0:0:
176,88,24403,1,0,0:0:0:0:
88,88,24491,1,0,0:0:0:0:
360,264,24579,6,0,L|448:136,1,139.999995727539,12|0,0:0|0:0,0:0:0:0:
368,136,24844,1,0,0:0:0:0:
160,176,24932,2,0,P|248:160|264:96,1,139.999995727539,8|0,0:0|0:0,0:0:0:0:
200,112,25197,1,0,0:0:0:0:
400,82,25285,5,8,0:0:0:0:
453,123,25373,1,0,0:0:0:0:
457,191,25461,1,0,0:0:0:0:
410,239,25549,1,0,0:0:0:0:
300,245,25638,2,0,L|287:168,1,69.9999978637696,8|0,0:0|0:0,0:0:0:0:
384,154,25815,2,0,L|395:77,1,69.9999978637696
166,80,25991,6,0,L|93:70,1,69.9999978637696,8|0,0:0|0:0,0:0:0:0:
166,80,26168,2,0,L|249:90,1,69.9999978637696
169,154,26344,2,0,L|147:226,1,69.9999978637696,8|0,0:0|0:0,0:0:0:0:
242,236,26521,2,0,L|279:313,1,69.9999978637696
59,290,26697,5,8,0:0:0:0:
52,221,26785,1,0,0:0:0:0:
87,162,26873,1,0,0:0:0:0:
150,135,26961,1,0,0:0:0:0:
468,260,27050,2,0,L|467:176,1,69.9999978637696,8|0,0:0|0:0,0:0:0:0:
390,159,27227,2,0,L|373:85,1,69.9999978637696
128,208,27403,6,0,L|96:64,1,139.999995727539,8|0,0:0|0:0,0:0:0:0:
168,64,27668,1,0,0:0:0:0:
448,56,27756,2,0,L|320:144,1,139.999995727539,8|0,0:0|0:0,0:0:0:0:
269,165,28021,1,0,0:0:0:0:
103,259,28109,6,0,L|87:355,1,69.9999978637696,8|0,0:0|0:0,0:0:0:0:
189,258,28285,1,0,0:0:0:0:
221,198,28373,1,0,0:0:0:0:
199,134,28461,1,8,0:0:0:0:
136,108,28549,1,0,0:0:0:0:
47,109,28638,2,0,L|88:33,1,69.9999978637696
349,169,28815,5,8,0:0:0:0:
408,137,28903,1,0,0:0:0:0:
422,71,28991,1,0,0:0:0:0:
380,17,29079,1,0,0:0:0:0:
280,13,29168,2,0,L|250:89,1,69.9999978637696,8|0,0:0|0:0,0:0:0:0:
347,120,29344,2,0,L|429:162,1,69.9999978637696
191,95,29521,5,8,0:0:0:0:
147,147,29609,1,0,0:0:0:0:
153,214,29697,1,0,0:0:0:0:
206,257,29785,1,0,0:0:0:0:
120,259,29874,2,0,L|122:176,1,69.9999978637696,8|0,0:0|0:0,0:0:0:0:
323,169,30050,2,0,L|421:155,1,69.9999978637696
128,320,30227,6,0,L|200:192,1,139.999995727539,12|0,0:0|0:0,0:0:0:0:
136,192,30491,1,0,0:0:0:0:
328,208,30579,2,0,L|456:136,1,139.999995727539,8|0,0:0|0:0,0:0:0:0:
392,128,30844,1,0,0:0:0:0:
128,144,30932,5,8,0:0:0:0:
116,76,31020,1,0,0:0:0:0:
155,21,31108,1,0,0:0:0:0:
222,10,31196,1,0,0:0:0:0:
448,48,31285,2,0,L|448:128,1,69.9999978637696,8|0,0:0|0:0,0:0:0:0:
352,112,31462,2,0,L|352:202,1,69.9999978637696
453,192,31638,1,8,0:0:0:0:
389,192,31726,1,0,0:0:0:0:
325,192,31814,1,0,0:0:0:0:
261,192,31902,1,0,0:0:0:0:
448,320,31991,6,0,L|490:254,1,69.9999978637696,8|0,0:0|0:0,0:0:0:0:
287,271,32168,2,0,L|224:208,1,69.9999978637696
359,209,32344,5,8,0:0:0:0:
411,166,32432,1,0,0:0:0:0:
412,98,32520,1,0,0:0:0:0:
361,53,32608,1,0,0:0:0:0:
459,43,32697,2,0,L|464:126,1,69.9999978637696,8|0,0:0|0:0,0:0:0:0:
239,140,32874,2,0,L|152:143,1,69.9999978637696
378,159,33050,5,8,0:0:0:0:
452,161,33138,1,0,0:0:0:0:
378,183,33227,1,0,0:0:0:0:
452,185,33315,1,0,0:0:0:0:
200,224,33579,5,0,0:0:0:0:
176,160,33668,1,0,0:0:0:0:
344,152,33756,1,8,0:0:0:0:
407,130,33844,1,0,0:0:0:0:
423,65,33932,1,0,0:0:0:0:
376,17,34020,1,0,0:0:0:0:
104,32,34109,6,0,L|120:112,1,69.9999978637696,8|0,0:0|0:0,0:0:0:0:
312,112,34285,2,0,L|336:208,1,69.9999978637696
136,112,34462,5,8,0:0:0:0:
76,147,34550,1,0,0:0:0:0:
48,210,34638,1,0,0:0:0:0:
61,277,34726,1,0,0:0:0:0:
111,325,34814,1,8,0:0:0:0:
179,336,34903,1,0,0:0:0:0:
400,336,34991,6,0,L|392:256,1,69.9999978637696,8|0,0:0|0:0,0:0:0:0:
288,256,35168,2,0,L|280:176,1,69.9999978637696,8|0,0:0|0:0,0:0:0:0:
384,192,35344,2,0,L|376:112,1,69.9999978637696,8|0,0:0|0:0,0:0:0:0:
272,120,35521,2,0,L|264:40,1,69.9999978637696,8|0,0:0|0:0,0:0:0:0:
472,64,35697,5,2,0:0:0:0:
416,56,35756,1,0,0:0:0:0:
360,48,35815,1,2,0:0:0:0:
304,40,35874,2,0,P|272:128|288:192,1,139.999995727539,12|0,0:0|0:0,0:0:0:0:
328,176,36138,1,0,0:0:0:0:
80,168,36227,6,0,P|56:248|88:312,1,139.999995727539,8|0,0:0|0:0,0:0:0:0:
144,296,36491,1,0,0:0:0:0:
400,248,36579,2,0,L|288:336,1,139.999995727539,8|0,0:0|0:0,0:0:0:0:
232,336,36844,1,0,0:0:0:0:
440,320,36932,6,0,L|472:168,1,139.999995727539,8|0,0:0|0:0,0:0:0:0:
400,168,37197,1,0,0:0:0:0:
216,184,37285,6,0,L|192:104,1,69.9999978637696,8|0,0:0|0:0,0:0:0:0:
368,88,37462,2,0,L|392:16,1,69.9999978637696
96,48,37638,5,8,0:0:0:0:
51,99,37726,1,0,0:0:0:0:
59,167,37814,1,0,0:0:0:0:
115,206,37902,1,0,0:0:0:0:
272,192,37991,5,8,0:0:0:0:
336,218,38079,1,0,0:0:0:0:
379,272,38167,1,0,0:0:0:0:
389,340,38255,1,0,0:0:0:0:
112,336,38344,5,8,0:0:0:0:
111,267,38432,1,0,0:0:0:0:
152,212,38520,1,0,0:0:0:0:
219,194,38608,1,0,0:0:0:0:
392,192,38697,6,0,P|440:112|400:48,1,139.999995727539
352,72,38962,1,0,0:0:0:0:
128,80,39050,2,0,L|280:200,1,139.999995727539,8|0,0:0|0:0,0:0:0:0:
168,176,39315,1,0,0:0:0:0:
368,152,39403,6,0,L|344:304,1,139.999995727539,8|0,0:0|0:0,0:0:0:0:
272,288,39668,1,0,0:0:0:0:
96,192,39756,6,0,L|112:264,1,69.9999978637696,8|0,0:0|0:0,0:0:0:0:
288,232,39932,2,0,L|312:320,1,69.9999978637696
96,328,40109,5,8,0:0:0:0:
84,259,40197,1,0,0:0:0:0:
114,197,40285,1,0,0:0:0:0:
173,162,40373,1,0,0:0:0:0:
352,176,40462,5,8,0:0:0:0:
406,134,40550,1,0,0:0:0:0:
423,68,40638,1,0,0:0:0:0:
393,6,40726,1,0,0:0:0:0:
184,128,40815,5,8,0:0:0:0:
232,128,40903,1,0,0:0:0:0:
280,128,40991,1,0,0:0:0:0:
328,128,41079,1,0,0:0:0:0:
96,288,41168,5,10,0:0:0:0:
56,264,41226,1,0,0:0:0:0:
40,221,41285,1,2,0:0:0:0:
53,178,41344,1,8,0:0:0:0:
91,152,41403,1,2,0:0:0:0:
320,152,41521,6,0,L|152:128,1,139.999995727539,8|0,0:0|0:0,0:0:0:0:
64,120,41874,1,0,0:0:0:0:
328,112,42050,2,0,P|392:248|304:344,1,279.999991455078,4|0,0:0|0:0,0:0:0:0:
192,344,42579,5,0,0:0:0:0:
432,336,42756,1,2,0:0:0:0:
464,303,42814,1,0,0:0:0:0:
471,257,42873,1,2,0:0:0:0:
450,217,42932,2,0,P|304:192|296:80,1,279.999991455078,8|0,0:0|0:0,0:0:0:0:
432,88,43462,2,0,L|200:272,1,279.999991455078,4|0,0:0|0:0,0:0:0:0:
352,264,43991,1,0,0:0:0:0:
88,216,44168,5,8,0:0:0:0:
68,257,44226,1,0,0:0:0:0:
83,300,44285,1,2,0:0:0:0:
256,304,44344,1,4,0:0:0:0:
152,136,44521,5,8,0:0:0:0:
132,177,44579,1,0,0:0:0:0:
147,220,44638,1,2,0:0:0:0:
320,224,44697,1,4,0:0:0:0:
208,216,44874,5,8,0:0:0:0:
188,257,44932,1,0,0:0:0:0:
203,300,44991,1,2,0:0:0:0:
376,304,45050,1,4,0:0:0:0:
272,136,45227,5,8,0:0:0:0:
252,177,45285,1,0,0:0:0:0:
267,220,45344,1,2,0:0:0:0:
440,224,45403,1,4,0:0:0:0:
200,288,45579,1,0,0:0:0:0:
336,288,45756,5,10,0:0:0:0:
376,270,45800,1,0,0:0:0:0:
405,236,45844,1,0,0:0:0:0:
416,193,45888,1,0,0:0:0:0:
406,149,45932,1,8,0:0:0:0:
378,115,45976,1,0,0:0:0:0:
337,96,46020,1,0,0:0:0:0:
293,98,46064,1,0,0:0:0:0:
248,120,46109,5,8,0:0:0:0:
204,109,46153,1,0,0:0:0:0:
173,77,46197,1,0,0:0:0:0:
164,34,46241,1,0,0:0:0:0:
180,0,46285,1,8,0:0:0:0:
215,0,46329,1,0,0:0:0:0:
260,0,46373,1,0,0:0:0:0:
299,0,46417,1,0,0:0:0:0:
321,22,46462,5,10,0:0:0:0:
279,6,46506,1,0,0:0:0:0:
234,9,46550,1,0,0:0:0:0:
194,29,46594,1,0,0:0:0:0:
166,64,46638,1,8,0:0:0:0:
154,107,46682,1,0,0:0:0:0:
159,151,46726,1,0,0:0:0:0:
182,189,46770,1,0,0:0:0:0:
219,215,46815,5,8,0:0:0:0:
258,194,46859,1,0,0:0:0:0:
302,196,46903,1,0,0:0:0:0:
340,219,46947,1,0,0:0:0:0:
360,259,46991,1,8,0:0:0:0:
358,303,47035,1,0,0:0:0:0:
334,340,47079,1,0,0:0:0:0:
294,360,47123,1,0,0:0:0:0:
250,357,47168,6,0,P|160:320|136:232,1,179.999994506836,10|0,0:0|0:0,0:0:0:0:
192,240,47432,1,0,0:0:0:0:
336,232,47521,2,0,L|464:392,1,179.999994506836,8|0,0:0|0:0,0:0:0:0:
144,224,47874,1,8,0:0:0:0:
408,152,48050,1,0,0:0:0:0:
288,144,48227,5,8,0:0:0:0:
248,89,48315,1,0,0:0:0:0:
270,25,48403,1,0,0:0:0:0:
335,6,48491,1,0,0:0:0:0:
128,32,48579,2,0,L|256:104,1,139.999995727539,8|0,0:0|0:0,0:0:0:0:
320,136,48844,1,0,0:0:0:0:
112,112,48932,2,0,P|96:192|144:256,1,139.999995727539,8|0,0:0|0:0,0:0:0:0:
384,208,49285,1,8,0:0:0:0:
152,224,49462,1,0,0:0:0:0:
432,288,49638,5,0,0:0:0:0:
376,288,49726,1,0,0:0:0:0:
320,288,49814,1,0,0:0:0:0:
264,288,49902,1,0,0:0:0:0:
80,296,49991,6,0,P|40:208|72:168,1,139.999995727539,8|0,0:0|0:0,0:0:0:0:
120,176,50256,1,0,0:0:0:0:
288,176,50344,2,0,P|264:112|184:104,1,139.999995727539,8|0,0:0|0:0,0:0:0:0:
464,56,50697,1,8,0:0:0:0:
168,64,50874,1,0,0:0:0:0:
424,168,51050,2,0,L|488:128,3,69.9999978637696,8|0|0|0,0:0|0:0|0:0|0:0,0:0:0:0:
120,240,51403,6,8,L|104:200,1,34.9999989318848,8|0,0:0|0:0,0:0:0:0:
312,184,51579,2,0,L|328:136,1,34.9999989318848,8|0,0:0|0:0,0:0:0:0:
208,128,51756,2,0,L|192:96,1,34.9999989318848,8|0,0:0|0:0,0:0:0:0:
408,88,51932,2,0,L|424:56,1,34.9999989318848,8|0,0:0|0:0,0:0:0:0:
192,64,52109,5,8,0:0:0:0:
137,106,52197,1,0,0:0:0:0:
120,172,52285,1,0,0:0:0:0:
146,236,52373,1,0,0:0:0:0:
206,270,52461,1,8,0:0:0:0:
146,236,52550,1,0,0:0:0:0:
120,172,52638,1,0,0:0:0:0:
137,106,52727,1,0,0:0:0:0:
432,112,52815,6,8,L|280:88,1,139.999995727539,12|0,0:0|0:0,0:0:0:0:
344,64,53079,1,0,0:0:0:0:
128,40,53168,2,0,P|72:96|128:144,1,139.999995727539,8|0,0:0|0:0,0:0:0:0:
352,152,53521,1,8,0:0:0:0:
104,232,53697,1,0,0:0:0:0:
368,224,53874,5,8,0:0:0:0:
431,243,53962,1,0,0:0:0:0:
447,308,54050,1,0,0:0:0:0:
399,355,54138,1,0,0:0:0:0:
112,352,54227,2,0,P|72:272|120:224,1,139.999995727539,8|0,0:0|0:0,0:0:0:0:
160,232,54491,1,0,0:0:0:0:
368,224,54579,2,0,L|232:168,1,139.999995727539,8|0,0:0|0:0,0:0:0:0:
496,128,54932,1,8,0:0:0:0:
152,112,55109,1,0,0:0:0:0:
400,184,55285,5,8,0:0:0:0:
464,216,55374,1,0,0:0:0:0:
400,248,55462,1,0,0:0:0:0:
464,216,55550,1,0,0:0:0:0:
200,280,55638,2,0,P|136:200|224:160,1,209.999993591309,8|0,0:0|0:0,0:0:0:0:
480,144,55991,5,8,0:0:0:0:
336,144,56079,1,0,0:0:0:0:
192,144,56168,1,8,0:0:0:0:
48,144,56256,1,0,0:0:0:0:
336,80,56344,6,0,P|400:128|368:272,1,209.999993591309,12|0,0:0|0:0,0:0:0:0:
176,256,56697,1,0,0:0:0:0:
256,256,56785,1,0,0:0:0:0:
336,256,56874,1,8,0:0:0:0:
256,256,56962,1,0,0:0:0:0:
48,256,57050,6,0,L|128:192,2,93.3333304850261,4|0|8,0:0|0:0|0:0,0:0:0:0:
272,224,57403,2,0,L|160:144,2,93.3333304850261,4|0|8,0:0|0:0|0:0,0:0:0:0:
448,112,57756,5,4,0:0:0:0:
404,164,57844,1,0,0:0:0:0:
401,232,57932,1,8,0:0:0:0:
441,288,58020,1,0,0:0:0:0:
161,279,58109,5,8,0:0:0:0:
125,249,58167,1,0,0:0:0:0:
111,205,58226,1,0,0:0:0:0:
122,161,58285,1,8,0:0:0:0:
156,128,58344,1,0,0:0:0:0:
201,120,58403,1,0,0:0:0:0:
400,80,58462,6,0,B|480:176|400:288|400:288|332:290|332:290|293:324|293:324|304:352|304:352|351:368|351:368|391:362|391:362|416:288|368:227|368:227|293:212|265:195|265:195|272:112|272:112|362:153|362:153|339:260|339:260|208:208|208:208|96:160,1,1259.99996154785,4|8,0:0|0:0,0:0:0:0:
208,144,63579,1,0,0:0:0:0:
304,128,63756,1,8,0:0:0:0:
48,96,63932,1,0,0:0:0:0:
288,48,64109,6,0,B|352:144|272:272|240:304|192:272|144:256|128:224|128:208|160:192|192:176|240:192|272:208|320:240|336:272|336:288,1,539.999983520508,4|8,0:0|0:0,0:0:0:0:
240,320,66403,1,0,0:0:0:0:
144,320,66579,1,8,0:0:0:0:
384,320,66756,1,0,0:0:0:0:
112,256,66932,6,0,B|64:224|96:160|96:160|240:192|240:192|272:96|272:96|80:64|80:64,1,539.999983520508,4|8,0:0|0:0,0:0:0:0:
208,64,69227,1,0,0:0:0:0:
320,64,69403,1,8,0:0:0:0:
32,64,69579,1,0,0:0:0:0:
336,64,69756,1,4,0:0:0:0:
392,104,69844,1,0,0:0:0:0:
422,166,69932,1,8,0:0:0:0:
419,235,70020,1,0,0:0:0:0:
383,295,70108,1,8,0:0:0:0:
324,330,70197,1,0,0:0:0:0:
144,288,70285,6,0,B|0:400|0:400,1,150.000005722046,8|0,0:0|0:0,0:0:0:0:
272,208,70815,6,0,B|400:328|400:328,1,150.000005722046,8|0,0:0|0:0,0:0:0:0:
232,248,71344,6,0,B|360:368|360:368,1,150.000005722046
96,192,71874,5,8,0:0:0:0:
400,160,72050,1,0,0:0:0:0:
288,144,72227,2,0,L|272:96,1,37.5000014305115,8|0,0:0|0:0,0:0:0:0:
352,80,72403,2,0,L|368:32,1,37.5000014305115
176,32,72579,2,0,L|32:80,1,150.000005722046,8|0,0:0|0:0,0:0:0:0:
304,64,73109,2,0,L|416:192,1,150.000005722046,8|0,0:0|0:0,0:0:0:0:
160,176,73638,6,0,P|128:240|176:320,1,150.000005722046,8|0,0:0|0:0,0:0:0:0:
272,320,74168,2,0,L|112:320,1,150.000005722046
368,256,74697,5,8,0:0:0:0:
432,160,74874,1,0,0:0:0:0:
128,176,75050,1,8,0:0:0:0:
80,80,75227,1,0,0:0:0:0:
336,64,75403,1,4,0:0:0:0:
392,104,75491,1,0,0:0:0:0:
422,166,75579,1,0,0:0:0:0:
419,235,75667,1,0,0:0:0:0:
383,295,75755,1,0,0:0:0:0:
324,330,75844,1,0,0:0:0:0:
144,352,75932,6,0,L|16:240,1,150.000005722046,8|0,0:0|0:0,0:0:0:0:
208,240,76462,2,0,P|304:224|304:160,1,150.000005722046,8|0,0:0|0:0,0:0:0:0:
176,168,76991,2,0,L|344:144,1,150.000005722046
72,96,77521,1,8,0:0:0:0:
351,65,77697,1,0,0:0:0:0:
240,96,77874,2,0,L|224:144,1,37.5000014305115,8|0,0:0|0:0,0:0:0:0:
314,156,78050,2,0,L|330:204,1,37.5000014305115
128,176,78227,6,0,P|96:256|144:304,1,150.000005722046,8|0,0:0|0:0,0:0:0:0:
368,176,78756,2,0,P|400:256|352:304,1,150.000005722046,8|0,0:0|0:0,0:0:0:0:
64,272,79285,2,0,L|208:144,1,170.000003242493,8|0,0:0|0:0,0:0:0:0:
448,272,79815,2,0,L|304:144,1,170.000003242493,8|0,0:0|0:0,0:0:0:0:
80,160,80344,6,0,P|160:0|288:160,1,437.5,8|0,0:0|0:0,0:0:0:0:
112,224,81050,2,0,L|96:176,1,34.9999989318848,2|0,0:0|0:0,0:0:0:0:
336,176,81227,2,0,L|352:128,1,34.9999989318848,2|0,0:0|0:0,0:0:0:0:
256,160,81403,2,0,P|208:112|208:16,1,139.999995727539,8|0,0:0|0:0,0:0:0:0:
288,48,81668,1,0,0:0:0:0:
384,64,81756,6,0,L|224:96,1,139.999995727539,8|0,0:0|0:0,0:0:0:0:
160,112,82021,1,0,0:0:0:0:
368,128,82109,2,0,P|416:224|368:288,1,139.999995727539,8|0,0:0|0:0,0:0:0:0:
160,224,82462,1,8,0:0:0:0:
240,224,82550,1,0,0:0:0:0:
320,224,82638,2,0,P|336:144|304:80,1,139.999995727539,0|8,0:0|0:0,0:0:0:0:
208,112,82903,5,0,0:0:0:0:
288,112,82991,1,0,0:0:0:0:
368,112,83079,1,0,0:0:0:0:
96,112,83168,2,0,P|64:176|112:256,1,139.999995727539,8|0,0:0|0:0,0:0:0:0:
256,240,83432,1,0,0:0:0:0:
448,240,83521,2,0,P|488:200|408:72,1,209.999993591309,8|0,0:0|0:0,0:0:0:0:
144,144,83874,5,8,0:0:0:0:
256,96,84050,1,0,0:0:0:0:
128,64,84227,2,0,L|96:208,1,139.999995727539
192,208,84491,1,0,0:0:0:0:
288,208,84579,2,0,P|320:272|272:320,1,139.999995727539,8|0,0:0|0:0,0:0:0:0:
176,320,84844,1,0,0:0:0:0:
400,320,84932,6,0,L|432:176,1,139.999995727539,8|0,0:0|0:0,0:0:0:0:
352,176,85197,1,0,0:0:0:0:
112,160,85285,1,8,0:0:0:0:
192,128,85374,1,0,0:0:0:0:
112,112,85462,1,8,0:0:0:0:
272,80,85638,2,0,P|304:176|288:224,1,139.999995727539
208,208,85903,1,0,0:0:0:0:
416,208,85991,6,0,L|176:208,1,209.999993591309
416,144,86344,2,0,L|416:336,1,139.999995727539,8|0,0:0|0:0,0:0:0:0:
180,318,86697,5,2,0:0:0:0:
149,298,86727,1,0,0:0:0:0:
127,271,86756,1,0,0:0:0:0:
114,239,86785,1,0,0:0:0:0:
111,204,86815,1,0,0:0:0:0:
117,171,86844,1,0,0:0:0:0:
134,139,86874,1,0,0:0:0:0:
158,115,86903,1,0,0:0:0:0:
190,99,86932,5,2,0:0:0:0:
158,115,86962,1,0,0:0:0:0:
134,139,86991,1,0,0:0:0:0:
117,171,87021,1,0,0:0:0:0:
111,204,87050,1,0,0:0:0:0:
114,239,87079,1,0,0:0:0:0:
127,271,87108,1,0,0:0:0:0:
149,298,87138,1,0,0:0:0:0:
248,304,87227,1,0,0:0:0:0:
352,304,87315,1,0,0:0:0:0:
448,304,87403,6,8,P|463:227|427:176,1,139.999995727539
320,175,87668,1,0,0:0:0:0:
142,181,87756,2,0,L|288:120,1,139.999995727539,8|0,0:0|0:0,0:0:0:0:
344,96,88021,1,0,0:0:0:0:
136,256,88109,1,8,0:0:0:0:
56,288,88197,1,0,0:0:0:0:
134,320,88285,5,0,0:0:0:0:
384,335,88462,2,0,P|410:256|382:182,1,139.999995727539,8|0,0:0|0:0,0:0:0:0:
305,203,88727,1,0,0:0:0:0:
207,208,88815,2,0,L|378:193,1,139.999995727539,8|0,0:0|0:0,0:0:0:0:
419,187,89079,1,0,0:0:0:0:
165,154,89168,2,0,L|128:13,1,139.999995727539,8|0,0:0|0:0,0:0:0:0:
206,18,89432,5,0,0:0:0:0:
373,19,89521,2,0,L|376:224,2,139.999995727539,8|0|8,0:0|0:0|0:0,0:0:0:0:
240,248,90050,1,0,0:0:0:0:
160,248,90138,1,0,0:0:0:0:
80,248,90227,2,0,P|40:168|64:112,1,139.999995727539,8|0,0:0|0:0,0:0:0:0:
136,128,90491,1,0,0:0:0:0:
376,128,90579,6,0,L|232:168,1,139.999995727539,8|0,0:0|0:0,0:0:0:0:
320,168,90844,1,0,0:0:0:0:
160,184,90932,1,8,0:0:0:0:
88,152,91021,1,0,0:0:0:0:
160,120,91109,1,0,0:0:0:0:
400,72,91285,2,0,P|440:144|392:216,1,139.999995727539,8|0,0:0|0:0,0:0:0:0:
328,200,91550,5,0,0:0:0:0:
232,200,91638,2,0,L|120:304,1,139.999995727539,8|0,0:0|0:0,0:0:0:0:
304,304,91903,1,0,0:0:0:0:
464,304,91991,2,0,L|464:48,1,209.999993591309,8|0,0:0|0:0,0:0:0:0:
176,88,92344,6,0,P|104:184|200:320,1,279.999991455078,12|8,0:0|0:0,0:0:0:0:
416,312,92874,5,0,0:0:0:0:
176,304,93050,2,0,L|48:248,1,139.999995727539,8|0,0:0|0:0,0:0:0:0:
136,232,93315,1,0,0:0:0:0:
240,232,93403,2,0,P|280:168|240:104,1,139.999995727539,8|0,0:0|0:0,0:0:0:0:
72,112,93668,1,0,0:0:0:0:
240,112,93756,1,8,0:0:0:0:
392,112,93844,5,0,0:0:0:0:
240,112,93932,2,0,P|208:200|288:256,1,139.999995727539,0|8,0:0|0:0,0:0:0:0:
320,232,94197,1,0,0:0:0:0:
408,232,94285,1,0,0:0:0:0:
320,232,94374,1,0,0:0:0:0:
104,240,94462,2,0,L|88:96,1,139.999995727539,8|0,0:0|0:0,0:0:0:0:
240,96,94727,5,0,0:0:0:0:
392,96,94815,2,0,P|448:152|416:264,1,139.999995727539,8|0,0:0|0:0,0:0:0:0:
351,216,95079,1,0,0:0:0:0:
144,176,95168,5,2,0:0:0:0:
109,182,95212,1,0,0:0:0:0:
80,201,95256,1,0,0:0:0:0:
61,230,95300,1,0,0:0:0:0:
54,264,95344,1,0,0:0:0:0:
61,298,95388,1,0,0:0:0:0:
80,327,95432,1,0,0:0:0:0:
109,346,95476,1,0,0:0:0:0:
144,353,95520,1,0,0:0:0:0:
380,347,95697,6,0,P|421:297|414:194,1,139.999995727539,0|8,0:0|0:0,0:0:0:0:
279,177,96050,1,0,0:0:0:0:
381,168,96138,1,0,0:0:0:0:
137,179,96227,2,0,P|123:120|153:48,1,139.999995727539,8|0,0:0|0:0,0:0:0:0:
242,55,96491,1,0,0:0:0:0:
152,48,96579,1,8,0:0:0:0:
71,43,96668,5,0,0:0:0:0:
332,62,96756,2,0,P|361:155|326:228,1,139.999995727539
47,167,97021,1,0,0:0:0:0:
192,187,97109,1,0,0:0:0:0:
336,206,97197,1,0,0:0:0:0:
479,218,97285,2,0,L|469:361,1,139.999995727539,8|0,0:0|0:0,0:0:0:0:
106,352,97638,6,0,L|75:109,1,209.999993591309,8|0,0:0|0:0,0:0:0:0:
385,121,97991,1,2,0:0:0:0:
419,147,98035,1,0,0:0:0:0:
427,191,98079,1,0,0:0:0:0:
403,227,98123,1,0,0:0:0:0:
360,239,98167,1,0,0:0:0:0:
322,220,98211,1,0,0:0:0:0:
306,178,98255,1,0,0:0:0:0:
322,137,98299,1,0,0:0:0:0:
362,117,98344,6,0,P|416:277|299:376,1,300.000011444092,8|0,0:0|0:0,0:0:0:0:
267,374,98609,1,0,0:0:0:0:
68,310,98697,2,0,L|213:273,1,139.999995727539,8|0,0:0|0:0,0:0:0:0:
135,258,98962,1,0,0:0:0:0:
443,181,99050,2,0,P|457:107|391:71,1,139.999995727539,8|0,0:0|0:0,0:0:0:0:
334,72,99315,1,0,0:0:0:0:
75,157,99403,1,8,0:0:0:0:
163,136,99491,5,0,0:0:0:0:
250,116,99579,2,0,P|268:45|236:-27,1,139.999995727539,0|8,0:0|0:0,0:0:0:0:
119,216,99932,1,0,0:0:0:0:
273,190,100020,1,0,0:0:0:0:
421,163,100108,2,0,P|439:92|407:20,1,139.999995727539,8|0,0:0|0:0,0:0:0:0:
83,61,100462,1,8,0:0:0:0:
425,76,100638,5,0,0:0:0:0:
89,143,100815,2,0,L|87:328,2,139.999995727539,8|0|8,0:0|0:0|0:0,0:0:0:0:
428,313,101344,5,0,0:0:0:0:
123,237,101521,2,0,P|93:166|111:93,1,139.999995727539,8|0,0:0|0:0,0:0:0:0:
279,109,101785,1,0,0:0:0:0:
460,113,101874,2,0,P|439:187|381:229,1,139.999995727539,8|0,0:0|0:0,0:0:0:0:
314,224,102138,1,0,0:0:0:0:
69,249,102227,2,0,L|88:232,10,23.3333326212565,8|0|0|0|0|8|0|0|0|0|0,0:0|0:0|0:0|0:0|0:0|0:0|0:0|0:0|0:0|0:0|0:0,0:0:0:0:
128,248,102579,6,0,P|216:192|200:80,1,209.999993591309,8|0,0:0|0:0,0:0:0:0:
56,96,102932,1,8,0:0:0:0:
368,104,103285,1,0,0:0:0:0:
421,147,103373,1,0,0:0:0:0:
433,214,103461,1,0,0:0:0:0:
396,273,103549,1,0,0:0:0:0:
144,280,103638,6,0,P|104:208|344:112,1,419.999987182618,8|0,0:0|0:0,0:0:0:0:
256,104,104256,1,0,0:0:0:0:
184,120,104344,1,0,0:0:0:0:
384,136,104609,1,0,0:0:0:0:
224,168,104874,1,0,0:0:0:0:
392,192,105050,6,0,L|408:344,1,139.999995727539,8|0,0:0|0:0,0:0:0:0:
320,336,105315,1,0,0:0:0:0:
144,328,105579,1,0,0:0:0:0:
280,320,105756,2,0,P|320:232|240:160,1,209.999993591309
184,160,106109,1,0,0:0:0:0:
248,160,106197,1,0,0:0:0:0:
312,160,106285,1,0,0:0:0:0:
376,160,106374,1,0,0:0:0:0:
184,160,106462,6,0,P|136:232|272:360,1,279.999991455078,8|0,0:0|0:0,0:0:0:0:
432,352,106991,1,0,0:0:0:0:
360,352,107079,1,0,0:0:0:0:
288,352,107168,1,0,0:0:0:0:
424,264,107432,1,0,0:0:0:0:
264,224,107697,1,0,0:0:0:0:
368,184,107874,6,0,P|400:96|304:32,1,209.999993591309,8|0,0:0|0:0,0:0:0:0:
192,56,108403,1,0,0:0:0:0:
328,120,108579,1,0,0:0:0:0:
126,266,108932,1,0,0:0:0:0:
87,209,109020,1,0,0:0:0:0:
101,143,109108,1,0,0:0:0:0:
158,106,109196,1,0,0:0:0:0:
368,280,109285,6,0,P|408:208|168:112,1,419.999987182618,8|0,0:0|0:0,0:0:0:0:
256,104,109903,1,0,0:0:0:0:
328,120,109991,1,0,0:0:0:0:
128,136,110256,1,0,0:0:0:0:
288,168,110521,1,0,0:0:0:0:
120,192,110697,6,0,L|104:344,1,139.999995727539,8|0,0:0|0:0,0:0:0:0:
192,336,110962,1,0,0:0:0:0:
338,335,111226,1,0,0:0:0:0:
192,336,111403,2,0,P|152:248|265:142,1,209.999993591309
417,154,111932,1,0,0:0:0:0:
296,150,112109,6,0,P|184:205|245:338,1,279.999991455078,8|0,0:0|0:0,0:0:0:0:
80,352,112638,1,0,0:0:0:0:
152,352,112726,1,0,0:0:0:0:
224,352,112815,1,0,0:0:0:0:
88,264,113079,5,0,0:0:0:0:
248,224,113344,1,0,0:0:0:0:
103,185,113521,2,0,P|49:109|273:51,1,419.999987182618,8|0,0:0|0:0,0:0:0:0:
438,315,114932,2,0,L|136:-14,1,419.999987182618,8|0,0:0|0:0,0:0:0:0:
256,192,115638,12,0,116168,0:0:0:0:
123,57,116344,6,8,P|136:80|140:114,16,46.6666652425131,8|8|8|8|8|8|8|8|8|8|8|8|8|8|8|8|8,0:0|0:0|0:0|0:0|0:0|0:0|0:0|0:0|0:0|0:0|0:0|0:0|0:0|0:0|0:0|0:0|0:0,0:0:0:0:
407,345,117403,5,0,0:0:0:0:
437,283,117491,1,0,0:0:0:0:
421,217,117579,1,0,0:0:0:0:
365,176,117667,1,0,0:0:0:0:
152,264,117756,6,0,L|64:136,1,139.999995727539,4|0,0:0|0:0,0:0:0:0:
144,136,118021,1,0,0:0:0:0:
352,176,118109,2,0,P|264:160|248:96,1,139.999995727539,8|0,0:0|0:0,0:0:0:0:
312,112,118374,1,0,0:0:0:0:
112,82,118462,5,8,0:0:0:0:
59,123,118550,1,0,0:0:0:0:
55,191,118638,1,0,0:0:0:0:
102,239,118726,1,0,0:0:0:0:
212,245,118815,2,0,L|225:168,1,69.9999978637696,8|0,0:0|0:0,0:0:0:0:
128,154,118992,2,0,L|117:77,1,69.9999978637696
346,80,119168,6,0,L|419:70,1,69.9999978637696,8|0,0:0|0:0,0:0:0:0:
346,80,119345,2,0,L|263:90,1,69.9999978637696
343,154,119521,2,0,L|365:226,1,69.9999978637696,8|0,0:0|0:0,0:0:0:0:
270,236,119698,2,0,L|233:313,1,69.9999978637696
453,290,119874,5,8,0:0:0:0:
460,221,119962,1,0,0:0:0:0:
425,162,120050,1,0,0:0:0:0:
362,135,120138,1,0,0:0:0:0:
44,260,120227,2,0,L|45:176,1,69.9999978637696,8|0,0:0|0:0,0:0:0:0:
122,159,120404,2,0,L|139:85,1,69.9999978637696
384,208,120580,6,0,L|416:64,1,139.999995727539,8|0,0:0|0:0,0:0:0:0:
344,64,120845,1,0,0:0:0:0:
64,56,120933,2,0,L|192:144,1,139.999995727539,8|0,0:0|0:0,0:0:0:0:
243,165,121198,1,0,0:0:0:0:
409,259,121286,6,0,L|425:355,1,69.9999978637696,8|0,0:0|0:0,0:0:0:0:
323,258,121462,1,0,0:0:0:0:
291,198,121550,1,0,0:0:0:0:
313,134,121638,1,8,0:0:0:0:
376,108,121726,1,0,0:0:0:0:
465,109,121815,2,0,L|424:33,1,69.9999978637696
163,169,121992,5,8,0:0:0:0:
104,137,122080,1,0,0:0:0:0:
90,71,122168,1,0,0:0:0:0:
132,17,122256,1,0,0:0:0:0:
232,13,122345,2,0,L|262:89,1,69.9999978637696,8|0,0:0|0:0,0:0:0:0:
165,120,122521,2,0,L|83:162,1,69.9999978637696
321,95,122698,5,8,0:0:0:0:
365,147,122786,1,0,0:0:0:0:
359,214,122874,1,0,0:0:0:0:
306,257,122962,1,0,0:0:0:0:
392,259,123051,2,0,L|390:176,1,69.9999978637696,8|0,0:0|0:0,0:0:0:0:
189,169,123227,2,0,L|91:155,1,69.9999978637696
384,320,123404,6,0,L|312:192,1,139.999995727539,12|0,0:0|0:0,0:0:0:0:
376,192,123668,1,0,0:0:0:0:
184,208,123756,2,0,L|56:136,1,139.999995727539,8|0,0:0|0:0,0:0:0:0:
120,128,124021,1,0,0:0:0:0:
384,144,124109,5,8,0:0:0:0:
396,76,124197,1,0,0:0:0:0:
357,21,124285,1,0,0:0:0:0:
290,10,124373,1,0,0:0:0:0:
64,48,124462,2,0,L|64:128,1,69.9999978637696,8|0,0:0|0:0,0:0:0:0:
160,112,124639,2,0,L|160:202,1,69.9999978637696
59,192,124815,1,8,0:0:0:0:
123,192,124903,1,0,0:0:0:0:
187,192,124991,1,0,0:0:0:0:
251,192,125079,1,0,0:0:0:0:
64,320,125168,6,0,L|22:254,1,69.9999978637696,8|0,0:0|0:0,0:0:0:0:
225,271,125345,2,0,L|288:208,1,69.9999978637696
153,209,125521,5,8,0:0:0:0:
101,166,125609,1,0,0:0:0:0:
100,98,125697,1,0,0:0:0:0:
151,53,125785,1,0,0:0:0:0:
53,43,125874,2,0,L|48:126,1,69.9999978637696,8|0,0:0|0:0,0:0:0:0:
273,140,126051,2,0,L|360:143,1,69.9999978637696
134,159,126227,5,8,0:0:0:0:
60,161,126315,1,0,0:0:0:0:
134,183,126404,1,0,0:0:0:0:
60,185,126492,1,0,0:0:0:0:
312,224,126756,5,0,0:0:0:0:
336,160,126845,1,0,0:0:0:0:
168,152,126933,1,8,0:0:0:0:
105,130,127021,1,0,0:0:0:0:
89,65,127109,1,0,0:0:0:0:
136,17,127197,1,0,0:0:0:0:
408,32,127286,6,0,L|392:112,1,69.9999978637696,8|0,0:0|0:0,0:0:0:0:
200,112,127462,2,0,L|176:208,1,69.9999978637696
376,112,127639,5,8,0:0:0:0:
436,147,127727,1,0,0:0:0:0:
464,210,127815,1,0,0:0:0:0:
451,277,127903,1,0,0:0:0:0:
401,325,127991,1,8,0:0:0:0:
333,336,128080,1,0,0:0:0:0:
112,336,128168,6,0,L|120:256,1,69.9999978637696,8|0,0:0|0:0,0:0:0:0:
224,256,128345,2,0,L|232:176,1,69.9999978637696,8|0,0:0|0:0,0:0:0:0:
128,192,128521,2,0,L|136:112,1,69.9999978637696,8|0,0:0|0:0,0:0:0:0:
240,120,128698,2,0,L|248:40,1,69.9999978637696,8|0,0:0|0:0,0:0:0:0:
40,64,128874,5,2,0:0:0:0:
96,56,128933,1,0,0:0:0:0:
152,48,128992,1,2,0:0:0:0:
208,40,129051,2,0,P|240:128|224:192,1,139.999995727539,12|0,0:0|0:0,0:0:0:0:
184,176,129315,1,0,0:0:0:0:
432,168,129404,6,0,P|456:248|424:312,1,139.999995727539,8|0,0:0|0:0,0:0:0:0:
368,296,129668,1,0,0:0:0:0:
112,248,129756,2,0,L|224:336,1,139.999995727539,8|0,0:0|0:0,0:0:0:0:
280,336,130021,1,0,0:0:0:0:
72,320,130109,6,0,L|40:168,1,139.999995727539,8|0,0:0|0:0,0:0:0:0:
112,168,130374,1,0,0:0:0:0:
296,184,130462,6,0,L|320:104,1,69.9999978637696,8|0,0:0|0:0,0:0:0:0:
144,88,130639,2,0,L|120:16,1,69.9999978637696
416,48,130815,5,8,0:0:0:0:
461,99,130903,1,0,0:0:0:0:
453,167,130991,1,0,0:0:0:0:
397,206,131079,1,0,0:0:0:0:
240,192,131168,5,8,0:0:0:0:
176,218,131256,1,0,0:0:0:0:
133,272,131344,1,0,0:0:0:0:
123,340,131432,1,0,0:0:0:0:
400,336,131521,5,8,0:0:0:0:
401,267,131609,1,0,0:0:0:0:
360,212,131697,1,0,0:0:0:0:
293,194,131785,1,0,0:0:0:0:
120,192,131874,6,0,P|72:112|112:48,1,139.999995727539
160,72,132139,1,0,0:0:0:0:
384,80,132227,2,0,L|232:200,1,139.999995727539,8|0,0:0|0:0,0:0:0:0:
344,176,132492,1,0,0:0:0:0:
144,152,132580,6,0,L|168:304,1,139.999995727539,8|0,0:0|0:0,0:0:0:0:
240,288,132845,1,0,0:0:0:0:
416,192,132933,6,0,L|400:264,1,69.9999978637696,8|0,0:0|0:0,0:0:0:0:
224,232,133109,2,0,L|200:320,1,69.9999978637696
416,328,133286,5,8,0:0:0:0:
428,259,133374,1,0,0:0:0:0:
398,197,133462,1,0,0:0:0:0:
339,162,133550,1,0,0:0:0:0:
160,176,133639,5,8,0:0:0:0:
106,134,133727,1,0,0:0:0:0:
89,68,133815,1,0,0:0:0:0:
119,6,133903,1,0,0:0:0:0:
328,128,133992,5,8,0:0:0:0:
280,128,134080,1,0,0:0:0:0:
232,128,134168,1,0,0:0:0:0:
184,128,134256,1,0,0:0:0:0:
416,288,134345,5,10,0:0:0:0:
456,264,134403,1,0,0:0:0:0:
472,221,134462,1,2,0:0:0:0:
459,178,134521,1,8,0:0:0:0:
421,152,134580,1,2,0:0:0:0:
192,152,134698,6,0,L|360:128,1,139.999995727539,8|0,0:0|0:0,0:0:0:0:
448,120,135051,1,0,0:0:0:0:
184,112,135227,2,0,P|120:248|208:344,1,279.999991455078,4|0,0:0|0:0,0:0:0:0:
320,344,135756,5,0,0:0:0:0:
80,336,135933,1,2,0:0:0:0:
48,303,135991,1,0,0:0:0:0:
41,257,136050,1,2,0:0:0:0:
62,217,136109,2,0,P|208:192|216:80,1,279.999991455078,8|0,0:0|0:0,0:0:0:0:
80,88,136639,2,0,L|312:272,1,279.999991455078,4|0,0:0|0:0,0:0:0:0:
160,264,137168,1,0,0:0:0:0:
424,216,137345,5,8,0:0:0:0:
444,257,137403,1,0,0:0:0:0:
429,300,137462,1,2,0:0:0:0:
256,304,137521,1,4,0:0:0:0:
360,136,137698,5,8,0:0:0:0:
380,177,137756,1,0,0:0:0:0:
365,220,137815,1,2,0:0:0:0:
192,224,137874,1,4,0:0:0:0:
304,216,138051,5,8,0:0:0:0:
324,257,138109,1,0,0:0:0:0:
309,300,138168,1,2,0:0:0:0:
136,304,138227,1,4,0:0:0:0:
240,136,138404,5,8,0:0:0:0:
260,177,138462,1,0,0:0:0:0:
245,220,138521,1,2,0:0:0:0:
72,224,138580,1,4,0:0:0:0:
312,288,138756,1,0,0:0:0:0:
176,288,138933,5,10,0:0:0:0:
136,270,138977,1,0,0:0:0:0:
107,236,139021,1,0,0:0:0:0:
96,193,139065,1,0,0:0:0:0:
106,149,139109,1,8,0:0:0:0:
134,115,139153,1,0,0:0:0:0:
175,96,139197,1,0,0:0:0:0:
219,98,139241,1,0,0:0:0:0:
264,120,139286,5,8,0:0:0:0:
308,109,139330,1,0,0:0:0:0:
339,77,139374,1,0,0:0:0:0:
348,34,139418,1,0,0:0:0:0:
332,0,139462,1,8,0:0:0:0:
297,0,139506,1,0,0:0:0:0:
252,0,139550,1,0,0:0:0:0:
213,0,139594,1,0,0:0:0:0:
191,22,139639,5,10,0:0:0:0:
233,6,139683,1,0,0:0:0:0:
278,9,139727,1,0,0:0:0:0:
318,29,139771,1,0,0:0:0:0:
346,64,139815,1,8,0:0:0:0:
358,107,139859,1,0,0:0:0:0:
353,151,139903,1,0,0:0:0:0:
330,189,139947,1,0,0:0:0:0:
293,215,139992,5,8,0:0:0:0:
254,194,140036,1,0,0:0:0:0:
210,196,140080,1,0,0:0:0:0:
172,219,140124,1,0,0:0:0:0:
152,259,140168,1,8,0:0:0:0:
154,303,140212,1,0,0:0:0:0:
178,340,140256,1,0,0:0:0:0:
218,360,140300,1,0,0:0:0:0:
291,363,140344,2,0,P|342:298|128:214,1,419.999987182618
373,237,141050,6,0,L|432:195,1,69.9999978637696,8|0,0:0|0:0,0:0:0:0:
338,157,141227,2,0,L|327:70,1,69.9999978637696
416,87,141403,1,8,0:0:0:0:
471,128,141491,1,0,0:0:0:0:
489,194,141579,1,0,0:0:0:0:
463,258,141667,1,0,0:0:0:0:
187,283,141756,5,8,0:0:0:0:
161,219,141844,1,0,0:0:0:0:
186,155,141932,1,0,0:0:0:0:
247,125,142020,1,0,0:0:0:0:
337,129,142109,2,0,L|333:210,1,69.9999978637696,8|0,0:0|0:0,0:0:0:0:
233,210,142285,2,0,L|218:299,1,69.9999978637696
435,293,142462,2,0,L|468:241,5,46.6666652425131,8|0|0|0|0|0,0:0|0:0|0:0|0:0|0:0|0:0,0:0:0:0:
170,281,142815,5,8,0:0:0:0:
163,212,142903,1,0,0:0:0:0:
201,155,142991,1,0,0:0:0:0:
267,136,143079,1,0,0:0:0:0:
197,141,143168,1,8,0:0:0:0:
198,73,143256,1,0,0:0:0:0:
250,29,143344,1,0,0:0:0:0:
160,24,143432,1,0,0:0:0:0:
394,44,143521,5,8,0:0:0:0:
430,102,143609,1,0,0:0:0:0:
436,171,143697,1,0,0:0:0:0:
410,236,143785,1,0,0:0:0:0:
160,240,143874,6,0,L|149:331,1,69.9999978637696,8|0,0:0|0:0,0:0:0:0:
240,222,144050,2,0,L|290:172,1,69.9999978637696
170,158,144227,1,8,0:0:0:0:
110,127,144315,1,0,0:0:0:0:
104,61,144403,1,0,0:0:0:0:
159,22,144491,1,0,0:0:0:0:
439,44,144579,5,8,0:0:0:0:
382,85,144667,1,0,0:0:0:0:
325,126,144755,1,0,0:0:0:0:
269,167,144843,1,0,0:0:0:0:
381,180,144932,2,0,L|378:260,1,69.9999978637696,8|0,0:0|0:0,0:0:0:0:
298,301,145109,2,0,L|367:308,1,69.9999978637696
96,303,145285,6,0,L|57:233,5,46.6666652425131,8|0|0|0|0|0,0:0|0:0|0:0|0:0|0:0|0:0,0:0:0:0:
157,255,145638,1,8,0:0:0:0:
181,216,145696,1,0,0:0:0:0:
184,170,145755,1,0,0:0:0:0:
165,128,145814,1,0,0:0:0:0:
127,101,145873,1,0,0:0:0:0:
82,95,145932,1,0,0:0:0:0:
328,128,145991,5,8,0:0:0:0:
384,128,146079,1,0,0:0:0:0:
440,128,146167,1,0,0:0:0:0:
383,127,146256,1,0,0:0:0:0:
144,144,146344,5,8,0:0:0:0:
102,198,146432,1,0,0:0:0:0:
108,266,146520,1,0,0:0:0:0:
200,264,146609,2,0,L|112:264,1,69.9999978637696,0|8,0:0|0:0,0:0:0:0:
240,280,146785,2,0,L|240:360,1,69.9999978637696
168,352,146962,1,0,0:0:0:0:
408,336,147050,5,8,0:0:0:0:
449,282,147138,1,0,0:0:0:0:
439,214,147226,1,0,0:0:0:0:
383,176,147314,1,0,0:0:0:0:
144,192,147403,6,0,L|112:104,1,69.9999978637696,8|0,0:0|0:0,0:0:0:0:
208,104,147579,2,0,L|120:96,1,69.9999978637696
240,80,147756,2,0,L|216:0,1,69.9999978637696,8|0,0:0|0:0,0:0:0:0:
120,16,147932,1,0,0:0:0:0:
88,72,148020,1,0,0:0:0:0:
312,144,148109,5,8,0:0:0:0:
377,164,148197,1,0,0:0:0:0:
414,222,148285,1,0,0:0:0:0:
405,290,148373,1,0,0:0:0:0:
355,337,148461,1,8,0:0:0:0:
287,341,148550,1,0,0:0:0:0:
200,328,148638,2,0,L|176:240,1,69.9999978637696
264,232,148815,2,0,L|352:216,1,69.9999978637696,8|0,0:0|0:0,0:0:0:0:
248,168,148991,2,0,L|224:88,1,69.9999978637696
448,96,149168,5,8,0:0:0:0:
392,139,149256,1,0,0:0:0:0:
337,182,149344,1,0,0:0:0:0:
280,224,149432,1,0,0:0:0:0:
464,232,149521,6,0,L|448:328,1,69.9999978637696,8|0,0:0|0:0,0:0:0:0:
352,296,149697,2,0,L|320:376,1,69.9999978637696
136,352,149874,5,8,0:0:0:0:
99,293,149962,1,0,0:0:0:0:
102,224,150050,1,0,0:0:0:0:
144,169,150138,1,0,0:0:0:0:
400,112,150227,6,0,L|416:160,2,46.6666652425131,10|0|0,0:0|0:0|0:0,0:0:0:0:
192,72,150462,2,0,L|176:120,2,46.6666652425131,8|0|0,0:0|0:0|0:0,0:0:0:0:
312,56,150697,2,0,L|328:104,2,46.6666652425131,10|0|0,0:0|0:0|0:0,0:0:0:0:
112,112,150932,2,0,L|96:160,2,46.6666652425131,8|0|0,0:0|0:0|0:0,0:0:0:0:
384,104,151109,5,0,0:0:0:0:
431,153,151197,1,0,0:0:0:0:
449,220,151285,1,8,0:0:0:0:
432,288,151373,1,0,0:0:0:0:
385,338,151461,1,0,0:0:0:0:
319,360,151550,1,0,0:0:0:0:
96,328,151638,6,0,L|216:304,1,93.3333304850261,8|0,0:0|0:0,0:0:0:0:
288,288,151874,1,0,0:0:0:0:
64,248,151991,5,8,0:0:0:0:
47,217,152035,1,0,0:0:0:0:
40,183,152079,1,0,0:0:0:0:
44,148,152123,1,0,0:0:0:0:
58,116,152167,1,0,0:0:0:0:
81,90,152211,1,0,0:0:0:0:
110,72,152255,1,0,0:0:0:0:
416,328,152344,6,0,L|296:304,1,93.3333304850261,8|0,0:0|0:0,0:0:0:0:
224,288,152580,1,0,0:0:0:0:
448,248,152697,5,8,0:0:0:0:
465,217,152741,1,0,0:0:0:0:
472,183,152785,1,0,0:0:0:0:
468,148,152829,1,0,0:0:0:0:
454,116,152873,1,0,0:0:0:0:
431,90,152917,1,0,0:0:0:0:
402,72,152961,1,0,0:0:0:0:
136,72,153050,5,8,0:0:0:0:
208,112,153168,1,0,0:0:0:0:
120,144,153285,1,0,0:0:0:0:
368,120,153403,6,0,L|400:160,6,34.9999989318848
136,72,153756,5,8,0:0:0:0:
208,112,153874,1,0,0:0:0:0:
120,144,153991,1,0,0:0:0:0:
368,120,154109,6,0,L|400:160,7,34.9999989318848,8|0|0|0|0|0|0|0,0:0|0:0|0:0|0:0|0:0|0:0|0:0|0:0,0:0:0:0:
72,280,154815,6,0,L|48:64,1,186.666660970052,12|0,0:0|0:0,0:0:0:0:
336,120,155168,1,8,0:0:0:0:
256,152,155285,1,0,0:0:0:0:
184,184,155403,1,0,0:0:0:0:
440,280,155521,6,0,L|464:64,1,186.666660970052,12|0,0:0|0:0,0:0:0:0:
152,120,155874,1,0,0:0:0:0:
256,152,155991,1,0,0:0:0:0:
360,184,156109,1,0,0:0:0:0:
72,280,156227,6,0,L|48:64,1,186.666660970052,12|0,0:0|0:0,0:0:0:0:
272,64,156579,5,10,0:0:0:0:
306,66,156623,1,0,0:0:0:0:
337,82,156667,1,0,0:0:0:0:
360,109,156711,1,0,0:0:0:0:
370,142,156755,1,0,0:0:0:0:
368,176,156799,1,0,0:0:0:0:
352,207,156843,1,0,0:0:0:0:
325,230,156887,1,0,0:0:0:0:
292,241,156931,1,2,0:0:0:0:
257,238,156976,1,0,0:0:0:0:
226,222,157020,1,0,0:0:0:0:
203,195,157064,1,0,0:0:0:0:
193,162,157108,1,0,0:0:0:0:
195,128,157152,1,0,0:0:0:0:
211,97,157196,1,0,0:0:0:0:
238,74,157240,1,0,0:0:0:0:
271,63,157285,6,0,B|392:216|319:319|303:343|295:351|287:351|263:359|239:359|215:367|199:367|175:367|143:359|127:343|119:335|103:327|95:303|87:287|87:271|24:88|304:184,1,793.333309122722,8|0,0:0|0:0,0:0:0:0:
310,159,158344,2,0,L|254:175,5,46.6666652425131
104,64,158697,6,0,P|40:272|360:24,1,1119.99996582031,8|0,0:0|0:0,0:0:0:0:
