osu file format v14

[General]
AudioFilename: audio.mp3
AudioLeadIn: 0
PreviewTime: 103285
Countdown: 0
SampleSet: None
StackLeniency: 0.7
Mode: 2
LetterboxInBreaks: 0
WidescreenStoryboard: 0

[Editor]
DistanceSpacing: 0.8
BeatDivisor: 4
GridSize: 4
TimelineZoom: 2.5

[Metadata]
Title:World Vanquisher
TitleUnicode:World Vanquisher
Artist:void (Mournfinale)
ArtistUnicode:void (Mournfinale)
Creator:[_-Kukkai-_]
Version:Overdose
Source:CHUNITHM STAR
Tags:maimai ultimate catch mapping contest 3 III
BeatmapID:1800131
BeatmapSetID:860408

[Difficulty]
HPDrainRate:6
CircleSize:4.2
OverallDifficulty:9.4
ApproachRate:9.4
SliderMultiplier:2
SliderTickRate:2

[Events]
//Background and Video events
0,0,"441281.jpg",0,0
//Break Periods
2,58662,63569
//Storyboard Layer 0 (Background)
//Storyboard Layer 1 (Fail)
//Storyboard Layer 2 (Pass)
//Storyboard Layer 3 (Foreground)
//Storyboard Sound Samples

[TimingPoints]
580,352.941176470588,4,2,0,30,1,0
13285,-100,4,2,0,40,0,0
23168,-80,4,2,0,40,0,0
23874,-100,4,2,0,40,0,0
35874,-80,4,2,0,40,0,0
41521,-100,4,2,0,40,0,0
47168,-80,4,2,0,40,0,0
51050,-100,4,2,0,40,0,0
52815,-80,4,2,0,40,0,0
55638,-100,4,2,0,40,0,0
64109,-100,4,2,0,30,0,0
81050,-80,4,2,0,40,0,1
103638,-100,4,2,0,30,0,0
116344,-100,4,2,0,5,0,0
117403,-100,4,2,0,30,0,0
117756,-80,4,2,0,40,0,1
126227,-100,4,2,0,40,0,0
129050,-100,4,2,0,40,0,1
137521,-100,4,2,0,5,0,0
139991,-100,4,2,0,40,0,0
140344,-100,4,2,0,40,0,1
151638,-100,4,2,0,30,0,1
154462,-100,4,2,0,40,0,0

[HitObjects]
360,352,1638,6,2,L|304:328,1,50
368,272,1815,2,2,L|424:232,1,50
156,352,1991,6,0,P|104:324|164:232,1,200,2|0,0:0|0:0,0:0:0:0:
292,224,2521,2,0,L|300:156,1,50
232,160,2697,1,0,0:0:0:0:
344,96,2962,1,0,0:0:0:0:
152,88,3227,1,0,0:0:0:0:
296,356,3403,6,0,L|296:216,1,100,2|0,0:0|0:0,0:0:0:0:
220,248,3668,2,0,L|220:176,1,50
340,192,3932,1,0,0:0:0:0:
440,192,4109,2,0,P|452:136|328:80,1,200,0|2,0:0|0:0,0:0:0:0:
310,105,4550,1,2,0:0:0:0:
306,154,4638,1,2,0:0:0:0:
364,156,4726,1,2,0:0:0:0:
120,368,4815,6,0,P|96:292|140:160,1,200,2|0,0:0|0:0,0:0:0:0:
260,164,5344,2,0,L|316:164,2,50
112,164,5785,1,0,0:0:0:0:
272,96,6050,1,0,0:0:0:0:
172,96,6227,5,2,0:0:0:0:
396,360,6491,2,0,L|412:200,1,150
304,256,6932,2,0,P|232:224|304:164,1,200,0|2,0:0|0:0,0:0:0:0:
352,160,7373,1,2,0:0:0:0:
356,104,7461,1,2,0:0:0:0:
296,100,7549,1,2,0:0:0:0:
72,360,7638,5,2,0:0:0:0:
168,308,7815,2,0,L|176:88,1,200
120,100,8256,1,0,0:0:0:0:
176,60,8344,1,0,0:0:0:0:
328,64,8609,1,0,0:0:0:0:
144,320,8874,1,0,0:0:0:0:
376,328,9050,5,2,0:0:0:0:
224,260,9315,1,0,0:0:0:0:
412,208,9579,1,0,0:0:0:0:
160,200,9756,1,0,0:0:0:0:
316,128,10021,1,0,0:0:0:0:
160,124,10285,1,0,0:0:0:0:
424,360,10462,6,0,P|456:288|392:80,1,300,2|0,0:0|0:0,0:0:0:0:
340,92,11079,1,0,0:0:0:0:
136,360,11168,2,0,L|296:324,2,150
284,368,11874,5,2,0:0:0:0:
367,315,12050,1,0,0:0:0:0:
399,223,12226,1,0,0:0:0:0:
108,276,12403,2,0,P|52:240|156:80,1,300,2|0,0:0|0:0,0:0:0:0:
352,80,13285,5,0,1:0:0:0:
84,360,13462,2,0,L|84:224,1,100,0|0,1:0|0:0,0:0:0:0:
332,356,13815,2,0,P|380:312|320:268,1,150,0|0,1:0|0:0,0:0:0:0:
264,272,14168,2,0,P|212:228|264:196,1,150,0|0,1:0|0:0,0:0:0:0:
420,184,14521,6,0,P|472:148|412:112,1,150,0|0,1:0|0:0,0:0:0:0:
240,360,14874,2,0,P|184:316|240:288,1,150,0|0,1:0|0:0,0:0:0:0:
296,280,15227,2,0,P|344:232|288:216,1,150,0|0,1:0|0:0,0:0:0:0:
84,220,15579,6,2,L|16:220,1,50,2|2,1:2|0:2,0:2:0:0:
84,160,15756,1,2,1:2:0:0:
134,160,15844,1,2,0:2:0:0:
184,160,15932,1,2,0:2:0:0:
184,100,16021,1,2,0:2:0:0:
132,104,16109,5,0,1:0:0:0:
412,360,16285,2,0,L|412:248,1,100,0|0,1:0|0:0,0:0:0:0:
176,368,16638,2,0,P|116:348|176:308,1,150,0|0,1:0|0:0,0:0:0:0:
228,300,16991,2,0,P|284:268|224:240,1,150,0|0,1:0|0:0,0:0:0:0:
80,244,17344,6,0,P|28:208|80:168,1,150,0|0,1:0|0:0,0:0:0:0:
240,188,17697,2,0,P|292:156|236:120,1,150,0|0,1:0|0:0,0:0:0:0:
172,124,18050,2,0,P|128:100|100:44,1,100,0|2,1:0|0:0,0:0:0:0:
164,24,18315,1,2,0:0:0:0:
229,24,18403,1,2,0:0:0:0:
292,48,18491,1,2,0:0:0:0:
68,364,18579,6,0,L|64:144,1,200,2|0,1:2|1:0,0:0:0:0:
336,364,19109,6,0,B|436:364|436:364|376:364,1,150,0|0,1:0|0:0,0:0:0:0:
320,300,19462,2,0,B|220:300|220:300|276:300,1,150,0|0,1:0|0:0,0:0:0:0:
340,248,19815,2,0,B|440:248|440:248|376:248,1,150,0|0,1:0|0:0,0:0:0:0:
184,244,20168,6,0,B|84:244|84:244|140:244,1,150,0|0,1:0|0:0,0:0:0:0:
340,180,20521,2,0,B|440:180|440:180|384:180,1,150,0|0,1:0|0:0,0:0:0:0:
180,352,20874,2,0,P|124:328|188:284,1,150,0|0,1:0|0:0,0:0:0:0:
228,272,21227,2,2,L|284:272,1,50,2|2,1:2|0:0,0:0:0:0:
220,208,21403,2,2,L|148:208,1,50,2|2,1:2|0:0,0:0:0:0:
108,144,21579,2,2,L|176:144,1,50
360,144,21756,5,0,1:0:0:0:
128,288,21932,2,0,L|80:168,1,100,0|0,1:0|1:0,1:0:0:0:
344,204,22285,2,0,L|408:96,1,100,0|0,1:0|1:0,1:0:0:0:
124,204,22638,2,0,L|56:104,1,100,0|0,1:0|1:0,1:0:0:0:
376,352,22991,6,0,L|260:352,1,100,0|0,1:0|1:0,1:0:0:0:
332,288,23256,1,0,1:0:0:0:
392,282,23344,1,0,1:0:0:0:
431,235,23432,1,0,1:0:0:0:
427,174,23520,1,0,1:0:0:0:
381,134,23608,1,0,1:0:0:0:
321,137,23697,1,0,1:0:0:0:
132,156,23785,5,0,1:0:0:0:
272,352,24227,6,2,L|272:284,1,50
208,272,24403,2,2,L|208:208,1,50
376,208,24579,5,4,1:0:0:0:
423,202,24667,1,0,0:0:0:0:
445,159,24755,1,0,0:0:0:0:
422,117,24843,1,0,0:0:0:0:
374,114,24931,1,0,1:0:0:0:
216,200,25109,6,0,L|208:128,1,50
364,344,25285,2,0,L|424:344,2,50,0|0|0,1:0|0:0|0:0,0:0:0:0:
304,344,25550,2,0,L|296:280,1,50,0|0,0:0|1:0,0:0:0:0:
404,216,25815,2,0,L|348:216,1,50
152,332,25991,6,0,L|88:332,2,50,0|0|0,1:0|0:0|0:0,0:0:0:0:
224,332,26256,2,0,L|236:264,1,50,0|0,0:0|1:0,0:0:0:0:
132,220,26521,1,0,0:0:0:0:
380,228,26697,1,0,1:0:0:0:
160,168,27050,6,2,L|160:96,1,50,2|2,1:2|0:2,0:2:0:0:
228,100,27227,2,2,L|228:32,1,50,2|2,0:2|0:2,0:2:0:0:
36,352,27403,6,0,L|36:280,1,50,0|0,1:0|0:0,0:0:0:0:
96,256,27579,2,0,L|180:256,2,50,0|0|0,0:0|0:0|1:0,0:0:0:0:
280,240,27932,2,0,L|316:188,1,50
148,144,28109,2,0,L|84:144,2,50,0|0|0,1:0|0:0|0:0,0:0:0:0:
368,352,28374,2,0,L|368:280,1,50,0|0,0:0|1:0,0:0:0:0:
240,280,28638,1,0,0:0:0:0:
408,232,28815,6,0,L|408:168,2,50,0|0|0,1:0|0:0|0:0,0:0:0:0:
304,236,29079,2,0,L|244:236,1,50,0|0,0:0|1:0,0:0:0:0:
376,152,29344,1,0,0:0:0:0:
92,352,29521,2,0,L|92:244,1,100,0|0,1:0|0:0,0:0:0:0:
152,248,29785,1,0,0:0:0:0:
332,248,29874,2,2,L|332:180,1,50,2|2,1:2|0:2,0:2:0:0:
272,160,30050,2,2,L|176:160,1,50,2|2,0:2|0:2,0:2:0:0:
376,364,30227,6,0,L|432:364,1,50,4|0,1:0|0:0,0:0:0:0:
480,308,30403,2,0,L|480:240,1,50
288,260,30579,2,0,L|176:260,1,100,0|0,1:0|0:0,0:0:0:0:
240,200,30844,1,0,0:0:0:0:
40,204,30932,2,0,L|40:92,1,100,0|0,1:0|0:0,0:0:0:0:
120,92,31197,2,0,L|120:152,1,50,0|0,0:0|1:0,0:0:0:0:
24,296,31462,1,0,0:0:0:0:
260,300,31638,6,0,P|292:248|248:228,1,100,0|0,1:0|0:0,0:0:0:0:
192,224,31903,2,0,L|192:164,1,50,0|0,0:0|1:0,0:0:0:0:
288,116,32168,1,0,0:0:0:0:
128,344,32344,2,0,P|100:296|152:260,1,100,0|0,1:0|0:0,0:0:0:0:
200,260,32609,2,0,L|240:220,1,50,0|0,0:0|1:0,0:0:0:0:
128,172,32874,1,0,0:0:0:0:
368,360,33050,6,0,L|368:280,1,50,4|0,1:0|0:0,0:0:0:0:
296,296,33227,2,0,L|296:220,1,50
360,216,33403,1,0,0:0:0:0:
204,240,33579,2,0,L|144:240,1,50,0|0,1:0|1:0,1:0:0:0:
344,356,33756,6,0,L|368:248,1,100,0|0,1:0|0:0,0:0:0:0:
188,352,34021,2,0,L|176:240,1,100,0|0,1:0|0:0,0:0:0:0:
336,184,34285,1,0,1:0:0:0:
208,192,34462,5,0,1:0:0:0:
88,136,34638,1,0,0:0:0:0:
88,136,34815,1,0,0:0:0:0:
336,356,34991,2,0,P|408:304|336:244,1,200,0|0,1:0|0:0,0:0:0:0:
140,240,35521,2,2,L|140:168,1,50,2|2,0:0|0:0,0:0:0:0:
304,176,35697,2,2,L|304:120,1,50,2|2,0:0|0:0,0:0:0:0:
96,356,35874,5,0,1:0:0:0:
32,352,35962,1,0,0:0:0:0:
32,296,36050,1,0,0:0:0:0:
96,296,36138,1,0,0:0:0:0:
340,360,36227,1,8,1:2:0:0:
404,344,36315,1,0,0:0:0:0:
408,297,36403,1,0,0:0:0:0:
345,278,36491,1,0,0:0:0:0:
240,280,36579,6,0,L|240:200,1,62.5,0|0,1:0|0:0,0:0:0:0:
292,168,36756,2,0,L|384:168,1,62.5
448,168,36932,2,0,L|448:88,1,62.5,8|0,1:2|0:0,0:0:0:0:
392,60,37109,2,0,L|316:60,1,62.5
120,364,37285,6,0,L|40:364,1,62.5,0|0,1:0|0:0,0:0:0:0:
120,300,37462,2,0,L|204:300,1,62.5
276,300,37638,2,0,L|284:212,1,62.5,8|0,1:2|0:0,0:0:0:0:
216,192,37815,2,0,L|136:192,1,62.5
336,188,37991,6,0,L|416:188,1,62.5,0|0,1:0|0:0,0:0:0:0:
464,192,38168,2,0,L|464:112,1,62.5
228,364,38344,2,0,L|144:364,1,62.5,8|0,1:2|0:0,0:0:0:0:
100,308,38521,2,0,L|180:308,1,62.5
340,308,38697,6,0,L|340:232,1,62.5,0|0,1:0|0:0,0:0:0:0:
260,240,38874,2,0,L|260:168,1,62.5
368,168,39050,1,8,1:2:0:0:
432,148,39138,1,0,0:0:0:0:
430,101,39226,1,0,0:0:0:0:
363,86,39314,1,0,0:0:0:0:
288,88,39403,5,0,1:0:0:0:
224,104,39491,1,0,0:0:0:0:
222,151,39579,1,0,0:0:0:0:
284,172,39667,1,0,0:0:0:0:
468,348,39756,2,0,L|468:276,1,62.5,8|0,1:2|0:0,0:0:0:0:
412,240,39932,2,0,L|344:240,1,62.5
172,364,40109,5,0,1:0:0:0:
108,344,40197,1,0,0:0:0:0:
104,296,40285,1,0,0:0:0:0:
164,272,40373,1,0,0:0:0:0:
256,264,40462,2,0,L|256:196,1,62.5,8|0,1:2|0:0,0:0:0:0:
200,160,40638,2,0,L|124:160,1,62.5
312,352,40815,5,0,1:0:0:0:
372,336,40903,1,0,0:0:0:0:
372,289,40991,1,0,0:0:0:0:
312,276,41079,1,0,0:0:0:0:
120,272,41168,2,2,L|48:272,1,62.5,10|2,1:2|0:0,0:0:0:0:
120,208,41344,2,2,L|204:208,1,62.5
400,348,41521,6,0,P|464:312|372:248,1,200,0|0,1:0|0:0,0:0:0:0:
252,352,42050,2,0,P|224:272|276:144,1,200
364,152,42579,2,2,L|424:152,1,50
364,88,42756,2,2,L|308:88,1,50
112,360,42932,6,0,P|48:328|132:260,1,200,0|0,1:0|0:0,0:0:0:0:
228,252,43462,2,0,L|248:36,1,200
136,220,43991,2,2,L|136:156,1,50
192,124,44168,2,2,L|252:124,1,50
460,360,44344,6,0,P|484:304|440:276,1,100,0|0,1:0|1:0,1:0:0:0:
380,284,44609,1,0,1:0:0:0:
292,288,44697,2,0,P|260:240|300:208,1,100,0|0,1:0|1:0,1:0:0:0:
376,208,44962,1,0,1:0:0:0:
464,208,45050,2,0,L|476:96,1,100,0|0,1:0|1:0,1:0:0:0:
392,108,45315,1,0,1:0:0:0:
172,352,45403,2,0,P|132:304|176:284,1,100,0|0,1:0|1:0,1:0:0:0:
208,284,45668,1,0,1:0:0:0:
384,288,45756,5,0,3:0:0:0:
408,283,45800,1,0,3:0:0:0:
426,266,45844,1,0,3:0:0:0:
434,243,45888,1,0,3:0:0:0:
428,219,45932,1,0,3:0:0:0:
410,201,45976,1,0,3:0:0:0:
387,195,46020,1,0,3:0:0:0:
308,200,46109,5,0,3:0:0:0:
308,175,46153,1,0,3:0:0:0:
308,150,46197,1,0,3:0:0:0:
308,125,46241,1,0,3:0:0:0:
308,100,46285,1,0,3:0:0:0:
308,75,46329,1,0,3:0:0:0:
308,50,46373,1,0,3:0:0:0:
224,196,46462,5,0,3:0:0:0:
199,191,46506,1,0,3:0:0:0:
181,174,46550,1,0,3:0:0:0:
173,151,46594,1,0,3:0:0:0:
179,127,46638,1,0,3:0:0:0:
197,109,46682,1,0,3:0:0:0:
220,103,46726,1,0,3:0:0:0:
388,364,46815,6,0,L|496:368,1,100,4|0,0:2|0:0,0:0:0:0:
440,304,47079,1,0,0:0:0:0:
144,364,47168,6,2,L|144:232,1,125,2|2,1:2|0:2,0:2:0:0:
272,260,47521,2,2,L|140:260,1,125,2|2,1:2|0:2,0:2:0:0:
300,200,47874,2,2,L|168:200,1,125,2|2,1:2|0:2,0:2:0:0:
336,136,48227,1,2,1:2:0:0:
380,121,48315,1,2,0:2:0:0:
379,75,48403,1,2,0:2:0:0:
334,63,48491,1,2,0:2:0:0:
128,364,48579,6,2,L|272:364,1,125,2|2,1:2|0:2,0:2:0:0:
92,300,48932,2,2,L|236:296,1,125,2|2,1:2|0:2,0:2:0:0:
52,248,49285,2,2,L|48:124,1,125,2|2,1:2|0:2,0:2:0:0:
152,136,49638,2,2,L|220:112,1,62.5,2|2,1:2|0:2,0:2:0:0:
152,72,49815,2,2,L|84:52,1,62.5,2|2,0:2|0:2,0:2:0:0:
344,368,49991,6,2,L|484:368,1,125,2|2,1:2|0:2,0:2:0:0:
300,308,50344,2,2,L|432:308,1,125,2|2,1:2|0:2,0:2:0:0:
256,244,50697,2,2,L|392:244,1,125,2|2,1:2|0:2,0:2:0:0:
204,192,51050,1,2,1:2:0:0:
157,189,51138,1,2,0:2:0:0:
147,143,51226,1,2,0:2:0:0:
188,122,51314,1,2,0:2:0:0:
372,360,51403,6,2,L|372:300,1,50,2|2,1:2|0:2,0:2:0:0:
304,288,51579,2,2,L|304:224,1,50,2|2,0:2|0:2,0:2:0:0:
456,236,51756,2,2,L|512:236,1,50,2|2,1:2|0:2,0:2:0:0:
456,176,51932,2,2,L|392:176,1,50,2|2,0:2|0:2,0:2:0:0:
172,364,52109,6,2,L|104:364,1,50,2|2,1:2|0:2,0:2:0:0:
72,304,52285,2,2,L|156:304,1,50,2|2,0:2|0:2,0:2:0:0:
316,280,52462,2,2,L|380:280,1,50,2|2,1:2|0:2,0:2:0:0:
188,236,52638,2,2,L|164:184,1,50,2|2,0:2|0:2,0:2:0:0:
376,352,52815,6,2,P|412:308|356:280,1,125,6|2,1:2|0:2,0:2:0:0:
292,288,53079,1,0,0:2:0:0:
204,284,53168,2,2,P|160:244|204:212,1,125,2|2,1:2|0:2,0:2:0:0:
288,208,53432,1,0,0:2:0:0:
384,212,53521,2,2,L|396:88,1,125,2|2,1:2|0:2,0:2:0:0:
324,108,53785,1,0,0:2:0:0:
120,360,53874,2,2,L|52:344,1,62.5,2|2,1:2|0:2,0:2:0:0:
248,316,54050,2,2,L|260:252,1,62.5,2|2,0:2|0:2,0:2:0:0:
80,248,54227,6,2,P|40:200|92:168,1,125,2|2,1:2|0:2,0:2:0:0:
164,164,54491,1,0,0:2:0:0:
260,160,54579,1,2,1:2:0:0:
104,84,54756,1,2,0:2:0:0:
196,84,54844,1,0,0:2:0:0:
288,88,54932,1,2,1:2:0:0:
116,344,55109,2,0,L|96:272,1,62.5,2|0,0:2|0:2,0:2:0:0:
296,280,55285,5,2,1:2:0:0:
346,280,55373,1,2,0:2:0:0:
396,280,55461,1,2,0:2:0:0:
446,280,55549,1,2,0:2:0:0:
200,340,55638,6,0,P|164:284|208:268,1,100,6|0,1:2|0:2,0:2:0:0:
232,272,55903,1,0,0:2:0:0:
392,216,55991,5,2,3:2:0:0:
415,209,56035,1,2,3:2:0:0:
433,192,56079,1,2,3:2:0:0:
438,168,56123,1,2,3:2:0:0:
431,144,56167,1,2,3:2:0:0:
412,128,56211,1,2,3:2:0:0:
387,125,56255,1,2,3:2:0:0:
172,260,56344,6,2,L|104:260,1,50,6|2,1:2|0:2,0:2:0:0:
272,192,56521,2,2,L|280:120,1,50,2|2,0:2|0:2,0:2:0:0:
92,152,56697,1,2,3:2:0:0:
46,140,56785,1,2,3:2:0:0:
44,93,56873,1,2,3:2:0:0:
88,76,56961,1,2,3:2:0:0:
280,352,57050,5,6,1:2:0:0:
196,300,57168,1,2,1:2:0:0:
280,296,57285,1,2,1:2:0:0:
360,296,57403,1,2,0:2:0:0:
140,240,57521,1,2,0:2:0:0:
68,240,57638,1,2,0:2:0:0:
372,168,57756,5,2,1:2:0:0:
300,168,57844,1,2,1:2:0:0:
372,100,57932,1,2,1:2:0:0:
300,100,58021,1,2,1:2:0:0:
104,200,58109,5,2,0:2:0:0:
81,205,58153,1,2,0:2:0:0:
59,193,58197,1,2,0:2:0:0:
52,169,58241,1,2,0:2:0:0:
63,147,58285,1,2,0:2:0:0:
86,139,58329,1,2,0:2:0:0:
109,148,58373,1,2,0:2:0:0:
284,152,58462,5,2,1:2:0:0:
372,348,64109,6,0,L|263:313,2,100,2|0|0,0:0|0:0|0:0,0:0:0:0:
220,352,64638,2,0,L|320:316,2,100,2|0|0,0:0|0:0|0:0,0:0:0:0:
372,300,65168,2,0,L|376:176,1,100,2|0,0:0|0:0,0:0:0:0:
256,208,65521,6,0,L|240:72,1,100
400,360,65874,2,0,P|448:328|380:224,1,200,0|8,0:0|0:0,0:0:0:0:
244,224,66403,1,8,0:0:0:0:
392,172,66579,2,0,L|400:44,1,100,8|0,0:0|0:0,0:0:0:0:
56,352,66932,6,0,L|160:312,2,100,2|0|0,0:0|0:0|0:0,0:0:0:0:
212,360,67462,2,0,L|104:308,2,100,2|0|0,0:0|0:0|0:0,0:0:0:0:
56,280,67991,2,0,L|52:164,1,100,2|0,0:0|0:0,0:0:0:0:
156,172,68344,5,0,0:0:0:0:
312,352,68521,2,0,P|420:280|292:220,1,300,0|8,0:0|0:0,0:0:0:0:
144,208,69227,1,8,0:0:0:0:
284,152,69403,2,0,P|212:120|200:24,1,150,8|0,0:0|0:0,0:0:0:0:
380,368,69756,6,0,L|452:368,1,50,0|0,3:0|3:0,3:0:0:0:
384,300,69932,1,0,3:0:0:0:
334,298,70020,1,0,3:0:0:0:
284,297,70108,1,0,3:0:0:0:
234,296,70196,1,0,3:0:0:0:
388,220,70285,2,0,L|388:104,1,100,0|0,3:0|0:0,0:0:0:0:
244,124,70638,1,0,0:0:0:0:
484,360,70815,2,0,L|492:232,1,100,0|0,3:0|0:0,0:0:0:0:
436,260,71079,1,0,0:0:0:0:
372,260,71168,6,0,L|368:136,1,100
420,156,71432,1,0,0:0:0:0:
368,104,71521,2,0,L|300:104,1,50
371,43,71697,2,0,L|431:43,1,50
128,360,71874,6,8,L|240:360,2,100
72,296,72315,1,0,0:0:0:0:
128,296,72403,2,0,L|188:296,1,50
408,296,72579,6,0,L|408:164,1,100,0|0,3:0|3:0,3:0:0:0:
363,172,72844,1,0,3:0:0:0:
319,149,72932,1,0,3:0:0:0:
275,126,73020,1,0,3:0:0:0:
52,364,73109,6,0,L|52:252,1,100,0|0,3:0|0:0,0:0:0:0:
124,184,73462,1,0,0:0:0:0:
384,368,73638,2,0,L|264:332,2,100,0|0|0,3:0|0:0|0:0,0:0:0:0:
220,372,74168,5,0,0:0:0:0:
267,355,74256,1,0,0:0:0:0:
314,339,74344,1,0,0:0:0:0:
361,323,74432,1,0,0:0:0:0:
308,272,74521,2,0,L|252:256,1,50
52,252,74697,6,8,L|40:136,1,100
288,132,75050,2,0,L|168:132,1,100,8|0,0:0|0:0,0:0:0:0:
428,364,75403,6,0,P|440:304|408:248,1,100,0|0,3:0|3:0,3:0:0:0:
364,236,75668,1,0,3:0:0:0:
416,184,75756,2,0,L|420:124,1,50,0|0,3:0|3:0,3:0:0:0:
212,352,75932,2,0,L|328:328,1,100,0|0,3:0|3:0,3:0:0:0:
412,316,76285,1,0,0:0:0:0:
120,304,76462,2,0,L|116:196,1,100,0|0,3:0|0:0,0:0:0:0:
116,152,76727,1,0,0:0:0:0:
112,88,76815,5,0,0:0:0:0:
272,360,76991,2,0,P|156:288|276:256,1,300,0|8,0:0|0:0,0:0:0:0:
396,240,77697,1,8,0:0:0:0:
260,188,77874,1,8,0:0:0:0:
305,166,77962,1,0,0:0:0:0:
350,145,78050,1,0,0:0:0:0:
395,123,78138,1,0,0:0:0:0:
152,360,78227,6,0,L|136:240,1,100,0|0,3:0|3:0,3:0:0:0:
192,256,78491,1,0,3:0:0:0:
140,200,78579,2,0,L|68:200,1,50,0|0,3:0|3:0,3:0:0:0:
340,200,78756,5,0,3:0:0:0:
128,128,79285,1,0,3:0:0:0:
388,124,79815,1,0,3:0:0:0:
80,72,80344,1,0,3:0:0:0:
336,364,81050,6,0,L|472:364,2,125,2|2|0,1:0|0:1|1:0,0:0:0:0:
96,360,81579,2,0,L|72:220,1,125,0|0,0:0|1:0,0:0:0:0:
392,256,81932,2,0,L|320:256,1,62.5
160,256,82109,1,0,1:0:0:0:
288,188,82285,1,0,0:0:0:0:
48,192,82462,6,0,L|48:116,1,62.5,0|0,1:0|0:0,0:0:0:0:
280,348,82638,1,0,0:0:0:0:
164,344,82815,1,0,1:0:0:0:
400,284,82991,2,0,L|472:244,1,62.5
272,240,83168,1,0,1:0:0:0:
408,180,83344,1,0,0:0:0:0:
228,176,83521,1,0,1:0:0:0:
360,104,83697,1,0,0:0:0:0:
64,352,83874,5,2,0:1:0:0:
304,364,84050,2,0,L|312:224,1,125,2|0,0:1|1:0,0:0:0:0:
152,252,84403,1,0,0:0:0:0:
384,256,84579,1,0,1:0:0:0:
484,196,84756,2,0,L|412:196,1,62.5
208,180,84932,1,0,1:0:0:0:
312,364,85109,1,0,0:0:0:0:
144,316,85285,6,0,L|220:316,1,62.5,0|0,1:0|0:0,0:0:0:0:
464,264,85462,2,0,L|328:240,1,125,0|0,0:0|1:0,0:0:0:0:
484,184,85815,2,0,L|492:104,1,62.5
248,120,85991,2,0,L|384:120,1,125,0|0,1:0|0:0,0:0:0:0:
80,364,86344,2,0,P|24:304|88:244,1,187.5,8|0,1:0|0:0,0:0:0:0:
332,360,86697,6,0,P|452:300|296:200,1,375,0|2,3:0|0:1,0:0:0:0:
48,352,87403,2,0,L|44:216,1,125,2|0,1:1|0:0,0:0:0:0:
108,224,87668,1,0,0:0:0:0:
288,224,87756,1,0,1:0:0:0:
160,168,87932,1,0,0:0:0:0:
408,360,88109,6,0,L|424:272,1,62.5,0|0,1:0|0:0,0:0:0:0:
208,304,88285,2,0,L|80:304,1,125,0|0,0:0|1:0,0:0:0:0:
348,240,88638,2,0,L|356:164,1,62.5
160,188,88815,1,0,1:0:0:0:
288,116,88991,1,0,0:0:0:0:
128,148,89168,1,0,1:0:0:0:
264,64,89344,1,0,0:0:0:0:
28,364,89521,6,0,L|296:364,1,250,0|0,3:0|0:0,0:0:0:0:
120,300,90050,1,2,0:1:0:0:
412,304,90227,2,0,L|432:180,1,125,2|0,1:1|0:0,0:0:0:0:
368,192,90491,1,0,0:0:0:0:
188,192,90579,1,0,1:0:0:0:
312,112,90756,1,0,0:0:0:0:
64,364,90932,6,0,L|48:284,1,62.5,0|0,1:0|0:0,0:0:0:0:
280,296,91109,1,0,0:0:0:0:
152,240,91285,1,0,1:0:0:0:
388,216,91462,2,0,L|452:196,1,62.5
224,208,91638,2,0,L|212:68,1,125,0|0,1:0|0:0,0:0:0:0:
460,372,91991,2,0,P|496:308|424:224,1,187.5,8|0,1:0|0:0,0:0:0:0:
192,336,92344,5,2,1:2:0:0:
316,276,92521,2,0,P|384:216|304:176,1,187.5,2|0,0:0|0:0,0:0:0:0:
132,176,92874,2,2,L|16:120,1,125,2|2,1:1|1:1,1:1:0:0:
296,356,93227,2,0,L|368:352,2,62.5,0|0|0,1:0|1:0|1:0,1:0:0:0:
64,356,93579,1,0,1:0:0:0:
304,280,93756,5,0,1:0:0:0:
254,280,93844,1,0,1:0:0:0:
204,280,93932,1,0,1:0:0:0:
328,224,94109,1,0,1:0:0:0:
80,232,94285,2,0,L|36:180,1,62.5,0|0,1:0|1:0,1:0:0:0:
244,360,94462,1,0,1:0:0:0:
120,360,94638,1,0,1:0:0:0:
384,292,94815,2,0,L|500:220,1,125,0|0,1:0|1:0,1:0:0:0:
144,296,95168,6,0,P|68:240|172:192,1,250,0|0,3:0|0:0,0:0:0:0:
460,192,95697,1,2,1:0:0:0:
140,352,95874,2,0,L|268:352,1,125,2|0,1:0|1:0,1:0:0:0:
328,352,96138,1,0,1:0:0:0:
28,292,96227,2,0,L|28:168,1,125,0|0,1:0|1:0,1:0:0:0:
344,188,96579,6,0,L|376:120,1,62.5,0|0,1:0|1:0,1:0:0:0:
164,128,96756,2,0,L|300:128,1,125,0|0,1:0|1:0,1:0:0:0:
24,360,97109,2,0,L|8:284,1,62.5,0|0,1:0|1:0,1:0:0:0:
216,292,97285,2,0,L|80:292,1,125,0|0,1:0|1:0,1:0:0:0:
376,356,97638,2,0,P|432:320|360:248,1,187.5,8|0,0:0|0:0,0:0:0:0:
108,368,97991,6,0,P|64:296|260:132,1,375,0|2,3:0|1:0,0:0:0:0:
484,120,98697,1,2,1:0:0:0:
148,360,98874,6,0,L|136:292,1,62.5,0|0,1:0|1:0,1:0:0:0:
344,296,99050,1,0,1:0:0:0:
212,232,99227,1,0,1:0:0:0:
456,236,99403,2,0,L|472:176,1,62.5,0|0,1:0|1:0,1:0:0:0:
256,164,99579,1,0,1:0:0:0:
392,88,99756,1,0,1:0:0:0:
160,352,99932,5,0,1:0:0:0:
96,348,100020,1,0,1:0:0:0:
28,348,100108,1,0,1:0:0:0:
264,276,100285,1,0,1:0:0:0:
200,276,100373,1,0,1:0:0:0:
132,276,100461,1,0,1:0:0:0:
400,276,100638,2,0,L|416:188,1,62.5,0|0,1:0|1:0,1:0:0:0:
160,356,100815,5,2,1:2:0:0:
264,304,100991,2,0,L|12:216,1,250,2|2,0:0|1:0,0:0:0:0:
328,244,101521,2,0,P|360:180|316:148,1,125,2|0,1:0|1:0,1:0:0:0:
240,156,101785,1,0,1:0:0:0:
152,152,101874,2,0,P|112:104|160:68,1,125,0|0,1:0|1:0,1:0:0:0:
420,356,102227,6,2,L|476:356,2,41.6666666666667,2|2|2,1:2|1:2|1:2,1:2:0:0:
256,312,102403,2,2,L|192:312,2,41.6666666666667,2|2|2,1:2|1:2|1:2,1:2:0:0:
400,236,102579,6,0,P|424:200|392:176,1,83.3333333333333,2|0,0:0|0:0,0:0:0:0:
172,232,102756,2,0,L|160:132,1,83.3333333333333,2|0,0:0|0:0,0:0:0:0:
232,168,102932,2,0,L|320:68,1,125
128,172,103285,2,2,L|64:172,1,62.5
40,108,103462,2,2,L|112:112,1,62.5
336,364,103638,6,0,P|448:312|324:252,1,300,12|0,0:1|0:0,0:0:0:0:
280,244,104256,1,0,0:0:0:0:
220,256,104344,1,0,0:0:0:0:
360,168,104609,1,0,0:0:0:0:
208,104,104874,1,0,0:0:0:0:
360,340,105050,5,0,0:0:0:0:
216,268,105315,1,0,0:0:0:0:
376,224,105579,1,0,0:0:0:0:
84,356,105756,2,0,P|28:308|112:232,1,200,0|2,0:0|0:0,0:0:0:0:
145,228,106197,1,2,0:0:0:0:
96,168,106285,1,2,0:0:0:0:
46,168,106373,1,2,0:0:0:0:
308,368,106462,6,0,P|220:344|320:216,1,300
356,208,107079,1,0,0:0:0:0:
416,208,107168,1,0,0:0:0:0:
264,132,107432,1,0,0:0:0:0:
416,68,107697,1,0,0:0:0:0:
264,360,107874,5,0,0:0:0:0:
416,280,108138,1,0,0:0:0:0:
248,280,108403,1,0,0:0:0:0:
492,364,108579,2,0,L|492:128,1,200,0|2,0:0|0:0,0:0:0:0:
442,164,109020,1,2,0:0:0:0:
392,164,109108,1,2,0:0:0:0:
342,164,109196,1,2,0:0:0:0:
112,364,109285,6,0,P|48:324|160:184,1,300
208,184,109903,1,0,0:0:0:0:
144,128,109991,1,0,0:0:0:0:
296,88,110256,1,0,0:0:0:0:
140,40,110521,1,0,0:0:0:0:
292,344,110697,5,0,0:0:0:0:
144,248,110962,1,0,0:0:0:0:
296,200,111227,1,0,0:0:0:0:
48,204,111403,1,0,0:0:0:0:
200,156,111668,1,0,0:0:0:0:
60,116,111932,1,0,0:0:0:0:
344,356,112109,6,0,P|424:324|328:188,1,300
276,192,112727,1,0,0:0:0:0:
216,200,112815,1,0,0:0:0:0:
368,112,113079,1,0,0:0:0:0:
192,64,113344,1,0,0:0:0:0:
436,364,113521,5,0,0:0:0:0:
336,362,113697,1,0,0:0:0:0:
236,360,113873,1,0,0:0:0:0:
476,288,114050,2,0,L|496:60,1,200
172,356,114932,6,0,L|24:356,2,100
416,356,115462,6,0,P|480:268|236:52,1,500
288,356,117403,5,2,0:0:0:0:
344,356,117491,1,2,0:0:0:0:
404,356,117579,1,2,0:0:0:0:
344,300,117668,1,2,0:0:0:0:
168,304,117756,6,0,L|160:240,1,62.5,0|0,1:0|0:0,0:0:0:0:
240,224,117932,2,0,L|248:132,1,62.5
160,152,118109,2,0,L|28:108,1,125,0|0,1:0|0:0,0:0:0:0:
112,48,118374,1,0,0:0:0:0:
348,360,118462,6,0,L|360:288,1,62.5,0|0,1:0|0:0,0:0:0:0:
284,280,118638,1,0,0:0:0:0:
108,280,118727,2,0,L|32:280,2,62.5,0|0|0,0:0|1:0|0:0,0:0:0:0:
348,208,118991,1,0,0:0:0:0:
220,148,119168,5,0,1:0:0:0:
201,92,119256,1,0,0:0:0:0:
249,60,119344,1,0,0:0:0:0:
408,60,119432,2,0,L|448:112,1,62.5,0|0,0:0|1:0,0:0:0:0:
304,360,119697,2,0,L|276:296,1,62.5
448,280,119874,6,0,P|472:216|416:200,1,125,0|0,1:0|0:0,0:0:0:0:
368,196,120138,1,0,0:0:0:0:
144,200,120227,1,2,1:2:0:0:
84,181,120315,1,2,0:2:0:0:
24,162,120403,1,2,0:2:0:0:
88,96,120491,1,2,0:2:0:0:
260,360,120579,6,0,L|328:360,1,62.5,0|0,1:0|0:0,0:0:0:0:
264,292,120756,2,0,L|160:292,1,62.5
384,288,120932,2,0,P|448:240|384:200,1,125,0|0,1:0|0:0,0:0:0:0:
368,196,121197,1,0,0:0:0:0:
156,300,121285,2,0,L|136:144,1,125,0|0,1:0|0:0,0:0:0:0:
304,156,121550,2,0,L|400:124,1,62.5,0|0,0:0|1:0,0:0:0:0:
192,68,121815,1,0,0:0:0:0:
448,352,121991,5,0,1:0:0:0:
487,313,122079,1,0,0:0:0:0:
444,277,122167,1,0,0:0:0:0:
276,276,122256,2,0,L|200:256,1,62.5,0|0,0:0|1:0,0:0:0:0:
352,216,122521,2,0,L|364:148,1,62.5
180,352,122697,2,0,P|108:320|112:256,1,125,0|0,1:0|0:0,0:0:0:0:
340,264,123050,2,2,L|440:264,1,62.5,2|2,1:2|0:2,0:2:0:0:
340,196,123227,2,2,L|260:196,1,62.5,2|2,0:2|0:2,0:2:0:0:
76,188,123403,6,0,L|56:120,1,62.5,0|0,1:0|0:0,0:0:0:0:
120,84,123579,2,0,L|204:80,1,62.5
264,360,123756,2,0,L|104:304,1,125,0|0,1:0|0:0,0:0:0:0:
216,260,124021,1,0,0:0:0:0:
424,256,124109,6,0,P|456:196|404:180,1,125,0|0,1:0|0:0,0:0:0:0:
260,176,124374,2,0,L|172:176,1,62.5,0|0,0:0|1:0,0:0:0:0:
324,84,124638,1,0,0:0:0:0:
72,344,124815,5,0,1:0:0:0:
23,315,124903,1,0,0:0:0:0:
53,267,124991,1,0,0:0:0:0:
256,256,125079,2,0,L|264:180,1,62.5,0|0,0:0|1:0,0:0:0:0:
128,144,125344,2,0,L|56:128,1,62.5
340,352,125521,5,0,1:0:0:0:
383,308,125609,1,0,0:0:0:0:
394,248,125697,1,0,0:0:0:0:
204,232,125785,1,0,0:0:0:0:
263,212,125873,1,0,1:0:0:0:
322,192,125961,1,0,0:0:0:0:
136,160,126050,2,0,L|112:88,1,62.5
336,360,126227,6,0,L|364:308,1,50,4|0,1:0|0:0,0:0:0:0:
292,268,126403,2,0,L|276:172,1,50
344,200,126579,2,0,L|476:200,1,100,0|0,0:0|1:0,0:0:0:0:
384,132,126844,1,0,1:0:0:0:
88,364,126932,2,0,L|72:248,1,100,0|0,1:0|0:0,0:0:0:0:
240,284,127197,2,0,L|264:176,1,100,0|0,1:0|0:0,0:0:0:0:
100,160,127462,2,0,L|60:104,1,50,0|0,1:0|0:0,0:0:0:0:
244,360,127638,6,0,L|368:360,1,100,0|0,1:0|0:0,0:0:0:0:
296,296,127903,1,0,0:0:0:0:
240,296,127991,1,0,0:0:0:0:
480,296,128168,2,0,P|488:216|368:184,1,200,0|0,1:0|0:0,0:0:0:0:
228,256,128697,2,2,L|160:232,1,50,2|2,0:2|0:2,0:2:0:0:
352,204,128874,2,2,L|408:184,1,50,2|2,0:2|0:2,0:2:0:0:
160,360,129050,6,0,L|84:360,1,50,0|0,1:2|0:2,0:2:0:0:
160,288,129227,2,0,L|220:288,1,50,0|0,0:2|0:2,0:2:0:0:
288,280,129403,2,0,L|288:192,1,50,8|0,1:2|0:2,0:2:0:0:
236,176,129579,2,0,L|152:176,1,50,0|0,0:2|0:2,0:2:0:0:
372,368,129756,5,0,1:2:0:0:
421,370,129844,1,0,0:2:0:0:
464,345,129932,1,0,0:2:0:0:
486,301,130020,1,0,0:2:0:0:
252,320,130109,1,8,1:2:0:0:
202,314,130197,1,0,0:2:0:0:
160,288,130285,1,0,0:2:0:0:
133,247,130373,1,0,0:2:0:0:
304,224,130462,6,0,L|380:224,1,50,0|0,1:2|0:2,0:2:0:0:
348,156,130638,2,0,L|292:156,1,50,0|0,0:2|0:2,0:2:0:0:
224,156,130815,2,0,L|224:104,1,50,8|0,1:2|0:2,0:2:0:0:
288,84,130991,2,0,L|288:12,1,50,0|0,0:2|0:2,0:2:0:0:
40,372,131168,6,0,L|32:288,1,50,0|0,1:2|0:2,0:2:0:0:
92,276,131344,2,0,L|160:276,1,50,0|0,0:2|0:2,0:2:0:0:
304,268,131521,2,0,L|372:268,1,50,8|0,1:2|0:2,0:2:0:0:
164,200,131697,2,0,L|140:136,1,50,0|0,0:2|0:2,0:2:0:0:
368,188,131874,6,0,L|448:188,1,50,0|0,1:2|0:2,0:2:0:0:
372,120,132050,2,0,L|304:120,1,50,0|0,0:2|0:2,0:2:0:0:
244,220,132227,2,0,L|200:148,1,50,8|0,1:2|0:2,0:2:0:0:
272,124,132403,2,0,L|336:124,1,50,0|0,0:2|0:2,0:2:0:0:
116,368,132579,5,0,1:2:0:0:
69,368,132667,1,0,0:2:0:0:
59,323,132755,1,0,0:2:0:0:
101,304,132843,1,0,0:2:0:0:
260,292,132932,2,0,L|280:236,1,50,8|0,1:2|0:2,0:2:0:0:
124,216,133109,2,0,L|56:216,1,50,0|0,0:2|0:2,0:2:0:0:
232,352,133285,6,0,L|304:352,1,50,0|0,1:2|0:2,0:2:0:0:
352,308,133462,2,0,L|384:248,1,50,0|0,0:2|0:2,0:2:0:0:
312,220,133638,2,0,L|260:192,1,50,8|0,1:2|0:2,0:2:0:0:
340,120,133815,2,0,L|408:120,1,50,0|0,0:2|0:2,0:2:0:0:
144,360,133991,6,0,L|80:360,1,50,0|0,1:2|0:2,0:2:0:0:
40,300,134168,2,0,L|112:300,1,50,0|0,0:2|0:2,0:2:0:0:
280,296,134344,2,2,L|344:280,1,50,10|2,1:2|0:2,0:2:0:0:
160,236,134521,2,2,L|148:180,1,50,2|2,0:2|0:2,0:2:0:0:
372,368,134697,5,0,1:2:0:0:
416,354,134785,1,0,0:2:0:0:
418,307,134873,1,0,0:2:0:0:
373,292,134961,1,0,0:2:0:0:
296,228,135050,2,0,L|248:164,1,50,8|0,1:2|0:2,0:2:0:0:
444,204,135227,2,0,L|460:144,1,50,0|0,0:2|0:2,0:2:0:0:
384,132,135403,6,0,L|320:132,1,50,0|0,1:2|0:2,0:2:0:0:
336,64,135579,2,0,L|388:64,1,50,0|0,0:2|0:2,0:2:0:0:
192,348,135756,2,2,L|128:320,1,50,10|2,1:2|0:2,0:2:0:0:
300,276,135932,2,2,L|320:208,1,50,2|2,0:2|0:2,0:2:0:0:
112,228,136109,6,0,L|92:152,1,50,0|0,1:2|0:2,0:2:0:0:
168,136,136285,2,0,L|240:136,1,50,0|0,0:2|0:2,0:2:0:0:
292,136,136462,2,0,L|320:72,1,50,8|0,1:2|0:2,0:2:0:0:
244,48,136638,2,0,L|184:48,1,50,0|0,0:2|0:2,0:2:0:0:
412,368,136815,5,0,1:2:0:0:
452,342,136903,1,0,0:2:0:0:
445,295,136991,1,0,0:2:0:0:
400,282,137079,1,0,0:2:0:0:
248,268,137168,2,2,L|236:208,1,50,2|2,0:2|0:2,0:2:0:0:
392,200,137344,2,2,L|452:200,1,50,2|2,0:2|0:2,0:2:0:0:
256,192,137521,12,12,139991,0:2:0:0:
204,364,140344,6,0,L|72:320,1,100,8|0,1:0|0:0,0:0:0:0:
56,264,140609,1,0,0:0:0:0:
132,264,140697,2,0,L|260:264,1,100,0|8,1:0|0:0,0:0:0:0:
92,196,141050,5,0,1:0:0:0:
46,186,141138,1,0,0:0:0:0:
43,140,141226,1,0,0:0:0:0:
87,125,141314,1,0,0:0:0:0:
320,364,141403,2,0,P|388:344|456:272,1,150,8|0,1:0|0:0,0:0:0:0:
224,272,141756,6,0,L|200:216,1,50,8|0,1:0|0:0,0:0:0:0:
280,200,141932,2,0,L|284:132,1,50
208,136,142109,2,0,L|116:136,1,50,0|0,1:0|0:0,0:0:0:0:
208,68,142285,2,0,L|280:68,1,50,8|0,0:0|0:0,0:0:0:0:
464,364,142462,6,0,L|484:304,1,50,0|0,1:0|0:0,0:0:0:0:
416,268,142638,2,0,L|336:264,1,50
172,264,142815,2,0,L|96:264,1,50,8|0,1:0|0:0,0:0:0:0:
172,192,142991,2,0,L|228:192,1,50
432,188,143168,6,0,P|456:136|420:112,1,100,8|0,1:0|0:0,0:0:0:0:
244,356,143521,1,0,1:0:0:0:
384,288,143697,1,8,0:0:0:0:
128,288,143874,2,0,L|28:240,1,100,0|0,1:0|0:0,0:0:0:0:
304,216,144227,2,0,P|368:184|308:144,1,150,8|0,1:0|0:0,0:0:0:0:
96,220,144579,6,0,L|20:220,1,50,8|0,1:0|0:0,0:0:0:0:
96,152,144756,2,0,L|164:152,1,50
224,152,144932,2,0,P|252:92|216:84,1,100,0|8,1:0|0:0,0:0:0:0:
176,84,145197,1,0,0:0:0:0:
380,352,145285,5,0,1:0:0:0:
428,343,145373,1,0,0:0:0:0:
461,307,145461,1,0,0:0:0:0:
466,258,145549,1,0,0:0:0:0:
264,268,145638,2,0,L|200:268,1,50,8|0,1:0|0:0,0:0:0:0:
264,200,145815,2,0,L|320:200,1,50
72,360,145991,6,0,P|32:312|72:280,1,100,12|0,1:0|0:0,0:0:0:0:
112,288,146256,1,0,0:0:0:0:
168,216,146344,2,0,L|100:216,1,50,0|0,1:0|0:0,0:0:0:0:
320,364,146521,2,0,L|332:296,1,50,8|0,0:0|0:0,0:0:0:0:
264,288,146697,6,0,L|208:288,1,50,0|0,1:0|0:0,0:0:0:0:
216,220,146874,2,0,L|284:220,1,50
456,208,147050,2,0,L|468:144,1,50,8|0,1:0|0:0,0:0:0:0:
392,132,147227,2,0,L|304:128,1,50
148,352,147403,6,0,L|68:340,1,50,0|0,1:0|0:0,0:0:0:0:
268,284,147579,2,0,L|336:284,2,50,8|0|0,0:0|0:0|1:0,0:0:0:0:
116,280,147844,1,0,0:0:0:0:
72,263,147932,1,0,0:0:0:0:
73,216,148020,1,0,0:0:0:0:
118,203,148108,5,8,1:0:0:0:
312,196,148197,2,0,L|380:196,2,50
160,192,148462,2,0,L|108:152,1,50,8|0,1:0|0:0,0:0:0:0:
284,120,148638,2,0,L|340:88,1,50
112,372,148815,6,0,L|84:300,1,50,8|0,1:0|0:0,0:0:0:0:
156,280,148991,2,0,L|248:280,1,50
284,272,149168,2,0,L|144:272,1,100,0|8,1:0|0:0,0:0:0:0:
232,208,149432,1,0,0:0:0:0:
308,204,149521,2,0,L|392:116,1,100,0|0,1:0|0:0,0:0:0:0:
380,60,149785,1,0,0:0:0:0:
124,356,149874,2,0,L|12:332,1,100,8|0,1:0|0:0,0:0:0:0:
88,264,150138,1,0,0:0:0:0:
268,272,150227,6,0,L|348:272,1,50,0|0,1:0|0:0,0:0:0:0:
268,204,150403,2,0,L|200:200,1,50
56,196,150579,2,0,L|124:192,1,50,8|0,1:0|0:0,0:0:0:0:
300,176,150756,2,0,L|360:156,1,50
176,116,150932,6,0,L|116:116,1,50,8|0,1:0|0:0,0:0:0:0:
176,48,151109,2,0,L|240:48,1,50
404,360,151285,2,0,L|464:360,1,50,8|0,0:0|0:0,0:0:0:0:
508,300,151462,2,0,L|440:300,1,50
184,304,151638,5,8,3:1:0:0:
80,256,151756,1,0,3:1:0:0:
188,240,151874,1,0,3:1:0:0:
392,240,151991,5,0,3:1:0:0:
421,226,152049,1,0,3:1:0:0:
441,199,152108,1,0,3:1:0:0:
445,166,152167,1,8,3:1:0:0:
433,136,152226,1,0,3:1:0:0:
408,115,152285,1,0,3:1:0:0:
375,108,152343,5,0,3:1:0:0:
272,112,152462,1,0,3:1:0:0:
376,48,152579,1,0,3:1:0:0:
112,364,152697,5,8,3:1:0:0:
80,371,152755,1,0,3:1:0:0:
51,356,152814,1,0,3:1:0:0:
39,326,152873,1,0,3:1:0:0:
51,295,152932,1,0,3:1:0:0:
79,280,152991,1,0,3:1:0:0:
111,287,153049,5,8,3:1:0:0:
200,288,153168,1,0,3:1:0:0:
288,288,153285,1,0,3:1:0:0:
104,200,153403,5,0,3:1:0:0:
80,193,153447,1,0,3:1:0:0:
60,178,153491,1,0,3:1:0:0:
48,156,153535,1,0,3:1:0:0:
46,131,153579,1,8,3:1:0:0:
54,107,153623,1,0,3:1:0:0:
70,89,153667,1,0,3:1:0:0:
92,78,153711,1,0,3:1:0:0:
117,77,153755,5,0,3:1:0:0:
167,76,153844,1,0,3:1:0:0:
116,12,153932,2,0,L|56:12,1,50,0|0,3:1|3:1,3:1:0:0:
376,348,154109,6,0,P|448:304|360:240,1,200,8|0,1:0|0:0,0:0:0:0:
80,360,154815,6,0,L|280:300,1,200,0|0,1:0|1:0,1:0:0:0:
180,220,155285,1,0,1:0:0:0:
268,184,155403,1,0,1:0:0:0:
488,364,155521,6,0,L|280:316,1,200,0|0,1:0|1:0,1:0:0:0:
384,248,155991,1,0,1:0:0:0:
296,180,156109,1,0,1:0:0:0:
88,352,156227,6,0,P|36:328|112:252,1,200,0|0,1:0|1:0,1:0:0:0:
140,248,156637,1,0,1:0:0:0:
176,248,156696,1,0,1:0:0:0:
212,248,156755,1,0,1:0:0:0:
248,252,156814,1,0,1:0:0:0:
288,252,156873,1,0,1:0:0:0:
228,192,156932,1,0,1:0:0:0:
195,190,156990,1,0,1:0:0:0:
165,178,157049,1,0,1:0:0:0:
140,156,157108,1,0,1:0:0:0:
123,127,157167,1,0,1:0:0:0:
160,96,157226,1,0,1:0:0:0:
364,96,157285,5,0,1:0:0:0:
256,192,157462,12,0,158521,0:0:0:0:
256,184,158697,5,4,1:0:0:0:
256,192,158874,12,0,160109,0:0:0:0:
