osu file format v14

[General]
AudioFilename: audio.mp3
AudioLeadIn: 0
PreviewTime: 92038
Countdown: 0
SampleSet: Soft
StackLeniency: 0.4
Mode: 0
LetterboxInBreaks: 0
WidescreenStoryboard: 1

[Editor]
Bookmarks: 69875,86054
DistanceSpacing: 1.2
BeatDivisor: 4
GridSize: 32
TimelineZoom: 2.1

[Metadata]
Title:SAYONARA DILEMMA
TitleUnicode:さよならジレンマ
Artist:vivid undress
ArtistUnicode:vivid undress
Creator:xHappy-
Version:Hard
Source:
Tags:j-rock jrock rock japanese ENDLESS p_kung
BeatmapID:3146570
BeatmapSetID:1064974

[Difficulty]
HPDrainRate:5
CircleSize:3.5
OverallDifficulty:6
ApproachRate:8
SliderMultiplier:1.5
SliderTickRate:1

[Events]
//Background and Video events
0,0,"BG.jpg",0,0
//Break Periods
2,125355,134518
2,154850,156596
2,157546,158619
//Storyboard Layer 0 (Background)
//Storyboard Layer 1 (Fail)
//Storyboard Layer 2 (Pass)
//Storyboard Layer 3 (Foreground)
//Storyboard Layer 4 (Overlay)
//Storyboard Sound Samples

[TimingPoints]
1111,337.078651685393,4,2,2,40,1,0
24032,-125,4,2,2,40,0,0
33302,-111.111111111111,4,2,1,55,0,0
33554,-111.111111111111,4,2,1,5,0,0
33639,-111.111111111111,4,2,1,55,0,0
34144,-111.111111111111,4,2,1,60,0,0
34650,-100,4,2,1,70,0,0
45436,-111.111111111111,4,2,1,65,0,0
48133,-125,4,2,1,60,0,0
65661,-111.111111111111,4,2,1,65,0,0
69875,-100,4,2,1,70,0,0
70127,-100,4,2,1,5,0,0
70212,-100,4,2,1,70,0,0
70802,-100,4,2,1,5,0,0
70886,-100,4,2,1,70,0,0
72824,-100,4,2,1,5,0,0
72908,-100,4,2,1,70,0,0
73498,-100,4,2,1,5,0,0
73582,-100,4,2,1,70,0,0
75521,-100,4,2,1,5,0,0
75605,-100,4,2,1,70,0,0
76195,-100,4,2,1,5,0,0
76279,-100,4,2,1,70,0,0
78217,-100,4,2,1,5,0,0
78302,-100,4,2,1,70,0,0
78891,-100,4,2,1,5,0,0
78976,-100,4,2,1,70,0,0
80914,-100,4,2,1,5,0,0
80998,-100,4,2,1,70,0,0
81588,-100,4,2,1,5,0,0
81672,-100,4,2,1,70,0,0
83610,-100,4,2,1,5,0,0
83695,-100,4,2,1,70,0,0
84453,-100,4,2,1,5,0,0
84537,-100,4,2,1,70,0,0
84622,-100,4,2,1,5,0,0
84706,-100,4,2,1,70,0,0
86054,-111.111111111111,4,2,1,60,0,0
88751,-100,4,2,1,70,0,0
92627,-83.3333333333333,4,2,1,80,0,1
93133,-90.9090909090909,4,2,1,80,0,1
94734,-90.9090909090909,4,2,1,5,0,1
94818,-90.9090909090909,4,2,1,80,0,1
97431,-90.9090909090909,4,2,1,5,0,1
97515,-90.9090909090909,4,2,1,80,0,1
105521,-90.9090909090909,4,2,1,5,0,1
105605,-90.9090909090909,4,2,1,80,0,1
109650,-90.9090909090909,4,2,1,80,0,1
111672,-125,4,2,1,60,0,0
114200,-100,4,2,1,70,0,0
123639,-111.111111111111,4,2,1,65,0,0
123723,-111.111111111111,4,2,1,5,0,0
123976,-111.111111111111,4,2,1,65,0,0
124060,-111.111111111111,4,2,1,5,0,0
124313,-111.111111111111,4,2,1,65,0,0
124397,-111.111111111111,4,2,1,5,0,0
124650,-111.111111111111,4,2,1,65,0,0
125155,-125,4,2,1,60,0,0
135773,-100,4,2,1,70,0,0
137375,-100,4,2,1,5,0,0
137459,-100,4,2,1,70,0,0
148161,-100,4,2,1,5,0,0
148245,-100,4,2,1,70,0,0
154650,-142.857142857143,4,2,1,50,0,0
165436,-125,4,2,1,60,0,0
175886,-166.666666666667,4,2,1,80,0,0
176139,-166.666666666667,4,2,1,5,0,0
176223,-111.111111111111,4,2,1,65,0,0
184313,-142.857142857143,4,2,1,65,0,0
184818,-100,4,2,1,70,0,0
192403,-83.3333333333333,4,2,1,80,0,1
192908,-90.9090909090909,4,2,1,80,0,1
194509,-90.9090909090909,4,2,1,5,0,1
194594,-90.9090909090909,4,2,1,80,0,1
197206,-90.9090909090909,4,2,1,5,0,1
197290,-90.9090909090909,4,2,1,80,0,1
203189,-125,4,2,1,60,0,1
203695,-90.9090909090909,4,2,1,80,0,1
205296,-90.9090909090909,4,2,1,5,0,1
205380,-90.9090909090909,4,2,1,80,0,1
211448,-125,4,2,1,60,0,0
213976,-142.857142857143,4,2,1,50,0,0
214481,-100,4,2,1,70,0,0
222066,-90.9090909090909,4,2,1,80,0,0
224762,-100,4,2,1,70,0,0
234200,-100,4,2,1,50,0,0
234285,-100,4,2,1,5,0,0
234537,-100,4,2,1,60,0,0
234622,-100,4,2,1,5,0,0
234875,-100,4,2,1,70,0,0
234959,-100,4,2,1,5,0,0
235212,-100,4,2,1,80,0,0
235296,-100,4,2,1,5,0,0
235549,-100,4,2,1,90,0,0

[Colours]
Combo1 : 172,153,138
Combo2 : 217,215,176
Combo3 : 171,204,134
Combo4 : 138,170,176

[HitObjects]
460,259,24032,6,0,P|421:302|362:306,1,120,6|8,1:2|0:0,0:0:0:0:
292,270,24537,1,2,0:0:0:0:
292,270,24706,2,0,L|308:131,1,120,8|10,0:0|0:0,0:0:0:0:
426,51,25380,2,0,P|397:43|367:46,1,60,8|2,0:0|0:0,0:0:0:0:
292,68,25717,2,0,B|252:76|252:76|175:56,1,120,8|8,0:0|0:0,0:0:0:0:
30,14,26391,1,8,0:0:0:0:
30,14,26560,1,0,1:0:0:0:
90,80,26728,6,0,L|78:199,1,120,2|8,1:2|0:0,0:0:0:0:
6,238,27234,1,2,0:0:0:0:
6,238,27403,2,0,P|50:278|108:275,1,120,8|10,0:0|0:0,0:0:0:0:
237,167,28077,2,0,L|244:103,1,60,8|2,0:0|0:0,0:0:0:0:
175,57,28414,1,8,0:0:0:0:
78,199,28751,1,8,0:0:0:0:
107,275,28919,2,0,L|103:303,3,20,2|0|2|8,0:0|0:0|0:0|0:0,0:0:0:0:
194,294,29257,1,0,1:0:0:0:
220,194,29425,6,0,B|248:185|287:196|267:212|304:222|335:214,1,120,2|8,1:2|0:0,0:0:0:0:
399,161,29931,1,2,0:0:0:0:
399,161,30099,2,0,L|382:279,1,120,8|10,0:0|0:0,0:0:0:0:
225,338,30773,2,0,L|216:278,1,60,8|2,0:0|0:0,0:0:0:0:
220,194,31110,2,0,P|197:140|142:123,1,120,8|8,0:0|0:0,0:0:0:0:
65,156,31616,2,0,L|5:147,2,60,2|10|2,0:2|0:2|1:2,0:0:0:0:
113,40,32122,6,0,L|231:22,1,120,2|10,1:2|0:2,0:0:0:0:
367,121,32796,2,0,P|383:96|389:67,1,60,10|2,0:0|0:0,0:0:0:0:
328,9,33133,1,10,0:0:0:0:
260,108,33302,6,0,L|268:174,1,67.4999979400635,6|0,1:2|0:0,0:0:0:0:
200,239,33639,1,8,0:0:0:0:
200,239,33723,1,8,3:0:0:0:
200,239,33807,2,0,L|195:277,2,33.7499989700318,4|4|4,3:0|3:0|3:0,0:0:0:0:
298,343,34144,5,10,0:0:0:0:
352,224,34313,1,10,0:0:0:0:
195,272,34650,6,0,B|156:286|156:286|47:278,1,150,6|2,1:2|1:2,0:0:0:0:
0,193,35155,2,0,L|74:187,1,75,10|0,0:0|0:0,0:0:0:0:
142,116,35493,1,2,1:2:0:0:
216,178,35661,2,0,L|225:138,2,37.5,2|2|10,3:2|3:2|0:2,0:0:0:0:
142,115,35998,6,0,P|188:60|261:64,1,150,2|2,1:2|1:2,0:0:0:0:
356,7,36504,2,0,L|373:91,1,75,10|2,0:0|3:2,0:0:0:0:
380,117,36757,1,2,3:2:0:0:
380,117,36841,1,2,1:2:0:0:
297,156,37009,2,0,L|223:141,1,75,2|8,1:2|0:0,0:0:0:0:
373,209,37346,6,0,P|443:190|474:125,1,150,6|2,1:2|1:2,0:0:0:0:
437,33,37852,2,0,L|362:41,1,75,10|0,0:0|0:0,0:0:0:0:
268,69,38189,1,2,1:2:0:0:
181,22,38358,2,0,L|176:65,2,37.5,2|2|10,3:2|3:2|0:2,0:0:0:0:
223,140,38695,6,0,P|150:150|92:106,1,150,2|2,1:2|1:0,0:0:0:0:
28,40,39200,1,8,0:0:0:0:
28,40,39369,2,0,L|45:198,1,150,2|2,1:0|1:0,0:0:0:0:
0,276,39875,1,8,0:0:0:0:
117,327,40043,6,0,B|157:295|157:295|255:304,1,150,6|2,1:2|1:2,0:0:0:0:
328,369,40549,2,0,P|348:338|353:301,1,75,10|0,0:0|0:0,0:0:0:0:
299,220,40886,1,2,1:2:0:0:
382,169,41054,2,0,L|419:165,2,37.5,2|2|10,3:2|3:2|0:2,0:0:0:0:
299,220,41391,6,0,L|140:206,1,150,2|2,1:2|1:2,0:0:0:0:
62,250,41897,2,0,P|50:214|57:178,1,75,10|2,0:0|3:2,0:0:0:0:
80,149,42150,1,2,3:2:0:0:
80,149,42234,1,2,1:2:0:0:
46,57,42403,2,0,L|122:64,1,75,2|8,1:2|0:0,0:0:0:0:
249,99,42740,6,0,B|283:112|339:100|308:78|356:67|392:77,1,150,6|2,1:2|1:2,0:0:0:0:
487,94,43245,2,0,P|476:129|448:154,1,75,10|0,0:0|0:0,0:0:0:0:
352,172,43582,1,2,1:2:0:0:
365,268,43751,2,0,L|372:309,2,37.5,2|2|10,3:2|3:2|0:2,0:0:0:0:
467,253,44088,6,0,P|489:322|442:377,1,150,2|2,1:2|1:0,0:0:0:0:
371,304,44594,2,0,L|296:310,1,75,8|2,0:0|1:1,0:0:0:0:
213,280,44931,1,8,0:0:0:0:
213,280,45015,1,0,1:0:0:0:
213,280,45099,2,0,L|206:321,3,37.5,8|8|4|4,3:0|3:0|3:0|3:0,0:0:0:0:
175,346,45436,6,0,P|110:338|80:280,1,134.999995880127,6|2,1:2|0:0,0:0:0:0:
85,192,45942,2,0,L|154:198,1,67.4999979400635,2|0,1:2|0:0,0:0:0:0:
239,205,46279,1,2,1:2:0:0:
239,205,46616,1,0,1:0:0:0:
247,117,46785,6,0,L|112:105,1,134.999995880127,2|4,1:2|3:0,0:0:0:0:
29,99,47290,1,4,3:0:0:0:
29,99,47459,1,10,0:0:0:0:
285,22,47964,1,8,0:0:0:0:
285,22,48049,1,8,0:0:0:0:
285,22,48133,6,0,P|337:55|355:118,1,120,6|0,1:2|0:0,0:0:0:0:
309,171,48639,2,0,L|302:230,1,60,0|0,1:3|0:0,0:0:0:0:
360,283,48976,2,0,L|366:342,1,60,2|2,1:2|0:0,0:0:0:0:
295,376,49313,1,2,1:2:0:0:
442,365,49481,6,0,L|456:225,1,120,2|2,0:0|0:0,0:0:0:0:
502,184,49987,1,0,1:0:0:0:
502,184,50155,2,0,P|446:170|392:199,1,120,2|2,0:0|0:0,0:0:0:0:
277,302,50830,6,0,L|137:288,1,120,2|0,0:0|0:0,0:0:0:0:
93,334,51335,2,0,P|80:307|81:277,1,60,0|0,1:2|0:0,0:0:0:0:
130,216,51672,1,2,1:2:0:0:
130,216,51841,2,0,P|142:189|141:159,1,60,2|0,0:0|1:0,0:0:0:0:
96,95,52178,6,0,P|39:92|8:43,1,120,2|2,0:0|0:0,0:0:0:0:
161,9,52852,1,2,0:0:0:0:
161,9,53189,1,2,0:2:0:0:
289,97,53526,6,0,B|318:86|358:95|330:112|375:122|403:113,1,120,2|0,0:0|0:0,0:0:0:0:
459,58,54032,2,0,L|452:21,2,30,0|0|0,1:2|3:0|3:0,0:0:0:0:
503,124,54369,2,0,L|491:209,1,60,2|4,1:2|3:0,0:0:0:0:
495,217,54622,1,4,3:0:0:0:
495,217,54706,1,2,1:2:0:0:
473,345,54875,6,0,B|433:324|433:324|355:341,1,120,14|2,0:0|0:0,0:0:0:0:
287,361,55380,1,0,1:0:0:0:
287,361,55549,2,0,L|271:241,1,120,2|2,0:0|0:0,0:0:0:0:
374,125,56223,6,0,P|323:154|265:146,1,120,2|0,0:0|0:0,0:0:0:0:
220,83,56728,1,0,1:0:0:0:
85,159,57066,1,2,1:2:0:0:
85,159,57234,2,0,L|95:89,1,60,2|0,0:0|1:0,0:0:0:0:
176,181,57571,6,0,L|191:300,1,120,2|2,0:0|0:0,0:0:0:0:
52,372,58245,1,2,0:0:0:0:
9,306,58414,2,0,L|41:293,4,30,8|8|4|4|4,0:0|3:0|3:0|3:0|3:0,0:0:0:0:
140,367,58919,6,0,B|185:381|185:381|256:366,1,120,14|0,0:0|0:0,0:0:0:0:
324,330,59425,2,0,P|336:302|335:272,1,60,0|0,1:0|0:0,0:0:0:0:
280,217,59762,1,2,1:2:0:0:
325,153,59931,2,0,L|384:161,1,60,2|2,0:0|1:2,0:0:0:0:
280,217,60268,6,0,P|246:165|262:107,1,120,2|2,0:0|0:0,0:0:0:0:
321,65,60773,1,0,1:0:0:0:
321,65,60942,2,0,L|450:80,1,120,2|2,0:0|0:0,0:0:0:0:
502,221,61616,6,0,B|457:225|457:225|430:216|430:216|380:221,1,120,2|0,0:0|0:0,0:0:0:0:
312,188,62122,2,0,P|304:217|308:247,1,60,0|0,1:0|0:0,0:0:0:0:
327,323,62459,1,2,1:2:0:0:
403,307,62627,2,0,P|405:334|391:372,1,60,2|2,0:0|1:2,0:0:0:0:
327,323,62964,6,0,P|270:321|231:264,1,120,2|2,0:0|0:0,0:0:0:0:
323,147,63639,1,2,0:0:0:0:
323,147,63976,1,2,0:0:0:0:
167,158,64313,6,0,L|47:148,1,120,14|0,0:0|0:0,0:0:0:0:
8,226,64818,1,8,0:0:0:0:
8,226,64903,1,8,0:0:0:0:
8,226,64987,1,8,0:0:0:0:
40,303,65155,1,10,0:0:0:0:
122,321,65324,2,0,L|118:360,2,30,8|8|4,0:0|3:0|3:0,0:0:0:0:
254,343,65661,6,0,P|217:287|221:221,1,134.999995880127,14|2,0:0|0:0,0:0:0:0:
310,184,66167,1,0,1:0:0:0:
310,184,66335,2,0,L|380:176,1,67.4999979400635,2|0,0:0|1:0,0:0:0:0:
455,238,66672,1,10,0:0:0:0:
455,238,66841,1,8,0:0:0:0:
507,160,67009,1,10,0:0:0:0:
481,68,67178,6,0,L|414:58,1,67.4999979400635,2|8,1:2|0:0,0:0:0:0:
319,33,67515,2,0,P|255:17|205:59,1,134.999995880127,14|8,0:0|0:0,0:0:0:0:
201,92,67936,1,8,0:0:0:0:
201,92,68021,2,0,L|208:137,2,33.7499989700318,8|0|8,0:0|0:0|3:0,0:0:0:0:
122,39,68358,1,4,3:0:0:0:
0,109,68526,6,0,L|66:115,1,67.4999979400635,6|0,1:2|1:0,0:0:0:0:
139,194,68863,2,0,L|71:199,1,67.4999979400635,0|2,1:0|1:2,0:0:0:0:
18,278,69200,1,10,0:0:0:0:
18,278,69369,1,2,1:2:0:0:
81,347,69537,1,2,1:2:0:0:
175,316,69706,1,8,0:0:0:0:
175,316,69790,1,8,0:0:0:0:
175,316,69875,6,0,L|287:308,1,112.5,6|0,1:2|0:0,0:0:0:0:
325,307,70212,2,0,P|350:263|347:236,1,75,8|0,0:0|0:0,0:0:0:0:
280,169,70549,2,0,P|349:152|362:82,1,150,2|8,1:2|0:0,0:0:0:0:
199,48,71223,5,2,1:2:0:0:
131,105,71391,1,0,3:0:0:0:
131,105,71476,1,0,3:0:0:0:
131,105,71560,2,0,L|145:203,1,75,8|0,0:0|1:0,0:0:0:0:
65,227,71897,2,0,P|134:208|190:254,1,150,2|8,1:2|0:0,0:0:0:0:
320,378,72571,6,0,L|329:265,1,112.5,2|0,1:2|0:0,0:0:0:0:
334,228,72908,2,0,P|366:247|403:250,1,75,8|0,0:0|0:0,0:0:0:0:
489,204,73245,2,0,L|478:54,1,150,2|8,1:2|0:0,0:0:0:0:
266,18,73919,5,2,1:2:0:0:
360,49,74088,1,0,3:0:0:0:
360,49,74172,1,0,3:2:0:0:
360,49,74257,2,0,L|366:133,1,75,8|0,0:0|0:0,0:0:0:0:
303,199,74594,2,0,P|273:159|208:156,1,112.5,2|0,1:2|3:0,0:0:0:0:
173,180,74932,2,0,L|167:264,1,75,8|0,0:0|3:0,0:0:0:0:
95,330,75268,6,0,P|64:285|67:230,1,112.5,2|0,1:2|0:0,0:0:0:0:
83,196,75605,2,0,L|8:186,1,75,8|0,0:0|0:0,0:0:0:0:
59,94,75942,2,0,P|122:59|190:85,1,150,2|8,1:2|0:0,0:0:0:0:
283,209,76616,2,0,L|290:134,1,75,2|0,1:2|3:0,0:0:0:0:
297,97,76869,1,0,3:0:0:0:
297,97,76953,2,0,P|328:116|365:117,1,75,8|0,0:0|0:0,0:0:0:0:
445,61,77290,2,0,P|412:125|444:191,1,150,2|8,1:2|0:0,0:0:0:0:
508,326,77964,6,0,B|470:344|470:344|400:335,1,112.5,2|0,1:2|0:0,0:0:0:0:
362,328,78302,2,0,P|377:295|375:258,1,75,8|0,0:0|0:0,0:0:0:0:
294,204,78639,2,0,B|232:200|232:200|210:207|210:207|145:202,1,150,2|8,1:2|0:0,0:0:0:0:
66,335,79313,5,2,1:2:0:0:
17,252,79481,1,0,3:0:0:0:
17,252,79566,1,0,3:0:0:0:
17,252,79650,2,0,P|7:215|14:179,1,75,8|0,0:0|0:0,0:0:0:0:
52,91,79987,2,0,P|125:96|174:43,1,150,2|8,1:2|0:0,0:0:0:0:
254,106,80493,1,0,3:0:0:0:
254,106,80577,1,0,3:0:0:0:
254,106,80661,6,0,L|248:227,1,112.5,6|0,1:2|0:0,0:0:0:0:
245,255,80998,2,0,P|281:247|317:253,1,75,8|0,0:0|0:0,0:0:0:0:
392,304,81335,2,0,P|349:359|282:338,1,150,2|8,1:2|0:0,0:0:0:0:
327,168,82009,5,2,1:2:0:0:
412,222,82178,1,0,3:0:0:0:
412,222,82262,1,0,3:0:0:0:
412,222,82346,2,0,L|424:136,1,75,8|0,0:0|0:0,0:0:0:0:
464,66,82684,2,0,P|422:101|367:98,1,112.5,2|0,1:2|3:0,0:0:0:0:
334,79,83021,1,8,0:0:0:0:
186,104,83358,6,0,L|171:219,1,112.5,2|0,1:2|0:0,0:0:0:0:
166,253,83695,2,0,P|132:266|96:257,1,75,8|0,0:0|0:0,0:0:0:0:
11,209,84032,2,0,L|30:362,1,150,2|10,1:2|0:0,0:0:0:0:
125,374,84537,1,0,1:0:0:0:
248,354,84706,5,14,0:0:0:0:
298,186,85212,1,8,0:0:0:0:
298,186,85296,1,8,0:0:0:0:
298,186,85380,2,0,L|309:91,1,75,8|8,0:0|3:0,0:0:0:0:
198,148,85717,2,0,L|189:73,1,75,4|0,3:0|1:0,0:0:0:0:
277,15,86054,6,0,P|342:5|391:49,1,134.999995880127,6|0,1:2|0:0,0:0:0:0:
422,124,86560,2,0,L|411:191,1,67.4999979400635,2|8,1:2|0:0,0:0:0:0:
391,269,86897,1,2,0:0:0:0:
274,156,87234,6,0,B|240:147|197:160|228:179|179:193|146:181,1,134.999995880127,10|8,0:0|0:0,0:0:0:0:
69,159,87740,2,0,P|66:192|77:224,1,67.4999979400635,2|0,0:0|1:0,0:0:0:0:
140,275,88077,2,0,L|288:254,1,134.999995880127,8|2,0:0|1:2,0:0:0:0:
344,213,88582,1,8,0:0:0:0:
344,213,88667,1,8,0:0:0:0:
344,213,88751,5,6,1:2:0:0:
423,269,88919,2,0,P|437:234|436:197,1,75,2|8,0:0|0:0,0:0:0:0:
372,122,89257,2,0,L|220:150,1,150,2|2,0:0|1:2,0:0:0:0:
127,146,89762,1,8,0:0:0:0:
151,16,89931,6,0,B|190:47|190:47|288:31,1,150,6|2,1:2|1:2,0:0:0:0:
373,2,90436,2,0,P|414:14|433:42,1,75,8|0,0:0|1:0,0:0:0:0:
438,76,90689,1,0,1:0:0:0:
438,76,90773,1,8,0:0:0:0:
398,156,90942,2,0,L|405:192,2,37.5,0|0|10,1:0|1:0|0:0,0:0:0:0:
224,107,91448,5,4,1:3:0:0:
199,216,91616,1,4,1:3:0:0:
88,195,91785,1,4,1:3:0:0:
113,86,91953,1,8,0:0:0:0:
174,316,92627,6,0,B|133:347|133:347|5:327,1,179.999994506836,6|2,1:2|1:2,0:0:0:0:
46,236,93133,2,0,P|82:219|123:220,1,82.5000025177003,8|0,0:0|0:0,0:0:0:0:
251,331,93470,2,0,P|210:332|173:315,1,82.5000025177003,2|2,1:2|1:2,0:0:0:0:
123,220,93807,1,8,0:0:0:0:
235,148,93976,6,0,B|305:150|305:150|331:165|331:165|399:168,1,165.000005035401,2|2,1:2|1:2,0:0:0:0:
470,106,94481,2,0,P|494:161|483:221,1,123.75000377655,8|0,0:0|0:0,0:0:0:0:
478,262,94818,2,0,L|460:355,1,82.5000025177003,2|0,1:2|1:0,0:0:0:0:
382,363,95155,1,8,0:0:0:0:
303,255,95324,6,0,P|262:256|223:241,1,82.5000025177003,2|0,1:2|0:0,0:0:0:0:
170,157,95661,2,0,L|195:324,1,165.000005035401,2|2,1:2|1:2,0:0:0:0:
112,370,96167,1,2,1:2:0:0:
112,370,96335,2,0,P|73:355|32:356,1,82.5000025177003,2|10,1:2|0:0,0:0:0:0:
0,223,96672,6,0,P|66:207|83:115,1,165.000005035401,2|2,1:2|1:2,0:0:0:0:
24,65,97178,2,0,P|81:85|138:65,1,123.75000377655,8|0,0:0|0:0,0:0:0:0:
155,27,97515,1,2,1:2:0:0:
237,89,97684,1,2,1:2:0:0:
237,89,97852,1,10,0:0:0:0:
332,30,98021,6,0,B|336:132|336:132|301:184,1,165.000005035401,6|0,1:2|1:2,0:0:0:0:
215,229,98526,1,10,0:0:0:0:
215,229,98695,2,0,B|259:214|311:227|275:250|330:264|370:252,1,165.000005035401,2|0,1:2|1:0,0:0:0:0:
444,185,99200,1,8,0:0:0:0:
503,320,99369,6,0,B|456:353|456:353|344:343,1,165.000005035401,2|0,1:2|1:2,0:0:0:0:
259,312,99875,1,10,0:0:0:0:
170,345,100043,1,2,3:2:0:0:
170,345,100127,1,0,3:2:0:0:
170,345,100212,2,0,L|87:353,1,82.5000025177003,2|0,1:2|1:2,0:0:0:0:
80,255,100549,1,10,0:0:0:0:
215,235,100717,6,0,P|243:160|212:85,1,165.000005035401,2|0,1:2|1:2,0:0:0:0:
119,49,101223,2,0,B|204:64|204:64|277:22,1,165.000005035401,8|0,0:0|1:0,0:0:0:0:
368,3,101728,2,0,P|370:39|349:86,1,82.5000025177003,2|8,1:2|0:0,0:0:0:0:
291,160,102066,6,0,B|335:145|387:158|351:181|406:195|446:183,1,165.000005035401,2|0,1:2|1:0,0:0:0:0:
494,95,102571,1,8,0:0:0:0:
437,274,102908,1,8,0:0:0:0:
437,274,102993,1,8,3:0:0:0:
437,274,103077,1,4,3:0:0:0:
349,249,103245,1,10,0:0:0:0:
252,323,103414,6,0,P|196:265|116:271,1,165.000005035401,6|2,1:2|1:2,0:0:0:0:
38,329,103919,2,0,P|20:292|22:251,1,82.5000025177003,8|0,0:0|3:0,0:0:0:0:
72,105,104257,2,0,L|87:186,1,82.5000025177003,2|2,1:2|1:2,0:0:0:0:
116,270,104594,1,10,0:0:0:0:
223,201,104762,6,0,L|387:187,1,165.000005035401,2|2,1:2|1:2,0:0:0:0:
448,265,105268,2,0,P|474:235|475:153,1,123.75000377655,8|0,0:0|0:0,0:0:0:0:
455,118,105605,2,0,L|466:28,1,82.5000025177003,2|2,1:2|1:2,0:0:0:0:
376,80,105942,1,8,0:0:0:0:
268,24,106110,5,2,1:2:0:0:
268,24,106448,2,0,B|230:49|230:49|107:32,1,165.000005035401,2|2,1:2|1:2,0:0:0:0:
17,0,106953,2,0,P|11:40|24:79,1,82.5000025177003,2|2,1:2|1:2,0:0:0:0:
84,156,107290,1,10,0:2:0:0:
0,247,107459,6,0,P|76:236|138:297,1,165.000005035401,2|2,1:2|1:2,0:0:0:0:
185,378,107964,1,8,0:0:0:0:
276,331,108133,1,2,3:2:0:0:
276,331,108217,1,0,3:2:0:0:
276,331,108302,1,0,1:0:0:0:
218,250,108470,2,0,L|211:166,1,82.5000025177003,2|8,1:2|0:0,0:0:0:0:
128,58,108807,6,0,B|198:60|198:60|224:75|224:75|292:78,1,165.000005035401,6|0,1:2|1:0,0:0:0:0:
368,19,109313,1,8,0:0:0:0:
368,19,109650,2,0,P|389:66|383:106,1,82.5000025177003,0|0,1:0|1:2,0:0:0:0:
313,162,109987,1,8,0:0:0:0:
407,232,110155,6,0,P|330:250|307:325,1,165.000005035401,2|0,1:2|1:2,0:0:0:0:
389,379,110661,2,0,L|475:364,1,82.5000025177003,10|2,0:0|3:2,0:0:0:0:
512,339,110914,1,0,3:0:0:0:
512,339,110998,1,2,1:2:0:0:
504,240,111167,1,2,1:2:0:0:
407,232,111335,2,0,P|393:193|400:153,1,82.5000025177003,10|0,0:0|0:0,0:0:0:0:
490,76,111672,6,0,B|434:112|434:112|261:92,1,240,6|8,1:2|0:0,0:0:0:0:
212,23,112515,2,0,P|183:15|153:19,1,60,2|2,3:2|1:2,0:0:0:0:
117,35,112768,1,2,0:0:0:0:
117,35,112852,1,8,0:0:0:0:
56,93,113021,2,0,L|67:163,1,60,2|8,1:2|0:0,0:0:0:0:
8,213,113358,2,0,P|33:229|62:232,1,60,2|0,0:0|1:2,0:0:0:0:
65,316,113695,2,0,P|95:312|120:296,1,60,8|2,0:0|0:2,0:0:0:0:
208,209,114032,1,8,0:0:0:0:
208,209,114116,1,8,0:0:0:0:
208,209,114200,6,0,B|368:234,1,150,6|2,1:2|1:2,0:0:0:0:
436,285,114706,2,0,P|452:251|447:214,1,75,10|0,0:0|0:0,0:0:0:0:
378,145,115043,1,2,1:2:0:0:
444,72,115212,2,0,L|486:79,2,37.5,2|2|10,3:2|3:2|0:2,0:0:0:0:
378,145,115549,6,0,P|346:94|369:10,1,150,2|2,1:2|1:2,0:0:0:0:
444,72,116054,1,10,0:0:0:0:
378,145,116223,1,2,3:2:0:0:
378,145,116307,1,2,3:2:0:0:
378,145,116391,1,2,1:2:0:0:
308,76,116560,2,0,L|224:88,1,75,2|8,1:2|0:0,0:0:0:0:
110,32,116897,6,0,P|144:96|120:165,1,150,2|2,1:2|1:2,0:0:0:0:
28,198,117403,2,0,P|21:161|32:126,1,75,10|0,0:2|0:0,0:0:0:0:
120,165,117740,1,2,1:2:0:0:
97,259,117908,2,0,L|92:296,2,37.5,2|2|10,3:2|3:2|0:2,0:0:0:0:
207,179,118245,6,0,L|229:339,1,150,2|2,1:2|1:0,0:0:0:0:
325,357,118751,1,8,0:0:0:0:
325,357,118919,2,0,P|396:370|448:320,1,150,2|2,1:0|1:0,0:0:0:0:
471,225,119425,1,8,0:0:0:0:
349,156,119594,6,0,B|315:143|259:155|290:177|242:188|206:178,1,150,6|2,1:2|1:2,0:0:0:0:
120,224,120099,2,0,P|108:189|112:152,1,75,10|0,0:0|0:0,0:0:0:0:
169,73,120436,1,2,1:2:0:0:
93,11,120605,2,0,L|47:4,2,37.5,2|2|10,3:2|3:2|0:2,0:0:0:0:
169,73,120942,6,0,L|317:49,1,150,2|2,1:2|1:2,0:0:0:0:
401,0,121448,2,0,P|416:34|414:72,1,75,10|2,0:0|3:2,0:0:0:0:
398,104,121700,1,2,3:2:0:0:
398,104,121785,1,2,1:2:0:0:
325,168,121953,2,0,P|353:191|390:198,1,75,2|8,1:2|0:0,0:0:0:0:
492,121,122290,6,0,L|470:289,1,150,2|0,1:2|1:0,0:0:0:0:
405,340,122796,2,0,P|377:317|340:310,1,75,10|0,0:2|0:0,0:0:0:0:
261,368,123133,1,2,1:2:0:0:
181,311,123302,2,0,L|173:265,2,37.5,2|2|10,3:2|3:2|0:2,0:0:0:0:
256,219,123639,5,2,1:0:0:0:
256,219,123976,1,2,1:0:0:0:
256,219,124313,1,2,1:0:0:0:
132,163,124650,2,0,L|139:121,4,33.7499989700318,8|8|8|8|4,0:0|0:0|3:0|3:0|3:0,0:0:0:0:
237,81,125155,5,6,1:2:0:0:
202,157,135268,5,8,0:0:0:0:
237,81,135436,1,8,0:0:0:0:
286,152,135605,1,8,0:0:0:0:
368,108,135773,6,0,P|376:181|329:237,1,150,6|0,1:2|1:0,0:0:0:0:
232,246,136279,2,0,L|148:239,1,75,8|0,0:0|1:0,0:0:0:0:
123,239,136532,1,0,1:2:0:0:
123,239,136616,1,2,1:2:0:0:
28,215,136785,2,0,P|25:251|41:284,1,75,2|8,1:2|0:0,0:0:0:0:
123,351,137122,6,0,L|279:340,1,150,2|2,1:2|1:2,0:0:0:0:
360,375,137627,1,8,0:0:0:0:
360,375,137796,2,0,P|367:341|354:302,1,75,2|0,0:0|1:2,0:0:0:0:
278,254,138133,2,0,L|286:179,1,75,2|8,1:2|0:2,0:0:0:0:
361,91,138470,6,0,B|398:127|398:127|495:113,1,150,2|0,1:2|1:2,0:0:0:0:
474,205,138976,2,0,L|400:217,1,75,8|0,0:0|1:0,0:0:0:0:
367,227,139228,1,0,1:0:0:0:
367,227,139313,1,2,1:2:0:0:
285,179,139481,2,0,P|272:144|280:106,1,75,2|8,1:2|0:0,0:0:0:0:
323,9,139818,6,0,P|266:56|193:52,1,150,2|2,1:2|1:2,0:0:0:0:
105,9,140324,1,8,0:0:0:0:
105,9,140493,2,0,P|99:45|111:80,1,75,2|0,0:2|1:2,0:0:0:0:
149,164,140830,1,2,1:2:0:0:
67,227,140998,1,8,0:0:0:0:
88,360,141167,6,0,B|150:352|150:352|173:336|173:336|233:328,1,150,6|0,1:2|1:2,0:0:0:0:
315,361,141672,2,0,P|350:376|387:374,1,75,8|0,0:0|1:0,0:0:0:0:
422,359,141925,1,0,1:2:0:0:
422,359,142009,1,2,1:2:0:0:
439,270,142178,2,0,L|428:186,1,75,2|8,1:2|0:0,0:0:0:0:
375,96,142515,6,0,P|326:65|245:108,1,150,2|2,1:2|1:2,0:0:0:0:
159,116,143021,1,8,0:0:0:0:
159,116,143189,2,0,L|75:105,1,75,2|0,0:2|1:0,0:0:0:0:
0,170,143526,2,0,P|0:207|16:240,1,75,2|8,1:2|0:0,0:0:0:0:
34,345,143863,6,0,B|135:353|135:353|176:327,1,150,2|0,1:2|1:0,0:0:0:0:
250,377,144369,2,0,P|265:343|263:306,1,75,8|0,0:2|1:0,0:0:0:0:
261,265,144622,1,0,1:2:0:0:
261,265,144706,1,2,1:2:0:0:
293,180,144875,2,0,P|259:172|219:181,1,75,2|8,1:2|0:0,0:0:0:0:
113,149,145212,6,0,L|128:0,1,150,2|2,1:2|1:2,0:0:0:0:
216,50,145717,1,8,0:0:0:0:
216,50,145886,2,0,P|252:55|288:45,1,75,2|0,0:0|1:2,0:0:0:0:
376,1,146223,1,2,1:2:0:0:
454,57,146391,1,10,0:0:0:0:
404,177,146560,6,0,B|370:164|314:176|345:198|297:209|261:199,1,150,6|0,1:2|1:2,0:0:0:0:
189,141,147066,2,0,P|156:125|119:124,1,75,8|0,0:0|1:0,0:0:0:0:
86,153,147318,1,0,1:2:0:0:
86,153,147403,1,2,1:2:0:0:
50,235,147571,2,0,L|61:309,1,75,2|8,1:2|0:0,0:0:0:0:
179,335,147908,6,0,B|229:359|229:359|351:341,1,150,2|2,1:2|1:2,0:0:0:0:
341,260,148414,1,8,0:0:0:0:
341,260,148582,2,0,L|254:273,1,75,2|0,0:0|1:2,0:0:0:0:
198,211,148919,2,0,P|183:178|188:141,1,75,2|8,1:2|0:2,0:0:0:0:
299,160,149257,6,0,P|370:180|430:139,1,150,2|0,1:2|1:2,0:0:0:0:
409,52,149762,2,0,L|305:43,1,75,8|0,0:2|0:2,0:0:0:0:
246,67,150099,1,2,1:2:0:0:
173,13,150268,2,0,P|136:7|101:19,1,75,2|8,1:2|0:2,0:0:0:0:
7,109,150605,6,0,B|50:132|50:132|147:103,1,150,2|2,1:2|1:2,0:0:0:0:
246,67,151110,2,0,L|232:140,1,75,10|2,0:0|1:2,0:0:0:0:
266,259,151448,2,0,P|225:198|153:194,1,150,2|10,1:2|0:0,0:0:0:0:
24,261,151953,6,0,L|191:285,1,150,2|0,1:2|1:2,0:0:0:0:
238,352,152459,2,0,P|275:358|309:344,1,75,10|2,0:0|0:0,0:0:0:0:
389,286,152796,1,10,0:0:0:0:
389,286,152880,1,8,3:0:0:0:
389,286,152964,1,4,3:0:0:0:
389,286,153049,1,4,3:0:0:0:
389,286,153133,2,0,L|377:211,1,75,14|0,0:0|0:0,0:0:0:0:
358,84,153470,5,10,0:0:0:0:
256,160,153639,1,10,0:0:0:0:
167,72,154650,5,6,1:2:0:0:
160,96,157346,5,8,0:0:0:0:
150,122,159369,6,0,L|146:160,2,26.2499991989136,0|0|8,1:0|1:0|0:0,0:0:0:0:
97,63,159706,2,0,P|71:58|45:62,1,52.4999983978272,8|4,3:0|3:0,0:0:0:0:
0,165,160043,5,12,0:0:0:0:
69,203,160212,2,0,L|60:307,3,104.999996795654,0|0|0|0,1:0|1:0|1:0|1:0,0:0:0:0:
208,254,161560,2,0,L|216:358,3,104.999996795654,0|0|0|0,1:0|1:0|1:0|1:0,0:0:0:0:
352,320,162740,5,8,0:0:0:0:
304,257,162908,2,0,L|312:152,3,104.999996795654,0|0|0|0,1:0|1:0|1:0|1:0,0:0:0:0:
161,201,164257,2,0,L|153:96,1,104.999996795654,0|8,1:0|3:0,0:0:0:0:
210,43,164762,1,4,3:0:0:0:
210,43,164846,1,4,3:0:0:0:
210,43,164931,1,8,0:0:0:0:
281,75,165099,2,0,P|306:71|332:75,1,52.4999983978272,8|4,3:0|3:0,0:0:0:0:
435,9,165436,6,0,P|452:65|442:124,1,120,14|0,0:0|0:0,0:0:0:0:
372,180,165942,1,2,1:2:0:0:
372,180,166279,2,0,L|239:173,1,120,8|2,0:0|1:2,0:0:0:0:
161,161,166785,6,0,P|167:132|187:109,2,60,8|0|0,3:0|1:0|1:0,0:0:0:0:
198,243,167290,2,0,P|191:272|172:294,1,60,2|0,1:2|1:0,0:0:0:0:
82,310,167627,2,0,L|64:191,1,120,8|2,0:0|1:2,0:0:0:0:
63,190,168302,6,0,P|42:170|33:141,1,60,0|0,1:0|1:0,0:0:0:0:
74,61,168639,1,2,1:2:0:0:
74,61,168976,1,8,0:0:0:0:
231,148,169313,1,2,1:2:0:0:
231,148,169481,2,0,L|170:163,2,60,8|4|4,3:0|3:0|3:0,0:0:0:0:
295,209,169987,2,0,P|324:159|312:101,1,120,2|8,1:2|0:0,0:0:0:0:
229,262,170661,1,2,1:2:0:0:
229,262,170830,6,0,P|279:291|337:279,1,120,2|0,0:0|1:0,0:0:0:0:
408,225,171335,1,2,1:2:0:0:
408,225,171672,2,0,L|420:105,1,120,8|2,0:0|1:2,0:0:0:0:
431,15,172178,6,0,P|460:20|483:40,2,60,8|4|4,3:0|3:0|3:0,0:0:0:0:
343,38,172684,2,0,L|223:26,1,120,2|8,1:2|0:2,0:0:0:0:
223,26,173358,1,2,1:2:0:0:
223,26,173695,6,0,P|203:48|199:77,1,60,0|0,1:0|1:2,0:0:0:0:
262,142,174032,2,0,P|281:119|285:90,1,60,2|0,1:2|1:0,0:0:0:0:
199,77,174369,2,0,L|79:89,1,120,8|2,0:0|1:2,0:0:0:0:
16,153,174875,6,0,P|39:172|69:177,1,60,10|8,0:0|3:0,0:0:0:0:
143,228,175212,1,8,0:0:0:0:
213,171,175380,2,0,L|242:164,4,30,10|8|8|8|8,0:0|0:0|0:0|0:0|0:0,0:0:0:0:
143,228,175886,6,2,L|135:309,1,67.4999979400635,2|0,0:2|0:1,1:0:0:0:
136,329,176223,6,0,B|175:355|175:355|262:345,1,134.999995880127,6|2,1:2|1:2,0:0:0:0:
342,335,176728,1,2,1:2:0:0:
342,335,177066,2,0,P|301:294|316:210,1,134.999995880127,10|0,0:0|0:0,0:0:0:0:
365,165,177571,1,8,0:0:0:0:
435,206,177740,6,0,L|425:277,1,67.4999979400635,2|8,1:2|0:0,0:0:0:0:
364,164,178077,2,0,P|348:136|350:102,1,67.4999979400635,0|0,1:2|1:2,0:0:0:0:
407,43,178414,2,0,P|345:70|278:69,1,134.999995880127,10|0,0:0|0:0,0:0:0:0:
183,11,178919,6,0,L|189:145,1,134.999995880127,6|2,1:2|1:2,0:0:0:0:
144,213,179425,1,2,1:2:0:0:
144,213,179762,2,0,P|79:219|45:275,1,134.999995880127,10|0,0:0|1:0,0:0:0:0:
80,348,180268,1,8,0:0:0:0:
154,317,180436,6,0,L|234:324,1,67.4999979400635,2|8,1:2|0:0,0:0:0:0:
340,254,180773,2,0,L|273:260,1,67.4999979400635,0|0,1:2|1:0,0:0:0:0:
225,193,181110,2,0,P|216:160|224:128,2,67.4999979400635,8|0|8,0:2|1:0|0:0,0:0:0:0:
179,64,181616,6,0,P|244:52|295:93,1,134.999995880127,4|0,1:2|1:2,0:0:0:0:
318,171,182122,1,0,1:2:0:0:
318,171,182459,2,0,L|463:158,1,134.999995880127,10|0,0:0|1:0,0:0:0:0:
504,96,182964,1,8,0:0:0:0:
452,158,183133,2,0,P|442:190|451:222,1,67.4999979400635,2|8,1:2|0:0,0:0:0:0:
511,277,183470,2,0,P|520:309|511:341,1,67.4999979400635,0|2,1:0|1:2,0:0:0:0:
436,372,183807,2,0,L|301:359,1,134.999995880127,10|8,0:0|0:0,0:0:0:0:
267,360,184228,1,8,0:0:0:0:
267,360,184313,6,0,P|241:315|252:265,1,104.999996795654,6|2,1:2|1:2,0:0:0:0:
327,199,184818,6,0,B|272:223|272:223|170:210,1,150,14|2,0:2|1:2,0:0:0:0:
116,147,185324,1,2,1:2:0:0:
116,147,185493,2,0,P|92:186|91:214,1,75,10|0,0:0|0:0,0:0:0:0:
128,304,185830,5,2,1:2:0:0:
52,364,185998,1,2,0:0:0:0:
128,304,186167,2,0,L|202:315,1,75,10|2,0:0|0:0,0:0:0:0:
279,375,186504,2,0,L|353:363,1,75,2|0,1:2|1:0,0:0:0:0:
445,330,186841,1,10,0:0:0:0:
398,211,187009,6,0,B|364:198|308:210|339:232|291:243|255:233,1,150,6|2,1:2|1:2,0:0:0:0:
160,207,187515,2,0,P|173:173|170:136,1,75,10|0,0:0|1:0,0:0:0:0:
143,110,187768,1,0,1:0:0:0:
143,110,187852,1,8,0:0:0:0:
49,140,188021,2,0,L|7:131,2,37.5,0|0|8,1:0|1:0|0:0,0:0:0:0:
55,237,188358,6,0,L|29:264,2,37.5,0|0|8,1:0|1:0|0:0,0:0:0:0:
133,294,188695,2,0,L|125:330,2,37.5,0|0|8,1:0|1:0|0:0,0:0:0:0:
234,275,189032,1,0,1:0:0:0:
234,275,189116,1,0,1:0:0:0:
234,275,189200,2,0,L|269:286,4,37.5,8|8|8|4|8,0:0|3:0|3:0|3:0|0:0,0:0:0:0:
319,371,189706,6,0,P|361:321|351:234,1,150,6|2,1:2|1:2,0:0:0:0:
297,161,190212,2,0,L|371:149,1,75,10|0,0:0|0:0,0:0:0:0:
438,220,190549,1,10,0:0:0:0:
493,140,190717,1,2,1:2:0:0:
493,140,190802,1,2,1:2:0:0:
493,140,190886,1,10,0:0:0:0:
423,47,191054,5,2,1:2:0:0:
297,161,191391,1,10,0:2:0:0:
243,79,191560,2,0,L|249:39,2,37.5,2|10|10,1:2|0:0|0:0,0:0:0:0:
7,141,192403,6,0,B|48:172|48:172|176:152,1,179.999994506836,6|2,1:2|1:2,0:0:0:0:
146,57,192908,2,0,P|105:54|70:74,1,82.5000025177003,8|0,0:0|0:0,0:0:0:0:
175,152,193245,2,0,P|216:155|251:135,1,82.5000025177003,2|2,1:2|1:2,0:0:0:0:
311,56,193582,1,8,0:0:0:0:
413,125,193751,6,0,B|446:169|446:169|427:277,1,165.000005035401,2|2,1:2|1:2,0:0:0:0:
379,364,194257,2,0,P|345:340|332:250,1,123.75000377655,8|0,0:0|0:0,0:0:0:0:
340,223,194594,2,0,L|250:233,1,82.5000025177003,2|2,1:2|1:2,0:0:0:0:
198,311,194931,1,10,0:0:0:0:
91,239,195099,6,0,P|83:198|95:159,1,82.5000025177003,2|0,1:2|0:0,0:0:0:0:
185,120,195436,2,0,L|15:99,1,165.000005035401,2|2,1:2|1:2,0:0:0:0:
89,27,195942,1,2,1:2:0:0:
89,27,196110,2,0,L|185:39,1,82.5000025177003,2|10,1:2|0:0,0:0:0:0:
267,131,196448,6,0,B|311:146|363:133|327:110|382:96|422:108,1,165.000005035401,2|2,1:2|1:2,0:0:0:0:
509,153,196953,2,0,P|463:191|458:252,1,123.75000377655,8|0,0:0|0:0,0:0:0:0:
481,296,197290,1,2,1:2:0:0:
395,352,197459,1,2,1:2:0:0:
395,352,197627,1,10,0:0:0:0:
281,289,197796,6,0,B|244:256|244:256|129:270,1,165.000005035401,6|0,1:2|1:2,0:0:0:0:
75,353,198302,1,10,0:0:0:0:
75,353,198470,2,0,P|29:284|52:207,1,165.000005035401,2|0,1:2|1:0,0:0:0:0:
113,133,198976,1,10,0:0:0:0:
234,173,199144,6,0,L|400:153,1,165.000005035401,2|0,1:2|1:0,0:0:0:0:
465,225,199650,1,10,0:0:0:0:
512,144,199818,1,2,3:2:0:0:
512,144,199903,1,0,3:2:0:0:
512,144,199987,2,0,L|505:60,1,82.5000025177003,0|0,1:2|1:2,0:0:0:0:
417,16,200324,1,10,0:0:0:0:
317,83,200493,6,0,B|277:49|277:49|165:62,1,165.000005035401,2|0,1:2|1:0,0:0:0:0:
86,3,200998,2,0,B|65:78|65:78|99:159,1,165.000005035401,8|0,0:0|1:0,0:0:0:0:
162,233,201504,2,0,P|128:255|87:256,1,82.5000025177003,2|8,1:2|0:2,0:0:0:0:
191,145,201841,6,0,P|241:102|336:114,1,165.000005035401,2|0,1:2|1:0,0:0:0:0:
367,205,202346,2,0,P|327:213|288:202,1,82.5000025177003,8|0,0:0|0:0,0:0:0:0:
242,294,202684,1,8,0:0:0:0:
242,294,202768,1,8,0:0:0:0:
242,294,202852,1,8,3:0:0:0:
242,294,202936,1,8,3:0:0:0:
242,294,203021,2,0,L|234:344,1,41.2500012588501,4|4,3:0|3:0,0:0:0:0:
233,370,203189,6,0,P|283:338|342:343,1,120,6|2,1:2|1:2,0:0:0:0:
467,369,203695,6,0,B|497:323|497:323|482:213,1,165.000005035401,12|2,0:2|1:2,0:0:0:0:
450,125,204200,1,2,1:2:0:0:
450,125,204369,1,10,0:0:0:0:
332,177,204537,6,0,L|156:162,1,165.000005035401,2|2,1:2|1:2,0:0:0:0:
114,246,205043,2,0,P|74:199|72:139,1,123.75000377655,8|0,0:0|0:0,0:0:0:0:
74,97,205380,2,0,L|66:15,1,82.5000025177003,2|2,1:2|1:2,0:0:0:0:
154,60,205717,1,8,0:0:0:0:
256,1,205886,5,2,1:2:0:0:
256,1,206223,2,0,P|306:64|386:65,1,165.000005035401,2|2,1:2|1:2,0:0:0:0:
478,23,206728,2,0,P|488:62|476:100,1,82.5000025177003,2|2,1:2|1:2,0:0:0:0:
393,149,207066,1,8,0:0:0:0:
474,229,207234,6,0,P|403:268|327:244,1,165.000005035401,2|2,1:2|1:2,0:0:0:0:
260,170,207740,1,8,0:0:0:0:
197,246,207908,1,2,3:2:0:0:
197,246,207993,1,0,3:2:0:0:
197,246,208077,2,0,L|212:333,1,82.5000025177003,0|2,1:2|1:2,0:0:0:0:
327,244,208414,1,8,0:0:0:0:
232,151,208582,6,0,B|188:136|136:149|172:172|117:186|77:174,1,165.000005035401,6|0,1:2|1:0,0:0:0:0:
57,76,209088,1,8,0:0:0:0:
57,76,209425,2,0,P|86:55|135:48,1,82.5000025177003,0|0,1:0|1:2,0:0:0:0:
229,62,209762,1,8,0:0:0:0:
345,11,209931,6,0,L|336:185,1,165.000005035401,2|0,1:2|1:2,0:0:0:0:
374,266,210436,2,0,P|410:283|450:276,1,82.5000025177003,10|2,0:0|3:2,0:0:0:0:
494,249,210689,1,0,3:0:0:0:
494,249,210773,1,2,1:2:0:0:
431,172,210942,1,2,1:2:0:0:
336,175,211110,2,0,L|250:181,1,82.5000025177003,10|0,0:0|0:0,0:0:0:0:
139,121,211448,6,0,P|225:194|199:315,1,240,6|10,1:2|0:0,0:0:0:0:
131,350,212290,2,0,L|58:341,1,60,2|0,3:2|1:0,0:0:0:0:
33,343,212543,1,2,0:0:0:0:
33,343,212627,1,10,0:0:0:0:
0,265,212796,2,0,P|1:235|15:208,1,60,2|8,1:2|0:0,0:0:0:0:
3,125,213133,2,0,P|32:125|59:139,1,60,2|0,0:0|1:0,0:0:0:0:
108,207,213470,2,0,P|137:206|164:192,1,60,8|2,0:0|0:0,0:0:0:0:
265,124,213807,1,8,0:0:0:0:
265,124,213891,1,8,0:0:0:0:
265,124,213976,6,0,L|144:109,1,104.999996795654,6|0,1:2|1:0,0:0:0:0:
68,14,214481,6,0,B|114:32|114:32|217:18,1,150,12|0,0:2|1:0,0:0:0:0:
304,47,214987,1,0,1:0:0:0:
304,47,215155,1,8,0:0:0:0:
428,5,215324,6,0,P|461:69|427:132,1,150,2|0,1:2|1:0,0:0:0:0:
350,180,215830,1,8,0:0:0:0:
350,180,216167,2,0,L|248:170,1,75,0|0,1:0|1:0,0:0:0:0:
203,226,216504,1,8,0:0:0:0:
97,157,216672,6,0,B|87:193|98:241|120:210|132:266|119:300,1,150,2|0,1:2|1:0,0:0:0:0:
45,351,217178,1,8,0:0:0:0:
45,351,217515,2,0,P|28:319|30:281,1,75,0|0,1:0|1:0,0:0:0:0:
119,299,217852,1,8,0:0:0:0:
203,226,218021,6,0,L|193:376,1,150,2|0,1:2|1:0,0:0:0:0:
277,344,218526,2,0,L|281:260,1,75,10|2,0:0|0:0,0:0:0:0:
280,182,218863,1,2,1:2:0:0:
280,182,219032,1,2,1:2:0:0:
202,226,219200,1,10,0:2:0:0:
141,118,219369,6,0,B|203:110|203:110|226:94|226:94|286:86,1,150,6|2,1:2|1:2,0:0:0:0:
363,131,219875,1,8,0:0:0:0:
363,130,220212,2,0,P|377:96|373:59,1,75,0|0,1:2|1:2,0:0:0:0:
303,2,220549,1,8,0:0:0:0:
460,25,220717,6,0,P|469:98|453:171,1,150,2|0,1:2|1:0,0:0:0:0:
391,237,221223,1,8,0:0:0:0:
391,237,221560,2,0,P|423:258|460:262,1,75,0|0,1:0|1:0,0:0:0:0:
453,171,221897,1,8,0:0:0:0:
305,191,222066,6,0,B|260:214|260:214|146:200,1,165.000005035401,6|0,1:2|1:0,0:0:0:0:
79,128,222571,1,8,0:0:0:0:
7,197,222740,2,0,L|14:249,2,41.2500012588501,2|0|10,1:2|1:0|0:2,0:0:0:0:
79,128,223077,2,0,L|86:76,2,41.2500012588501,2|0|10,1:2|1:0|0:2,0:0:0:0:
177,116,223414,6,0,L|209:90,2,41.2500012588501,2|0|10,1:2|1:0|0:2,0:0:0:0:
260,169,223751,2,0,L|298:184,2,41.2500012588501,2|0|10,1:2|1:0|0:2,0:0:0:0:
219,263,224088,1,2,1:2:0:0:
219,263,224172,1,0,1:0:0:0:
219,263,224257,2,0,L|224:303,4,41.2500012588501,10|0|0|0|10,0:0|1:0|1:0|1:0|0:0,0:0:0:0:
157,367,224762,6,0,B|201:337|201:337|302:348,1,150,6|2,1:2|1:2,0:0:0:0:
378,293,225268,2,0,P|357:263|357:226,1,75,8|0,0:0|0:0,0:0:0:0:
420,151,225605,1,2,1:2:0:0:
511,184,225773,2,0,L|508:227,2,37.5,2|2|10,3:2|3:2|0:2,0:0:0:0:
420,151,226110,6,0,P|357:127|285:163,1,150,2|2,1:2|1:2,0:0:0:0:
220,233,226616,2,0,L|145:225,1,75,8|2,0:0|3:2,0:0:0:0:
111,225,226869,1,2,3:2:0:0:
111,225,226953,1,2,1:2:0:0:
45,297,227122,2,0,P|78:315|114:318,1,75,2|8,1:2|0:0,0:0:0:0:
220,233,227459,6,0,L|234:84,1,150,6|2,1:2|1:2,0:0:0:0:
161,18,227964,2,0,P|140:49|136:86,1,75,10|0,0:2|0:2,0:0:0:0:
234,83,228302,1,2,1:2:0:0:
306,18,228470,2,0,L|352:26,2,37.5,2|2|10,3:2|3:2|0:2,0:0:0:0:
434,19,228807,6,0,P|415:89|348:116,1,150,2|2,1:2|1:0,0:0:0:0:
254,109,229313,1,8,0:0:0:0:
254,109,229481,2,0,P|321:135|340:205,1,150,2|2,1:1|1:0,0:0:0:0:
309,298,229987,1,8,0:0:0:0:
200,222,230155,6,0,B|162:243|162:243|51:231,1,150,6|2,1:2|1:2,0:0:0:0:
0,151,230661,2,0,L|74:141,1,75,10|0,0:0|0:0,0:0:0:0:
127,59,230998,1,2,1:2:0:0:
217,95,231167,2,0,L|211:146,2,37.5,2|2|10,3:2|3:2|0:0,0:0:0:0:
126,59,231504,6,0,P|177:6|250:9,1,150,2|2,1:2|1:2,0:0:0:0:
344,36,232009,2,0,L|334:114,1,75,10|2,0:0|3:2,0:0:0:0:
335,151,232262,1,2,3:2:0:0:
335,151,232346,1,2,1:2:0:0:
256,208,232515,2,0,P|252:245|263:281,1,75,2|8,1:2|0:0,0:0:0:0:
387,341,232852,6,0,P|408:272|333:241,1,150,6|2,1:2|1:2,0:0:0:0:
263,281,233358,2,0,L|173:271,1,75,10|0,0:0|0:0,0:0:0:0:
123,199,233695,1,2,1:2:0:0:
54,268,233863,2,0,L|58:311,2,37.5,2|2|10,3:2|3:2|0:0,0:0:0:0:
37,140,234200,5,2,1:0:0:0:
123,17,234537,1,2,1:0:0:0:
271,31,234875,1,2,1:0:0:0:
123,17,235212,1,2,1:0:0:0:
193,158,235549,5,10,0:0:0:0:
