osu file format v14

[General]
AudioFilename: audio.mp3
AudioLeadIn: 0
PreviewTime: 45958
Countdown: 0
SampleSet: Soft
StackLeniency: 0.7
Mode: 0
LetterboxInBreaks: 0
EpilepsyWarning: 1
WidescreenStoryboard: 1

[Editor]
Bookmarks: 7468,20802,34135,47468,74135,87468,87572,87677,87781,87885,87989,88093,88197,88302,88406,88510,88614,88718,88822,88927,89031,89135,89239,89343,89447,89552,89656,89760,89864,89968,90072,90177,90281,90385,90489,90593,90697,90802,90906,91010,91114,91218,91322,91427,91531,91635,91739,91843,91947,92052,92156,92260,92364,92468,92572,92677,92781,92885,92989,93093,93197,93302,93406,93510,93614,93718,93822,93927,94031,94135,100802,127468,127677,127885,128093,128302,128510,128718,128927,129135,129343,129552,129760,129968,130177,130385,130593,130802,131010,131218,131427,131635,131843,132052,132260,132468,132677,132885,133093,133302,133510,133718,133927,134135,140802,147468,157468,165802,192468,205802,219135
DistanceSpacing: 0.8
BeatDivisor: 4
GridSize: 32
TimelineZoom: 1.4

[Metadata]
Title:HOT
TitleUnicode:HOT
Artist:vivid undress
ArtistUnicode:vivid undress
Creator:Elinor
Version:DESIRE
Source:
Tags:eli [_eli_] shikibe mayu kazato asa shizuku- mocaotic kyutei Anya_Melfissa Anya Melfissa j-pop jpop japanese english pop 混在ニューウェーブ konzai new wave female vocalist
BeatmapID:2963023
BeatmapSetID:1440156

[Difficulty]
HPDrainRate:5
CircleSize:4.2
OverallDifficulty:8.4
ApproachRate:9
SliderMultiplier:2
SliderTickRate:1

[Events]
//Background and Video events
0,0,"bg.jpg",0,0
//Break Periods
2,87668,93510
2,127668,133535
//Storyboard Layer 0 (Background)
//Storyboard Layer 1 (Fail)
//Storyboard Layer 2 (Pass)
//Storyboard Layer 3 (Foreground)
//Storyboard Layer 4 (Overlay)
//Storyboard Sound Samples

[TimingPoints]
802,416.666666666667,4,2,1,60,1,0
802,-125,4,2,1,60,0,0
7468,-125,4,2,1,60,0,0
9239,-125,4,2,1,5,0,0
9343,-125,4,2,1,60,0,0
10281,-125,4,2,1,5,0,0
10385,-125,4,2,1,60,0,0
12572,-125,4,2,1,5,0,0
12677,-125,4,2,1,60,0,0
13614,-125,4,2,1,5,0,0
13718,-125,4,2,1,60,0,0
16947,-125,4,2,1,5,0,0
17052,-125,4,2,1,60,0,0
18822,-125,4,2,1,5,0,0
18927,-125,4,2,1,60,0,0
19031,-125,4,2,1,5,0,0
19135,-125,4,2,1,60,0,0
19760,-100,4,2,1,60,0,0
20072,-100,4,2,1,5,0,0
20177,-125,4,2,1,60,0,0
20489,-125,4,2,1,5,0,0
20593,-125,4,2,1,60,0,0
20697,-125,4,2,1,5,0,0
20802,-111.111111111111,4,2,1,70,0,0
23614,-111.111111111111,4,2,1,5,0,0
23718,-111.111111111111,4,2,1,70,0,0
24864,-111.111111111111,4,2,1,70,0,0
24968,-111.111111111111,4,2,1,70,0,0
25489,-111.111111111111,4,2,1,5,0,0
25593,-111.111111111111,4,2,1,70,0,0
25906,-111.111111111111,4,2,1,5,0,0
26010,-111.111111111111,4,2,1,70,0,0
26739,-111.111111111111,4,2,1,5,0,0
26843,-111.111111111111,4,2,1,70,0,0
27364,-111.111111111111,4,2,1,5,0,0
27468,-111.111111111111,4,2,1,70,0,0
28197,-111.111111111111,4,2,1,5,0,0
28302,-111.111111111111,4,2,1,70,0,0
29864,-111.111111111111,4,2,1,5,0,0
29968,-111.111111111111,4,2,1,70,0,0
30281,-111.111111111111,4,2,1,5,0,0
30385,-111.111111111111,4,2,1,70,0,0
31843,-111.111111111111,4,2,1,5,0,0
31947,-111.111111111111,4,2,1,70,0,0
32156,-111.111111111111,4,2,1,5,0,0
32260,-111.111111111111,4,2,1,70,0,0
33406,-111.111111111111,4,2,1,5,0,0
33510,-111.111111111111,4,2,1,70,0,0
33614,-111.111111111111,4,2,1,5,0,0
33718,-83.3333333333333,4,2,1,70,0,0
34031,-111.111111111111,4,2,1,5,0,0
34135,-100,4,2,1,80,0,0
34239,-100,4,2,1,5,0,0
34343,-100,4,2,1,80,0,0
34656,-100,4,2,1,5,0,0
34760,-100,4,2,1,80,0,0
35281,-100,4,2,1,5,0,0
35385,-100,4,2,1,80,0,0
37572,-100,4,2,1,5,0,0
37677,-100,4,2,1,80,0,0
37989,-100,4,2,1,5,0,0
38093,-100,4,2,1,80,0,0
38614,-100,4,2,1,5,0,0
38718,-100,4,2,1,80,0,0
38822,-100,4,2,1,5,0,0
38927,-100,4,2,1,80,0,0
39239,-100,4,2,1,5,0,0
39343,-100,4,2,1,80,0,0
39656,-100,4,2,1,5,0,0
39760,-100,4,2,1,80,0,0
40281,-100,4,2,1,5,0,0
40385,-100,4,2,1,80,0,0
40489,-100,4,2,1,5,0,0
40593,-100,4,2,1,80,0,0
40906,-100,4,2,1,5,0,0
41010,-100,4,2,1,80,0,0
41322,-100,4,2,1,5,0,0
41427,-100,4,2,1,80,0,0
41739,-100,4,2,1,5,0,0
41843,-100,4,2,1,80,0,0
42156,-100,4,2,1,5,0,0
42260,-100,4,2,1,80,0,0
42572,-100,4,2,1,5,0,0
42677,-100,4,2,1,80,0,0
44031,-100,4,2,1,5,0,0
44135,-100,4,2,1,80,0,0
45072,-100,4,2,1,5,0,0
45177,-100,4,2,1,80,0,0
47468,-55.5555555555556,4,2,1,90,0,0
47781,-83.3333333333333,4,2,1,5,0,0
47885,-71.4285714285714,4,2,1,90,0,0
48406,-83.3333333333333,4,2,1,5,0,0
48510,-83.3333333333333,4,2,1,90,0,0
48822,-83.3333333333333,4,2,1,5,0,0
48927,-83.3333333333333,4,2,1,90,0,0
50489,-83.3333333333333,4,2,1,5,0,0
50593,-83.3333333333333,4,2,1,90,0,0
50697,-83.3333333333333,4,2,1,5,0,0
50802,-62.5,4,2,1,90,0,0
51114,-83.3333333333333,4,2,1,5,0,0
51218,-71.4285714285714,4,2,1,90,0,0
51739,-83.3333333333333,4,2,1,5,0,0
51843,-83.3333333333333,4,2,1,90,0,0
52156,-83.3333333333333,4,2,1,5,0,0
52260,-83.3333333333333,4,2,1,90,0,0
53406,-83.3333333333333,4,2,1,5,0,0
53510,-83.3333333333333,4,2,1,90,0,0
53614,-83.3333333333333,4,2,1,5,0,0
53718,-83.3333333333333,4,2,1,90,0,0
53822,-83.3333333333333,4,2,1,5,0,0
53927,-83.3333333333333,4,2,1,90,0,0
54135,-62.5,4,2,1,90,0,0
54447,-83.3333333333333,4,2,1,5,0,0
54552,-83.3333333333333,4,2,1,90,0,0
55072,-83.3333333333333,4,2,1,5,0,0
55177,-83.3333333333333,4,2,1,90,0,0
55281,-83.3333333333333,4,2,1,5,0,0
55385,-83.3333333333333,4,2,1,90,0,0
55489,-83.3333333333333,4,2,1,5,0,0
55593,-83.3333333333333,4,2,1,90,0,0
56114,-83.3333333333333,4,2,1,5,0,0
56218,-83.3333333333333,4,2,1,90,0,0
56739,-83.3333333333333,4,2,1,5,0,0
56843,-83.3333333333333,4,2,1,90,0,0
59031,-83.3333333333333,4,2,1,5,0,0
59135,-83.3333333333333,4,2,1,90,0,0
59239,-83.3333333333333,4,2,1,5,0,0
59343,-55.5555555555556,4,2,1,90,0,0
60802,-62.5,4,2,1,90,0,0
61114,-83.3333333333333,4,2,1,5,0,0
61218,-71.4285714285714,4,2,1,90,0,0
61739,-83.3333333333333,4,2,1,5,0,0
61843,-83.3333333333333,4,2,1,90,0,0
62156,-83.3333333333333,4,2,1,5,0,0
62260,-83.3333333333333,4,2,1,90,0,0
63822,-83.3333333333333,4,2,1,5,0,0
63927,-83.3333333333333,4,2,1,90,0,0
64031,-83.3333333333333,4,2,1,5,0,0
64135,-62.5,4,2,1,90,0,0
64447,-83.3333333333333,4,2,1,5,0,0
64552,-71.4285714285714,4,2,1,90,0,0
65072,-83.3333333333333,4,2,1,5,0,0
65177,-83.3333333333333,4,2,1,90,0,0
65489,-83.3333333333333,4,2,1,5,0,0
65593,-83.3333333333333,4,2,1,90,0,0
66739,-83.3333333333333,4,2,1,5,0,0
66843,-83.3333333333333,4,2,1,90,0,0
66947,-83.3333333333333,4,2,1,5,0,0
67052,-83.3333333333333,4,2,1,90,0,0
67156,-83.3333333333333,4,2,1,5,0,0
67260,-62.5,4,2,1,90,0,0
67781,-83.3333333333333,4,2,1,5,0,0
67885,-83.3333333333333,4,2,1,90,0,0
68406,-83.3333333333333,4,2,1,5,0,0
68510,-83.3333333333333,4,2,1,90,0,0
68614,-83.3333333333333,4,2,1,5,0,0
68718,-83.3333333333333,4,2,1,90,0,0
68822,-83.3333333333333,4,2,1,5,0,0
68927,-83.3333333333333,4,2,1,90,0,0
69447,-83.3333333333333,4,2,1,5,0,0
69552,-83.3333333333333,4,2,1,90,0,0
70072,-83.3333333333333,4,2,1,5,0,0
70176,-83.3333333333333,4,2,1,90,0,0
70802,-100,4,2,1,100,0,1
72572,-100,4,2,1,5,0,1
72677,-100,4,2,1,100,0,1
74135,-125,4,2,1,60,0,0
75802,-111.111111111111,4,2,1,70,0,0
78197,-111.111111111111,4,2,1,5,0,0
78302,-111.111111111111,4,2,1,70,0,0
79239,-111.111111111111,4,2,1,5,0,0
79343,-111.111111111111,4,2,1,70,0,0
80072,-111.111111111111,4,2,1,5,0,0
80177,-111.111111111111,4,2,1,70,0,0
80697,-111.111111111111,4,2,1,5,0,0
80802,-111.111111111111,4,2,1,70,0,0
81531,-111.111111111111,4,2,1,5,0,0
81635,-111.111111111111,4,2,1,70,0,0
83197,-111.111111111111,4,2,1,5,0,0
83302,-111.111111111111,4,2,1,70,0,0
83614,-111.111111111111,4,2,1,5,0,0
83718,-111.111111111111,4,2,1,70,0,0
85177,-111.111111111111,4,2,1,5,0,0
85281,-111.111111111111,4,2,1,70,0,0
85489,-111.111111111111,4,2,1,5,0,0
85593,-111.111111111111,4,2,1,70,0,0
86739,-111.111111111111,4,2,1,5,0,0
86843,-111.111111111111,4,2,1,70,0,0
86947,-111.111111111111,4,2,1,5,0,0
87052,-83.3333333333333,4,2,1,70,0,0
87364,-111.111111111111,4,2,1,5,0,0
87468,-100,4,2,1,60,0,0
94135,-100,4,2,1,80,0,0
97364,-100,4,2,1,5,0,0
97468,-100,4,2,1,80,0,0
98406,-100,4,2,1,5,0,0
98510,-100,4,2,1,80,0,0
99239,-100,4,2,1,5,0,0
99343,-100,4,2,1,80,0,0
99864,-100,4,2,1,5,0,0
99968,-100,4,2,1,80,0,0
100489,-100,4,2,1,5,0,0
100593,-100,4,2,1,80,0,0
100802,-62.5,4,2,1,90,0,0
101114,-83.3333333333333,4,2,1,5,0,0
101218,-71.4285714285714,4,2,1,90,0,0
101739,-71.4285714285714,4,2,1,5,0,0
101843,-83.3333333333333,4,2,1,90,0,0
102156,-83.3333333333333,4,2,1,5,0,0
102260,-83.3333333333333,4,2,1,90,0,0
103822,-83.3333333333333,4,2,1,5,0,0
103927,-83.3333333333333,4,2,1,90,0,0
104031,-83.3333333333333,4,2,1,5,0,0
104135,-62.5,4,2,1,90,0,0
104447,-83.3333333333333,4,2,1,5,0,0
104552,-83.3333333333333,4,2,1,90,0,0
104760,-71.4285714285714,4,2,1,90,0,0
105072,-83.3333333333333,4,2,1,5,0,0
105177,-83.3333333333333,4,2,1,90,0,0
105489,-83.3333333333333,4,2,1,5,0,0
105593,-83.3333333333333,4,2,1,90,0,0
106739,-83.3333333333333,4,2,1,5,0,0
106843,-83.3333333333333,4,2,1,90,0,0
106947,-83.3333333333333,4,2,1,5,0,0
107052,-83.3333333333333,4,2,1,90,0,0
107156,-83.3333333333333,4,2,1,5,0,0
107260,-62.5,4,2,1,90,0,0
107781,-83.3333333333333,4,2,1,5,0,0
107885,-83.3333333333333,4,2,1,90,0,0
108406,-83.3333333333333,4,2,1,5,0,0
108510,-83.3333333333333,4,2,1,90,0,0
108614,-83.3333333333333,4,2,1,5,0,0
108718,-83.3333333333333,4,2,1,90,0,0
108822,-83.3333333333333,4,2,1,5,0,0
108927,-83.3333333333333,4,2,1,90,0,0
109447,-83.3333333333333,4,2,1,5,0,0
109552,-83.3333333333333,4,2,1,90,0,0
110072,-83.3333333333333,4,2,1,5,0,0
110177,-83.3333333333333,4,2,1,90,0,0
112364,-83.3333333333333,4,2,1,5,0,0
112468,-83.3333333333333,4,2,1,90,0,0
112572,-83.3333333333333,4,2,1,5,0,0
112677,-62.5,4,2,1,90,0,0
114447,-83.3333333333333,4,2,1,5,0,0
114552,-83.3333333333333,4,2,1,90,0,0
115072,-83.3333333333333,4,2,1,5,0,0
115177,-83.3333333333333,4,2,1,90,0,0
115489,-83.3333333333333,4,2,1,5,0,0
115593,-83.3333333333333,4,2,1,90,0,0
117156,-83.3333333333333,4,2,1,5,0,0
117260,-83.3333333333333,4,2,1,90,0,0
117364,-83.3333333333333,4,2,1,5,0,0
117468,-71.4285714285714,4,2,1,90,0,0
117781,-83.3333333333333,4,2,1,5,0,0
117885,-71.4285714285714,4,2,1,90,0,0
118406,-83.3333333333333,4,2,1,5,0,0
118510,-83.3333333333333,4,2,1,90,0,0
118822,-83.3333333333333,4,2,1,5,0,0
118927,-83.3333333333333,4,2,1,90,0,0
120072,-83.3333333333333,4,2,1,5,0,0
120177,-83.3333333333333,4,2,1,90,0,0
120281,-83.3333333333333,4,2,1,5,0,0
120385,-83.3333333333333,4,2,1,90,0,0
120489,-83.3333333333333,4,2,1,5,0,0
120593,-62.5,4,2,1,90,0,0
121114,-83.3333333333333,4,2,1,5,0,0
121218,-83.3333333333333,4,2,1,90,0,0
121739,-83.3333333333333,4,2,1,5,0,0
121843,-83.3333333333333,4,2,1,90,0,0
121947,-83.3333333333333,4,2,1,5,0,0
122052,-83.3333333333333,4,2,1,90,0,0
122156,-83.3333333333333,4,2,1,5,0,0
122260,-83.3333333333333,4,2,1,90,0,0
122781,-83.3333333333333,4,2,1,5,0,0
122885,-83.3333333333333,4,2,1,90,0,0
123406,-83.3333333333333,4,2,1,5,0,0
123510,-83.3333333333333,4,2,1,90,0,0
124031,-83.3333333333333,4,2,1,5,0,0
124135,-100,4,2,1,100,0,1
125489,-100,4,2,1,5,0,1
125593,-100,4,2,1,100,0,1
125802,-100,4,2,1,80,0,0
127468,-100,4,2,1,50,0,0
134135,-125,4,2,1,60,0,0
134447,-125,4,2,1,5,0,0
134552,-125,4,2,1,60,0,0
136114,-125,4,2,1,5,0,0
136218,-125,4,2,1,60,0,0
137781,-125,4,2,1,5,0,0
137885,-125,4,2,1,60,0,0
139447,-125,4,2,1,5,0,0
139552,-125,4,2,1,60,0,0
141114,-125,4,2,1,5,0,0
141218,-125,4,2,1,60,0,0
142781,-125,4,2,1,5,0,0
142885,-125,4,2,1,60,0,0
144447,-125,4,2,1,5,0,0
144552,-125,4,2,1,60,0,0
146114,-125,4,2,1,5,0,0
146218,-125,4,2,1,60,0,0
147468,-111.111111111111,4,2,1,70,0,0
156739,-111.111111111111,4,2,1,5,0,0
156843,-111.111111111111,4,2,1,70,0,0
157468,-100,4,2,1,100,0,1
157572,-100,4,2,1,5,0,1
157677,-100,4,2,1,100,0,1
159447,-100,4,2,1,5,0,1
159552,-100,4,2,1,100,0,1
160906,-100,4,2,1,5,0,1
161010,-100,4,2,1,100,0,1
162156,-100,4,2,1,5,0,1
162260,-100,4,2,1,100,0,1
162468,-100,4,2,1,80,0,0
165802,-55.5555555555556,4,2,1,90,0,0
166114,-55.5555555555556,4,2,1,5,0,0
166218,-71.4285714285714,4,2,1,90,0,0
166739,-71.4285714285714,4,2,1,5,0,0
166843,-83.3333333333333,4,2,1,90,0,0
167156,-83.3333333333333,4,2,1,5,0,0
167260,-83.3333333333333,4,2,1,90,0,0
168822,-83.3333333333333,4,2,1,5,0,0
168927,-83.3333333333333,4,2,1,90,0,0
169031,-83.3333333333333,4,2,1,5,0,0
169135,-62.5,4,2,1,90,0,0
169447,-62.5,4,2,1,5,0,0
169552,-71.4285714285714,4,2,1,90,0,0
170072,-71.4285714285714,4,2,1,5,0,0
170177,-83.3333333333333,4,2,1,90,0,0
170489,-83.3333333333333,4,2,1,5,0,0
170593,-83.3333333333333,4,2,1,90,0,0
171739,-83.3333333333333,4,2,1,5,0,0
171843,-83.3333333333333,4,2,1,90,0,0
171947,-83.3333333333333,4,2,1,5,0,0
172052,-83.3333333333333,4,2,1,90,0,0
172156,-83.3333333333333,4,2,1,5,0,0
172260,-62.5,4,2,1,90,0,0
172781,-62.5,4,2,1,5,0,0
172885,-83.3333333333333,4,2,1,90,0,0
173406,-83.3333333333333,4,2,1,5,0,0
173510,-83.3333333333333,4,2,1,90,0,0
173614,-83.3333333333333,4,2,1,5,0,0
173718,-83.3333333333333,4,2,1,90,0,0
173822,-83.3333333333333,4,2,1,5,0,0
173927,-83.3333333333333,4,2,1,90,0,0
174447,-83.3333333333333,4,2,1,5,0,0
174552,-83.3333333333333,4,2,1,90,0,0
175072,-83.3333333333333,4,2,1,5,0,0
175177,-83.3333333333333,4,2,1,90,0,0
177572,-83.3333333333333,4,2,1,5,0,0
177677,-55.5555555555556,4,2,1,90,0,0
179447,-55.5555555555556,4,2,1,5,0,0
179552,-71.4285714285714,4,2,1,90,0,0
180072,-71.4285714285714,4,2,1,5,0,0
180177,-83.3333333333333,4,2,1,90,0,0
180489,-83.3333333333333,4,2,1,5,0,0
180593,-83.3333333333333,4,2,1,90,0,0
182156,-83.3333333333333,4,2,1,5,0,0
182260,-83.3333333333333,4,2,1,90,0,0
182364,-83.3333333333333,4,2,1,5,0,0
182468,-62.5,4,2,1,90,0,0
182781,-62.5,4,2,1,5,0,0
182885,-71.4285714285714,4,2,1,90,0,0
183406,-71.4285714285714,4,2,1,5,0,0
183510,-83.3333333333333,4,2,1,90,0,0
183822,-83.3333333333333,4,2,1,5,0,0
183927,-83.3333333333333,4,2,1,90,0,0
185072,-83.3333333333333,4,2,1,5,0,0
185177,-83.3333333333333,4,2,1,90,0,0
185281,-83.3333333333333,4,2,1,5,0,0
185385,-83.3333333333333,4,2,1,90,0,0
185489,-83.3333333333333,4,2,1,5,0,0
185593,-62.5,4,2,1,90,0,0
186114,-62.5,4,2,1,5,0,0
186218,-83.3333333333333,4,2,1,90,0,0
186739,-83.3333333333333,4,2,1,5,0,0
186843,-83.3333333333333,4,2,1,90,0,0
186947,-83.3333333333333,4,2,1,5,0,0
187052,-83.3333333333333,4,2,1,90,0,0
187156,-83.3333333333333,4,2,1,5,0,0
187260,-83.3333333333333,4,2,1,90,0,0
187781,-83.3333333333333,4,2,1,5,0,0
187885,-83.3333333333333,4,2,1,90,0,0
188406,-83.3333333333333,4,2,1,5,0,0
188510,-83.3333333333333,4,2,1,90,0,0
188614,-83.3333333333333,4,2,1,5,0,0
188718,-83.3333333333333,4,2,1,90,0,0
189031,-83.3333333333333,4,2,1,5,0,0
189135,-83.3333333333333,4,2,1,100,0,1
190906,-83.3333333333333,4,2,1,5,0,1
191010,-83.3333333333333,4,2,1,100,0,1
191739,-83.3333333333333,4,2,1,5,0,1
191843,-83.3333333333333,4,2,1,100,0,1
192468,-55.5555555555556,4,2,1,90,0,0
192781,-55.5555555555556,4,2,1,5,0,0
192885,-71.4285714285714,4,2,1,90,0,0
192989,-71.4285714285714,4,2,1,5,0,0
193093,-71.4285714285714,4,2,1,90,0,0
193406,-71.4285714285714,4,2,1,5,0,0
193510,-83.3333333333333,4,2,1,90,0,0
193614,-83.3333333333333,4,2,1,5,0,0
193718,-83.3333333333333,4,2,1,90,0,0
194447,-83.3333333333333,4,2,1,5,0,0
194552,-83.3333333333333,4,2,1,90,0,0
195072,-83.3333333333333,4,2,1,5,0,0
195177,-83.3333333333333,4,2,1,90,0,0
195697,-83.3333333333333,4,2,1,5,0,0
195802,-83.3333333333333,4,2,1,90,0,0
196114,-83.3333333333333,4,2,1,5,0,0
196218,-83.3333333333333,4,2,1,90,0,0
196739,-83.3333333333333,4,2,1,5,0,0
196843,-83.3333333333333,4,2,1,90,0,0
197364,-83.3333333333333,4,2,1,5,0,0
197468,-71.4285714285714,4,2,1,90,0,0
197572,-71.4285714285714,4,2,1,5,0,0
197677,-71.4285714285714,4,2,1,85,0,0
197885,-71.4285714285714,4,2,1,80,0,0
198093,-71.4285714285714,4,2,1,75,0,0
198302,-71.4285714285714,4,2,1,70,0,0
198510,-71.4285714285714,4,2,1,65,0,0
198718,-83.3333333333333,4,2,1,90,0,0
199135,-55.5555555555556,4,2,1,90,0,0
199447,-55.5555555555556,4,2,1,90,0,0
199552,-83.3333333333333,4,2,1,90,0,0
200072,-83.3333333333333,4,2,1,5,0,0
200177,-83.3333333333333,4,2,1,90,0,0
201114,-83.3333333333333,4,2,1,5,0,0
201218,-83.3333333333333,4,2,1,90,0,0
202572,-83.3333333333333,4,2,1,5,0,0
202677,-83.3333333333333,4,2,1,90,0,0
203406,-83.3333333333333,4,2,1,5,0,0
203510,-83.3333333333333,4,2,1,90,0,0
203822,-83.3333333333333,4,2,1,5,0,0
203927,-83.3333333333333,4,2,1,90,0,0
205802,-55.5555555555556,4,2,1,100,0,1
206114,-55.5555555555556,4,2,1,5,0,1
206218,-62.5,4,2,1,100,0,1
206322,-62.5,4,2,1,5,0,1
206427,-125,4,2,1,100,0,1
206739,-62.5,4,2,1,5,0,1
206843,-62.5,4,2,1,100,0,1
206947,-62.5,4,2,1,5,0,1
207052,-41.6666666666667,4,2,1,100,0,1
207156,-50,4,2,1,5,0,1
207260,-76.9230769230769,4,2,1,100,0,1
207364,-76.9230769230769,4,2,1,5,0,1
207468,-50,4,2,1,100,0,1
207781,-50,4,2,1,5,0,1
207885,-62.5,4,2,1,100,0,1
207989,-62.5,4,2,1,5,0,1
208093,-125,4,2,1,100,0,1
208406,-125,4,2,1,5,0,1
208510,-62.5,4,2,1,100,0,1
208822,-62.5,4,2,1,5,0,1
208927,-62.5,4,2,1,100,0,1
209031,-62.5,4,2,1,5,0,1
209135,-50,4,2,1,100,0,1
209447,-50,4,2,1,5,0,1
209552,-62.5,4,2,1,100,0,1
210072,-71.4285714285714,4,2,1,5,0,1
210177,-71.4285714285714,4,2,1,100,0,1
210281,-71.4285714285714,4,2,1,5,0,1
210385,-50,4,2,1,100,0,1
210489,-50,4,2,1,5,0,1
210593,-62.5,4,2,1,100,0,1
210697,-62.5,4,2,1,5,0,1
210802,-83.3333333333333,4,2,1,100,0,1
211114,-83.3333333333333,4,2,1,5,0,1
211218,-83.3333333333333,4,2,1,100,0,1
211531,-83.3333333333333,4,2,1,5,0,1
211635,-83.3333333333333,4,2,1,100,0,1
211947,-83.3333333333333,4,2,1,5,0,1
212052,-83.3333333333333,4,2,1,100,0,1
212781,-83.3333333333333,4,2,1,5,0,1
212885,-83.3333333333333,4,2,1,100,0,1
215072,-83.3333333333333,4,2,1,5,0,1
215177,-83.3333333333333,4,2,1,100,0,1
219135,-125,4,2,1,80,0,0
219552,-125,4,2,1,5,0,0
219900,416.666666666667,4,2,1,40,1,0
219900,-166.666666666667,4,2,1,40,0,0
220108,-500,4,2,1,40,0,0
221566,-500,4,2,1,30,0,0
223233,-500,4,2,1,20,0,0
224900,-500,4,2,1,10,0,0
226566,-500,4,2,1,5,0,0

[Colours]
Combo1 : 81,168,255
Combo2 : 155,220,255
Combo3 : 204,242,172

[HitObjects]
32,72,7468,6,0,P|70:59|107:44,1,80,0|2,1:2|0:2,0:0:0:0:
168,200,7885,5,10,0:2:0:0:
96,168,8093,1,2,1:2:0:0:
192,92,8302,5,2,0:2:0:0:
264,60,8510,1,2,0:2:0:0:
312,212,8718,5,10,0:2:0:0:
312,212,8927,2,0,B|288:156|356:156|332:100,1,120,2|0,0:2|0:0,0:0:0:0:
264,60,9343,2,0,P|236:84|236:128,1,80,2|8,0:2|0:2,0:0:0:0:
264,336,9760,5,2,1:2:0:0:
351,288,9968,2,0,P|291:288|263:336,1,120,2|0,0:2|0:0,0:0:0:0:
172,200,10385,2,0,P|212:200|236:228,1,80,10|0,0:2|0:2,0:0:0:0:
88,348,10802,6,0,P|50:333|12:320,1,80,0|2,1:2|0:2,0:0:0:0:
96,180,11218,5,10,0:2:0:0:
116,256,11427,1,2,1:2:0:0:
0,188,11635,5,2,0:2:0:0:
20,112,11844,1,2,0:2:0:0:
148,40,12052,5,10,0:2:0:0:
148,40,12260,2,0,B|196:57|196:57|207:74|207:74|252:90,1,120,2|0,0:2|0:0,0:0:0:0:
340,148,12677,2,0,P|302:160|264:175,1,80,2|8,0:2|0:2,0:0:0:0:
161,279,13093,5,2,1:2:0:0:
142,169,13302,2,0,B|118:223|186:223|162:279,1,120,2|0,0:2|0:0,0:0:0:0:
224,348,13718,2,0,P|252:320|252:280,1,80,10|0,0:2|0:2,0:0:0:0:
74,140,14135,6,0,B|50:156|50:184|50:184|102:224|142:168,1,160,2|8,1:2|0:2,0:0:0:0:
298,100,14760,1,2,1:2:0:0:
167,38,14968,2,0,B|206:23|246:64|219:80|257:115|298:100,1,160,2|8,0:2|0:2,0:0:0:0:
471,289,15593,5,2,0:2:0:0:
471,289,15697,1,2,0:2:0:0:
471,289,15802,2,0,B|495:305|495:333|495:333|443:373|403:317,1,160,2|8,1:2|0:2,0:0:0:0:
245,248,16427,1,2,1:2:0:0:
349,205,16635,2,0,B|289:191|302:261|242:248,1,120,2|0,0:2|0:0,0:0:0:0:
228,236,17052,5,10,0:2:0:0:
371,118,17260,1,2,0:2:0:0:
207,31,17468,2,0,B|132:50|132:50|100:98|150:114,1,160,2|10,1:2|0:2,0:0:0:0:
347,204,18093,2,0,B|423:224|423:224|455:272|406:288,1,160,2|0,1:2|0:2,0:0:0:0:
210,349,18718,6,0,P|190:349|173:338,1,40,10|0,0:2|0:0,0:0:0:0:
148,267,18927,2,0,P|131:255|111:256,1,40,2|0,0:2|0:0,0:0:0:0:
52,329,19135,6,0,B|30:294|53:255|79:265|99:217|77:184,1,160,2|8,1:2|0:2,0:0:0:0:
199,15,19760,2,0,B|185:53|210:87|225:74|256:118|234:150,1,150,2|0,1:2|0:0,0:0:0:0:
224,169,20177,1,2,0:3:0:0:
256,328,20385,6,0,P|276:321|295:316,1,40,8|0,0:2|0:0,0:0:0:0:
372,244,20593,2,0,P|352:238|333:232,1,40,2|0,0:3|0:0,0:0:0:0:
158,131,20802,6,0,P|198:131|225:170,1,89.9999972534181,0|2,1:2|0:2,0:0:0:0:
226,186,21114,1,2,0:2:0:0:
224,200,21218,1,10,0:2:0:0:
172,284,21427,1,0,1:2:0:0:
28,332,21635,2,0,P|68:348|112:368,1,89.9999972534181,2|2,0:2|0:2,0:0:0:0:
224,200,22052,5,10,0:2:0:0:
357,338,22260,2,0,P|367:295|382:249,1,89.9999972534181,2|0,0:2|1:2,0:0:0:0:
288,104,22677,1,2,0:2:0:0:
292,116,22781,1,2,0:2:0:0:
296,128,22885,1,10,0:2:0:0:
468,204,23093,1,2,1:2:0:0:
480,12,23301,6,0,B|441:-3|415:23|432:34|399:69|364:56,1,134.999995880127,2|0,0:2|0:0,0:0:0:0:
312,0,23718,2,0,P|268:17|225:31,1,89.9999972534181,10|2,0:2|0:2,0:0:0:0:
212,36,24030,1,2,0:2:0:0:
199,42,24134,1,2,1:2:0:0:
360,180,24343,5,2,0:2:0:0:
156,240,24551,2,0,P|220:260|282:286,1,134.999995880127,10|0,0:2|0:0,0:0:0:0:
300,296,24968,1,2,0:2:0:0:
220,148,25176,1,2,0:2:0:0:
112,329,25385,2,0,P|96:309|96:277,1,44.999998626709,10|0,0:2|0:0,0:0:0:0:
156,240,25593,2,0,B|168:210|134:178|126:184|98:162|110:122,1,134.999995880127,2|0,0:2|0:0,0:0:0:0:
138,47,26010,5,2,0:2:0:0:
150,51,26114,1,2,0:2:0:0:
162,55,26218,1,10,0:2:0:0:
308,144,26426,1,2,1:2:0:0:
259,0,26635,2,0,P|254:21|262:42,1,44.999998626709,2|0,0:2|0:0,0:0:0:0:
274,58,26843,1,0,0:2:0:0:
448,124,27052,2,0,P|382:146|317:171,1,134.999995880127,10|0,0:2|0:0,0:0:0:0:
171,259,27468,6,0,B|215:238|259:294|228:295|264:352|315:334,1,179.999994506836,2|8,1:2|0:2,0:0:0:0:
495,333,28093,2,0,P|500:312|506:290,1,44.999998626709,2|0,1:2|0:0,0:0:0:0:
480,112,28302,2,0,P|455:190|430:285,1,179.999994506836,2|8,0:2|0:2,0:0:0:0:
360,84,28926,5,2,0:2:0:0:
360,84,29030,1,2,0:2:0:0:
360,84,29135,2,0,B|316:63|273:115|304:134|267:177|220:161,1,179.999994506836,2|8,1:2|0:2,0:0:0:0:
65,203,29760,2,0,P|61:184|54:160,1,44.999998626709,2|0,1:2|0:0,0:0:0:0:
88,8,29968,2,0,P|106:66|125:138,1,134.999995880127,2|0,0:2|0:0,0:0:0:0:
132,160,30384,5,10,0:2:0:0:
336,256,30593,1,2,0:2:0:0:
348,4,30801,2,0,B|310:18|310:18|304:24|304:24|265:39,1,89.9999972534181,0|2,1:2|0:2,0:0:0:0:
252,44,31113,1,2,0:2:0:0:
240,48,31217,1,10,0:2:0:0:
440,140,31426,1,2,1:2:0:0:
228,268,31634,6,0,P|204:224|224:192,1,89.9999972534181,2|0,0:2|0:2,0:0:0:0:
288,152,31947,2,0,P|332:152|356:188,1,89.9999972534181,2|0,0:2|0:0,0:0:0:0:
320,252,32259,1,2,0:2:0:0:
308,248,32363,1,2,0:2:0:0:
296,244,32468,1,2,1:2:0:0:
156,64,32677,5,2,0:2:0:0:
169,60,32781,1,2,0:2:0:0:
181,57,32886,1,10,0:2:0:0:
328,0,33093,1,2,1:2:0:0:
396,141,33302,6,0,P|404:161|396:185,1,44.999998626709,2|0,0:2|0:0,0:0:0:0:
312,281,33510,2,0,P|296:265|296:241,1,44.999998626709,2|0,0:2|0:0,0:0:0:0:
312,163,33718,2,0,B|396:123|396:243|472:203,1,179.999994506836,10|0,0:2|0:0,0:0:0:0:
512,97,34135,6,0,P|491:104|466:113,1,50,6|0,1:2|0:0,0:0:0:0:
396,141,34343,1,2,0:2:0:0:
248,227,34552,2,0,P|274:234|295:243,1,50,10|0,0:2|0:0,0:0:0:0:
370,273,34760,1,2,1:2:0:0:
248,71,34968,2,0,P|188:103|188:179,1,150,2|0,0:2|0:0,0:0:0:0:
248,227,35385,1,10,0:2:0:0:
508,325,35593,5,2,0:2:0:0:
508,325,35697,1,2,0:2:0:0:
508,325,35802,2,0,B|482:294|444:314|444:314|421:365|385:351,1,150,2|2,1:2|0:0,0:0:0:0:
360,331,36218,1,8,0:2:0:0:
432,128,36427,2,0,B|432:101|493:90|493:90|527:162|462:193,1,200,2|0,1:2|0:2,0:0:0:0:
284,316,37052,1,8,0:2:0:0:
256,76,37260,5,2,0:2:0:0:
256,76,37364,1,2,0:2:0:0:
256,76,37468,2,0,P|232:87|208:96,1,50,2|0,1:2|0:0,0:0:0:0:
156,152,37677,1,2,0:2:0:0:
320,216,37885,2,0,P|343:224|366:235,1,50,10|0,0:2|0:0,0:0:0:0:
416,292,38093,1,2,1:2:0:0:
176,329,38302,2,0,B|149:297|186:257|189:276|232:234|212:195,1,150,2|0,0:2|0:0,0:0:0:0:
156,152,38718,6,0,P|140:172|140:196,1,50,10|0,0:2|0:0,0:0:0:0:
256,308,38927,2,0,B|348:336|348:336|320:320|312:296,1,150,2|0,0:2|0:0,0:0:0:0:
360,236,39343,2,0,B|452:208|452:208|424:224|416:248,1,150,2|0,0:2|0:0,0:0:0:0:
488,280,39760,1,2,1:2:0:0:
340,72,40177,6,0,P|316:72|296:88,1,50,2|0,0:2|0:0,0:0:0:0:
224,160,40385,2,0,P|248:160|268:176,1,50,10|0,0:2|0:0,0:0:0:0:
312,297,40593,2,0,B|284:263|321:220|342:245|378:205|351:172,1,150,2|0,0:2|0:0,0:0:0:0:
340,156,41010,1,2,0:2:0:0:
160,304,41218,6,0,P|136:292|112:284,1,50,10|0,0:2|0:0,0:0:0:0:
84,215,41427,2,0,P|153:187|223:160,1,150,2|0,1:2|0:0,0:0:0:0:
240,176,41843,1,2,0:2:0:0:
472,340,42052,6,0,P|484:320|472:296,1,50,10|0,0:2|0:0,0:0:0:0:
408,252,42260,2,0,P|376:185|424:137,1,150,2|0,0:2|0:0,0:0:0:0:
448,140,42677,1,2,0:2:0:0:
300,36,42885,5,10,0:2:0:0:
228,68,43093,1,2,1:2:0:0:
140,192,43302,5,2,0:2:0:0:
68,160,43510,1,2,0:2:0:0:
181,35,43718,6,0,B|277:59|277:59|245:55|221:71,1,150,10|0,0:2|0:0,0:0:0:0:
264,132,44135,5,2,1:2:0:0:
36,252,44343,1,0,1:2:0:0:
104,52,44552,5,8,0:2:0:0:
340,168,44760,1,0,1:2:0:0:
168,352,44968,6,0,P|145:341|121:332,1,50,8|0,0:2|0:0,0:0:0:0:
36,252,45177,5,8,0:2:0:0:
8,180,45281,1,8,0:2:0:0:
52,136,45385,1,8,0:2:0:0:
100,141,45489,5,8,0:3:0:0:
132,172,45593,1,4,0:3:0:0:
160,194,45697,1,0,1:3:0:0:
184,197,45802,5,8,0:2:0:0:
252,168,46010,1,2,0:2:0:0:
464,104,46218,5,2,0:2:0:0:
392,72,46426,1,2,0:2:0:0:
408,288,46635,5,2,0:2:0:0:
432,212,46843,1,2,0:2:0:0:
288,44,47052,5,2,0:2:0:0:
320,116,47260,1,2,0:2:0:0:
168,340,47468,6,1,B|156:370|83:363|54:294|106:219|156:248|200:248|216:204|200:188,1,269.999991760254,6|0,1:2|0:2,0:2:0:0:
148,128,47885,1,8,0:2:0:0:
64,0,48093,6,1,B|95:42|50:103|12:64|-30:120|1:171,1,209.999993591309,2|0,1:2|0:0,0:2:0:0:
52,232,48510,1,0,1:2:0:0:
264,100,48718,6,0,P|240:80|212:80,1,59.9999981689454,10|0,0:2|0:0,0:2:0:0:
148,128,48927,1,0,0:2:0:0:
232,328,49135,2,0,P|287:310|347:293,1,119.999996337891,0|2,1:2|0:2,0:2:0:0:
488,288,49552,5,10,0:2:0:0:
276,176,49760,1,2,1:2:0:0:
512,56,49968,5,2,0:2:0:0:
352,140,50177,1,2,1:2:0:0:
208,8,50385,6,0,P|238:20|264:28,1,59.9999981689454,10|0,0:2|0:0,0:2:0:0:
424,148,50593,2,0,P|395:157|367:168,1,59.9999981689454,2|0,0:2|0:0,0:2:0:0:
200,253,50802,2,0,B|122:216|163:130|163:130|227:134|236:176,1,240,2|0,1:2|0:0,0:2:0:0:
280,240,51218,1,8,0:2:0:0:
504,268,51427,6,1,B|460:236|400:280|444:324|384:370|336:332,1,209.999993591309,2|0,1:2|0:0,0:2:0:0:
292,268,51843,1,0,1:2:0:0:
464,76,52052,6,0,P|488:76|512:108,1,59.9999981689454,10|0,0:2|0:0,0:2:0:0:
500,176,52260,1,0,0:2:0:0:
328,108,52468,1,0,1:2:0:0:
224,328,52677,5,2,0:2:0:0:
400,268,52885,1,10,0:2:0:0:
216,64,53093,2,0,B|185:95|152:120|152:120|185:152|216:196,1,179.999994506836,2|0,1:2|0:0,0:2:0:0:
364,320,53510,6,0,P|392:320|408:296,1,59.9999981689454,2|0,1:2|0:0,0:2:0:0:
484,220,53718,2,0,P|470:195|441:193,1,59.9999981689454,10|0,0:2|0:0,0:2:0:0:
224,352,53927,5,2,1:2:0:0:
224,352,54031,1,0,1:2:0:0:
224,352,54135,2,1,B|84:305|84:305|136:324|176:296,1,240,4|0,1:2|0:0,0:2:0:0:
124,236,54552,1,10,0:2:0:0:
285,59,54760,2,0,B|261:97|297:155|316:130|356:180|334:216,1,179.999994506836,2|0,1:2|0:0,0:2:0:0:
266,267,55177,6,0,P|249:247|249:215,1,59.9999981689454,2|0,1:2|0:0,0:2:0:0:
368,59,55385,2,0,P|368:27|350:6,1,59.9999981689454,10|0,0:2|0:0,0:2:0:0:
136,88,55593,5,2,1:2:0:0:
136,88,55697,1,0,1:2:0:0:
136,88,55802,2,0,P|224:115|308:144,1,179.999994506836,0|0,1:2|0:0,0:2:0:0:
372,188,56218,1,10,0:2:0:0:
260,268,56427,2,0,P|288:188|372:188,1,179.999994506836,2|0,1:2|0:0,0:2:0:0:
424,244,56843,5,2,1:2:0:0:
224,344,57051,1,10,0:2:0:0:
208,108,57259,1,2,0:2:0:0:
216,120,57364,1,2,0:2:0:0:
224,132,57468,5,2,1:2:0:0:
348,272,57676,1,2,0:2:0:0:
492,56,57884,5,10,0:2:0:0:
316,132,58093,1,2,1:2:0:0:
460,304,58301,5,2,0:2:0:0:
388,56,58509,1,2,1:2:0:0:
228,236,58718,1,10,0:2:0:0:
96,32,58927,6,0,P|127:21|152:11,1,59.9999981689454,2|0,1:2|0:0,0:2:0:0:
296,156,59135,2,0,P|265:145|239:135,1,59.9999981689454,0|0,1:2|0:0,0:2:0:0:
248,28,59343,5,10,0:2:0:0:
440,140,59552,1,10,0:2:0:0:
184,268,59760,5,2,1:2:0:0:
372,179,59968,1,2,1:2:0:0:
408,337,60177,5,10,0:2:0:0:
452,307,60281,1,8,0:2:0:0:
466,262,60385,5,10,0:2:0:0:
431,214,60489,1,8,0:2:0:0:
372,179,60593,5,10,0:2:0:0:
382,101,60697,1,8,0:2:0:0:
453,46,60802,6,0,B|464:29|545:22|502:205|367:106|351:70,1,240,6|0,1:2|0:2,0:2:0:0:
394,0,61218,1,8,0:2:0:0:
318,239,61427,6,1,B|352:190|309:131|277:163|241:108|257:59,1,209.999993591309,2|0,1:2|0:0,0:2:0:0:
315,0,61843,1,0,1:2:0:0:
440,216,62052,6,0,P|472:216|492:196,1,59.9999981689454,10|0,0:2|0:0,0:2:0:0:
512,124,62260,1,0,0:2:0:0:
360,310,62468,2,1,P|301:286|247:266,1,119.999996337891,0|2,1:2|0:2,0:2:0:0:
128,212,62885,5,10,0:2:0:0:
340,124,63093,1,2,1:2:0:0:
216,0,63302,5,2,0:2:0:0:
40,72,63510,1,2,1:2:0:0:
207,243,63718,6,0,P|236:231|263:222,1,59.9999981689454,10|0,0:2|0:0,0:2:0:0:
396,144,63927,2,0,P|367:134|339:123,1,59.9999981689454,2|0,0:2|0:0,0:2:0:0:
136,40,64135,6,1,B|95:75|117:149|191:149|191:149|210:109|253:109,1,240,2|0,1:2|0:0,0:2:0:0:
308,52,64552,1,8,0:2:0:0:
512,260,64760,2,0,B|452:284|424:208|424:208|379:174|338:204,1,209.999993591309,2|0,1:2|0:0,0:2:0:0:
370,275,65177,1,0,1:2:0:0:
492,56,65385,6,0,P|512:76|512:108,1,59.9999981689454,10|0,0:2|0:0,0:2:0:0:
496,184,65593,1,0,0:2:0:0:
288,268,65802,1,0,1:2:0:0:
272,36,66010,5,2,0:2:0:0:
416,192,66218,1,10,0:2:0:0:
192,356,66427,2,0,P|148:288|196:212,1,179.999994506836,2|0,1:2|0:0,0:2:0:0:
404,160,66843,6,0,P|375:151|347:140,1,59.9999981689454,2|0,1:2|0:0,0:2:0:0:
231,287,67052,2,0,P|258:276|287:267,1,59.9999981689454,10|0,0:2|0:0,0:2:0:0:
253,46,67260,5,2,1:2:0:0:
253,46,67364,1,0,1:2:0:0:
253,46,67468,2,0,B|232:27|217:-4|217:-4|146:28|146:28|160:91|117:118,1,240,4|0,1:2|0:0,0:2:0:0:
69,54,67885,1,10,0:2:0:0:
147,299,68093,2,0,P|175:213|205:128,1,179.999994506836,2|0,1:2|0:0,0:2:0:0:
139,67,68510,6,0,P|119:87|119:119,1,59.9999981689454,2|0,1:2|0:0,0:2:0:0:
231,287,68718,2,0,P|251:265|251:236,1,59.9999981689454,10|0,0:2|0:0,0:2:0:0:
56,296,68927,5,2,1:2:0:0:
56,296,69031,1,0,1:2:0:0:
56,296,69135,2,1,B|86:264|146:306|107:346|161:384|198:357,1,179.999994506836,0|0,1:2|0:0,0:2:0:0:
276,344,69552,1,10,0:2:0:0:
368,64,69760,2,0,P|436:64|476:156,1,179.999994506836,2|0,1:2|0:0,0:2:0:0:
424,216,70177,5,2,1:2:0:0:
252,136,70385,1,8,0:2:0:0:
264,360,70593,2,0,P|290:349|320:339,1,59.9999981689454,2|2,0:2|0:0,0:0:0:0:
340,172,70802,5,0,1:2:0:0:
76,288,71010,1,0,1:2:0:0:
164,88,71218,5,8,0:2:0:0:
424,216,71426,1,0,1:2:0:0:
296,12,71635,5,8,0:2:0:0:
36,140,71843,1,0,1:2:0:0:
296,256,72052,5,8,0:2:0:0:
120,176,72260,1,0,1:2:0:0:
364,64,72468,6,0,P|356:89|349:113,1,50,8|0,0:2|0:2,0:2:0:0:
296,256,72677,5,8,0:2:0:0:
286,324,72781,1,8,0:2:0:0:
222,349,72885,1,8,0:2:0:0:
165,304,72989,1,8,0:2:0:0:
175,237,73093,1,8,0:2:0:0:
238,210,73197,1,8,0:2:0:0:
296,256,73302,5,8,0:3:0:0:
328,295,73406,1,8,0:3:0:0:
376,299,73510,1,8,0:3:0:0:
411,262,73614,1,8,0:3:0:0:
374,230,73718,5,4,0:3:0:0:
369,241,73822,1,4,0:3:0:0:
366,254,73927,1,4,0:3:0:0:
363,265,74031,1,4,0:3:0:0:
359,278,74135,5,0,1:2:0:0:
96,8,74552,6,0,B|116:45|85:82|75:66|41:110|65:152,1,160,2|2,0:2|0:2,0:0:0:0:
164,260,75177,6,0,L|201:246,1,40,2|0,0:2|0:0,0:0:0:0:
276,220,75385,1,10,0:2:0:0:
428,168,75593,1,2,0:2:0:0:
468,364,75802,6,0,B|429:349|429:349|423:343|423:343|385:329,1,89.9999972534181,0|2,1:2|0:2,0:0:0:0:
372,324,76114,1,2,0:2:0:0:
360,320,76218,1,10,0:2:0:0:
448,188,76427,1,2,1:2:0:0:
336,84,76635,6,0,B|297:69|271:95|288:106|255:141|220:128,1,134.999995880127,2|0,0:2|0:0,0:0:0:0:
180,64,77052,2,0,P|200:28|248:28,1,89.9999972534181,10|2,0:2|0:2,0:0:0:0:
256,36,77364,1,2,0:2:0:0:
264,48,77468,1,2,1:2:0:0:
400,252,77677,5,2,0:2:0:0:
278,350,77885,2,0,P|216:324|152:304,1,134.999995880127,10|0,0:2|0:0,0:0:0:0:
128,296,78302,1,2,0:2:0:0:
32,172,78510,1,2,0:2:0:0:
164,88,78718,1,10,0:2:0:0:
248,216,78927,6,0,B|336:188|336:188|308:192|294:181,1,134.999995880127,2|0,0:2|0:0,0:0:0:0:
272,84,79343,1,2,0:2:0:0:
268,96,79447,1,2,0:2:0:0:
264,108,79552,1,10,0:2:0:0:
152,304,79760,1,2,1:2:0:0:
408,308,79968,6,0,P|424:296|428:272,1,44.999998626709,2|0,0:2|0:0,0:0:0:0:
420,247,80177,1,0,0:2:0:0:
388,128,80385,2,0,B|401:163|366:196|355:179|332:208|344:244,1,134.999995880127,10|0,0:2|0:0,0:0:0:0:
460,368,80802,6,0,P|376:335|290:306,1,179.999994506836,2|8,1:2|0:2,0:0:0:0:
190,130,81427,6,0,P|195:110|213:96,1,44.999998626709,2|0,1:2|0:0,0:0:0:0:
299,148,81635,2,0,B|354:126|272:28|211:140,1,179.999994506836,2|8,0:2|0:2,0:0:0:0:
64,216,82260,5,2,0:2:0:0:
64,216,82364,1,2,0:2:0:0:
64,216,82468,2,0,P|149:244|233:277,1,179.999994506836,2|8,1:2|0:2,0:0:0:0:
440,68,83093,6,0,P|431:49|411:38,1,44.999998626709,2|0,1:2|0:0,0:0:0:0:
344,104,83301,2,0,B|292:83|369:-7|426:96,1,134.999995880127,2|0,0:2|0:0,0:0:0:0:
416,88,83718,5,10,0:2:0:0:
512,200,83927,1,2,0:2:0:0:
396,284,84135,6,0,B|358:270|358:270|352:264|352:264|313:249,1,89.9999972534181,0|2,1:2|0:2,0:0:0:0:
300,244,84447,1,2,0:2:0:0:
288,240,84551,1,10,0:2:0:0:
428,112,84760,1,2,1:2:0:0:
236,20,84968,6,0,P|221:60|204:106,1,89.9999972534181,2|0,0:2|0:2,0:0:0:0:
140,152,85281,2,0,P|155:194|170:236,1,89.9999972534181,2|0,0:2|0:0,0:0:0:0:
200,308,85593,1,2,0:2:0:0:
196,316,85697,1,2,0:2:0:0:
192,324,85802,1,2,1:2:0:0:
48,140,86010,5,2,0:2:0:0:
52,148,86114,1,2,0:2:0:0:
56,156,86218,1,10,0:2:0:0:
224,48,86427,1,2,1:2:0:0:
281,277,86635,6,0,P|257:277|241:265,1,44.999998626709,2|0,0:2|0:0,0:0:0:0:
126,208,86843,2,0,P|142:192|178:192,1,44.999998626709,10|0,0:2|0:0,0:0:0:0:
192,324,87052,2,0,B|152:240|272:240|232:164,1,179.999994506836,10|0,0:2|0:0,0:0:0:0:
176,108,87468,5,2,0:2:0:0:
488,104,94135,6,0,P|440:87|393:69,1,100,0|2,1:2|0:2,0:0:0:0:
404,328,94552,1,10,0:2:0:0:
276,272,94760,2,0,P|304:192|408:192,1,200,2|2,1:2|0:2,0:0:0:0:
392,352,95385,5,10,0:2:0:0:
512,232,95593,1,2,0:2:0:0:
393,69,95802,2,0,B|351:84|351:84|341:91|341:91|300:106,1,100,2|2,1:2|0:2,0:0:0:0:
176,168,96218,5,10,0:2:0:0:
356,256,96427,1,2,1:2:0:0:
212,80,96635,5,2,0:2:0:0:
88,132,96843,1,2,0:2:0:0:
188,304,97052,6,0,B|170:266|214:229|230:256|266:225|251:186,1,150,10|0,0:2|0:0,0:0:0:0:
176,168,97468,5,6,1:2:0:0:
328,268,97677,1,0,1:2:0:0:
64,344,97885,5,8,0:2:0:0:
219,245,98093,1,0,1:2:0:0:
384,368,98302,6,0,L|432:352,1,50,8|0,0:2|0:0,0:0:0:0:
488,168,98510,5,8,0:3:0:0:
440,164,98614,1,8,0:3:0:0:
408,200,98718,1,4,0:3:0:0:
400,228,98822,5,4,0:3:0:0:
364,247,98927,1,8,0:2:0:0:
329,228,99031,1,8,0:2:0:0:
296,192,99135,6,0,L|308:144,1,50,4|0,1:2|0:0,0:0:0:0:
100,40,99343,5,10,0:2:0:0:
56,52,99447,1,8,0:2:0:0:
36,92,99551,1,10,0:2:0:0:
52,136,99655,1,8,0:2:0:0:
92,156,99760,2,0,L|140:144,1,50,2|0,1:2|0:0,0:0:0:0:
408,200,99968,5,10,0:2:0:0:
452,212,100072,1,8,0:2:0:0:
472,252,100176,1,10,0:2:0:0:
456,296,100280,1,8,0:2:0:0:
416,316,100385,2,0,P|391:307|368:300,1,50,2|0,1:2|0:0,0:0:0:0:
259,155,100593,2,0,P|285:148|308:140,1,50,10|8,0:2|0:2,0:0:0:0:
496,48,100802,6,1,B|528:-7|417:-46|360:78|442:129,1,240,6|0,1:2|0:2,0:2:0:0:
512,168,101218,1,8,0:2:0:0:
220,360,101427,6,1,B|255:322|234:246|234:246|249:294|295:304,1,209.999993591309,2|0,1:2|0:0,0:2:0:0:
312,228,101844,1,0,1:2:0:0:
492,352,102052,6,0,L|436:332,1,59.9999981689454,10|0,0:2|0:0,0:2:0:0:
376,284,102261,1,0,0:2:0:0:
240,24,102469,2,0,B|248:63|183:80|208:132,1,119.999996337891,0|0,1:2|0:2,0:2:0:0:
237,254,102886,5,10,0:2:0:0:
440,132,103094,1,2,1:2:0:0:
160,20,103302,5,2,0:2:0:0:
312,132,103511,1,2,1:2:0:0:
152,268,103718,6,0,L|163:209,1,59.9999981689454,10|0,0:2|0:0,0:2:0:0:
73,103,103927,2,0,L|88:164,1,59.9999981689454,2|0,0:2|0:0,0:2:0:0:
248,336,104135,6,0,B|348:314|348:314|384:296|388:220|312:220,1,240,2|0,1:2|0:0,0:2:0:0:
248,192,104552,1,8,0:2:0:0:
73,103,104760,6,1,B|124:135|180:92|140:54|202:8|244:40,1,209.999993591309,2|0,1:2|0:0,0:2:0:0:
304,88,105177,1,0,1:2:0:0:
152,292,105386,6,0,P|132:268|132:240,1,59.9999981689454,8|0,0:2|0:0,0:2:0:0:
172,176,105594,1,0,0:2:0:0:
384,272,105802,1,0,1:2:0:0:
396,96,106011,5,2,0:2:0:0:
276,172,106219,1,10,0:2:0:0:
448,352,106427,2,0,P|472:259|497:178,1,179.999994506836,2|0,1:2|0:0,0:2:0:0:
352,20,106843,6,0,P|325:31|296:40,1,59.9999981689454,2|0,1:2|0:0,0:2:0:0:
192,144,107052,2,0,P|222:152|250:163,1,59.9999981689454,10|0,0:2|0:0,0:2:0:0:
448,352,107260,5,2,1:2:0:0:
448,352,107364,1,0,1:2:0:0:
448,352,107468,2,1,B|492:352|492:292|492:292|424:236|360:324,1,240,4|0,1:2|0:0,0:2:0:0:
288,352,107886,1,10,0:2:0:0:
140,298,108093,2,0,B|176:270|229:310|195:342|243:379|287:352,1,179.999994506836,2|0,1:2|0:0,0:2:0:0:
448,352,108510,6,0,P|455:322|463:293,1,59.9999981689454,2|0,1:2|0:0,0:2:0:0:
300,144,108718,2,0,P|308:172|315:202,1,59.9999981689454,10|0,0:2|0:0,0:2:0:0:
492,44,108927,5,2,1:2:0:0:
492,44,109031,1,0,1:2:0:0:
492,44,109135,2,0,B|440:24|424:80|424:80|476:116|456:156,1,179.999994506836,0|0,1:2|0:0,0:2:0:0:
394,204,109552,1,10,0:2:0:0:
447,351,109760,2,0,B|474:307|437:259|405:293|365:240|393:204,1,179.999994506836,2|0,1:2|0:0,0:2:0:0:
300,144,110177,5,2,1:2:0:0:
100,232,110386,1,10,0:2:0:0:
120,0,110594,1,2,0:2:0:0:
132,4,110698,1,2,0:2:0:0:
144,8,110802,5,2,1:2:0:0:
256,64,111011,1,2,0:2:0:0:
384,248,111219,5,10,0:2:0:0:
512,192,111427,1,2,1:2:0:0:
424,56,111636,5,2,0:2:0:0:
264,216,111844,1,2,1:2:0:0:
464,320,112052,1,10,0:2:0:0:
400,64,112260,6,0,P|368:76|343:84,1,59.9999981689454,2|0,1:2|0:0,0:2:0:0:
240,208,112468,2,0,P|211:196|183:187,1,59.9999981689454,0|0,1:2|0:0,0:2:0:0:
64,144,112677,5,10,0:2:0:0:
260,16,112886,1,10,0:2:0:0:
356,196,113094,5,2,1:2:0:0:
168,88,113302,1,2,1:2:0:0:
36,266,113511,5,10,0:2:0:0:
65,314,113615,1,8,0:2:0:0:
114,329,113719,5,10,0:2:0:0:
167,291,113823,1,8,0:2:0:0:
201,232,113927,5,10,0:2:0:0:
275,239,114031,1,8,0:2:0:0:
305,326,114135,6,0,B|305:370|245:370|245:370|189:302|277:238,1,240,6|0,1:2|0:2,0:2:0:0:
352,248,114552,1,8,0:2:0:0:
512,63,114760,6,1,B|467:90|418:37|456:35|406:-13|360:5,1,179.999994506836,2|0,1:2|0:0,0:2:0:0:
316,72,115177,1,0,1:2:0:0:
428,236,115386,6,0,P|460:236|481:220,1,59.9999981689454,10|0,0:2|0:0,0:2:0:0:
505,143,115594,1,0,0:2:0:0:
288,0,115802,2,1,P|228:24|228:84,1,119.999996337891,0|2,1:2|0:2,0:2:0:0:
272,200,116219,5,10,0:2:0:0:
464,304,116427,1,2,1:2:0:0:
384,144,116636,5,2,0:2:0:0:
200,260,116844,1,2,1:2:0:0:
60,48,117052,6,0,L|117:30,1,59.9999981689454,10|0,0:2|0:0,0:2:0:0:
223,139,117261,2,0,L|159:119,1,59.9999981689454,2|0,0:2|0:0,0:2:0:0:
46,256,117468,6,1,B|8:219|35:167|92:153|92:153|112:188|148:192,1,209.999993591309,2|0,1:2|0:0,0:2:0:0:
224,220,117886,1,8,0:2:0:0:
456,348,118093,6,0,B|485:305|524:264|524:264|481:227|456:188,1,209.999993591309,2|0,1:2|0:0,0:2:0:0:
396,140,118511,1,0,1:2:0:0:
232,344,118719,6,0,L|175:323,1,59.9999981689454,10|0,0:2|0:0,0:2:0:0:
121,264,118927,1,0,0:2:0:0:
320,172,119136,1,0,1:2:0:0:
76,64,119344,5,2,0:2:0:0:
196,168,119552,1,10,0:2:0:0:
368,0,119760,2,0,P|283:32|198:61,1,179.999994506836,2|0,1:2|0:0,0:2:0:0:
224,264,120177,6,0,P|249:254|280:244,1,59.9999981689454,2|0,1:2|0:0,0:2:0:0:
358,156,120385,2,0,P|386:167|415:177,1,59.9999981689454,10|0,0:2|0:0,0:2:0:0:
480,348,120593,5,2,1:2:0:0:
480,348,120697,1,0,1:2:0:0:
480,348,120802,2,0,B|449:328|465:264|494:251|494:251|499:254|499:254|533:232|543:183|506:149,1,240,4|0,1:2|0:0,0:2:0:0:
468,80,121219,1,10,0:2:0:0:
248,196,121427,2,0,B|330:225|330:225|398:206|352:148,1,179.999994506836,2|0,1:2|0:0,0:2:0:0:
328,72,121843,6,0,P|300:83|271:92,1,59.9999981689454,2|0,1:2|0:0,0:2:0:0:
204,256,122052,2,0,P|176:244|147:235,1,59.9999981689454,10|0,0:2|0:0,0:2:0:0:
0,96,122260,5,2,1:2:0:0:
0,96,122364,1,0,1:2:0:0:
0,96,122468,2,1,P|0:44|108:12,1,179.999994506836,0|0,1:2|0:0,0:2:0:0:
166,64,122886,1,10,0:2:0:0:
112,312,123094,2,0,B|84:275|123:222|156:256|193:208|165:164,1,179.999994506836,2|0,1:2|0:0,0:2:0:0:
95,125,123511,5,2,1:2:0:0:
196,304,123719,1,8,0:2:0:0:
16,368,123927,2,0,P|9:341|0:310,1,59.9999981689454,2|0,0:2|0:0,0:0:0:0:
40,184,124136,5,0,1:2:0:0:
348,292,124344,1,0,1:2:0:0:
388,80,124552,5,8,0:2:0:0:
152,192,124761,1,0,1:2:0:0:
336,23,124968,5,8,0:2:0:0:
374,42,125072,1,8,0:2:0:0:
388,80,125177,1,8,0:2:0:0:
378,118,125281,1,8,0:2:0:0:
350,147,125385,2,0,L|292:127,1,50,8|0,0:2|0:2,0:2:0:0:
72,148,125593,5,0,1:2:0:0:
42,192,125697,1,0,1:2:0:0:
74,233,125802,1,8,0:2:0:0:
360,344,127468,5,0,1:2:0:0:
360,344,134135,6,0,B|420:344|404:284|456:284,1,120,2|0,1:2|0:2,0:2:0:0:
480,360,134552,1,8,0:2:0:0:
304,220,134760,1,10,0:2:0:0:
480,360,135177,5,2,1:2:0:0:
304,220,135385,1,10,0:2:0:0:
304,220,135593,1,2,0:2:0:0:
208,272,135802,6,0,P|180:220|208:168,1,120,2|0,1:2|0:2,0:2:0:0:
264,124,136218,1,8,0:2:0:0:
72,240,136427,1,10,0:2:0:0:
264,124,136843,5,0,1:2:0:0:
72,240,137052,1,8,0:2:0:0:
340,56,137468,6,0,B|288:68|292:4|232:20,1,120,2|0,1:2|0:2,0:2:0:0:
168,60,137885,1,8,0:2:0:0:
372,176,138093,1,10,0:2:0:0:
168,60,138510,5,2,1:2:0:0:
372,176,138718,1,10,0:2:0:0:
372,176,138927,1,2,0:2:0:0:
324,280,139135,6,0,L|220:220,1,120,2|0,1:2|0:2,0:2:0:0:
172,156,139552,1,8,0:2:0:0:
380,72,139760,1,10,0:2:0:0:
172,156,140177,5,0,1:2:0:0:
380,72,140385,1,8,0:2:0:0:
42,40,140802,6,0,P|0:74|0:136,1,120,2|0,1:2|0:2,0:2:0:0:
48,200,141218,1,8,0:2:0:0:
252,112,141427,1,10,0:2:0:0:
252,112,141843,5,2,1:2:0:0:
48,200,142052,1,10,0:2:0:0:
48,200,142260,1,2,0:2:0:0:
112,288,142468,6,0,B|168:280|144:228|208:220,1,120,2|0,1:2|0:2,0:2:0:0:
264,268,142885,1,8,0:2:0:0:
148,80,143093,1,10,0:2:0:0:
148,80,143510,5,0,1:2:0:0:
264,268,143718,1,8,0:2:0:0:
420,36,144135,6,0,P|464:36|488:100,1,120,2|0,1:2|0:2,0:2:0:0:
440,160,144552,1,8,0:2:0:0:
228,100,144760,1,10,0:2:0:0:
228,100,145177,5,2,1:2:0:0:
440,160,145385,1,10,0:2:0:0:
440,160,145593,1,2,0:2:0:0:
408,268,145802,6,0,L|292:232,1,120,2|0,1:2|0:2,0:2:0:0:
220,204,146218,1,8,0:2:0:0:
40,348,146427,1,10,0:2:0:0:
40,348,146843,5,0,1:2:0:0:
220,204,147052,1,8,0:2:0:0:
0,48,147364,5,2,0:2:0:0:
0,48,147416,1,2,0:2:0:0:
0,48,147468,2,1,B|24:24|48:24|72:48|72:48|88:88|120:104|148:88,1,179.999994506836,2|8,1:2|0:2,0:2:0:0:
376,124,148093,2,0,P|396:88|372:48,1,89.9999972534181,10|0,0:2|0:2,0:2:0:0:
224,20,148510,5,2,1:2:0:0:
212,128,148718,1,10,0:2:0:0:
312,88,148927,1,2,0:2:0:0:
78,4,149135,6,0,P|40:26|-2:48,1,89.9999972534181,2|0,1:2|0:2,0:2:0:0:
112,172,149552,1,8,0:2:0:0:
0,240,149760,2,0,P|16:172|112:172,1,179.999994506836,10|0,0:2|1:2,0:2:0:0:
220,324,150385,1,8,0:2:0:0:
376,208,150593,5,2,0:2:0:0:
376,208,150697,1,2,0:2:0:0:
376,208,150802,2,0,B|334:227|293:183|322:160|277:111|232:140,1,179.999994506836,2|8,1:2|0:2,0:2:0:0:
144,32,151427,2,0,P|188:16|228:0,1,89.9999972534181,10|0,0:2|0:2,0:2:0:0:
416,76,151843,5,2,1:2:0:0:
316,116,152052,1,10,0:2:0:0:
328,12,152260,1,2,0:2:0:0:
488,120,152468,6,0,P|474:164|464:208,1,89.9999972534181,2|0,1:2|0:2,0:2:0:0:
512,304,152885,1,8,0:2:0:0:
372,184,153093,2,0,B|264:232|264:232|312:220|336:244,1,179.999994506836,10|0,0:2|1:2,0:2:0:0:
488,120,153718,2,0,P|440:104|400:92,1,89.9999972534181,8|2,0:2|0:2,0:2:0:0:
348,32,154031,5,2,0:2:0:0:
348,32,154135,2,0,B|302:3|258:51|286:75|245:119|204:99,1,179.999994506836,2|8,1:2|0:2,0:2:0:0:
60,288,154760,2,0,P|96:272|148:256,1,89.9999972534181,10|0,0:2|0:2,0:2:0:0:
44,100,155177,5,2,1:2:0:0:
127,173,155385,1,10,0:2:0:0:
24,208,155593,1,2,0:2:0:0:
205,100,155802,6,0,B|241:88|257:40|257:40|245:100|281:132,1,179.999994506836,2|8,1:2|0:2,0:2:0:0:
360,288,156427,2,0,B|288:288|320:224|248:224,1,134.999995880127,10|0,0:2|0:2,0:2:0:0:
188,276,156843,5,2,1:2:0:0:
364,208,157052,1,10,0:2:0:0:
368,196,157156,1,2,0:2:0:0:
372,184,157260,1,2,1:2:0:0:
244,12,157468,6,0,P|216:12|200:28,1,50,14|0,0:2|0:0,0:0:0:0:
156,156,157677,1,0,1:2:0:0:
452,328,157885,5,8,0:2:0:0:
232,196,158093,1,0,1:2:0:0:
464,80,158302,5,8,0:2:0:0:
312,308,158510,1,0,1:2:0:0:
288,76,158718,5,8,0:2:0:0:
512,196,158927,1,0,1:2:0:0:
240,352,159135,5,8,0:2:0:0:
240,352,159239,1,0,1:2:0:0:
240,352,159343,2,0,P|228:328|228:304,1,50,0|0,1:2|0:2,0:2:0:0:
252,156,159552,5,8,0:2:0:0:
472,272,159760,1,0,1:2:0:0:
512,60,159968,5,8,0:2:0:0:
332,132,160177,1,0,1:2:0:0:
180,228,160385,5,8,0:2:0:0:
360,316,160594,1,0,1:2:0:0:
488,160,160802,6,0,P|468:144|444:144,1,50,12|0,0:2|0:2,0:2:0:0:
268,261,161010,1,8,0:2:0:0:
236,288,161114,1,8,0:2:0:0:
196,272,161218,2,0,P|180:249|180:225,1,50,8|8,0:2|0:2,0:2:0:0:
256,8,161427,1,4,1:2:0:0:
444,143,161635,5,8,0:2:0:0:
468,108,161739,1,8,0:2:0:0:
448,72,161843,2,0,L|397:60,1,50,8|8,0:2|0:2,0:2:0:0:
244,188,162052,2,0,L|292:172,1,50,0|0,1:2|0:2,0:2:0:0:
484,236,162260,5,0,1:2:0:0:
498,282,162364,1,0,1:2:0:0:
464,316,162468,1,12,0:2:0:0:
256,172,164135,6,0,B|318:155|318:155|343:94|343:94|413:76,1,200,4|2,1:2|0:2,0:0:0:0:
108,324,165177,5,10,0:2:0:0:
77,305,165281,1,8,0:2:0:0:
58,262,165385,5,10,0:2:0:0:
80,210,165489,1,8,0:2:0:0:
141,179,165593,5,10,0:2:0:0:
141,103,165697,1,8,0:2:0:0:
64,76,165802,6,1,B|0:66|-7:178|84:172|84:172|121:126|176:144,1,269.999991760254,6|0,1:2|0:0,0:0:0:0:
220,80,166218,1,8,0:2:0:0:
456,232,166427,6,1,B|360:200|360:200|288:220|324:280,1,209.999993591309,2|0,1:2|0:0,0:0:0:0:
384,328,166843,1,0,1:2:0:0:
460,140,167052,6,0,L|396:120,1,59.9999981689454,10|0,0:2|0:0,0:2:0:0:
328,100,167260,1,0,0:2:0:0:
88,204,167468,2,0,B|150:203|122:149|188:147,1,119.999996337891,0|2,1:2|0:2,0:0:0:0:
240,272,167885,5,10,0:2:0:0:
64,120,168093,1,2,1:2:0:0:
296,60,168302,5,2,0:2:0:0:
170,222,168510,1,2,1:2:0:0:
240,40,168718,6,0,L|296:60,1,59.9999981689454,10|0,0:2|0:0,0:2:0:0:
404,120,168927,2,0,L|348:140,1,59.9999981689454,2|0,0:2|0:0,0:2:0:0:
240,272,169135,6,0,B|219:253|204:222|204:222|133:254|133:254|147:317|104:344,1,240,2|0,1:2|0:0,0:2:0:0:
56,280,169552,1,8,0:2:0:0:
375,313,169760,6,1,B|403:295|389:238|363:226|363:226|358:229|358:229|328:209|319:165|352:134,1,209.999993591309,2|0,1:2|0:0,0:2:0:0:
420,168,170177,1,0,1:2:0:0:
296,60,170385,6,0,L|240:80,1,59.9999981689454,10|0,0:2|0:0,0:2:0:0:
168,104,170593,1,0,0:2:0:0:
352,220,170802,1,0,1:2:0:0:
132,332,171010,5,2,0:2:0:0:
248,184,171218,1,10,0:2:0:0:
424,348,171427,2,0,L|464:172,1,179.999994506836,2|0,1:2|0:0,0:2:0:0:
248,184,171843,6,0,P|222:170|193:159,1,59.9999981689454,2|0,1:2|0:0,0:2:0:0:
112,52,172052,2,0,P|140:40|166:27,1,59.9999981689454,10|0,0:2|0:0,0:2:0:0:
336,4,172260,5,2,1:2:0:0:
336,4,172364,1,0,1:2:0:0:
336,4,172468,2,1,B|301:40|301:40|320:103|320:103|350:120|350:120|367:181|367:181|348:202,1,240,4|0,1:2|0:0,0:2:0:0:
288,252,172885,1,10,0:2:0:0:
412,316,173093,2,0,P|387:252|287:252,1,179.999994506836,2|0,1:2|0:0,0:2:0:0:
96,348,173510,6,0,L|76:292,1,59.9999981689454,2|0,1:2|0:0,0:2:0:0:
191,163,173718,2,0,L|175:223,1,59.9999981689454,10|0,0:2|0:0,0:2:0:0:
48,128,173927,5,2,1:2:0:0:
48,128,174031,1,0,1:2:0:0:
48,128,174135,2,0,B|92:156|140:119|106:86|159:47|197:75,1,179.999994506836,0|0,1:2|0:0,0:2:0:0:
256,120,174552,1,10,0:2:0:0:
424,260,174760,2,0,B|492:224|452:156|452:156|444:188|420:200,1,179.999994506836,2|0,1:2|0:0,0:2:0:0:
372,136,175177,5,2,1:2:0:0:
232,244,175385,1,10,0:2:0:0:
360,344,175593,1,2,0:2:0:0:
256,120,175802,5,2,1:2:0:0:
144,192,176010,1,2,0:2:0:0:
16,48,176218,5,10,0:2:0:0:
136,100,176427,1,2,1:2:0:0:
220,276,176635,5,2,0:2:0:0:
16,188,176843,1,2,1:2:0:0:
204,52,177052,1,10,0:2:0:0:
280,336,177260,6,0,P|307:324|336:316,1,59.9999981689454,2|2,1:2|0:0,0:2:0:0:
452,240,177468,2,0,P|420:230|396:220,1,59.9999981689454,0|0,1:2|0:0,0:2:0:0:
304,176,177677,5,10,0:2:0:0:
192,308,177885,1,10,0:2:0:0:
272,88,178093,5,2,1:2:0:0:
452,240,178302,1,2,1:2:0:0:
166,78,178510,5,10,0:2:0:0:
120,104,178614,1,8,0:2:0:0:
106,150,178718,5,10,0:2:0:0:
141,198,178822,1,8,0:2:0:0:
200,232,178927,5,10,0:2:0:0:
192,308,179031,1,8,0:2:0:0:
124,356,179135,6,0,B|88:356|60:296|100:232|204:233|200:300|206:336|252:343,1,269.999991760254,6|0,1:2|0:2,0:2:0:0:
324,310,179552,1,8,0:2:0:0:
440,52,179760,6,1,B|403:14|351:41|337:98|337:98|368:124|376:156,1,209.999993591309,2|0,1:2|0:0,0:2:0:0:
452,136,180177,1,0,1:2:0:0:
256,56,180385,6,0,L|192:76,1,59.9999981689454,10|0,0:2|0:0,0:2:0:0:
124,96,180593,1,0,0:2:0:0:
324,310,180802,6,1,B|368:295|358:247|358:247|352:266|328:274,1,119.999996337891,0|2,1:2|0:2,0:2:0:0:
232,240,181218,5,10,0:2:0:0:
412,344,181427,1,2,1:2:0:0:
248,144,181635,5,2,0:2:0:0:
96,244,181843,1,2,1:2:0:0:
260,368,182052,6,0,L|324:348,1,59.9999981689454,10|0,0:2|0:0,0:2:0:0:
420,252,182260,2,0,L|356:232,1,59.9999981689454,2|0,0:2|0:0,0:2:0:0:
284,72,182468,6,1,B|274:14|356:-13|407:45|387:128|312:152,1,240,2|0,1:2|0:0,0:2:0:0:
248,144,182885,1,8,0:2:0:0:
48,148,183093,6,0,B|-32:120|16:52|16:52|100:28,1,209.999993591309,2|0,1:2|0:0,0:2:0:0:
164,72,183510,1,0,1:2:0:0:
119,268,183718,6,0,L|99:212,1,59.9999981689454,10|0,0:2|0:0,0:2:0:0:
172,180,183927,1,0,0:2:0:0:
320,260,184135,1,0,1:2:0:0:
408,60,184343,5,2,0:2:0:0:
248,144,184552,1,10,0:2:0:0:
380,352,184760,2,0,B|492:308|492:308|456:320|432:304,1,179.999994506836,2|0,1:2|0:0,0:2:0:0:
264,352,185177,6,0,P|237:338|209:328,1,59.9999981689454,2|0,1:2|0:0,0:2:0:0:
112,228,185385,2,0,P|140:218|166:204,1,59.9999981689454,10|0,0:2|0:0,0:2:0:0:
324,136,185593,5,2,1:2:0:0:
324,136,185697,1,0,1:2:0:0:
324,136,185802,2,0,B|288:72|316:8|316:8|288:72|236:72,1,240,4|0,1:2|0:0,0:2:0:0:
236,0,186218,5,10,0:2:0:0:
460,156,186427,2,0,B|423:128|370:167|404:200|356:237|312:209,1,179.999994506836,2|0,1:2|0:0,0:2:0:0:
432,292,186844,2,0,L|448:232,1,59.9999981689454,2|0,1:2|0:0,0:2:0:0:
308,78,187052,2,0,L|324:138,1,59.9999981689454,10|0,0:2|0:0,0:2:0:0:
512,88,187260,5,2,1:2:0:0:
512,88,187364,1,0,1:2:0:0:
512,88,187468,2,1,B|541:62|487:19|487:19|419:19|419:19|438:40,1,179.999994506836,0|0,1:2|0:0,0:2:0:0:
438,114,187885,1,10,0:2:0:0:
288,292,188093,6,0,B|244:320|196:283|230:250|177:211|140:239,1,179.999994506836,2|0,1:2|0:0,0:2:0:0:
76,280,188510,2,0,P|76:312|91:334,1,59.9999981689454,2|0,1:2|0:0,0:0:0:0:
168,352,188718,1,8,0:2:0:0:
379,156,188927,2,0,P|348:146|323:136,1,59.9999981689454,2|0,1:2|0:0,0:0:0:0:
216,192,189135,5,8,0:2:0:0:
436,248,189343,1,0,1:2:0:0:
292,20,189552,5,8,0:2:0:0:
92,104,189760,1,0,1:2:0:0:
236,288,189968,5,8,0:2:0:0:
432,344,190177,1,0,1:2:0:0:
482,72,190385,5,8,0:2:0:0:
300,135,190594,1,0,1:2:0:0:
473,308,190802,6,0,P|457:336|429:344,1,59.9999981689454,8|0,0:2|0:0,0:0:0:0:
132,304,191010,5,10,0:2:0:0:
120,252,191114,1,8,0:2:0:0:
165,227,191218,2,0,L|225:243,1,59.9999981689454,10|8,0:2|0:2,0:2:0:0:
428,208,191427,5,10,0:2:0:0:
456,164,191531,1,8,0:2:0:0:
427,122,191635,2,0,P|403:111|368:121,1,59.9999981689454,6|0,1:2|0:2,0:2:0:0:
213,198,191843,2,0,P|193:222|159:226,1,59.9999981689454,10|8,0:2|0:2,0:2:0:0:
36,16,192052,5,10,0:2:0:0:
62,37,192156,1,8,0:2:0:0:
69,70,192260,1,10,0:2:0:0:
55,99,192364,1,8,0:2:0:0:
36,125,192468,6,0,B|32:140|-48:162|-16:-12|108:38|168:157,1,269.999991760254,6|0,1:2|0:2,0:2:0:0:
239,139,192885,2,0,P|239:167|211:199,1,69.9999978637696,12|0,0:2|0:0,0:2:0:0:
424,292,193093,6,0,B|450:321|487:241|392:205|316:312,1,209.999993591309,0|0,1:2|0:0,0:2:0:0:
264,372,193510,2,0,P|240:347|240:320,1,59.9999981689454,0|2,1:2|0:2,0:2:0:0:
368,180,193718,1,8,0:2:0:0:
132,352,193927,5,2,1:2:0:0:
132,352,194031,1,0,1:2:0:0:
132,352,194135,2,0,B|20:316|20:316|56:324|84:308,1,179.999994506836,2|0,1:2|0:0,0:2:0:0:
40,244,194552,1,8,0:2:0:0:
276,163,194760,6,0,B|237:163|215:113|215:113|237:163|204:212,1,179.999994506836,2|0,1:2|0:0,0:2:0:0:
148,156,195177,1,0,1:2:0:0:
308,264,195385,1,10,0:2:0:0:
340,64,195593,2,0,L|285:91,1,59.9999981689454,2|0,0:2|0:0,0:2:0:0:
32,108,195802,6,0,B|76:136|124:99|90:66|143:27|181:55,1,179.999994506836,2|0,1:2|0:0,0:2:0:0:
220,124,196218,1,8,0:2:0:0:
28,312,196427,2,0,P|52:232|136:232,1,179.999994506836,2|0,1:2|0:0,0:2:0:0:
115,316,196843,1,0,1:2:0:0:
0,176,197052,1,8,0:2:0:0:
164,100,197260,6,0,P|191:112|220:124,1,59.9999981689454,2|0,0:2|0:0,0:2:0:0:
416,260,197468,6,1,L|352:287,1,69.9999978637696,0|0,1:2|0:0,0:2:0:0:
235,352,197677,5,2,0:2:0:0:
167,354,197781,1,2,0:2:0:0:
115,316,197885,5,10,0:2:0:0:
104,265,197989,1,2,0:2:0:0:
122,224,198093,5,2,1:2:0:0:
156,201,198197,1,2,0:2:0:0:
186,196,198302,5,2,0:2:0:0:
214,204,198406,1,2,0:2:0:0:
234,216,198510,5,2,1:2:0:0:
246,228,198614,1,2,0:2:0:0:
254,237,198718,6,0,P|278:225|310:213,1,59.9999981689454,10|0,0:2|0:0,0:2:0:0:
480,160,198927,2,0,P|451:149|424:136,1,59.9999981689454,2|0,1:2|0:0,0:2:0:0:
212,52,199135,6,0,B|180:28|168:-6|168:-6|96:28|96:28|112:96|60:132,1,269.999991760254,6|0,1:2|0:2,0:2:0:0:
20,64,199552,1,8,0:2:0:0:
260,160,199760,6,1,B|312:132|296:68|296:68|285:119|248:120,1,179.999994506836,2|0,1:2|0:0,0:2:0:0:
212,52,200177,1,2,1:2:0:0:
372,152,200385,1,10,0:2:0:0:
204,240,200593,1,2,0:2:0:0:
404,36,200802,6,0,B|508:60|508:60|528:100|484:120,1,179.999994506836,2|0,1:2|0:0,0:2:0:0:
440,184,201218,1,8,0:2:0:0:
404,36,201427,6,1,B|372:6|321:30|317:67|317:67|309:111|256:135|217:109,1,239.999992675781,2|0,1:2|1:2,0:2:0:0:
228,0,202052,1,8,0:2:0:0:
388,116,202260,1,0,0:2:0:0:
132,80,202468,6,0,P|123:110|132:140,1,59.9999981689454,2|0,1:2|0:0,0:2:0:0:
184,196,202677,1,2,0:2:0:0:
316,76,202885,1,10,0:2:0:0:
504,288,203093,6,0,P|420:263|331:241,1,179.999994506836,2|0,1:2|0:0,0:2:0:0:
260,216,203510,1,0,1:2:0:0:
84,344,203718,2,0,P|111:333|140:324,1,59.9999981689454,8|0,0:2|0:0,0:2:0:0:
216,304,203927,1,2,1:2:0:0:
228,116,204135,5,8,0:2:0:0:
0,188,204343,1,2,1:2:0:0:
160,28,204552,5,10,0:2:0:0:
383,123,204760,2,0,P|372:151|363:179,1,59.9999981689454,2|0,1:2|0:0,0:2:0:0:
216,304,204968,5,10,0:2:0:0:
192,270,205072,1,8,0:2:0:0:
204,228,205177,1,10,0:2:0:0:
245,200,205281,1,8,0:2:0:0:
300,216,205385,5,10,0:2:0:0:
357,255,205489,1,8,0:2:0:0:
432,239,205593,1,10,0:2:0:0:
446,160,205697,1,8,0:2:0:0:
382,92,205802,6,0,B|314:54|255:132|297:159|238:228|166:192,1,269.999991760254,6|0,1:2|0:2,0:2:0:0:
196,90,206218,2,0,P|232:104|270:119,1,80,10|0,0:2|0:0,0:2:0:0:
505,273,206427,6,0,P|441:273|419:323,1,120,2|0,1:2|0:0,0:2:0:0:
349,371,206843,2,0,P|337:332|324:295,1,80,2|0,1:2|0:0,0:2:0:0:
490,80,207052,6,0,B|467:69|442:84|442:84|420:130|373:117,1,119.999996337891,14|0,0:2|0:0,0:2:0:0:
316,60,207260,2,0,P|334:36|368:30,1,64.9999970245363,2|0,1:2|0:0,0:2:0:0:
493,182,207468,6,0,P|354:123|214:70,1,300,6|0,1:2|0:2,0:2:0:0:
100,276,207885,6,0,P|56:276|32:252,1,80,10|0,0:2|0:0,0:2:0:0:
20,176,208093,2,0,P|44:124|104:124,1,120,2|0,1:2|0:0,0:2:0:0:
160,176,208510,1,2,1:2:0:0:
360,197,208718,6,0,P|398:194|420:162,1,80,10|0,0:2|0:0,0:2:0:0:
349,104,208927,2,0,P|330:65|297:59,1,80,2|0,1:2|0:0,0:2:0:0:
211,114,209135,6,0,P|366:147|512:188,1,300,6|0,1:2|0:0,0:2:0:0:
512,194,209552,1,10,0:2:0:0:
438,115,209760,6,0,B|371:78|314:152|359:151|305:219|235:194,1,240,2|0,1:2|0:0,0:2:0:0:
211,114,210177,2,0,P|217:81|223:42,1,69.9999978637696,2|0,1:2|0:0,0:2:0:0:
377,176,210385,2,0,P|366:226|357:280,1,100,10|0,0:2|0:2,0:2:0:0:
178,384,210593,2,0,P|155:354|174:308,1,80,2|0,1:2|0:0,0:2:0:0:
165,232,210802,5,4,1:2:0:0:
360,362,211010,2,0,P|335:350|303:340,1,59.9999981689454,0|0,1:2|0:0,0:2:0:0:
512,136,211218,5,8,0:2:0:0:
357,274,211427,2,0,P|382:262|414:252,1,59.9999981689454,0|0,1:2|0:0,0:2:0:0:
248,96,211635,5,8,0:2:0:0:
362,194,211843,2,0,P|337:182|305:172,1,59.9999981689454,0|0,1:2|0:0,0:2:0:0:
434,86,212052,5,8,0:2:0:0:
205,228,212260,1,8,0:2:0:0:
158,242,212364,1,8,0:2:0:0:
124,212,212468,6,0,B|95:179|128:137|128:137|188:112|165:47,1,179.999994506836,4|0,1:2|0:2,0:2:0:0:
104,20,212885,1,8,0:2:0:0:
312,96,213093,2,0,B|255:116,1,59.9999981689454,2|2,1:2|0:2,0:2:0:0:
128,320,213302,5,2,0:2:0:0:
88,292,213406,1,2,0:2:0:0:
88,244,213510,1,2,1:2:0:0:
124,212,213614,1,2,0:2:0:0:
172,208,213718,6,0,P|200:218|228:232,1,59.9999981689454,10|2,0:2|0:2,0:2:0:0:
376,344,213927,2,0,P|400:332|432:320,1,59.9999981689454,2|2,0:2|0:2,0:2:0:0:
508,136,214135,5,2,1:2:0:0:
508,88,214239,1,2,0:2:0:0:
468,60,214343,1,2,0:2:0:0:
420,72,214447,1,2,0:2:0:0:
396,112,214552,6,0,L|408:172,1,59.9999981689454,10|2,0:2|0:2,0:2:0:0:
245,318,214760,6,0,B|213:331|188:288|212:244|272:244|312:296,1,179.999994506836,2|0,1:2|0:0,0:2:0:0:
376,344,215177,5,2,1:2:0:0:
256,100,215385,1,10,0:2:0:0:
88,308,215593,1,2,1:2:0:0:
16,52,215802,6,0,L|72:32,1,59.9999981689454,10|0,0:2|0:2,0:2:0:0:
420,156,216010,5,10,0:2:0:0:
400,196,216114,1,8,0:2:0:0:
356,208,216218,1,8,0:2:0:0:
312,192,216322,1,8,0:2:0:0:
296,148,216427,2,0,L|308:88,1,59.9999981689454,4|0,1:2|0:2,0:2:0:0:
148,236,216635,5,10,0:2:0:0:
136,192,216739,1,8,0:2:0:0:
96,172,216843,1,8,0:2:0:0:
52,188,216947,1,8,0:2:0:0:
32,228,217052,2,0,L|48:285,1,59.9999981689454,4|0,1:2|0:2,0:2:0:0:
320,352,217260,5,10,0:2:0:0:
388,324,217364,1,8,0:2:0:0:
392,248,217468,2,0,L|332:232,1,59.9999981689454,2|0,1:2|0:2,0:2:0:0:
156,128,217677,5,10,0:2:0:0:
119,57,217781,1,8,0:2:0:0:
188,16,217885,2,0,L|248:28,1,59.9999981689454,10|8,0:2|0:2,0:2:0:0:
396,244,218093,2,0,L|336:228,1,59.9999981689454,2|0,1:2|0:2,0:2:0:0:
400,0,218302,5,10,0:2:0:0:
460,40,218406,1,8,0:2:0:0:
456,112,218510,1,10,0:2:0:0:
408,168,218614,1,8,0:2:0:0:
336,152,218718,5,10,0:2:0:0:
292,96,218822,1,8,0:2:0:0:
216,92,218927,1,10,0:2:0:0:
176,156,219031,1,8,0:2:0:0:
216,216,219135,6,0,L|372:172,1,160,2|0,0:2|0:2,0:2:0:0:
369,172,219900,6,0,L|354:176,3,14.9999995422363,2|2|2|2,0:2|0:2|0:2|0:2,0:2:0:0:
391,168,220108,6,1,B|433:160|476:205|486:302|373:355|265:322|229:206|311:179|275:75|144:42|49:104|49:231|160:248|169:205,1,620,2|0,0:2|0:0,0:2:0:0:
