osu file format v14

[General]
AudioFilename: audio.mp3
AudioLeadIn: 0
PreviewTime: 45958
Countdown: 0
SampleSet: Soft
StackLeniency: 0.7
Mode: 0
LetterboxInBreaks: 0
EpilepsyWarning: 1
WidescreenStoryboard: 1

[Editor]
Bookmarks: 7468,20802,34135,47468,74135,87468,87572,87677,87781,87885,87989,88093,88197,88302,88406,88510,88614,88718,88822,88927,89031,89135,89239,89343,89447,89552,89656,89760,89864,89968,90072,90177,90281,90385,90489,90593,90697,90802,90906,91010,91114,91218,91322,91427,91531,91635,91739,91843,91947,92052,92156,92260,92364,92468,92572,92677,92781,92885,92989,93093,93197,93302,93406,93510,93614,93718,93822,93927,94031,94135,100802,127468,127677,127885,128093,128302,128510,128718,128927,129135,129343,129552,129760,129968,130177,130385,130593,130802,131010,131218,131427,131635,131843,132052,132260,132468,132677,132885,133093,133302,133510,133718,133927,134135,140802,147468,157468,165802,192468,205802,219135
DistanceSpacing: 0.8
BeatDivisor: 4
GridSize: 32
TimelineZoom: 1.4

[Metadata]
Title:HOT
TitleUnicode:HOT
Artist:vivid undress
ArtistUnicode:vivid undress
Creator:Elinor
Version:MAYU'S HARD
Source:
Tags:eli [_eli_] shikibe mayu kazato asa shizuku- mocaotic kyutei Anya_Melfissa Anya Melfissa j-pop jpop japanese english pop 混在ニューウェーブ konzai new wave female vocalist
BeatmapID:3074532
BeatmapSetID:1440156

[Difficulty]
HPDrainRate:5
CircleSize:4
OverallDifficulty:6.7
ApproachRate:7.5
SliderMultiplier:1.6
SliderTickRate:1

[Events]
//Background and Video events
0,0,"bg.jpg",0,0
//Break Periods
2,87668,93310
2,127468,133310
//Storyboard Layer 0 (Background)
//Storyboard Layer 1 (Fail)
//Storyboard Layer 2 (Pass)
//Storyboard Layer 3 (Foreground)
//Storyboard Layer 4 (Overlay)
//Storyboard Sound Samples

[TimingPoints]
802,416.666666666667,4,2,1,60,1,0
7468,-111.111111111111,4,2,1,60,0,0
20802,-111.111111111111,4,2,1,70,0,0
34135,-111.111111111111,4,2,1,80,0,0
47468,-100,4,2,1,90,0,0
70802,-100,4,2,1,100,0,1
74135,-111.111111111111,4,2,1,60,0,0
75802,-111.111111111111,4,2,1,70,0,0
87468,-111.111111111111,4,2,1,60,0,0
94135,-111.111111111111,4,2,1,80,0,0
100802,-100,4,2,1,90,0,0
124135,-100,4,2,1,100,0,1
125802,-100,4,2,1,80,0,0
127468,-100,4,2,1,50,0,0
134135,-125,4,2,1,60,0,0
147468,-111.111111111111,4,2,1,70,0,0
157468,-90.9090909090909,4,2,1,100,0,1
162468,-100,4,2,1,80,0,0
165802,-100,4,2,1,90,0,0
189135,-100,4,2,1,100,0,1
192468,-100,4,2,1,90,0,0
197677,-100,4,2,1,85,0,0
197885,-100,4,2,1,80,0,0
198093,-100,4,2,1,75,0,0
198302,-100,4,2,1,70,0,0
198510,-100,4,2,1,65,0,0
198718,-100,4,2,1,90,0,0
205802,-100,4,2,1,100,0,1
219135,-100,4,2,1,80,0,0
219900,416.666666666667,4,2,1,5,1,0
219900,-100,4,2,1,40,0,0
221566,-100,4,2,1,30,0,0
223233,-100,4,2,1,20,0,0
224900,-100,4,2,1,10,0,0
226566,-100,4,2,1,5,0,0

[Colours]
Combo1 : 81,168,255
Combo2 : 155,220,255
Combo3 : 204,242,172

[HitObjects]
469,61,7468,6,0,P|449:131|441:174,1,107.999996704102,0|0,1:2|0:0,0:0:0:0:
449,184,7885,1,10,0:2:0:0:
463,266,8093,2,0,P|424:264|390:240,2,71.9999978027344,2|2|2,1:2|0:2|0:2,0:0:0:0:
362,167,8718,2,0,P|326:183|276:199,1,71.9999978027344,10|2,0:2|0:2,0:0:0:0:
261,296,9135,6,0,P|225:280|175:264,1,71.9999978027344,0|2,1:2|0:2,0:0:0:0:
116,313,9552,1,8,0:2:0:0:
34,269,9760,1,2,1:2:0:0:
34,269,9968,2,0,P|27:229|15:188,1,71.9999978027344,2|0,0:2|0:2,0:0:0:0:
94,119,10385,2,0,P|101:159|113:200,1,71.9999978027344,10|0,0:2|0:2,0:0:0:0:
194,269,10802,6,0,P|251:274|306:305,1,107.999996704102,0|0,1:2|0:0,0:0:0:0:
305,308,11218,1,10,0:2:0:0:
375,355,11427,2,0,P|389:318|386:275,1,71.9999978027344,2|2,1:2|0:2,0:0:0:0:
333,199,11843,1,2,0:2:0:0:
399,149,12052,2,0,P|434:160|484:169,1,71.9999978027344,10|2,0:2|0:2,0:0:0:0:
433,49,12468,6,0,P|378:61|312:89,1,107.999996704102,0|0,1:2|0:0,0:0:0:0:
314,89,12885,1,8,0:2:0:0:
228,59,13093,1,2,1:2:0:0:
190,144,13302,2,0,P|202:182|212:230,1,71.9999978027344,2|0,0:2|0:2,0:0:0:0:
294,286,13718,2,0,P|302:250|313:216,1,71.9999978027344,10|0,0:2|0:2,0:0:0:0:
179,318,14135,6,0,P|107:292|51:276,1,107.999996704102,2|0,1:2|0:0,0:0:0:0:
62,291,14552,1,8,0:2:0:0:
0,231,14760,2,0,P|40:183|122:189,1,143.999995605469,2|0,1:2|0:2,0:0:0:0:
188,61,15385,2,0,P|154:74|106:85,1,71.9999978027344,8|2,0:2|0:2,0:0:0:0:
224,210,15802,6,0,P|229:174|244:126,1,71.9999978027344,2|0,1:2|0:2,0:0:0:0:
299,78,16218,1,8,0:2:0:0:
255,0,16427,2,0,P|310:45|398:30,1,143.999995605469,2|0,1:2|0:2,0:0:0:0:
465,9,17052,1,10,0:2:0:0:
489,99,17260,2,0,P|478:134|466:181,1,71.9999978027344,2|2,0:2|1:2,0:0:0:0:
388,362,17885,5,10,0:2:0:0:
466,317,18093,2,0,B|384:293|405:340|296:310,1,143.999995605469,2|0,1:2|0:2,0:0:0:0:
236,363,18718,2,0,P|193:372|147:387,1,71.9999978027344,10|2,0:2|0:2,0:0:0:0:
90,345,19135,1,2,1:2:0:0:
74,120,19552,5,8,0:2:0:0:
23,209,19760,2,0,P|77:174|159:184,1,143.999995605469,2|2,1:2|0:3,0:0:0:0:
201,256,20385,2,0,P|208:298|221:341,1,71.9999978027344,8|2,0:2|0:3,0:0:0:0:
298,244,20802,6,0,P|305:202|318:159,1,71.9999978027344,0|2,1:2|0:2,0:0:0:0:
318,163,21114,1,2,0:2:0:0:
324,152,21218,1,10,0:2:0:0:
270,79,21427,2,0,P|304:67|337:54,1,71.9999978027344,0|2,1:2|0:2,0:0:0:0:
413,21,21843,1,2,0:2:0:0:
437,104,22052,2,0,P|485:122|519:132,1,71.9999978027344,10|2,0:2|0:2,0:0:0:0:
431,192,22468,6,0,P|444:243|460:323,1,107.999996704102,0|2,1:2|0:2,0:0:0:0:
464,315,22885,1,10,0:2:0:0:
369,384,23093,2,0,P|348:344|350:293,1,71.9999978027344,2|2,1:2|0:2,0:0:0:0:
267,268,23510,1,0,0:2:0:0:
193,317,23718,2,0,P|144:334|106:348,1,71.9999978027344,10|2,0:2|0:2,0:0:0:0:
11,213,24135,6,0,P|49:222|92:238,1,71.9999978027344,2|2,1:2|0:2,0:0:0:0:
88,239,24447,1,2,0:0:0:0:
98,248,24552,1,10,0:2:0:0:
172,195,24760,2,0,P|177:153|196:97,1,71.9999978027344,2|2,1:2|0:2,0:0:0:0:
110,6,25177,1,2,0:2:0:0:
110,6,25281,1,2,0:0:0:0:
110,6,25385,2,0,P|105:48|86:104,1,71.9999978027344,10|2,0:2|0:2,0:0:0:0:
190,117,25802,6,0,P|296:82|318:77,1,107.999996704102,0|2,1:2|0:2,0:0:0:0:
309,91,26218,1,10,0:2:0:0:
396,57,26427,1,2,1:2:0:0:
452,128,26635,2,0,P|441:167|431:208,1,71.9999978027344,2|0,0:2|0:2,0:0:0:0:
502,274,27052,2,0,P|491:313|481:354,1,71.9999978027344,10|0,0:2|0:2,0:0:0:0:
410,291,27468,6,0,B|336:286|354:325|250:315,1,143.999995605469,2|8,1:2|0:2,0:0:0:0:
204,376,28093,1,2,1:2:0:0:
118,343,28302,2,0,P|71:352|28:364,1,71.9999978027344,2|0,0:2|0:2,0:0:0:0:
139,224,28718,2,0,P|170:260|202:291,1,71.9999978027344,8|2,0:2|0:2,0:0:0:0:
344,246,29135,6,0,P|359:173|375:111,1,107.999996704102,2|0,1:2|0:0,0:0:0:0:
371,126,29552,1,8,0:2:0:0:
309,63,29760,2,0,P|284:108|289:156,1,71.9999978027344,2|2,1:2|0:2,0:0:0:0:
216,208,30177,1,0,0:2:0:0:
124,246,30385,2,0,P|89:236|54:227,1,71.9999978027344,10|2,0:2|0:2,0:0:0:0:
80,72,30802,6,0,P|136:72|160:116,1,107.999996704102,0|2,1:2|0:2,0:0:0:0:
160,128,31218,1,10,0:2:0:0:
216,208,31427,2,0,P|258:194|313:181,1,71.9999978027344,2|2,1:2|0:2,0:0:0:0:
328,276,31843,5,0,0:2:0:0:
336,283,31947,2,0,P|341:307|346:333,1,35.9999989013672,2|8,0:2|0:2,0:0:0:0:
420,239,32260,5,2,0:2:0:0:
424,233,32364,1,2,0:2:0:0:
429,227,32468,2,0,P|424:190|422:148,1,71.9999978027344,2|2,1:2|0:2,0:0:0:0:
481,93,32885,1,10,0:2:0:0:
402,1,33093,2,0,P|339:43|347:120,1,143.999995605469,2|2,1:2|0:2,0:0:0:0:
268,161,33718,2,0,P|230:148|184:142,1,71.9999978027344,10|2,0:2|0:2,0:0:0:0:
87,140,34135,6,0,P|78:95|71:62,1,71.9999978027344,6|2,1:2|0:2,0:0:0:0:
0,200,34552,1,10,0:2:0:0:
76,252,34760,2,0,P|85:297|39:367,1,107.999996704102,2|0,1:2|0:0,0:0:0:0:
60,363,35177,2,0,P|110:352|151:343,1,71.9999978027344,0|10,0:2|0:2,0:0:0:0:
206,378,35593,1,2,0:2:0:0:
168,268,35802,6,0,P|175:203|247:142,1,143.999995605469,2|8,1:2|0:2,0:0:0:0:
308,116,36427,1,2,1:2:0:0:
372,173,36635,2,0,P|417:159|462:148,1,71.9999978027344,0|0,0:2|0:2,0:0:0:0:
499,262,37052,2,0,P|464:252|429:241,1,71.9999978027344,8|2,0:2|0:2,0:0:0:0:
320,264,37468,5,2,1:2:0:0:
291,346,37677,1,2,0:2:0:0:
213,379,37885,1,10,0:2:0:0:
124,377,38093,1,2,1:2:0:0:
64,324,38302,6,0,P|50:276|35:229,1,71.9999978027344,2|0,0:2|0:2,0:0:0:0:
90,168,38718,1,10,0:2:0:0:
0,191,38927,6,0,P|68:212|162:241,1,143.999995605469,2|2,0:2|0:2,0:0:0:0:
220,208,39552,1,8,0:2:0:0:
204,116,39760,2,0,P|195:67|187:25,1,71.9999978027344,0|0,1:2|0:2,0:0:0:0:
284,12,40177,5,2,0:2:0:0:
360,40,40385,1,10,0:2:0:0:
432,76,40593,1,2,0:2:0:0:
439,182,40802,6,0,P|379:180|289:236,1,143.999995605469,0|10,1:2|0:2,0:0:0:0:
279,297,41427,1,2,1:2:0:0:
279,297,41843,1,2,0:2:0:0:
201,243,42052,2,0,P|211:203|220:160,1,71.9999978027344,10|2,0:2|0:2,0:0:0:0:
128,64,42468,6,0,P|138:104|147:147,1,71.9999978027344,0|2,1:2|0:2,0:0:0:0:
31,134,42885,1,10,0:2:0:0:
81,220,43093,2,0,P|145:195|224:171,1,143.999995605469,2|2,1:2|0:2,0:0:0:0:
285,107,43718,2,0,P|295:65|308:27,1,71.9999978027344,10|0,0:2|0:2,0:0:0:0:
421,14,44135,5,2,1:2:0:0:
488,72,44343,1,0,1:2:0:0:
432,142,44552,2,0,P|426:185|422:224,1,71.9999978027344,8|0,0:2|1:2,0:0:0:0:
339,280,44968,2,0,P|318:241|301:206,1,71.9999978027344,8|8,0:2|0:2,0:0:0:0:
301,206,45281,1,8,0:2:0:0:
293,194,45385,1,8,0:2:0:0:
287,185,45489,1,8,0:3:0:0:
282,177,45593,2,0,L|296:118,2,35.9999989013672,4|0|8,0:3|1:3|0:2,0:0:0:0:
233,368,47468,6,1,B|165:368|193:322|104:331,1,120,6|0,1:2|0:2,0:2:0:0:
106,337,47885,1,8,0:2:0:0:
4,282,48093,2,1,P|13:206|103:169,1,160,2|0,1:2|1:2,0:2:0:0:
147,81,48718,2,0,P|214:104|334:135,1,160,10|0,0:2|1:2,0:2:0:0:
380,251,49343,5,2,0:2:0:0:
433,182,49552,1,10,0:2:0:0:
512,214,49760,1,2,1:2:0:0:
460,284,49968,5,2,0:2:0:0:
380,251,50177,1,2,1:2:0:0:
301,218,50385,2,0,P|292:269|282:313,1,80,10|2,0:2|0:2,0:2:0:0:
248,383,50802,6,0,P|221:276|195:192,1,160,2|8,1:2|0:2,0:2:0:0:
119,303,51426,2,1,P|61:305|0:207,1,160,2|0,1:2|1:2,0:2:0:0:
73,138,52052,2,0,P|82:183|90:233,1,80,10|0,0:2|0:2,0:2:0:0:
206,228,52468,5,0,1:2:0:0:
287,207,52677,1,2,0:2:0:0:
353,260,52885,1,10,0:2:0:0:
438,242,53093,1,2,1:2:0:0:
398,98,53510,5,2,1:2:0:0:
398,98,53718,2,0,P|385:147|377:189,1,80,10|2,0:2|1:2,0:2:0:0:
412,321,54135,6,1,P|356:375|252:360,1,160,4|10,1:2|0:2,0:2:0:0:
191,331,54760,1,2,1:2:0:0:
72,182,55177,5,2,1:2:0:0:
0,230,55385,1,10,0:2:0:0:
78,268,55593,1,2,1:2:0:0:
49,228,55802,6,0,B|127:226|114:175|222:174,1,160,0|10,1:2|0:2,0:2:0:0:
281,198,56427,2,0,P|289:152|302:101,1,80,2|0,1:2|0:2,0:2:0:0:
361,63,56843,1,2,1:2:0:0:
413,143,57052,2,0,P|405:189|392:240,1,80,10|2,0:2|0:2,0:0:0:0:
397,221,57364,1,2,0:2:0:0:
397,221,57468,6,0,P|444:208|493:199,1,80,2|2,1:2|0:2,0:0:0:0:
502,326,57885,2,0,P|454:338|405:347,1,80,10|2,0:2|1:2,0:0:0:0:
296,384,58302,5,2,0:2:0:0:
246,322,58510,1,2,1:2:0:0:
168,315,58718,1,10,0:2:0:0:
101,355,58927,2,0,P|54:343|0:331,1,80,2|0,1:2|1:2,0:2:0:0:
0,231,59343,5,10,0:2:0:0:
55,164,59552,1,10,0:2:0:0:
132,200,59760,1,2,1:2:0:0:
232,151,59968,6,0,P|240:103|250:62,1,80,2|10,1:2|0:2,0:0:0:0:
338,17,60385,1,10,0:2:0:0:
350,27,60489,1,8,0:2:0:0:
359,36,60593,1,10,0:2:0:0:
364,50,60697,1,8,0:2:0:0:
362,64,60802,6,0,P|403:97|517:82,1,160,6|8,1:2|0:2,0:2:0:0:
479,200,61427,2,1,P|425:213|317:238,1,160,2|0,1:2|1:2,0:2:0:0:
260,366,62052,2,0,P|219:333|105:348,1,160,10|0,0:2|1:2,0:2:0:0:
54,234,62677,5,2,0:2:0:0:
111,167,62885,1,10,0:2:0:0:
76,86,63093,1,2,1:2:0:0:
16,154,63302,5,2,0:2:0:0:
111,167,63510,1,2,1:2:0:0:
185,111,63718,2,0,P|234:123|281:141,1,80,10|2,0:2|0:2,0:2:0:0:
348,220,64135,6,1,P|406:216|461:113,1,160,2|8,1:2|0:2,0:2:0:0:
354,55,64760,2,0,P|364:97|373:149,1,80,2|0,1:2|0:0,0:2:0:0:
368,306,65177,5,0,1:2:0:0:
289,284,65385,2,0,B|209:276|218:326|119:326,1,160,10|0,0:2|1:2,0:2:0:0:
51,355,66010,1,2,0:2:0:0:
24,274,66218,1,10,0:2:0:0:
106,244,66427,1,2,1:2:0:0:
273,58,66843,5,2,1:2:0:0:
273,58,67052,2,0,P|265:97|257:149,1,80,10|2,0:2|1:2,0:2:0:0:
197,216,67468,6,0,P|252:177|354:184,1,160,4|10,1:2|0:2,0:2:0:0:
410,127,68093,1,2,1:2:0:0:
449,378,68510,2,0,P|457:339|468:301,1,80,2|10,1:2|0:2,0:2:0:0:
512,217,68927,1,2,1:2:0:0:
512,217,69135,6,1,P|443:262|341:246,1,160,0|10,1:2|0:2,0:2:0:0:
268,240,69760,2,0,P|281:287|292:332,1,80,2|0,1:2|0:2,0:2:0:0:
245,384,70177,1,2,1:2:0:0:
175,352,70385,2,0,P|165:313|154:274,1,80,8|2,0:2|0:2,0:0:0:0:
154,274,70697,1,2,0:0:0:0:
154,274,70802,6,0,P|107:269|66:259,1,80,0|0,1:2|1:2,0:0:0:0:
86,171,71218,2,0,P|133:176|174:186,1,80,8|0,0:2|1:2,0:0:0:0:
303,155,71635,6,0,P|350:149|391:139,1,80,8|0,0:2|1:2,0:0:0:0:
371,51,72051,2,0,P|323:56|282:66,1,80,8|0,0:2|1:2,0:0:0:0:
197,15,72468,5,8,0:2:0:0:
133,83,72677,1,8,0:2:0:0:
133,83,72781,1,8,0:2:0:0:
133,83,72885,2,0,L|93:73,2,40,8|8|8,0:2|0:2|0:2,0:0:0:0:
194,157,73302,6,0,L|184:203,3,40,8|8|8|8,0:3|0:3|0:3|0:3,0:0:0:0:
153,228,73718,1,4,0:3:0:0:
160,246,73822,1,4,0:3:0:0:
166,265,73926,1,4,0:3:0:0:
168,285,74030,1,4,0:3:0:0:
168,305,74134,1,0,1:2:0:0:
420,143,75385,6,0,P|444:91|406:-1,1,143.999995605469,10|0,0:2|1:2,0:0:0:0:
316,49,76010,1,2,0:2:0:0:
316,49,76114,1,2,0:2:0:0:
316,49,76218,2,0,P|306:92|297:141,1,71.9999978027344,10|2,0:2|1:2,0:0:0:0:
347,194,76635,2,0,P|360:260|371:310,1,107.999996704102,2|0,0:2|0:0,0:0:0:0:
376,313,77052,2,0,L|289:329,1,71.9999978027344,10|2,0:2|0:2,0:0:0:0:
243,267,77468,5,2,1:2:0:0:
157,341,77677,1,2,0:2:0:0:
157,341,77885,2,0,P|119:329|76:317,1,71.9999978027344,10|0,0:2|1:2,0:0:0:0:
20,249,78302,1,2,0:2:0:0:
75,183,78510,1,2,0:2:0:0:
159,204,78718,2,0,P|164:163|175:115,1,71.9999978027344,10|2,0:2|0:2,0:0:0:0:
260,13,79135,6,0,P|277:48|263:101,1,71.9999978027344,0|2,1:2|0:2,0:0:0:0:
274,80,79447,1,2,0:2:0:0:
274,80,79552,2,0,P|315:67|364:55,1,71.9999978027344,10|2,0:2|1:2,0:0:0:0:
428,120,79968,2,0,P|411:191|400:250,1,107.999996704102,2|0,0:2|0:0,0:0:0:0:
410,235,80385,2,0,P|448:225|492:214,1,71.9999978027344,10|0,0:2|0:2,0:0:0:0:
387,325,80802,6,0,B|308:311|327:355|237:338,1,143.999995605469,2|8,1:2|0:2,0:0:0:0:
169,378,81427,1,2,1:2:0:0:
104,322,81635,2,0,P|96:284|85:242,1,71.9999978027344,2|0,0:2|0:2,0:0:0:0:
168,212,82052,2,0,P|176:250|187:292,1,71.9999978027344,8|2,0:2|0:2,0:0:0:0:
6,239,82468,6,0,P|14:164|82:124,1,143.999995605469,2|8,1:2|0:2,0:0:0:0:
122,60,83093,1,2,1:2:0:0:
191,109,83302,2,0,P|229:120|277:135,1,71.9999978027344,2|0,0:2|0:2,0:0:0:0:
316,59,83718,2,0,P|389:48|457:0,1,143.999995605469,10|0,0:2|1:2,0:0:0:0:
491,105,84343,5,2,0:2:0:0:
490,114,84447,1,2,0:2:0:0:
487,123,84552,2,0,P|496:161|506:209,1,71.9999978027344,10|2,0:2|1:2,0:0:0:0:
469,281,84968,2,0,P|418:281|358:312,1,107.999996704102,2|2,0:2|0:2,0:0:0:0:
360,311,85385,1,8,0:2:0:0:
293,364,85593,2,0,P|278:329|280:278,1,71.9999978027344,2|2,0:2|1:2,0:0:0:0:
238,207,86010,5,2,0:2:0:0:
238,207,86114,1,2,0:2:0:0:
238,207,86218,2,0,L|252:130,1,71.9999978027344,10|2,0:2|1:2,0:0:0:0:
154,22,86635,5,2,0:2:0:0:
68,36,86843,1,10,0:2:0:0:
40,120,87052,1,10,0:2:0:0:
104,180,87260,1,2,0:3:0:0:
120,100,87468,5,2,0:2:0:0:
451,128,94135,6,0,P|396:128|345:100,1,107.999996704102,0|0,1:2|0:0,0:0:0:0:
342,95,94552,1,10,0:2:0:0:
296,23,94760,2,0,P|296:93|261:165,1,143.999995605469,2|2,1:2|0:2,0:0:0:0:
183,199,95385,2,0,P|191:240|198:278,1,71.9999978027344,10|2,0:2|0:2,0:0:0:0:
214,355,95802,5,2,1:2:0:0:
138,342,96010,1,2,0:2:0:0:
71,384,96218,1,10,0:2:0:0:
0,356,96427,1,2,1:2:0:0:
0,356,96635,2,0,P|-2:320|5:273,1,71.9999978027344,2|2,0:2|0:2,0:0:0:0:
88,170,97052,2,0,P|90:205|83:252,1,71.9999978027344,10|2,0:2|0:2,0:0:0:0:
176,279,97468,5,6,1:2:0:0:
256,255,97677,1,0,1:2:0:0:
336,231,97885,2,0,P|373:243|425:260,1,71.9999978027344,8|0,0:2|1:2,0:0:0:0:
481,182,98302,2,0,P|446:170|412:159,1,71.9999978027344,8|8,0:2|0:3,0:0:0:0:
410,153,98614,1,8,0:3:0:0:
406,144,98718,2,0,L|415:103,3,35.9999989013672,4|4|8|8,0:3|0:3|0:2|0:2,0:0:0:0:
398,85,99135,6,0,P|352:99|311:109,1,71.9999978027344,4|10,1:2|0:2,0:0:0:0:
300,112,99447,1,8,0:2:0:0:
300,112,99552,1,10,0:2:0:0:
243,180,99760,1,2,1:2:0:0:
293,257,99968,1,10,0:2:0:0:
289,270,100072,1,8,0:2:0:0:
285,284,100176,1,10,0:2:0:0:
281,298,100280,1,8,0:2:0:0:
277,312,100384,1,2,1:2:0:0:
191,376,100593,5,10,0:2:0:0:
191,376,100697,1,8,0:2:0:0:
191,376,100802,2,1,P|140:342|62:352,1,120,6|0,1:2|0:2,0:2:0:0:
75,350,101218,1,8,0:2:0:0:
0,290,101427,2,1,B|-14:199|34:238|6:119,1,160,2|0,1:2|1:2,0:2:0:0:
78,0,102052,2,0,P|126:36|125:139,1,160,10|0,0:2|1:2,0:2:0:0:
209,179,102677,5,0,0:2:0:0:
290,151,102885,1,10,0:2:0:0:
354,211,103093,1,2,1:2:0:0:
272,244,103302,5,2,0:2:0:0:
290,151,103510,1,2,1:2:0:0:
305,61,103718,2,0,P|346:50|387:36,1,80,10|2,0:2|0:2,0:2:0:0:
465,89,104135,6,0,B|486:114|508:129|508:129|524:187|464:241,1,160,2|8,1:2|0:2,0:2:0:0:
505,329,104760,2,1,P|454:300|387:309,1,120,2|0,1:2|0:0,0:2:0:0:
387,312,105177,1,0,1:2:0:0:
313,358,105385,2,0,P|300:320|301:281,1,80,8|0,0:2|0:2,0:2:0:0:
367,227,105802,5,0,1:2:0:0:
394,152,106010,1,2,0:2:0:0:
351,84,106218,1,10,0:2:0:0:
275,58,106427,1,2,1:2:0:0:
148,173,106843,5,2,1:2:0:0:
148,173,107052,2,0,P|99:163|56:157,1,80,10|2,0:2|1:2,0:2:0:0:
46,78,107468,6,1,P|89:81|215:109,1,160,4|10,1:2|0:2,0:2:0:0:
275,58,108093,1,2,1:2:0:0:
434,238,108510,5,2,1:2:0:0:
427,158,108718,1,10,0:2:0:0:
502,187,108927,1,2,1:2:0:0:
450,198,109135,6,0,B|374:194|384:245|291:238,1,160,0|10,1:2|0:2,0:2:0:0:
201,229,109760,2,0,P|207:267|215:313,1,80,2|0,1:2|0:2,0:2:0:0:
170,377,110177,1,2,1:2:0:0:
98,338,110385,2,0,P|92:300|84:254,1,80,10|2,0:2|0:2,0:0:0:0:
84,259,110697,1,2,0:2:0:0:
84,259,110802,6,0,P|45:249|5:240,1,80,2|2,1:2|0:2,0:0:0:0:
25,148,111218,2,0,P|64:158|104:167,1,80,10|2,0:2|1:2,0:0:0:0:
186,70,111635,1,2,0:2:0:0:
258,112,111843,1,2,1:2:0:0:
336,79,112052,1,10,0:2:0:0:
399,133,112260,2,0,P|441:118|481:108,1,80,2|0,1:2|1:2,0:2:0:0:
499,200,112677,5,10,0:2:0:0:
478,277,112885,1,10,0:2:0:0:
455,351,113093,1,2,1:2:0:0:
348,378,113302,6,0,P|309:365|268:363,1,80,2|10,1:2|0:2,0:0:0:0:
174,306,113718,1,10,0:2:0:0:
176,286,113822,1,8,0:2:0:0:
180,266,113926,1,10,0:2:0:0:
184,246,114030,1,8,0:2:0:0:
186,225,114135,6,0,B|271:228|254:169|350:173,1,160,6|8,1:2|0:2,0:2:0:0:
428,108,114760,2,1,P|374:67|274:80,1,160,2|0,1:2|1:2,0:2:0:0:
220,6,115385,2,0,P|229:50|253:180,1,160,10|0,0:2|1:2,0:2:0:0:
267,276,116010,5,2,0:2:0:0:
343,290,116218,1,10,0:2:0:0:
419,304,116427,1,2,1:2:0:0:
478,211,116635,6,0,P|467:170|459:128,1,80,2|2,0:2|1:2,0:0:0:0:
378,150,117052,2,0,P|389:191|397:233,1,80,10|2,0:2|0:2,0:2:0:0:
294,352,117468,6,1,B|216:333|224:387|135:369,1,160,2|8,1:2|0:2,0:2:0:0:
38,384,118093,2,0,P|28:315|6:203,1,160,2|0,1:2|1:2,0:2:0:0:
91,122,118718,2,0,P|101:191|123:303,1,160,10|0,0:2|1:2,0:2:0:0:
194,358,119343,5,2,0:2:0:0:
259,303,119552,1,10,0:2:0:0:
340,328,119760,1,2,1:2:0:0:
475,257,120177,5,2,1:2:0:0:
491,179,120385,2,0,P|478:137|465:85,1,80,10|2,0:2|1:2,0:2:0:0:
492,17,120802,6,0,P|413:13|344:97,1,160,4|10,1:2|0:2,0:2:0:0:
286,0,121427,2,0,P|299:63|319:184,1,160,2|2,1:2|1:2,0:2:0:0:
378,220,122052,1,10,0:2:0:0:
331,301,122260,1,2,1:2:0:0:
331,301,122364,1,0,1:2:0:0:
331,301,122468,6,1,P|282:292|235:281,1,80,0|0,1:2|0:2,0:2:0:0:
198,370,122885,1,10,0:2:0:0:
97,345,123093,2,0,B|68:275|105:310|68:205,1,120,2|0,1:2|0:0,0:2:0:0:
75,228,123510,2,0,P|81:188|89:137,1,80,2|8,1:2|0:2,0:0:0:0:
30,94,123927,1,2,0:2:0:0:
140,22,124135,6,0,P|152:65|164:119,1,80,0|0,1:2|1:2,0:0:0:0:
256,115,124552,2,0,P|244:72|232:18,1,80,8|0,0:2|1:2,0:0:0:0:
351,45,124968,6,0,P|394:33|448:21,1,80,8|8,0:2|0:2,0:0:0:0:
454,112,125385,1,8,0:2:0:0:
434,117,125489,1,0,1:2:0:0:
415,122,125593,1,0,1:2:0:0:
396,127,125697,1,0,1:2:0:0:
376,132,125801,1,8,0:2:0:0:
232,128,134135,6,0,B|298:135|285:89|360:99,1,128,2|8,1:2|0:2,0:2:0:0:
423,45,134760,2,0,P|405:111|387:192,1,128,10|2,0:2|1:2,0:0:0:0:
360,238,135385,1,10,0:2:0:0:
355,249,135593,1,2,0:2:0:0:
398,339,135802,6,0,P|346:303|258:324,1,128,2|8,1:2|0:2,0:2:0:0:
212,372,136427,1,10,0:2:0:0:
212,372,136843,5,0,1:2:0:0:
134,330,137052,2,0,P|145:286|160:231,1,64,8|0,0:2|0:0,0:0:0:0:
124,181,137468,6,0,P|64:182|8:95,1,128,2|8,1:2|0:2,0:2:0:0:
56,56,138093,2,0,P|116:55|172:142,1,128,10|2,0:2|1:2,0:0:0:0:
233,147,138718,1,10,0:2:0:0:
230,158,138927,1,2,0:2:0:0:
300,86,139135,6,0,P|365:72|460:44,1,128,2|8,1:2|0:2,0:2:0:0:
473,204,139760,2,0,P|408:218|313:246,1,128,10|0,0:2|1:2,0:0:0:0:
386,144,140385,1,8,0:2:0:0:
303,330,140802,6,0,P|244:338|161:267,1,128,2|8,1:2|0:2,0:2:0:0:
205,203,141427,2,0,P|264:195|347:266,1,128,10|2,0:2|1:2,0:0:0:0:
390,315,142052,1,10,0:2:0:0:
393,328,142260,1,2,0:2:0:0:
471,266,142468,6,0,P|469:210|442:106,1,128,2|8,1:2|0:2,0:2:0:0:
512,63,143093,2,0,P|434:74|370:7,1,128,10|0,0:2|1:2,0:0:0:0:
394,50,143718,1,8,0:2:0:0:
256,144,144135,6,0,B|271:219|243:197|264:289,1,128,2|8,1:2|0:2,0:2:0:0:
307,346,144760,2,0,P|241:310|155:325,1,128,10|2,0:2|1:2,0:0:0:0:
103,376,145385,1,10,0:2:0:0:
96,384,145593,1,2,0:2:0:0:
5,310,145802,2,0,P|9:266|17:205,1,96,2|0,1:2|0:2,0:2:0:0:
19,201,146218,1,8,0:2:0:0:
16,112,146427,2,0,P|90:110|151:40,1,128,10|0,0:2|1:2,0:0:0:0:
168,3,147052,1,8,0:2:0:0:
225,159,147468,6,1,P|234:209|247:280,1,107.999996704102,2|0,1:2|0:0,0:2:0:0:
248,277,147885,1,8,0:2:0:0:
203,368,148093,2,0,P|251:331|341:326,1,143.999995605469,10|2,0:2|1:2,0:2:0:0:
414,289,148718,1,10,0:2:0:0:
461,360,148927,1,2,0:2:0:0:
414,289,149135,6,0,P|426:224|457:124,1,143.999995605469,2|8,1:2|0:2,0:2:0:0:
375,39,149760,2,0,P|354:108|341:178,1,143.999995605469,10|0,0:2|1:2,0:2:0:0:
341,178,150385,1,8,0:2:0:0:
229,63,150802,6,0,B|176:62|186:91|121:86,1,107.999996704102,2|0,1:2|0:0,0:2:0:0:
115,82,151218,1,8,0:2:0:0:
25,60,151427,2,0,P|89:136|81:194,1,143.999995605469,10|2,0:2|1:2,0:2:0:0:
31,232,152052,2,0,P|41:278|52:328,1,71.9999978027344,10|2,0:2|0:2,0:0:0:0:
0,384,152468,6,0,B|45:361|84:344|84:344|162:372,1,143.999995605469,2|8,1:2|0:2,0:2:0:0:
216,328,153093,2,0,P|241:266|229:202,1,107.999996704102,10|0,0:2|0:0,0:2:0:0:
234,218,153510,1,0,1:2:0:0:
165,169,153718,2,0,P|196:143|229:134,1,71.9999978027344,8|2,0:2|0:2,0:2:0:0:
272,25,154135,6,0,P|304:68|391:47,1,143.999995605469,2|8,1:2|0:2,0:2:0:0:
467,140,154760,2,0,P|435:183|348:162,1,143.999995605469,10|2,0:2|1:2,0:2:0:0:
267,228,155385,1,10,0:2:0:0:
287,303,155593,1,2,0:2:0:0:
303,384,155802,6,0,P|244:370|204:363,1,71.9999978027344,2|0,1:2|0:0,0:2:0:0:
163,316,156218,1,8,0:2:0:0:
83,358,156427,2,0,P|69:300|50:233,1,107.999996704102,10|0,0:2|0:2,0:2:0:0:
51,240,156843,1,2,1:2:0:0:
79,165,157052,1,10,0:2:0:0:
28,104,157260,1,2,1:2:0:0:
45,23,157468,6,0,P|96:15|140:6,1,88.000002685547,14|0,0:2|1:2,0:0:0:0:
249,61,157885,2,0,P|257:112|266:156,1,88.000002685547,8|0,0:2|1:2,0:0:0:0:
178,200,158302,6,0,P|170:149|161:105,1,88.000002685547,8|0,0:2|1:2,0:0:0:0:
249,61,158718,2,0,P|300:53|344:44,1,88.000002685547,8|0,0:2|1:2,0:0:0:0:
481,118,159135,5,8,0:2:0:0:
464,198,159343,1,0,1:2:0:0:
447,278,159552,1,8,0:2:0:0:
300,242,159760,6,0,P|351:227|403:211,1,88.000002685547,0|8,1:2|0:2,0:0:0:0:
317,353,160177,1,0,1:2:0:0:
216,329,160385,2,0,P|201:278|185:226,1,88.000002685547,8|0,0:2|1:2,0:2:0:0:
251,147,160802,6,0,P|270:112|256:57,1,88.000002685547,12|8,0:2|0:2,0:2:0:0:
256,59,161114,1,8,0:2:0:0:
248,53,161218,1,8,0:2:0:0:
142,49,161427,2,0,P|123:84|137:139,1,88.000002685547,4|8,1:2|0:2,0:0:0:0:
137,137,161739,1,8,0:2:0:0:
147,140,161843,1,8,0:2:0:0:
157,139,161947,1,8,0:2:0:0:
164,133,162052,2,0,P|213:141|259:148,1,88.000002685547,0|0,1:2|1:2,0:2:0:0:
264,150,162364,1,0,1:2:0:0:
277,153,162468,5,12,0:2:0:0:
0,320,164135,5,4,1:2:0:0:
212,370,165177,5,10,0:2:0:0:
212,370,165281,1,8,0:2:0:0:
212,370,165385,2,0,L|220:327,3,40,10|8|10|8,0:2|0:2|0:2|0:2,0:0:0:0:
224,317,165802,6,0,P|280:322|346:291,1,120,6|0,1:2|0:0,0:0:0:0:
349,291,166218,1,8,0:2:0:0:
409,224,166427,2,0,P|430:261|435:311,1,80,2|0,1:2|0:0,0:0:0:0:
327,203,166843,5,0,1:2:0:0:
382,140,167052,2,0,B|291:153|323:190|221:204,1,160,10|0,0:2|1:2,0:2:0:0:
164,318,167677,5,2,0:2:0:0:
99,264,167885,1,10,0:2:0:0:
17,291,168093,1,2,1:2:0:0:
82,346,168302,5,2,0:2:0:0:
99,264,168510,1,2,1:2:0:0:
71,184,168718,2,0,P|59:144|44:95,1,80,10|2,0:2|0:2,0:2:0:0:
118,35,169135,6,0,P|162:58|248:46,1,120,2|0,1:2|0:0,0:2:0:0:
242,48,169552,1,8,0:2:0:0:
309,0,169760,2,1,P|324:44|316:90,1,80,2|0,1:2|0:0,0:2:0:0:
249,199,170177,1,0,1:2:0:0:
178,140,170385,2,0,P|204:226|227:321,1,160,10|0,0:2|1:2,0:2:0:0:
295,383,171010,5,2,0:2:0:0:
354,322,171218,1,10,0:2:0:0:
433,349,171427,1,2,1:2:0:0:
498,223,171843,5,2,1:2:0:0:
471,141,172052,2,0,P|460:95|449:52,1,80,10|2,0:2|1:2,0:2:0:0:
460,45,172364,1,0,1:2:0:0:
482,50,172468,6,1,P|399:67|326:15,1,160,4|10,1:2|0:2,0:2:0:0:
236,7,173093,2,0,P|254:71|280:179,1,160,2|2,1:2|1:2,0:2:0:0:
362,198,173718,1,10,0:2:0:0:
340,296,173927,1,2,1:2:0:0:
340,296,174031,1,0,1:2:0:0:
340,296,174135,2,0,B|260:296|276:343|184:343,1,160,0|10,1:2|0:2,0:2:0:0:
106,382,174760,6,0,P|48:343|68:257,1,160,2|2,1:2|1:2,0:2:0:0:
0,192,175385,2,0,P|48:180|103:162,1,80,10|2,0:2|0:2,0:0:0:0:
145,67,175802,5,2,1:2:0:0:
226,87,176010,1,2,0:2:0:0:
305,112,176218,2,0,P|366:97|401:84,1,80,10|2,0:2|1:2,0:0:0:0:
481,213,176635,5,2,0:2:0:0:
404,206,176843,1,2,1:2:0:0:
342,255,177052,1,10,0:2:0:0:
321,332,177260,2,0,P|280:340|231:353,1,80,2|0,1:2|1:2,0:2:0:0:
128,286,177677,5,10,0:2:0:0:
49,334,177885,2,0,P|41:293|28:244,1,80,10|2,0:2|1:2,0:0:0:0:
72,180,178302,1,2,1:2:0:0:
15,98,178510,1,10,0:2:0:0:
26,81,178614,1,8,0:2:0:0:
40,68,178718,1,10,0:2:0:0:
58,58,178822,1,8,0:2:0:0:
78,54,178926,1,10,0:2:0:0:
97,54,179030,1,8,0:2:0:0:
117,59,179135,6,0,B|143:66|160:87|160:87|223:93|264:41,1,160,6|8,1:2|0:2,0:2:0:0:
323,1,179760,2,1,P|311:78|293:184,1,160,2|0,1:2|1:2,0:2:0:0:
236,231,180385,2,0,P|301:291|396:261,1,160,10|0,0:2|1:2,0:2:0:0:
470,257,181010,5,2,0:2:0:0:
488,185,181218,1,10,0:2:0:0:
506,110,181427,1,2,1:2:0:0:
434,18,181635,5,2,0:2:0:0:
374,75,181843,1,2,1:2:0:0:
299,40,182052,2,0,P|254:57|209:74,1,80,10|2,0:2|0:2,0:2:0:0:
142,24,182468,6,1,P|188:79|188:180,1,160,2|8,1:2|0:2,0:2:0:0:
171,256,183093,2,0,P|244:235|318:217,1,120,2|0,1:2|0:0,0:2:0:0:
298,221,183510,1,0,1:2:0:0:
329,303,183718,2,0,P|248:323|152:349,1,160,10|0,0:2|1:2,0:2:0:0:
87,382,184343,5,2,0:2:0:0:
36,318,184552,1,10,0:2:0:0:
63,242,184760,1,2,1:2:0:0:
208,178,185177,5,2,1:2:0:0:
250,103,185385,2,0,P|238:60|228:15,1,80,10|2,0:2|1:2,0:2:0:0:
311,0,185802,6,0,P|335:86|355:176,1,160,4|10,1:2|0:2,0:2:0:0:
288,208,186427,1,2,1:2:0:0:
409,327,186843,5,2,1:2:0:0:
476,286,187051,1,10,0:2:0:0:
472,368,187260,1,2,1:2:0:0:
452,322,187468,6,1,B|366:302|380:359|292:341,1,160,0|10,1:2|0:2,0:2:0:0:
211,384,188093,2,0,P|194:316|177:243,1,120,2|0,1:2|0:0,0:2:0:0:
177,253,188510,1,2,1:2:0:0:
236,191,188718,2,0,P|266:219|256:268,1,80,8|2,0:2|1:2,0:0:0:0:
363,290,189135,6,0,P|368:257|376:200,1,80,8|0,0:2|1:2,0:0:0:0:
466,182,189552,2,0,P|471:149|479:92,1,80,8|0,0:2|1:2,0:0:0:0:
410,21,189968,6,0,P|377:16|320:8,1,80,8|0,0:2|1:2,0:0:0:0:
267,106,190385,2,0,P|234:101|177:93,1,80,8|0,0:2|1:2,0:0:0:0:
89,52,190802,5,8,0:2:0:0:
45,142,191010,1,10,0:2:0:0:
45,142,191114,1,8,0:2:0:0:
45,142,191218,2,0,P|26:138|6:135,2,40,10|8|10,0:2|0:2|0:2,0:2:0:0:
132,182,191635,6,0,P|121:220|112:259,1,80,6|10,1:2|0:2,0:2:0:0:
108,270,191947,1,8,0:2:0:0:
104,284,192052,1,10,0:2:0:0:
102,298,192156,1,8,0:2:0:0:
103,311,192260,1,10,0:2:0:0:
109,326,192364,1,8,0:2:0:0:
120,340,192468,6,0,P|177:323|259:299,1,120,6|0,1:2|0:2,0:2:0:0:
247,302,192885,1,12,0:2:0:0:
320,360,193093,1,0,1:2:0:0:
410,333,193302,2,0,P|419:291|431:249,1,80,2|0,0:2|1:2,0:0:0:0:
432,248,193614,1,2,0:2:0:0:
439,240,193718,1,8,0:2:0:0:
438,158,193927,1,2,1:2:0:0:
507,195,194135,6,0,P|452:197|336:141,1,160,2|8,1:2|0:2,0:2:0:0:
285,101,194760,2,0,P|269:145|270:185,1,80,2|0,1:2|0:2,0:2:0:0:
312,288,195177,1,0,1:2:0:0:
252,359,195385,2,0,P|206:347|161:335,1,80,10|2,0:2|0:2,0:0:0:0:
95,378,195802,6,0,P|80:310|66:244,1,120,2|0,1:2|0:0,0:2:0:0:
66,247,196218,1,8,0:2:0:0:
0,201,196427,2,0,P|69:193|143:116,1,160,2|0,1:2|1:2,0:2:0:0:
241,71,197052,2,0,P|231:110|223:157,1,80,8|2,0:2|0:2,0:0:0:0:
269,210,197468,5,0,1:2:0:0:
196,253,197677,1,2,0:2:0:0:
187,264,197781,1,2,0:2:0:0:
185,280,197885,2,0,P|190:303|194:323,2,40,10|2|2,0:2|0:2|1:2,0:0:0:0:
267,369,198302,5,2,0:2:0:0:
276,357,198406,1,2,0:2:0:0:
288,349,198510,1,2,1:2:0:0:
301,345,198614,1,2,0:2:0:0:
317,349,198718,2,0,P|363:360|398:374,1,80,10|2,0:2|1:2,0:2:0:0:
480,335,199135,6,0,B|486:260|445:278|447:167,1,160,6|8,1:2|0:2,0:2:0:0:
505,120,199760,2,1,P|491:83|478:34,1,80,2|0,1:2|0:2,0:2:0:0:
375,9,200177,1,2,1:2:0:0:
312,68,200385,2,0,P|252:71|233:167,1,160,10|2,0:2|1:2,0:0:0:0:
304,290,201218,5,8,0:2:0:0:
363,367,201427,2,1,P|297:346|189:321,1,160,2|0,1:2|1:2,0:2:0:0:
196,327,201947,1,0,0:0:0:0:
183,336,202052,1,8,0:2:0:0:
106,376,202260,1,0,0:2:0:0:
14,339,202468,6,0,P|3:273|35:207,1,120,2|0,1:2|0:0,0:2:0:0:
30,214,202885,1,10,0:2:0:0:
0,131,203093,2,0,P|53:176|161:182,1,160,2|0,1:2|1:2,0:2:0:0:
193,254,203718,2,0,P|234:258|288:275,1,80,8|2,0:2|1:2,0:2:0:0:
328,384,204135,5,8,0:2:0:0:
380,319,204343,1,2,1:2:0:0:
462,347,204552,1,10,0:2:0:0:
512,279,204760,5,2,1:2:0:0:
512,279,204864,1,0,0:0:0:0:
512,279,204968,2,0,P|497:234|483:190,1,80,10|10,0:2|0:2,0:0:0:0:
504,117,205385,1,10,0:2:0:0:
498,93,205489,1,8,0:2:0:0:
480,72,205593,1,10,0:2:0:0:
456,65,205697,1,8,0:2:0:0:
429,71,205802,6,0,P|364:87|287:106,1,120,6|0,1:2|0:2,0:2:0:0:
296,87,206218,1,10,0:2:0:0:
225,38,206427,2,0,P|210:84|224:130,1,80,2|0,1:2|0:0,0:2:0:0:
305,211,206843,1,2,1:2:0:0:
265,285,207052,2,0,P|226:297|184:311,1,80,14|2,0:2|1:2,0:2:0:0:
118,371,207468,6,0,P|79:359|37:345,1,80,6|0,1:2|0:0,0:2:0:0:
26,341,207781,1,0,0:2:0:0:
13,357,207885,1,10,0:2:0:0:
94,273,208093,2,0,B|105:210|72:223|86:149,1,120,2|0,1:2|0:0,0:2:0:0:
97,144,208510,1,2,1:2:0:0:
108,47,208718,2,0,P|62:63|22:76,1,80,10|2,0:2|1:2,0:2:0:0:
186,113,209135,6,0,P|219:138|306:128,1,120,6|0,1:2|0:0,0:2:0:0:
305,131,209552,1,10,0:2:0:0:
387,163,209760,2,0,P|393:127|380:84,1,80,2|2,1:2|0:2,0:2:0:0:
321,251,210177,5,2,1:2:0:0:
404,274,210386,2,0,P|446:261|493:248,1,80,10|2,0:2|1:2,0:2:0:0:
502,350,210802,6,0,B|419:337|432:382|332:363,1,160,4|8,1:2|0:2,0:0:0:0:
277,322,211427,1,0,1:2:0:0:
212,377,211635,2,0,P|177:363|126:351,1,80,8|0,0:2|1:2,0:0:0:0:
125,353,211947,1,0,0:0:0:0:
117,363,212052,1,8,0:2:0:0:
26,345,212260,5,8,0:2:0:0:
18,336,212364,1,8,0:2:0:0:
8,326,212468,2,0,B|-14:234|46:268|15:156,1,160,4|8,1:2|0:2,0:2:0:0:
0,85,213093,2,0,P|88:126|147:106,1,160,2|2,1:2|1:2,0:2:0:0:
153,98,213614,1,2,0:2:0:0:
163,87,213718,1,10,0:2:0:0:
234,38,213927,1,2,0:2:0:0:
299,97,214135,6,0,P|287:138|280:197,1,80,2|2,1:2|0:2,0:0:0:0:
213,238,214552,1,10,0:2:0:0:
248,321,214760,2,0,P|320:326|397:373,1,160,2|2,1:2|1:2,0:2:0:0:
478,347,215385,2,0,P|488:308|485:262,1,80,10|2,0:2|1:2,0:0:0:0:
415,213,215802,6,0,P|403:167|394:120,1,80,10|10,0:2|0:2,0:2:0:0:
399,122,216115,1,8,0:2:0:0:
402,107,216219,1,8,0:2:0:0:
353,29,216427,1,4,1:2:0:0:
264,63,216635,5,10,0:2:0:0:
254,73,216739,1,8,0:2:0:0:
241,82,216843,2,0,P|220:80|199:74,2,40,8|8|4,0:2|0:2|1:2,0:0:0:0:
306,152,217260,5,10,0:2:0:0:
303,164,217364,1,8,0:2:0:0:
299,177,217468,2,0,P|309:213|320:266,1,80,2|10,1:2|0:2,0:2:0:0:
323,268,217781,1,8,0:2:0:0:
331,280,217885,2,0,P|360:285|381:290,2,40,10|8|2,0:2|0:2|1:2,0:2:0:0:
260,359,218302,5,10,0:2:0:0:
245,352,218406,1,8,0:2:0:0:
230,347,218510,2,0,L|222:299,2,40,10|8|10,0:2|0:2|0:2,0:0:0:0:
138,382,218927,2,0,L|130:334,2,40,10|8|2,0:2|0:2|0:2,0:0:0:0:
256,192,219900,12,0,226566,0:0:0:0:
