osu file format v14

[General]
AudioFilename: audio.mp3
AudioLeadIn: 0
PreviewTime: 45958
Countdown: 0
SampleSet: Soft
StackLeniency: 0.7
Mode: 0
LetterboxInBreaks: 0
EpilepsyWarning: 1
WidescreenStoryboard: 1

[Editor]
Bookmarks: 7468,20802,21739,34135,47468,74135,77885,87468,87572,87677,87781,87885,87989,88093,88197,88302,88406,88510,88614,88718,88822,88927,89031,89135,89239,89343,89447,89552,89656,89760,89864,89968,90072,90177,90281,90385,90489,90593,90697,90802,90906,91010,91114,91218,91322,91427,91531,91635,91739,91843,91947,92052,92156,92260,92364,92468,92572,92677,92781,92885,92989,93093,93197,93302,93406,93510,93614,93718,93822,93927,94031,94135,100802,127468,127677,127885,128093,128302,128510,128718,128927,129135,129343,129552,129760,129968,130177,130385,130593,130802,131010,131218,131427,131635,131843,132052,132260,132468,132677,132885,133093,133302,133510,133718,133927,134135,140802,147468,157468,165802,192468,205802,219135
DistanceSpacing: 0.8
BeatDivisor: 4
GridSize: 32
TimelineZoom: 1.700001

[Metadata]
Title:HOT
TitleUnicode:HOT
Artist:vivid undress
ArtistUnicode:vivid undress
Creator:Elinor
Version:KYUTEI'S INSANE
Source:
Tags:eli [_eli_] shikibe mayu kazato asa shizuku- mocaotic kyutei Anya_Melfissa Anya Melfissa j-pop jpop japanese english pop 混在ニューウェーブ konzai new wave female vocalist
BeatmapID:3085013
BeatmapSetID:1440156

[Difficulty]
HPDrainRate:5
CircleSize:4.4
OverallDifficulty:8
ApproachRate:8.8
SliderMultiplier:1.8
SliderTickRate:1

[Events]
//Background and Video events
0,0,"bg.jpg",0,0
//Break Periods
2,87669,93506
2,127468,133506
//Storyboard Layer 0 (Background)
//Storyboard Layer 1 (Fail)
//Storyboard Layer 2 (Pass)
//Storyboard Layer 3 (Foreground)
//Storyboard Layer 4 (Overlay)
//Storyboard Sound Samples

[TimingPoints]
802,416.666666666667,4,2,1,60,1,0
7468,-83.3333333333333,4,2,1,60,0,0
7781,-100,4,2,1,5,0,0
7885,-100,4,2,1,60,0,0
8822,-100,4,2,1,5,0,0
8927,-83.3333333333333,4,2,1,60,0,0
9239,-100,4,2,1,5,0,0
9343,-100,4,2,1,60,0,0
9968,-83.3333333333333,4,2,1,60,0,0
10281,-100,4,2,1,5,0,0
10385,-83.3333333333333,4,2,1,60,0,0
11114,-100,4,2,1,5,0,0
11218,-100,4,2,1,60,0,0
12156,-100,4,2,1,5,0,0
12260,-83.3333333333333,4,2,1,60,0,0
12572,-100,4,2,1,5,0,0
12677,-100,4,2,1,60,0,0
13302,-83.3333333333333,4,2,1,60,0,0
13614,-100,4,2,1,5,0,0
13718,-76.9230769230769,4,2,1,60,0,0
14447,-100,4,2,1,5,0,0
14552,-90.9090909090909,4,2,1,60,0,0
15281,-100,4,2,1,5,0,0
15385,-76.9230769230769,4,2,1,60,0,0
16114,-100,4,2,1,5,0,0
16218,-90.9090909090909,4,2,1,60,0,0
16947,-100,4,2,1,5,0,0
17052,-90.9090909090909,4,2,1,60,0,0
17260,-76.9230769230769,4,2,1,60,0,0
17364,-76.9230769230769,4,2,1,5,0,0
17468,-111.111111111111,4,2,1,60,0,0
18822,-111.111111111111,4,2,1,5,0,0
18927,-111.111111111111,4,2,1,60,0,0
19031,-111.111111111111,4,2,1,5,0,0
19135,-111.111111111111,4,2,1,60,0,0
20489,-111.111111111111,4,2,1,5,0,0
20593,-111.111111111111,4,2,1,60,0,0
20697,-111.111111111111,4,2,1,5,0,0
20802,-83.3333333333333,4,2,1,70,0,0
23614,-100,4,2,1,5,0,0
23718,-100,4,2,1,70,0,0
24552,-83.3333333333333,4,2,1,70,0,0
24864,-100,4,2,1,5,0,0
24968,-71.4285714285714,4,2,1,70,0,0
25489,-71.4285714285714,4,2,1,5,0,0
25593,-83.3333333333333,4,2,1,70,0,0
25906,-100,4,2,1,5,0,0
26010,-71.4285714285714,4,2,1,70,0,0
26739,-71.4285714285714,4,2,1,5,0,0
26843,-71.4285714285714,4,2,1,70,0,0
27052,-83.3333333333333,4,2,1,70,0,0
27364,-100,4,2,1,5,0,0
27468,-76.9230769230769,4,2,1,70,0,0
27781,-100,4,2,1,5,0,0
27885,-90.9090909090909,4,2,1,70,0,0
28614,-100,4,2,1,5,0,0
28718,-76.9230769230769,4,2,1,70,0,0
29447,-100,4,2,1,5,0,0
29552,-90.9090909090909,4,2,1,70,0,0
30281,-100,4,2,1,5,0,0
30385,-111.111111111111,4,2,1,70,0,0
33406,-111.111111111111,4,2,1,5,0,0
33510,-111.111111111111,4,2,1,70,0,0
34135,-125,4,2,1,80,0,0
34968,-83.3333333333333,4,2,1,80,0,0
35281,-100,4,2,1,5,0,0
35385,-83.3333333333333,4,2,1,80,0,0
36218,-83.3333333333333,4,2,1,80,0,0
38614,-100,4,2,1,5,0,0
38718,-71.4285714285714,4,2,1,80,0,0
38822,-71.4285714285714,4,2,1,5,0,0
38927,-66.6666666666667,4,2,1,80,0,0
39239,-100,4,2,1,5,0,0
39343,-66.6666666666667,4,2,1,80,0,0
39656,-100,4,2,1,5,0,0
39760,-66.6666666666667,4,2,1,80,0,0
40177,-111.111111111111,4,2,1,80,0,0
40281,-111.111111111111,4,2,1,5,0,0
40385,-111.111111111111,4,2,1,80,0,0
40489,-111.111111111111,4,2,1,5,0,0
40593,-83.3333333333333,4,2,1,80,0,0
40906,-100,4,2,1,5,0,0
41010,-83.3333333333333,4,2,1,80,0,0
41322,-83.3333333333333,4,2,1,5,0,0
41427,-83.3333333333333,4,2,1,80,0,0
41739,-100,4,2,1,5,0,0
41843,-62.5,4,2,1,80,0,0
42156,-62.5,4,2,1,5,0,0
42260,-76.3358778625954,4,2,1,80,0,0
42572,-100,4,2,1,5,0,0
42677,-62.5,4,2,1,80,0,0
42989,-62.5,4,2,1,5,0,0
43093,-76.3358778625954,4,2,1,80,0,0
43406,-100,4,2,1,5,0,0
43510,-76.3358778625954,4,2,1,80,0,0
44031,-100,4,2,1,5,0,0
44135,-71.4285714285714,4,2,1,80,0,0
45072,-71.4285714285714,4,2,1,5,0,0
45177,-83.3333333333333,4,2,1,80,0,0
47468,-71.4285714285714,4,2,1,90,0,1
47781,-100,4,2,1,5,0,0
47885,-71.4285714285714,4,2,1,90,0,0
48093,-55.5555555555556,4,2,1,90,0,1
48406,-100,4,2,1,5,0,0
48510,-55.5555555555556,4,2,1,90,0,0
48718,-50,4,2,1,90,0,1
49135,-71.4285714285714,4,2,1,90,0,0
49447,-71.4285714285714,4,2,1,5,0,0
49552,-71.4285714285714,4,2,1,90,0,0
50385,-111.111111111111,4,2,1,90,0,0
50489,-111.111111111111,4,2,1,5,0,0
50593,-111.111111111111,4,2,1,90,0,0
50697,-111.111111111111,4,2,1,5,0,0
50802,-71.4285714285714,4,2,1,90,0,1
51114,-100,4,2,1,5,0,0
51218,-71.4285714285714,4,2,1,90,0,0
51427,-55.5555555555556,4,2,1,90,0,1
51739,-100,4,2,1,5,0,0
51843,-55.5555555555556,4,2,1,90,0,0
52052,-50,4,2,1,90,0,1
52468,-71.4285714285714,4,2,1,90,0,0
53093,-83.3333333333333,4,2,1,90,0,0
53406,-100,4,2,1,5,0,0
53510,-83.3333333333333,4,2,1,90,0,0
54135,-71.4285714285714,4,2,1,90,0,0
54447,-100,4,2,1,5,0,0
54552,-71.4285714285714,4,2,1,90,0,0
55072,-100,4,2,1,5,0,0
55177,-111.111111111111,4,2,1,90,0,0
55281,-111.111111111111,4,2,1,5,0,0
55385,-68.9655172413793,4,2,1,90,0,0
55489,-68.9655172413793,4,2,1,5,0,0
55593,-62.5,4,2,1,90,0,0
56114,-100,4,2,1,5,0,0
56218,-71.4285714285714,4,2,1,90,0,0
56739,-100,4,2,1,5,0,0
56843,-71.4285714285714,4,2,1,90,0,0
57260,-62.5,4,2,1,90,0,1
58927,-111.111111111111,4,2,1,90,0,0
59031,-111.111111111111,4,2,1,5,0,0
59135,-68.9655172413793,4,2,1,90,0,0
59239,-68.9655172413793,4,2,1,5,0,0
59343,-68.9655172413793,4,2,1,90,0,0
60177,-111.111111111111,4,2,1,90,0,0
60802,-71.4285714285714,4,2,1,90,0,1
61114,-100,4,2,1,5,0,0
61219,-71.4285714285714,4,2,1,90,0,0
61427,-55.5555555555556,4,2,1,90,0,1
61739,-100,4,2,1,5,0,0
61844,-55.5555555555556,4,2,1,90,0,0
62052,-50,4,2,1,90,0,1
62468,-71.4285714285714,4,2,1,90,0,0
62781,-71.4285714285714,4,2,1,5,0,0
62885,-71.4285714285714,4,2,1,90,0,0
64135,-62.5,4,2,1,90,0,1
64447,-100,4,2,1,5,0,0
64552,-62.5,4,2,1,90,0,0
64760,-62.5,4,2,1,90,0,1
65072,-100,4,2,1,5,0,0
65177,-62.5,4,2,1,90,0,0
65385,-50,4,2,1,90,0,1
65802,-71.4285714285714,4,2,1,90,0,0
66427,-83.3333333333333,4,2,1,90,0,0
66739,-100,4,2,1,5,0,0
66843,-83.3333333333333,4,2,1,90,0,0
67053,-111.111111111111,4,2,1,90,0,0
67468,-71.4285714285714,4,2,1,90,0,0
67781,-100,4,2,1,5,0,0
67885,-71.4285714285714,4,2,1,90,0,0
68406,-100,4,2,1,5,0,0
68510,-99.9999999999999,4,2,1,90,0,0
68614,-99.9999999999999,4,2,1,5,0,0
68718,-68.9655172413793,4,2,1,90,0,0
68822,-68.9655172413793,4,2,1,5,0,0
68927,-68.9655172413793,4,2,1,90,0,0
69135,-71.4285714285714,4,2,1,90,0,0
69447,-71.4285714285714,4,2,1,5,0,0
69552,-62.5,4,2,1,90,0,0
69760,-100,4,2,1,90,0,0
70072,-100,4,2,1,5,0,0
70177,-100,4,2,1,90,0,0
70593,-62.5,4,2,1,90,0,0
70802,-62.5,4,2,1,90,0,1
72468,-62.5,4,2,1,100,0,0
72572,-62.5,4,2,1,5,0,0
72677,-133.333333333333,4,2,1,100,0,0
73718,-111.111111111111,4,2,1,100,0,0
74135,-111.111111111111,4,2,1,60,0,0
74864,-100,4,2,1,5,0,0
74968,-111.111111111111,4,2,1,60,0,0
75281,-111.111111111111,4,2,1,5,0,0
75385,-62.5,4,2,1,60,0,0
75802,-83.3333333333333,4,2,1,70,0,0
76635,-71.4285714285714,4,2,1,70,0,0
76947,-100,4,2,1,5,0,0
77052,-100,4,2,1,70,0,0
77885,-71.4285714285714,4,2,1,70,0,0
78197,-100,4,2,1,5,0,0
78302,-71.4285714285714,4,2,1,70,0,0
78927,-62.5,4,2,1,70,0,0
79239,-100,4,2,1,5,0,0
79343,-50,4,2,1,70,0,0
79968,-100,4,2,1,70,0,0
80385,-83.3333333333333,4,2,1,70,0,0
80697,-100,4,2,1,5,0,0
80802,-71.4285714285714,4,2,1,70,0,0
81114,-100,4,2,1,5,0,0
81218,-71.4285714285714,4,2,1,70,0,0
81635,-83.3333333333333,4,2,1,70,0,0
81947,-100,4,2,1,5,0,0
82052,-83.3333333333333,4,2,1,70,0,0
82468,-71.4285714285714,4,2,1,70,0,0
82781,-100,4,2,1,5,0,0
82885,-71.4285714285714,4,2,1,70,0,0
83302,-83.3333333333333,4,2,1,70,0,0
83614,-100,4,2,1,5,0,0
83718,-83.3333333333333,4,2,1,70,0,0
84968,-100,4,2,1,70,0,0
86739,-100,4,2,1,5,0,0
86843,-100,4,2,1,70,0,0
87364,-100,4,2,1,5,0,0
87468,-100,4,2,1,60,0,0
94135,-111.111111111111,4,2,1,80,0,0
94760,-83.3333333333333,4,2,1,80,0,0
95072,-100,4,2,1,5,0,0
95177,-71.4285714285714,4,2,1,80,0,0
97052,-83.3333333333333,4,2,1,80,0,0
97364,-100,4,2,1,5,0,0
97468,-83.3333333333333,4,2,1,80,0,0
98510,-100,4,2,1,80,0,0
98822,-62.5,4,2,1,80,0,0
99239,-62.5,4,2,1,5,0,0
99343,-100,4,2,1,80,0,0
99864,-100,4,2,1,5,0,0
99968,-100,4,2,1,80,0,0
100489,-100,4,2,1,5,0,0
100593,-100,4,2,1,80,0,0
100802,-71.4285714285714,4,2,1,90,0,1
101114,-100,4,2,1,5,0,0
101219,-71.4285714285714,4,2,1,90,0,0
101427,-55.5555555555556,4,2,1,90,0,1
101739,-100,4,2,1,5,0,0
101844,-55.5555555555556,4,2,1,90,0,0
102052,-50,4,2,1,90,0,1
102468,-71.4285714285714,4,2,1,90,0,0
102781,-71.4285714285714,4,2,1,5,0,0
102885,-71.4285714285714,4,2,1,90,0,0
103718,-111.111111111111,4,2,1,90,0,0
103822,-111.111111111111,4,2,1,5,0,0
103927,-111.111111111111,4,2,1,90,0,0
104031,-111.111111111111,4,2,1,5,0,0
104135,-71.4285714285714,4,2,1,90,0,1
104447,-100,4,2,1,5,0,0
104552,-71.4285714285714,4,2,1,90,0,0
104760,-55.5555555555556,4,2,1,90,0,1
105072,-100,4,2,1,5,0,0
105177,-55.5555555555556,4,2,1,90,0,0
105385,-50,4,2,1,90,0,1
105802,-71.4285714285714,4,2,1,90,0,0
106114,-71.4285714285714,4,2,1,5,0,0
106218,-71.4285714285714,4,2,1,90,0,0
106427,-83.3333333333333,4,2,1,90,0,0
106739,-100,4,2,1,5,0,0
106843,-83.3333333333333,4,2,1,90,0,0
107053,-111.111111111111,4,2,1,90,0,0
107468,-71.4285714285714,4,2,1,90,0,0
107781,-100,4,2,1,5,0,0
107885,-71.4285714285714,4,2,1,90,0,0
107989,-71.4285714285714,4,2,1,5,0,0
108093,-58.8235294117647,4,2,1,90,0,0
108406,-100,4,2,1,5,0,0
108510,-111.111111111111,4,2,1,90,0,0
108614,-111.111111111111,4,2,1,5,0,0
108718,-68.9655172413793,4,2,1,90,0,0
108822,-68.9655172413793,4,2,1,5,0,0
108927,-71.4285714285714,4,2,1,90,0,0
109447,-100,4,2,1,5,0,0
109552,-58.8235294117647,4,2,1,90,0,0
110072,-100,4,2,1,5,0,0
110177,-58.8235294117647,4,2,1,90,0,0
110593,-62.5,4,2,1,90,0,1
112260,-111.111111111111,4,2,1,90,0,0
112364,-111.111111111111,4,2,1,5,0,0
112468,-68.9655172413793,4,2,1,90,0,0
112572,-68.9655172413793,4,2,1,5,0,0
112677,-68.9655172413793,4,2,1,90,0,0
113510,-111.111111111111,4,2,1,90,0,0
114135,-71.4285714285714,4,2,1,90,0,1
114447,-100,4,2,1,5,0,0
114553,-71.4285714285714,4,2,1,90,0,0
114760,-55.5555555555556,4,2,1,90,0,1
115072,-100,4,2,1,5,0,0
115178,-55.5555555555556,4,2,1,90,0,0
115385,-50,4,2,1,90,0,1
115802,-71.4285714285714,4,2,1,90,0,0
116114,-71.4285714285714,4,2,1,5,0,0
116218,-71.4285714285714,4,2,1,90,0,0
117468,-62.5,4,2,1,90,0,1
117781,-100,4,2,1,5,0,0
117885,-62.5,4,2,1,90,0,0
118093,-62.5,4,2,1,90,0,1
118406,-100,4,2,1,5,0,0
118510,-62.5,4,2,1,90,0,0
118718,-50,4,2,1,90,0,1
119135,-71.4285714285714,4,2,1,90,0,0
120072,-100,4,2,1,5,0,0
120177,-71.4285714285714,4,2,1,90,0,0
121114,-100,4,2,1,5,0,0
121218,-71.4285714285714,4,2,1,90,0,0
121322,-71.4285714285714,4,2,1,5,0,0
121427,-55.5555555555556,4,2,1,90,0,0
121739,-55.5555555555556,4,2,1,5,0,0
121843,-111.111111111111,4,2,1,90,0,0
121947,-111.111111111111,4,2,1,5,0,0
122052,-68.9655172413793,4,2,1,90,0,0
122156,-68.9655172413793,4,2,1,5,0,0
122260,-62.5,4,2,1,90,0,0
122781,-100,4,2,1,5,0,0
122885,-62.5,4,2,1,90,0,0
123093,-71.4285714285714,4,2,1,90,0,0
123406,-100,4,2,1,5,0,0
123510,-71.4285714285714,4,2,1,90,0,0
123614,-71.4285714285714,4,2,1,5,0,0
123718,-71.4285714285714,4,2,1,90,0,0
123822,-71.4285714285714,4,2,1,5,0,0
123927,-166.666666666667,4,2,1,90,0,1
124031,-166.666666666667,4,2,1,5,0,1
124135,-100,4,2,1,100,0,1
125489,-100,4,2,1,5,0,1
125593,-100,4,2,1,100,0,1
125802,-100,4,2,1,80,0,0
127468,-100,4,2,1,50,0,0
134135,-166.666666666667,4,2,1,60,0,0
134447,-100,4,2,1,5,0,0
134552,-166.666666666667,4,2,1,60,0,0
136114,-100,4,2,1,5,0,0
136218,-166.666666666667,4,2,1,60,0,0
137781,-100,4,2,1,5,0,0
137885,-166.666666666667,4,2,1,60,0,0
139447,-100,4,2,1,5,0,0
139552,-133.333333333333,4,2,1,60,0,0
141114,-100,4,2,1,5,0,0
141218,-133.333333333333,4,2,1,60,0,0
142781,-100,4,2,1,5,0,0
142885,-133.333333333333,4,2,1,60,0,0
144447,-100,4,2,1,5,0,0
144552,-133.333333333333,4,2,1,60,0,0
146114,-100,4,2,1,5,0,0
146218,-133.333333333333,4,2,1,60,0,0
147468,-71.4285714285714,4,2,1,70,0,0
147781,-100,4,2,1,5,0,0
147885,-100,4,2,1,70,0,0
149447,-100,4,2,1,5,0,0
149552,-100,4,2,1,70,0,0
151114,-100,4,2,1,5,0,0
151218,-100,4,2,1,70,0,0
152781,-100,4,2,1,5,0,0
152885,-100,4,2,1,70,0,0
154447,-100,4,2,1,5,0,0
154552,-100,4,2,1,70,0,0
155802,-83.3333333333333,4,2,1,70,0,0
156114,-100,4,2,1,5,0,0
156218,-100,4,2,1,70,0,0
156427,-71.4285714285714,4,2,1,70,0,0
156739,-100,4,2,1,5,0,0
156843,-71.4285714285714,4,2,1,70,0,0
157468,-125,4,2,1,100,0,0
159447,-125,4,2,1,5,0,0
159552,-166.666666666667,4,2,1,100,0,0
160802,-100,4,2,1,100,0,0
160906,-100,4,2,1,5,0,0
161010,-100,4,2,1,100,0,0
162156,-100,4,2,1,5,0,0
162260,-100,4,2,1,100,0,0
162468,-100,4,2,1,80,0,0
164135,-83.3333333333333,4,2,1,80,0,0
164239,-83.3333333333333,4,2,1,5,0,0
164343,-83.3333333333333,4,2,1,80,0,0
165385,-100,4,2,1,80,0,0
165802,-62.5,4,2,1,90,0,1
166114,-100,4,2,1,5,0,0
166219,-71.4285714285714,4,2,1,90,0,0
166427,-50,4,2,1,90,0,1
166739,-100,4,2,1,5,0,0
166844,-55.5555555555556,4,2,1,90,0,0
167052,-50,4,2,1,90,0,1
167468,-71.4285714285714,4,2,1,90,0,0
167781,-71.4285714285714,4,2,1,5,0,0
167885,-111.111111111111,4,2,1,90,0,0
168822,-111.111111111111,4,2,1,5,0,0
168927,-111.111111111111,4,2,1,90,0,0
169031,-111.111111111111,4,2,1,5,0,0
169135,-62.5,4,2,1,90,0,1
169447,-100,4,2,1,5,0,0
169552,-71.4285714285714,4,2,1,90,0,0
169760,-50,4,2,1,90,0,1
170072,-100,4,2,1,5,0,0
170177,-100,4,2,1,90,0,0
170281,-100,4,2,1,5,0,0
170385,-50,4,2,1,90,0,1
170802,-71.4285714285714,4,2,1,90,0,0
171114,-71.4285714285714,4,2,1,5,0,0
171218,-71.4285714285714,4,2,1,90,0,0
171427,-83.3333333333333,4,2,1,90,0,0
171739,-100,4,2,1,5,0,0
171843,-71.4285714285714,4,2,1,90,0,0
172781,-100,4,2,1,5,0,0
172885,-71.4285714285714,4,2,1,90,0,0
173093,-58.8235294117647,4,2,1,90,0,0
173406,-100,4,2,1,5,0,0
173511,-111.111111111111,4,2,1,90,0,0
173614,-111.111111111111,4,2,1,5,0,0
173719,-68.9655172413793,4,2,1,90,0,0
173822,-68.9655172413793,4,2,1,5,0,0
173927,-62.5,4,2,1,90,0,0
174447,-100,4,2,1,5,0,0
174552,-62.5,4,2,1,90,0,0
174760,-62.5,4,2,1,90,0,0
175072,-100,4,2,1,5,0,0
175177,-100,4,2,1,90,0,0
175593,-100,4,2,1,90,0,1
177260,-111.111111111111,4,2,1,90,0,0
177468,-68.9655172413793,4,2,1,90,0,0
177572,-68.9655172413793,4,2,1,5,0,0
177677,-68.9655172413793,4,2,1,90,0,0
178511,-111.111111111111,4,2,1,90,0,0
179135,-71.4285714285714,4,2,1,90,0,1
179447,-100,4,2,1,5,0,0
179553,-71.4285714285714,4,2,1,90,0,0
179760,-55.5555555555556,4,2,1,90,0,1
180072,-100,4,2,1,5,0,0
180178,-55.5555555555556,4,2,1,90,0,0
180385,-50,4,2,1,90,0,1
180802,-71.4285714285714,4,2,1,90,0,0
181114,-71.4285714285714,4,2,1,5,0,0
181218,-71.4285714285714,4,2,1,90,0,0
182468,-55.5555555555556,4,2,1,90,0,1
182781,-100,4,2,1,5,0,0
182885,-62.5,4,2,1,90,0,0
183093,-50,4,2,1,90,0,1
183406,-100,4,2,1,5,0,0
183510,-62.5,4,2,1,90,0,0
183718,-41.6666666666667,4,2,1,90,0,1
184135,-83.3333333333333,4,2,1,90,0,0
185072,-100,4,2,1,5,0,0
185177,-71.4285714285714,4,2,1,90,0,0
186114,-100,4,2,1,5,0,0
186218,-71.4285714285714,4,2,1,90,0,0
186739,-100,4,2,1,5,0,0
186843,-71.4285714285714,4,2,1,90,0,0
186947,-71.4285714285714,4,2,1,5,0,0
187052,-71.4285714285714,4,2,1,90,0,0
187156,-71.4285714285714,4,2,1,5,0,0
187260,-71.4285714285714,4,2,1,90,0,0
187468,-52.6315789473684,4,2,1,90,0,0
187781,-100,4,2,1,5,0,0
187885,-52.6315789473684,4,2,1,90,0,0
188093,-62.5,4,2,1,90,0,0
188406,-100,4,2,1,5,0,0
188510,-100,4,2,1,90,0,0
188614,-100,4,2,1,5,0,0
188718,-100,4,2,1,90,0,0
188822,-100,4,2,1,5,0,0
188927,-100,4,2,1,90,0,0
189031,-100,4,2,1,5,0,0
189135,-100,4,2,1,100,0,1
190802,-66.6666666666667,4,2,1,100,0,0
191010,-133.333333333333,4,2,1,100,0,0
192052,-111.111111111111,4,2,1,100,0,0
192468,-66.6666666666666,4,2,1,90,0,0
192781,-100,4,2,1,5,0,0
192885,-100,4,2,1,90,0,0
192989,-100,4,2,1,5,0,0
193093,-66.6666666666667,4,2,1,90,0,0
193197,-66.6666666666667,4,2,1,5,0,0
193302,-83.3333333333333,4,2,1,90,0,0
193406,-83.3333333333333,4,2,1,5,0,0
193510,-66.6666666666667,4,2,1,90,0,0
194447,-100,4,2,1,5,0,0
194552,-66.6666666666667,4,2,1,90,0,0
194760,-55.5555555555556,4,2,1,90,0,0
195072,-100,4,2,1,5,0,0
195177,-71.4285714285714,4,2,1,90,0,0
196114,-100,4,2,1,5,0,0
196218,-71.4285714285714,4,2,1,90,0,0
196739,-100,4,2,1,5,0,0
196843,-71.4285714285714,4,2,1,90,0,0
197468,-62.5,4,2,1,90,0,0
197572,-62.5,4,2,1,5,0,0
197677,-100,4,2,1,85,0,0
197885,-100,4,2,1,80,0,0
198093,-100,4,2,1,75,0,0
198302,-83.3333333333333,4,2,1,70,0,0
198510,-62.5,4,2,1,65,0,0
198718,-71.4285714285714,4,2,1,90,0,0
199031,-100,4,2,1,5,0,0
199135,-62.5,4,2,1,90,0,0
199447,-100,4,2,1,5,0,0
199552,-62.5,4,2,1,90,0,0
200072,-100,4,2,1,5,0,0
200177,-83.3333333333333,4,2,1,90,0,0
201114,-100,4,2,1,5,0,0
201218,-83.3333333333333,4,2,1,90,0,0
201427,-71.4285714285714,4,2,1,90,0,0
201739,-100,4,2,1,5,0,0
201843,-100,4,2,1,90,0,0
201947,-100,4,2,1,5,0,0
202052,-100,4,2,1,90,0,0
203093,-71.4285714285714,4,2,1,90,0,0
203406,-100,4,2,1,5,0,0
203510,-71.4285714285714,4,2,1,90,0,0
203822,-71.4285714285714,4,2,1,5,0,0
203927,-100,4,2,1,90,0,0
205802,-52.6315789473684,4,2,1,100,0,1
206114,-100,4,2,1,5,0,0
206218,-52.6315789473684,4,2,1,100,0,1
206322,-52.6315789473684,4,2,1,5,0,1
206427,-52.6315789473684,4,2,1,100,0,1
206739,-100,4,2,1,5,0,0
206843,-100,4,2,1,100,0,0
206947,-100,4,2,1,5,0,0
207052,-68.9655172413793,4,2,1,100,0,0
207156,-68.9655172413793,4,2,1,5,0,0
207260,-125,4,2,1,100,0,0
207364,-125,4,2,1,5,0,0
207468,-52.6315789473684,4,2,1,100,0,1
207781,-100,4,2,1,5,0,0
207885,-52.6315789473684,4,2,1,100,0,1
207989,-52.6315789473684,4,2,1,5,0,1
208093,-45.4545454545455,4,2,1,100,0,1
208406,-100,4,2,1,5,0,0
208510,-68.9655172413793,4,2,1,100,0,0
208822,-100,4,2,1,5,0,0
208926,-125,4,2,1,100,0,0
209031,-100,4,2,1,5,0,0
209135,-52.6315789473684,4,2,1,100,0,1
209447,-100,4,2,1,5,0,0
209552,-52.6315789473684,4,2,1,100,0,1
209656,-52.6315789473684,4,2,1,5,0,1
209760,-52.6315789473684,4,2,1,100,0,1
210072,-100,4,2,1,5,0,0
210177,-100,4,2,1,100,0,0
210281,-100,4,2,1,5,0,0
210386,-68.9655172413793,4,2,1,100,0,0
210489,-68.9655172413793,4,2,1,5,0,0
210593,-125,4,2,1,100,0,0
210697,-125,4,2,1,5,0,0
210802,-52.6315789473684,4,2,1,100,0,1
211114,-100,4,2,1,5,0,0
211218,-52.6315789473684,4,2,1,100,0,1
212468,-71.4285714285714,4,2,1,100,0,0
212781,-100,4,2,1,5,0,0
212885,-71.4285714285714,4,2,1,100,0,0
213093,-62.5,4,2,1,100,0,0
214552,-100,4,2,1,100,0,0
214760,-55.5555555555556,4,2,1,100,0,0
215072,-100,4,2,1,5,0,0
215177,-100,4,2,1,100,0,0
215802,-100,4,2,1,100,0,1
217468,-71.4285714285714,4,2,1,100,0,1
218093,-83.3333333333333,4,2,1,100,0,1
218302,-100,4,2,1,100,0,1
219135,-100,4,2,1,80,0,0
219900,416.666666666667,4,2,1,40,1,0
219900,-100,4,2,1,40,0,0
220108,-100,4,2,1,40,0,0
221566,-100,4,2,1,30,0,0
223233,-100,4,2,1,20,0,0
224900,-100,4,2,1,10,0,0
226566,-100,4,2,1,5,0,0

[Colours]
Combo1 : 81,168,255
Combo2 : 155,220,255
Combo3 : 204,242,172

[HitObjects]
64,156,7468,6,0,B|106:174|138:134|131:128|125:121|142:67|199:92,1,161.999995056153,0|0,1:2|0:0,0:0:0:0:
198,94,7885,5,10,0:2:0:0:
259,52,8093,1,2,1:2:0:0:
407,214,8302,5,2,0:2:0:0:
314,151,8510,1,2,0:2:0:0:
206,255,8718,6,0,P|216:284|221:312,1,45,10|0,0:2|0:0,0:0:0:0:
254,362,8927,6,0,P|250:275|254:175,1,161.999995056153,2|0,0:2|0:0,0:0:0:0:
314,151,9343,2,0,B|310:124|333:110|333:110|304:117|300:141,1,90,2|8,0:2|0:2,0:0:0:0:
257,195,9760,1,2,1:2:0:0:
487,286,9968,6,0,B|460:254|417:270|417:270|408:325|350:317,1,161.999995056153,2|0,0:2|0:0,0:0:0:0:
353,311,10385,1,10,0:2:0:0:
79,187,10802,6,0,B|121:169|153:209|146:215|140:222|157:276|214:251,1,161.999995056153,0|0,1:2|0:0,0:0:0:0:
210,248,11218,5,10,0:2:0:0:
272,300,11427,1,2,1:2:0:0:
398,159,11635,5,2,0:2:0:0:
314,226,11843,1,2,0:2:0:0:
217,114,12052,6,0,P|227:85|232:57,1,45,10|0,0:2|0:0,0:0:0:0:
268,3,12260,6,0,P|264:90|268:190,1,161.999995056153,2|0,0:2|0:0,0:0:0:0:
314,226,12677,2,0,B|341:220|356:233|356:233|341:220|339:184,1,90,2|8,0:2|0:2,0:0:0:0:
272,169,13093,1,2,1:2:0:0:
106,279,13302,6,0,B|141:285|170:262|170:262|172:325|231:333,1,161.999995056153,2|0,0:2|0:0,0:0:0:0:
227,325,13718,5,10,0:2:0:0:
466,119,14135,6,0,B|430:115|413:68|413:68|428:136|388:161,1,175.499991966248,2|0,1:2|0:0,0:0:0:0:
385,154,14552,1,8,0:2:0:0:
327,115,14760,1,2,1:2:0:0:
206,174,14968,6,0,B|261:192|261:192|293:233|265:264|244:268,1,148.50000453186,2|0,0:2|0:0,0:0:0:0:
241,262,15385,1,8,0:2:0:0:
467,349,15593,5,2,0:2:0:0:
463,339,15697,1,2,0:2:0:0:
460,332,15802,2,0,B|371:279|371:279|406:300|386:357,1,175.499991966248,2|0,1:2|0:0,0:0:0:0:
386,347,16218,1,8,0:2:0:0:
323,384,16427,1,2,1:2:0:0:
247,267,16635,6,0,B|284:280|310:244|303:239|298:233|319:192|366:203,1,148.50000453186,2|0,0:2|0:0,0:0:0:0:
370,209,17052,1,10,0:2:0:0:
433,177,17260,2,0,B|443:172|459:178|459:178|446:164|430:170,1,58.4999973220826,2|0,0:2|0:0,0:0:0:0:
328,132,17468,6,0,B|286:146|257:106|264:100|270:93|246:47|194:66,1,161.999995056153,2|10,1:2|0:2,0:0:0:0:
44,135,18093,6,0,B|103:155|103:155|132:193|109:226|74:230,1,161.999995056153,2|0,1:2|0:2,0:0:0:0:
4,252,18718,6,0,P|9:274|13:301,1,40.4999987640381,10|0,0:2|0:0,0:0:0:0:
78,278,18927,2,0,P|74:258|70:238,1,40.4999987640381,2|0,0:2|0:0,0:0:0:0:
3,370,19135,6,0,B|7:332|47:309|97:317|97:317|70:329|61:360,1,161.999995056153,2|8,1:2|0:2,0:0:0:0:
236,221,19760,6,0,B|259:209|297:251|277:304|190:318|175:240,1,161.999995056153,2|2,1:2|0:3,0:0:0:0:
115,248,20385,6,0,P|120:226|124:199,1,40.4999987640381,8|0,0:2|0:0,0:0:0:0:
189,222,20594,2,0,P|185:242|181:262,1,40.4999987640381,2|0,0:3|0:0,0:0:0:0:
49,156,20802,6,0,B|89:140|89:140|99:120|99:120|152:102,1,107.999996704102,0|2,1:2|0:2,0:0:0:0:
176,49,21114,1,2,0:2:0:0:
180,41,21218,1,10,0:2:0:0:
282,127,21427,1,0,1:2:0:0:
409,32,21635,6,0,B|410:66|428:81|428:81|410:66|378:73,1,107.999996704102,2|2,0:2|0:2,0:0:0:0:
341,11,22052,1,10,0:2:0:0:
489,164,22260,6,0,B|450:183|450:183|442:204|442:204|398:226,1,107.999996704102,2|0,0:2|1:2,0:0:0:0:
345,179,22677,1,2,0:2:0:0:
345,171,22781,1,2,0:2:0:0:
352,175,22885,1,10,0:2:0:0:
454,279,23093,1,2,1:2:0:0:
308,335,23302,6,0,B|266:349|237:309|244:303|250:296|226:250|174:262,1,161.999995056153,2|0,0:2|0:0,0:0:0:0:
119,223,23718,2,0,B|123:196|100:182|100:182|129:189|133:213,1,90,10|2,0:2|0:2,0:0:0:0:
176,267,24031,1,2,0:2:0:0:
171,273,24135,1,2,1:2:0:0:
246,370,24343,5,2,0:2:0:0:
254,299,24552,2,0,P|257:221|254:117,1,161.999995056153,10|0,0:2|0:0,0:0:0:0:
248,133,24968,5,2,0:2:0:0:
291,196,25177,1,2,0:2:0:0:
457,65,25385,6,0,P|448:47|452:68,1,62.9999980773926,10|0,0:2|0:0,0:0:0:0:
504,120,25593,6,0,B|477:88|434:104|434:104|425:159|377:158,1,161.999995056153,2|0,0:2|0:0,0:0:0:0:
355,87,26010,1,2,0:2:0:0:
355,79,26114,1,2,0:2:0:0:
362,83,26218,1,10,0:2:0:0:
219,197,26427,1,2,1:2:0:0:
84,61,26635,6,0,B|83:80|72:89|72:89|83:80|102:84,1,62.9999980773926,2|0,0:2|0:0,0:0:0:0:
149,31,26843,1,0,0:2:0:0:
4,160,27052,6,0,B|47:149|70:191|64:197|58:203|78:251|128:242,1,161.999995056153,10|0,0:2|0:0,0:0:0:0:
129,237,27468,6,0,B|73:238|33:286|33:286|69:308|60:352,1,175.499991966248,2|0,1:2|0:0,0:0:0:0:
57,347,27885,1,8,0:2:0:0:
118,384,28093,1,2,1:2:0:0:
299,196,28302,6,0,B|352:214|352:214|379:248|358:278|326:282,1,148.50000453186,2|0,0:2|0:0,0:0:0:0:
322,276,28718,1,8,0:2:0:0:
224,356,28927,5,2,0:2:0:0:
200,383,29031,1,2,0:2:0:0:
190,372,29135,2,0,B|160:330|192:291|201:296|209:301|246:255|208:211,1,175.499991966248,2|0,1:2|0:0,0:0:0:0:
209,208,29552,1,8,0:2:0:0:
247,277,29760,1,2,1:2:0:0:
439,149,29968,6,0,P|311:107|266:91,1,148.50000453186,2|0,0:2|0:0,0:0:0:0:
292,106,30385,1,10,0:2:0:0:
361,83,30593,1,2,0:2:0:0:
201,0,30802,6,0,P|208:44|214:80,1,80.9999975280763,0|2,1:2|0:2,0:0:0:0:
169,133,31114,1,2,0:2:0:0:
164,140,31218,1,10,0:2:0:0:
88,83,31427,1,2,1:2:0:0:
0,200,31635,6,0,B|25:214|25:214|32:233|32:233|63:251,1,80.9999975280763,2|0,0:2|0:2,0:0:0:0:
98,311,31947,2,0,L|139:297,1,40.4999987640381,2|8,0:2|0:2,0:0:0:0:
240,349,32260,5,2,0:2:0:0:
240,341,32364,1,2,0:2:0:0:
233,345,32468,1,2,1:2:0:0:
361,211,32677,5,2,0:2:0:0:
397,234,32781,1,2,0:2:0:0:
381,276,32885,1,10,0:2:0:0:
305,265,33093,1,2,1:2:0:0:
192,154,33302,6,0,P|199:121|206:96,1,40.4999987640381,2|0,0:2|0:0,0:0:0:0:
163,53,33511,1,2,0:2:0:0:
275,151,33718,6,0,B|302:134|302:134|307:118|307:118|338:100,1,80.9999975280763,10|2,0:2|0:2,0:0:0:0:
354,30,34135,5,6,1:2:0:0:
424,101,34343,1,2,0:2:0:0:
511,69,34552,5,10,0:2:0:0:
382,174,34760,1,2,1:2:0:0:
498,297,34968,6,0,B|471:265|428:281|428:281|419:336|369:332,1,161.999995056153,2|0,0:2|0:0,0:0:0:0:
364,325,35385,1,10,0:2:0:0:
242,183,35593,5,2,0:2:0:0:
246,174,35697,1,2,0:2:0:0:
249,166,35802,2,0,B|311:192|311:192|333:225|315:266|282:265,1,161.999995056153,2|2,1:2|0:0,0:0:0:0:
278,257,36218,1,8,0:2:0:0:
110,358,36427,6,0,B|87:228|87:228|101:280|147:296,1,215.999993408203,2|0,1:2|0:2,0:0:0:0:
33,337,37052,1,8,0:2:0:0:
171,223,37260,5,2,0:2:0:0:
171,215,37364,1,2,0:2:0:0:
164,219,37468,1,2,1:2:0:0:
51,150,37677,1,2,0:2:0:0:
269,42,37885,5,10,0:2:0:0:
136,143,38093,1,2,1:2:0:0:
269,299,38302,6,0,B|315:308|338:266|332:260|326:254|346:206|396:215,1,161.999995056153,2|0,0:2|0:0,0:0:0:0:
469,253,38718,6,0,B|466:233|482:224|482:224|461:228|459:245,1,62.9999980773926,10|0,0:2|0:0,0:0:0:0:
414,300,38927,6,0,B|361:317|325:267|334:260|341:251|311:193|246:217,1,202.500007724762,2|0,0:2|0:0,0:0:0:0:
101,307,39343,6,0,B|75:320|33:273|55:215|151:199|168:286,1,202.500007724762,2|0,0:2|0:0,0:0:0:0:
161,353,39760,5,2,1:2:0:0:
240,98,40177,6,0,P|244:118|248:138,1,40.4999987640381,2|0,0:2|0:0,0:0:0:0:
181,151,40385,2,0,P|178:131|174:112,1,40.4999987640381,10|0,0:2|0:0,0:0:0:0:
67,54,40593,6,0,B|125:73|125:73|160:117|130:150|107:154,1,161.999995056153,2|0,0:2|0:0,0:0:0:0:
101,149,41010,1,2,0:2:0:0:
204,323,41218,6,0,P|235:312|262:306,1,53.9999983520508,10|0,0:2|0:0,0:0:0:0:
273,231,41427,2,0,P|362:257|440:285,1,161.999995056153,2|0,1:2|0:0,0:0:0:0:
467,348,41843,1,2,0:2:0:0:
490,242,42052,6,0,B|486:220|504:209|504:209|482:215|479:234,1,72,10|0,0:2|0:0,0:0:0:0:
427,280,42260,2,0,B|381:308|343:260|346:256|351:253|316:205|266:236,1,176.85000323822,2|0,0:2|0:0,0:0:0:0:
217,277,42677,1,2,0:2:0:0:
35,104,42885,6,0,B|39:82|21:71|21:71|43:77|46:96,1,72,10|0,0:2|0:0,0:0:0:0:
92,149,43093,2,0,B|136:149|151:193|151:193|138:130|181:110,1,176.85000323822,2|0,1:2|0:0,0:0:0:0:
250,133,43511,1,2,0:2:0:0:
460,54,43718,6,0,B|429:18|382:36|382:36|372:97|316:92,1,176.85000323822,10|0,0:2|0:0,0:0:0:0:
273,44,44135,5,2,1:2:0:0:
393,155,44343,1,0,1:2:0:0:
463,142,44552,5,8,0:2:0:0:
373,228,44760,1,0,1:2:0:0:
482,349,44968,6,0,L|493:285,1,62.9999980773926,8|0,0:2|0:0,0:0:0:0:
411,343,45177,5,8,0:2:0:0:
412,336,45281,1,8,0:2:0:0:
414,329,45385,2,0,L|425:265,1,53.9999983520508,8|8,0:2|0:3,0:0:0:0:
302,195,45593,5,4,0:3:0:0:
277,238,45697,5,0,1:3:0:0:
311,275,45801,5,8,0:2:0:0:
371,227,46010,5,2,0:2:0:0:
218,140,46218,5,2,0:2:0:0:
213,153,46427,1,2,0:2:0:0:
348,71,46635,5,2,0:2:0:0:
315,7,46843,1,2,0:2:0:0:
271,67,47052,5,2,0:2:0:0:
392,9,47260,1,2,0:2:0:0:
475,205,47468,6,1,P|352:234|286:270,1,188.999994232178,6|0,1:2|0:2,0:2:0:0:
340,200,47885,1,8,0:2:0:0:
293,268,48093,6,1,B|243:296|183:252|163:192|205:146|264:153|268:205,1,242.999992584229,2|0,1:2|0:0,0:2:0:0:
309,133,48510,1,0,1:2:0:0:
502,313,48718,6,0,B|452:319|438:371|438:371|449:321|401:283,1,180,10|0,0:2|0:2,0:2:0:0:
475,205,49135,5,0,1:2:0:0:
278,363,49343,6,0,P|247:352|211:342,1,62.9999980773926,2|0,0:2|0:0,0:0:0:0:
142,368,49552,5,10,0:2:0:0:
260,279,49760,1,2,1:2:0:0:
27,206,49968,5,2,0:2:0:0:
162,282,50177,1,2,1:2:0:0:
94,174,50385,6,0,P|98:193|102:213,1,40.4999987640381,10|0,0:2|0:0,0:2:0:0:
171,197,50593,2,0,P|165:177|161:158,1,40.4999987640381,2|0,0:2|0:0,0:2:0:0:
116,81,50802,6,0,P|239:110|305:146,1,188.999994232178,2|0,1:2|0:0,0:2:0:0:
251,79,51219,1,8,0:2:0:0:
295,145,51427,6,1,B|355:157|405:116|390:53|390:53|384:84|333:61|346:113,1,242.999992584229,2|0,1:2|0:0,0:2:0:0:
320,19,51843,1,0,1:2:0:0:
92,160,52052,6,0,B|137:166|153:194|153:194|150:211|150:211|139:198|139:198|137:166|180:132,1,180,10|0,0:2|0:2,0:2:0:0:
116,81,52469,5,0,1:2:0:0:
228,236,52677,6,0,P|255:242|287:255,1,62.9999980773926,2|0,0:2|0:0,0:0:0:0:
343,209,52885,1,10,0:2:0:0:
235,358,53093,6,0,P|366:316|427:316,1,161.999995056153,2|0,1:2|0:0,0:2:0:0:
400,324,53510,5,2,1:2:0:0:
511,263,53718,1,10,0:2:0:0:
426,169,53927,1,2,1:2:0:0:
343,209,54135,6,1,B|294:224|261:178|270:172|276:164|249:111|189:133,1,188.999994232178,4|0,1:2|0:0,0:2:0:0:
130,171,54552,1,10,0:2:0:0:
64,318,54760,6,0,B|38:200|38:200|52:246|98:251,1,188.999994232178,2|0,1:2|0:0,0:2:0:0:
147,268,55177,6,0,P|176:259|205:256,1,40.4999987640381,2|0,1:2|0:0,0:2:0:0:
150,341,55385,6,0,P|184:330|218:326,1,65.250001991272,10|0,0:2|0:0,0:2:0:0:
333,219,55593,5,2,1:2:0:0:
338,214,55697,1,0,1:2:0:0:
343,209,55802,2,0,B|389:183|444:223|462:279|424:321|369:315|366:267,1,216,0|0,1:2|0:0,0:2:0:0:
291,281,56218,1,10,0:2:0:0:
254,383,56427,6,0,P|257:295|254:179,1,188.999994232178,2|0,1:2|0:0,0:2:0:0:
250,189,56843,5,2,1:2:0:0:
291,281,57052,1,10,0:2:0:0:
395,122,57260,5,2,0:2:0:0:
395,116,57364,1,2,0:2:0:0:
400,119,57468,1,2,1:2:0:0:
306,89,57677,1,2,0:2:0:0:
390,288,57885,5,10,0:2:0:0:
463,192,58093,1,2,1:2:0:0:
250,189,58302,5,2,0:2:0:0:
291,281,58511,1,2,1:2:0:0:
354,193,58718,5,10,0:2:0:0:
202,35,58927,6,0,P|173:26|144:23,1,40.4999987640381,2|0,1:2|0:0,0:2:0:0:
130,91,59135,6,0,P|163:95|194:106,1,65.250001991272,0|0,1:2|0:0,0:2:0:0:
264,77,59343,5,10,0:2:0:0:
145,169,59552,1,10,0:2:0:0:
61,166,59760,5,2,1:2:0:0:
155,248,59968,1,2,1:2:0:0:
25,373,60177,6,0,L|34:314,1,40.4999987640381,10|8,0:2|0:2,0:0:0:0:
86,272,60385,5,10,0:2:0:0:
104,250,60489,5,8,0:2:0:0:
155,248,60593,5,10,0:2:0:0:
186,314,60697,5,8,0:2:0:0:
130,364,60802,6,0,P|256:325|338:316,1,188.999994232178,6|0,1:2|0:2,0:2:0:0:
254,285,61218,1,8,0:2:0:0:
318,326,61427,6,1,B|368:354|428:310|448:250|406:204|347:211|343:263,1,242.999992584229,2|0,1:2|0:0,0:2:0:0:
290,203,61843,1,0,1:2:0:0:
416,163,62052,6,0,B|466:169|480:221|480:221|469:171|517:133,1,180,10|0,0:2|0:2,0:2:0:0:
444,65,62469,5,0,1:2:0:0:
290,203,62677,6,0,P|261:190|231:183,1,62.9999980773926,2|0,0:2|0:0,0:0:0:0:
130,73,62885,5,10,0:2:0:0:
190,20,63093,1,2,1:2:0:0:
33,104,63302,5,2,0:2:0:0:
134,175,63510,1,2,1:2:0:0:
227,139,63718,5,10,0:2:0:0:
100,264,63927,1,2,0:2:0:0:
267,357,64135,6,1,B|240:311|278:255|333:235|377:272|373:327|325:331,1,216,2|0,1:2|0:0,0:2:0:0:
336,340,64552,1,8,0:2:0:0:
172,251,64760,6,0,B|225:252|255:191|245:133|191:114|146:145|166:188,1,216,2|0,1:2|0:0,0:2:0:0:
155,186,65177,1,0,1:2:0:0:
364,152,65385,6,0,B|341:113|373:64|421:47|458:79|455:126|414:130,1,180,10|0,0:2|0:2,0:2:0:0:
288,32,65802,5,0,1:2:0:0:
485,245,66010,5,2,0:2:0:0:
426,200,66218,1,10,0:2:0:0:
492,251,66427,6,0,P|400:282|334:311,1,161.999995056153,2|0,1:2|0:0,0:2:0:0:
337,316,66843,5,2,1:2:0:0:
225,213,67052,1,10,0:2:0:0:
352,148,67260,1,2,1:2:0:0:
225,294,67468,6,0,B|176:309|143:263|152:257|158:249|131:196|71:218,1,188.999994232178,4|0,1:2|0:0,0:2:0:0:
17,264,67885,1,10,0:2:0:0:
128,126,68093,6,0,P|219:102|319:87,1,188.999994232178,2|0,1:2|0:0,0:2:0:0:
367,36,68510,6,0,P|354:17|333:14,1,45,2|0,1:2|0:0,0:2:0:0:
276,192,68718,6,0,P|253:217|212:199,1,65.250001991272,10|0,0:2|0:0,0:2:0:0:
95,63,68927,5,2,1:2:0:0:
89,58,69031,1,0,1:2:0:0:
84,53,69135,2,1,B|40:28|-11:66|-28:119|5:154|45:154|68:110,1,188.999994232178,0|0,1:2|0:0,0:2:0:0:
128,126,69552,1,10,0:2:0:0:
276,27,69760,6,0,P|211:10|145:0,1,135,2|0,1:2|0:0,0:2:0:0:
84,53,70177,5,2,1:2:0:0:
201,143,70385,1,8,0:2:0:0:
55,207,70593,6,0,L|41:278,1,72,2|2,0:2|0:0,0:0:0:0:
193,384,70802,5,0,1:2:0:0:
119,329,71010,1,0,1:2:0:0:
328,195,71218,5,8,0:2:0:0:
198,300,71427,1,0,1:2:0:0:
187,147,71635,5,8,0:2:0:0:
308,297,71843,1,0,1:2:0:0:
389,65,72052,5,8,0:2:0:0:
252,210,72260,1,0,1:2:0:0:
81,28,72468,6,0,P|113:43|147:54,1,72,8|0,0:2|0:2,0:2:0:0:
187,147,72677,2,0,P|172:139|156:132,1,33.7500012874604,8|8,0:2|0:2,0:0:0:0:
234,65,72885,5,8,0:2:0:0:
296,39,72989,1,8,0:2:0:0:
340,87,73093,1,8,0:2:0:0:
332,131,73197,1,8,0:2:0:0:
307,145,73302,1,8,0:3:0:0:
289,176,73406,1,8,0:3:0:0:
291,189,73510,1,8,0:3:0:0:
298,194,73614,1,8,0:3:0:0:
303,197,73718,6,0,P|323:190|347:182,1,40.4999987640381,4|4,0:3|0:3,0:0:0:0:
383,266,73927,6,0,P|403:269|421:276,1,40.4999987640381,4|4,0:3|0:3,0:0:0:0:
484,232,74135,5,0,1:2:0:0:
282,353,74552,6,0,P|223:328|159:316,1,121.499996292114,2|0,0:2|0:0,0:0:0:0:
161,323,74968,1,2,0:2:0:0:
252,256,75177,6,0,P|265:250|255:260,1,40.4999987640381,2|0,0:2|0:0,0:0:0:0:
89,376,75385,6,0,P|77:326|59:287,1,72,10|0,0:2|0:0,0:0:0:0:
163,146,75593,6,0,P|175:196|193:235,1,72,2|0,0:2|0:0,0:0:0:0:
0,130,75802,6,0,P|61:119|65:61,1,107.999996704102,0|2,1:2|0:2,0:0:0:0:
21,36,76114,1,2,0:2:0:0:
21,30,76218,1,10,0:2:0:0:
97,114,76427,1,2,1:2:0:0:
159,43,76635,6,0,P|254:66|351:103,1,188.999994232178,2|0,0:2|0:0,0:0:0:0:
398,58,77052,2,0,B|395:32|418:21|418:21|391:25|385:47,1,90,10|2,0:2|0:2,0:0:0:0:
339,97,77364,1,2,0:2:0:0:
345,110,77468,1,2,1:2:0:0:
473,147,77677,6,0,P|443:161|424:177,1,45,2|0,0:2|0:0,0:0:0:0:
423,267,77885,2,0,B|373:282|340:235|348:229|355:221|328:168|268:190,1,188.999994232178,10|0,0:2|0:0,0:0:0:0:
266,195,78302,5,2,0:2:0:0:
192,153,78510,1,2,0:2:0:0:
246,86,78718,1,10,0:2:0:0:
114,228,78927,6,0,B|68:253|14:213|-4:159|34:118|87:124|91:171,1,216,2|0,0:2|0:0,0:0:0:0:
184,274,79343,2,0,B|209:277|223:245|223:245|205:266|179:266,1,90,2|2,0:2|0:2,0:0:0:0:
123,234,79552,5,10,0:2:0:0:
238,336,79760,1,2,1:2:0:0:
344,210,79968,6,0,P|337:247|333:269,2,45,2|0|0,0:2|0:0|0:2,0:0:0:0:
474,144,80385,6,0,B|434:151|394:117|402:77|402:77|418:113|453:99,1,161.999995056153,10|0,0:2|0:0,0:0:0:0:
483,33,80802,6,0,P|380:62|295:76,1,188.999994232178,2|0,1:2|0:0,0:0:0:0:
292,82,81218,1,8,0:2:0:0:
347,33,81427,1,2,1:2:0:0:
133,159,81635,6,0,B|176:144|206:185|199:192|193:199|218:247|271:231,1,161.999995056153,2|0,0:2|0:0,0:0:0:0:
269,226,82052,1,8,0:2:0:0:
387,341,82260,5,2,0:2:0:0:
363,368,82364,1,2,0:2:0:0:
353,357,82468,2,0,B|316:313|355:272|366:277|376:282|421:234|374:188,1,188.999994232178,2|0,1:2|0:0,0:0:0:0:
373,190,82885,1,8,0:2:0:0:
417,252,83093,1,2,1:2:0:0:
197,127,83302,6,0,P|277:105|355:75,1,161.999995056153,2|0,0:2|0:0,0:0:0:0:
350,71,83718,1,10,0:2:0:0:
303,128,83927,1,2,0:2:0:0:
188,37,84135,6,0,P|123:50|123:96,1,107.999996704102,0|2,1:2|0:2,0:0:0:0:
75,144,84447,1,2,0:2:0:0:
77,154,84552,1,10,0:2:0:0:
116,89,84760,1,2,1:2:0:0:
35,256,84968,6,0,P|68:273|133:287,1,90,2|0,0:2|0:2,0:0:0:0:
70,353,85281,6,0,P|44:340|20:337,1,45,2|8,0:2|0:2,0:0:0:0:
102,211,85593,5,2,0:2:0:0:
102,203,85697,1,2,0:2:0:0:
95,207,85801,1,2,1:2:0:0:
256,327,86010,5,2,0:2:0:0:
292,304,86114,1,2,0:2:0:0:
276,262,86218,1,10,0:2:0:0:
200,273,86426,1,2,1:2:0:0:
346,159,86635,6,0,P|367:166|391:177,1,45,2|0,0:2|0:0,0:0:0:0:
450,130,86844,1,10,0:2:0:0:
394,172,87052,1,10,0:2:0:0:
289,70,87260,6,0,P|268:77|244:88,1,45,2|0,0:3|0:0,0:0:0:0:
188,37,87469,1,2,0:2:0:0:
398,81,94135,6,0,B|422:75|436:86|436:86|422:75|422:50,1,80.9999975280763,0|2,1:2|0:2,0:0:0:0:
284,0,94552,1,10,0:2:0:0:
352,24,94760,2,0,P|263:45|177:80,1,161.999995056153,2|0,1:2|0:0,0:0:0:0:
189,66,95177,1,2,0:2:0:0:
45,194,95385,5,10,0:2:0:0:
105,148,95593,1,2,0:2:0:0:
38,204,95802,2,0,B|70:194|92:224|86:228|82:233|100:268|139:261,1,125.999996154785,2|2,1:2|0:2,0:0:0:0:
230,308,96218,5,10,0:2:0:0:
210,225,96427,1,2,1:2:0:0:
360,363,96635,5,2,0:2:0:0:
340,280,96844,1,2,0:2:0:0:
435,169,97052,6,0,B|466:166|481:138|481:138|450:245,1,161.999995056153,10|0,0:2|0:0,0:0:0:0:
490,301,97468,5,6,1:2:0:0:
358,171,97677,1,0,1:2:0:0:
273,181,97885,5,8,0:2:0:0:
371,90,98093,1,0,1:2:0:0:
256,32,98302,5,8,0:2:0:0:
98,197,98510,6,0,P|81:191|49:186,2,45,8|8|4,0:3|0:3|0:3,0:0:0:0:
126,130,98822,6,0,P|102:121|56:114,2,72,4|8|8,0:3|0:2|0:2,0:0:0:0:
181,183,99135,6,0,P|196:179|178:192,1,72,4|0,1:2|0:0,0:0:0:0:
54,306,99343,6,0,P|61:335|66:364,1,45,10|8,0:2|0:2,0:0:0:0:
165,277,99552,6,0,P|143:297|120:316,1,45,10|8,0:2|0:2,0:0:0:0:
242,368,99760,6,0,P|213:359|185:349,1,45,2|0,1:2|0:0,0:0:0:0:
268,254,99968,6,0,P|275:282|280:308,1,45,10|8,0:2|0:2,0:0:0:0:
345,282,100177,6,0,P|340:259|334:238,1,45,10|8,0:2|0:2,0:0:0:0:
472,145,100385,6,0,P|465:173|460:199,1,45,2|0,1:2|0:0,0:0:0:0:
395,173,100594,6,0,P|399:150|405:129,1,45,10|8,0:2|0:2,0:0:0:0:
332,86,100802,6,1,P|209:115|143:151,1,188.999994232178,6|0,1:2|0:2,0:2:0:0:
197,81,101219,1,8,0:2:0:0:
151,150,101427,6,1,B|101:178|41:134|21:74|63:28|122:35|126:87,1,242.999992584229,2|0,1:2|0:0,0:2:0:0:
167,15,101843,1,0,1:2:0:0:
305,194,102052,6,0,B|355:200|369:252|369:252|358:202|406:164,1,180,10|0,0:2|0:2,0:2:0:0:
328,86,102469,5,0,1:2:0:0:
290,268,102677,6,0,P|259:276|230:287,1,62.9999980773926,0|0,0:2|0:0,0:0:0:0:
53,222,102885,5,10,0:2:0:0:
137,166,103093,1,2,1:2:0:0:
10,131,103302,5,2,0:2:0:0:
173,248,103510,1,2,1:2:0:0:
328,86,103718,6,0,P|333:110|339:138,1,40.4999987640381,10|0,0:2|0:0,0:2:0:0:
270,141,103927,2,0,P|265:121|261:101,1,40.4999987640381,2|0,0:2|0:0,0:2:0:0:
444,189,104135,6,0,P|323:226|259:267,1,188.999994232178,2|0,1:2|0:0,0:2:0:0:
321,199,104552,1,8,0:2:0:0:
263,265,104760,6,1,B|216:245|246:384|91:303|113:259|186:165|243:277,1,242.999992584229,2|0,1:2|0:0,0:2:0:0:
249,182,105177,1,0,1:2:0:0:
466,280,105385,6,0,B|420:286|405:314|405:314|408:331|408:331|419:318|419:318|420:286|377:252,1,180,8|0,0:2|0:2,0:2:0:0:
444,189,105802,5,0,1:2:0:0:
336,316,106010,6,0,P|305:323|276:335,1,62.9999980773926,2|0,0:2|0:0,0:0:0:0:
227,285,106218,1,10,0:2:0:0:
184,384,106427,6,0,B|142:396|114:357|122:352|127:345|104:300|53:319,1,161.999995056153,2|0,1:2|0:0,0:2:0:0:
48,326,106843,5,2,1:2:0:0:
0,238,107051,1,10,0:2:0:0:
86,183,107260,1,2,1:2:0:0:
141,256,107468,6,1,P|222:235|343:218,1,188.999994232178,4|0,1:2|0:0,0:2:0:0:
367,280,107885,2,0,P|379:303|428:306,1,62.9999980773926,10|0,0:2|0:0,0:0:0:0:
485,141,108093,6,0,B|493:175|451:186|451:186|436:135|381:125|381:125|408:126|411:82|435:93,1,229.500004377365,2|0,1:2|0:0,0:2:0:0:
300,27,108510,6,0,P|271:18|242:15,1,40.4999987640381,2|0,1:2|0:0,0:2:0:0:
297,100,108718,6,0,P|263:89|229:85,1,65.250001991272,10|0,0:2|0:0,0:2:0:0:
53,160,108927,5,2,1:2:0:0:
59,163,109031,1,0,1:2:0:0:
66,168,109135,2,0,B|104:172|125:133|106:129|127:95|152:98|152:98|131:128|156:163,1,188.999994232178,0|0,1:2|0:0,0:2:0:0:
212,214,109551,1,10,0:2:0:0:
19,233,109760,6,0,P|218:187|274:175,1,229.500004377365,2|0,1:2|0:0,0:2:0:0:
212,214,110176,5,2,1:2:0:0:
293,136,110385,1,10,0:2:0:0:
354,346,110593,5,2,0:2:0:0:
354,339,110697,1,2,0:2:0:0:
360,342,110801,1,2,1:2:0:0:
265,296,111010,1,2,0:2:0:0:
413,125,111218,5,10,0:2:0:0:
453,283,111426,1,2,1:2:0:0:
212,214,111635,5,2,0:2:0:0:
293,136,111844,1,2,1:2:0:0:
338,222,112051,5,10,0:2:0:0:
156,71,112260,6,0,P|159:90|165:110,1,40.4999987640381,2|0,1:2|0:0,0:2:0:0:
65,239,112468,6,0,P|59:208|49:177,1,65.250001991272,0|0,1:2|0:0,0:2:0:0:
171,330,112677,5,10,0:2:0:0:
156,254,112885,1,10,0:2:0:0:
304,384,113093,5,2,1:2:0:0:
289,308,113301,1,2,1:2:0:0:
404,220,113510,6,0,L|395:161,1,40.4999987640381,10|8,0:2|0:2,0:0:0:0:
343,119,113718,5,10,0:2:0:0:
325,97,113822,5,8,0:2:0:0:
274,95,113926,5,10,0:2:0:0:
245,163,114030,5,8,0:2:0:0:
298,212,114135,6,0,P|172:173|90:164,1,188.999994232178,6|0,1:2|0:2,0:2:0:0:
176,136,114551,1,8,0:2:0:0:
108,173,114760,6,1,B|86:165|50:288|-77:195|0:73|85:158|99:132,1,242.999992584229,2|0,1:2|0:0,0:2:0:0:
130,67,115177,1,0,1:2:0:0:
361,285,115385,6,0,B|323:313|334:363|334:363|320:311|270:305,1,180,10|0,0:2|0:2,0:2:0:0:
301,220,115802,5,0,1:2:0:0:
468,361,116010,6,0,L|394:341,1,62.9999980773926,2|0,0:2|0:0,0:0:0:0:
298,212,116218,5,10,0:2:0:0:
358,159,116426,1,2,1:2:0:0:
180,46,116635,5,2,0:2:0:0:
282,128,116843,1,2,1:2:0:0:
72,268,117051,5,10,0:2:0:0:
162,177,117260,1,2,0:2:0:0:
267,357,117468,6,1,B|240:311|278:255|333:235|377:272|373:327|325:331,1,216,2|0,1:2|0:0,0:2:0:0:
336,340,117885,1,8,0:2:0:0:
172,251,118093,6,0,B|225:252|255:191|245:133|191:114|146:145|166:188,1,216,2|0,1:2|0:0,0:2:0:0:
155,186,118510,1,0,1:2:0:0:
364,152,118718,6,0,B|341:113|373:64|421:47|458:79|455:126|414:130,1,180,10|0,0:2|0:2,0:2:0:0:
288,32,119135,5,0,1:2:0:0:
497,263,119343,5,2,0:2:0:0:
455,198,119552,1,10,0:2:0:0:
501,270,119760,6,0,B|452:255|419:301|428:307|434:315|407:368|350:348,1,188.999994232178,2|0,1:2|0:0,0:2:0:0:
341,356,120177,5,2,1:2:0:0:
232,285,120385,1,10,0:2:0:0:
326,206,120593,1,2,1:2:0:0:
264,369,120802,6,0,P|175:347|77:334,1,188.999994232178,4|0,1:2|0:0,0:2:0:0:
73,329,121218,2,0,B|68:309|95:303|89:309|113:309|113:287,1,62.9999980773926,10|0,0:2|0:0,0:0:0:0:
15,181,121427,6,0,B|7:159|-17:154|-17:154|32:125|90:155|88:202|88:202|48:212|50:244,1,242.999992584229,2|0,1:2|0:0,0:2:0:0:
148,150,121843,6,0,P|168:146|189:145,1,40.4999987640381,2|0,1:2|0:0,0:2:0:0:
178,10,122052,6,0,P|145:13|114:21,1,65.250001991272,10|0,0:2|0:0,0:2:0:0:
22,46,122260,5,2,1:2:0:0:
29,40,122364,1,0,1:2:0:0:
35,34,122468,2,1,P|136:58|256:71,1,216,0|0,1:2|0:0,0:2:0:0:
300,25,122885,1,10,0:2:0:0:
465,143,123093,6,0,B|426:163|393:124|393:124|397:202|322:207,1,188.999994232178,2|0,1:2|0:0,0:2:0:0:
332,203,123510,6,0,B|327:223|354:229|348:223|372:223|372:245,1,62.9999980773926,2|0,1:2|0:0,0:0:0:0:
429,296,123718,6,0,B|434:316|407:322|413:316|389:316|389:335,1,62.9999980773926,8|0,0:2|0:0,0:0:0:0:
379,346,123927,6,0,L|383:380,1,26.9999991760254,2|0,0:2|0:0,0:0:0:0:
237,338,124135,5,0,1:2:0:0:
313,287,124343,1,0,1:2:0:0:
131,183,124552,5,8,0:2:0:0:
235,250,124761,1,0,1:2:0:0:
348,91,124968,5,8,0:2:0:0:
282,80,125072,1,8,0:2:0:0:
252,129,125176,1,8,0:2:0:0:
268,166,125280,1,8,0:2:0:0:
277,173,125385,6,0,P|306:166|341:158,1,45,8|0,0:2|0:2,0:2:0:0:
415,253,125593,6,0,P|393:248|372:242,1,45,0|0,1:2|1:2,0:0:0:0:
465,143,125802,5,8,0:2:0:0:
177,356,134135,6,0,P|134:345|92:337,1,80.9999975280763,2|0,1:2|0:2,0:2:0:0:
89,342,134552,5,8,0:2:0:0:
43,288,134760,1,10,0:2:0:0:
196,157,135177,5,2,1:2:0:0:
258,189,135385,1,10,0:2:0:0:
215,244,135593,1,2,0:2:0:0:
45,147,135802,6,0,B|70:146|73:120|64:125|71:93|100:100,1,80.9999975280763,2|0,1:2|0:2,0:2:0:0:
106,103,136218,5,8,0:2:0:0:
163,57,136427,1,10,0:2:0:0:
258,189,136843,5,0,1:2:0:0:
315,143,137052,1,8,0:2:0:0:
487,297,137468,6,0,P|444:286|402:278,1,80.9999975280763,2|0,1:2|0:2,0:2:0:0:
399,283,137885,5,8,0:2:0:0:
353,229,138093,1,10,0:2:0:0:
223,319,138510,5,2,1:2:0:0:
158,353,138718,1,10,0:2:0:0:
119,290,138927,1,2,0:2:0:0:
20,166,139135,6,0,B|36:175|36:175|43:217|43:217|64:232,1,80.9999975280763,2|0,1:2|0:2,0:2:0:0:
66,227,139552,5,8,0:2:0:0:
123,181,139761,1,10,0:2:0:0:
223,319,140177,5,0,1:2:0:0:
280,273,140386,1,8,0:2:0:0:
391,366,140802,6,0,B|413:338|413:338|387:275,1,101.250003862381,2|0,1:2|0:2,0:2:0:0:
382,281,141218,5,8,0:2:0:0:
448,310,141427,1,10,0:2:0:0:
475,145,141844,5,2,1:2:0:0:
446,230,142052,1,10,0:2:0:0:
473,153,142261,1,2,0:2:0:0:
271,108,142468,6,0,L|376:84,1,101.250003862381,2|0,1:2|0:2,0:2:0:0:
373,77,142885,5,8,0:2:0:0:
320,26,143093,1,10,0:2:0:0:
250,181,143510,5,0,1:2:0:0:
197,130,143718,1,8,0:2:0:0:
50,247,144135,6,0,B|35:222|35:222|108:256,1,101.250003862381,2|0,1:2|0:2,0:2:0:0:
108,249,144552,5,8,0:2:0:0:
168,213,144760,1,10,0:2:0:0:
288,367,145177,5,2,1:2:0:0:
269,287,145386,1,10,0:2:0:0:
286,359,145594,1,2,0:2:0:0:
438,187,145802,6,0,L|333:163,1,101.250003862381,2|0,1:2|0:2,0:2:0:0:
336,156,146219,5,8,0:2:0:0:
389,105,146427,1,10,0:2:0:0:
459,260,146844,5,0,1:2:0:0:
512,209,147052,1,8,0:2:0:0:
444,335,147364,6,0,L|424:329,1,16.8750006437302,2|2,0:2|0:2,0:0:0:0:
421,331,147468,2,1,B|372:331|382:263|316:272|316:272|350:307|320:334,1,188.999994232178,2|0,1:2|0:0,0:2:0:0:
322,331,147885,1,8,0:2:0:0:
198,220,148093,6,0,B|171:227|155:216|155:216|171:227|174:255,1,90,10|0,0:2|0:2,0:2:0:0:
244,276,148510,5,2,1:2:0:0:
320,159,148718,1,10,0:2:0:0:
199,98,148926,1,2,0:2:0:0:
349,31,149135,6,0,B|398:47|398:47|424:79|404:108|374:112,1,135,2|0,1:2|0:0,0:2:0:0:
371,105,149552,1,8,0:2:0:0:
461,198,149760,6,0,P|361:231|292:265,1,180,10|0,0:2|1:2,0:2:0:0:
240,217,150385,1,8,0:2:0:0:
512,346,150593,5,2,0:2:0:0:
508,352,150697,1,2,0:2:0:0:
504,358,150802,2,0,P|441:328|376:307,1,135,2|0,1:2|0:0,0:2:0:0:
374,313,151218,1,8,0:2:0:0:
265,337,151427,6,0,B|269:310|246:296|246:296|275:303|279:327,1,90,10|0,0:2|0:2,0:2:0:0:
319,378,151843,5,2,1:2:0:0:
180,273,152052,1,10,0:2:0:0:
105,340,152260,1,2,0:2:0:0:
15,225,152468,6,0,B|49:235|73:202|67:198|62:192|82:155|124:170,1,135,2|0,1:2|0:0,0:2:0:0:
128,177,152885,1,8,0:2:0:0:
290,74,153093,6,0,P|189:43|111:18,1,180,10|0,0:2|1:2,0:2:0:0:
69,78,153718,1,8,0:2:0:0:
323,0,153927,5,2,0:2:0:0:
339,0,154031,1,2,0:2:0:0:
347,9,154135,2,0,B|336:50|392:62|380:50|429:50|429:95,1,135,2|0,1:2|0:0,0:2:0:0:
421,104,154552,1,8,0:2:0:0:
476,158,154760,6,0,B|483:185|445:193|453:185|420:185|420:215,1,90,10|0,0:2|0:2,0:2:0:0:
475,273,155177,5,2,1:2:0:0:
339,166,155385,1,10,0:2:0:0:
399,293,155593,1,2,0:2:0:0:
270,211,155802,6,0,B|227:198|198:239|205:244|211:251|187:297|135:279,1,161.999995056153,2|0,1:2|0:0,0:2:0:0:
86,330,156218,1,8,0:2:0:0:
1,181,156427,6,0,B|51:204|106:162|89:109|89:109|89:144|46:142,1,188.999994232178,10|0,0:2|0:2,0:2:0:0:
22,84,156843,1,2,1:2:0:0:
159,24,157052,6,0,P|195:35|228:45,1,62.9999980773926,10|2,0:2|0:2,0:0:0:0:
285,6,157260,1,2,1:2:0:0:
462,128,157468,5,14,0:2:0:0:
335,91,157677,1,0,1:2:0:0:
449,284,157885,5,8,0:2:0:0:
487,158,158094,1,0,1:2:0:0:
296,265,158302,5,8,0:2:0:0:
422,303,158511,1,0,1:2:0:0:
312,107,158718,5,8,0:2:0:0:
274,232,158927,1,0,1:2:0:0:
145,62,159135,5,8,0:2:0:0:
152,69,159239,1,0,1:2:0:0:
159,76,159343,2,0,L|216:61,1,36,0|0,1:2|0:2,0:2:0:0:
233,0,159552,5,8,0:2:0:0:
136,149,159760,1,0,1:2:0:0:
59,37,159968,6,0,P|66:69|71:106,1,53.9999983520508,8|0,0:2|1:2,0:2:0:0:
10,219,160385,6,0,P|5:192|0:166,1,53.9999983520508,8|0,0:2|1:2,0:2:0:0:
221,248,160802,6,0,P|203:256|178:266,1,45,12|0,0:2|0:2,0:2:0:0:
123,315,161010,5,8,0:2:0:0:
121,325,161114,1,8,0:2:0:0:
120,333,161218,2,0,P|102:341|77:351,1,45,8|8,0:2|0:2,0:2:0:0:
17,306,161427,5,4,1:2:0:0:
122,157,161635,5,8,0:2:0:0:
126,166,161739,1,8,0:2:0:0:
131,175,161843,2,0,P|149:183|174:193,1,45,8|8,0:2|0:2,0:2:0:0:
240,342,162051,6,0,P|258:350|283:360,1,45,0|0,1:2|0:2,0:2:0:0:
356,303,162260,5,0,1:2:0:0:
381,260,162364,5,0,1:2:0:0:
347,223,162468,5,12,0:2:0:0:
287,271,162677,5,2,0:2:0:0:
436,356,162885,5,2,0:2:0:0:
441,343,163094,1,2,0:2:0:0:
485,270,163302,5,2,0:2:0:0:
452,206,163510,1,2,0:2:0:0:
510,85,163719,5,2,0:2:0:0:
389,143,163927,1,2,0:2:0:0:
257,15,164135,6,0,P|262:49|265:77,1,53.9999983520508,4|0,1:2|0:0,0:0:0:0:
221,128,164343,5,2,0:2:0:0:
163,82,164552,1,2,0:2:0:0:
6,180,164760,5,2,0:2:0:0:
96,133,164968,1,2,0:2:0:0:
78,215,165177,5,10,0:2:0:0:
83,223,165281,1,8,0:2:0:0:
88,231,165385,2,0,L|78:286,1,45,10|8,0:2|0:2,0:0:0:0:
141,372,165593,6,0,L|131:316,1,45,10|8,0:2|0:2,0:0:0:0:
191,200,165802,6,0,P|323:231|393:269,1,216,6|0,1:2|0:0,0:0:0:0:
326,195,166219,1,8,0:2:0:0:
396,277,166427,6,0,B|451:308|518:259|540:192|493:141|428:149|423:207,1,270,2|0,1:2|0:0,0:0:0:0:
376,141,166844,1,0,1:2:0:0:
164,308,167052,6,0,B|214:314|228:366|228:366|217:316|265:278,1,180,10|0,0:2|0:2,0:2:0:0:
191,200,167469,5,0,1:2:0:0:
36,344,167677,6,0,P|66:352|95:363,1,62.9999980773926,2|0,0:2|0:0,0:0:0:0:
0,278,167886,5,10,0:2:0:0:
96,219,168094,1,2,1:2:0:0:
33,95,168302,5,2,0:2:0:0:
191,200,168511,1,2,1:2:0:0:
132,97,168719,6,0,P|136:116|140:136,1,40.4999987640381,10|0,0:2|0:0,0:2:0:0:
209,120,168927,2,0,P|203:100|199:81,1,40.4999987640381,2|0,0:2|0:0,0:2:0:0:
103,2,169135,6,0,P|188:42|313:62,1,216,2|0,1:2|0:0,0:2:0:0:
199,81,169553,1,8,0:2:0:0:
314,68,169760,6,1,B|317:53|317:53|322:51|322:51|326:32|326:32|285:1|217:33|232:104|254:117|254:117|289:138|277:173,1,270,2|0,1:2|0:0,0:2:0:0:
322,229,170177,2,0,B|324:236|324:236|338:239|338:239|338:224|338:224|332:221,1,45,0|0,1:2|0:0,0:0:0:0:
115,119,170385,6,0,B|70:125|54:153|54:153|57:170|57:170|68:157|68:157|70:125|32:95,1,180,10|0,0:2|0:2,0:2:0:0:
103,2,170802,5,0,1:2:0:0:
322,229,171010,6,0,P|295:235|263:248,1,62.9999980773926,2|0,0:2|0:0,0:0:0:0:
204,202,171218,1,10,0:2:0:0:
299,349,171427,6,0,P|168:307|107:307,1,161.999995056153,2|0,1:2|0:0,0:2:0:0:
134,315,171843,5,2,1:2:0:0:
0,241,172051,1,10,0:2:0:0:
107,133,172260,1,2,1:2:0:0:
204,202,172469,6,1,B|253:217|286:171|277:165|271:157|298:104|358:126,1,188.999994232178,4|0,1:2|0:0,0:2:0:0:
409,75,172886,1,10,0:2:0:0:
502,273,173093,6,0,B|453:262|438:203|438:203|433:208|433:208|455:291|391:322,1,229.500004377365,2|0,1:2|0:0,0:2:0:0:
318,330,173511,6,0,P|289:321|260:318,1,40.4999987640381,2|0,1:2|0:0,0:2:0:0:
343,263,173719,6,0,P|309:252|275:248,1,65.250001991272,10|0,0:2|0:0,0:2:0:0:
137,240,173927,5,2,1:2:0:0:
132,235,174031,1,0,1:2:0:0:
127,230,174136,2,0,B|81:204|26:244|8:300|46:342|101:336|104:288,1,216,0|0,1:2|0:0,0:2:0:0:
174,301,174552,1,10,0:2:0:0:
225,382,174760,6,0,B|266:332|221:285|208:291|196:297|143:241|193:198,1,216,2|0,1:2|0:0,0:2:0:0:
205,192,175177,5,2,1:2:0:0:
137,240,175386,1,10,0:2:0:0:
68,72,175594,5,2,0:2:0:0:
68,66,175698,1,2,0:0:0:0:
73,70,175802,1,2,1:2:0:0:
177,47,176011,1,2,0:2:0:0:
37,240,176219,5,10,0:2:0:0:
0,106,176427,1,2,1:2:0:0:
205,192,176635,5,2,0:2:0:0:
137,240,176844,1,2,1:2:0:0:
111,149,177052,5,10,0:2:0:0:
301,33,177260,6,0,P|295:62|288:86,1,40.4999987640381,2|2,1:2|0:0,0:2:0:0:
370,217,177468,6,0,P|378:182|388:152,1,65.250001991272,0|0,1:2|0:0,0:2:0:0:
252,264,177677,5,10,0:2:0:0:
311,315,177886,1,10,0:2:0:0:
383,288,178094,5,2,1:2:0:0:
273,384,178302,1,2,1:2:0:0:
137,211,178511,6,0,L|146:152,1,40.4999987640381,10|8,0:2|0:2,0:0:0:0:
188,105,178719,5,10,0:2:0:0:
206,83,178823,5,8,0:2:0:0:
257,81,178927,5,10,0:2:0:0:
290,148,179031,5,8,0:2:0:0:
242,202,179135,6,0,P|368:163|450:154,1,188.999994232178,6|0,1:2|0:2,0:2:0:0:
361,128,179552,1,8,0:2:0:0:
427,165,179760,6,1,B|475:149|433:285|595:217|576:172|512:72|445:178,1,242.999992584229,2|0,1:2|0:0,0:2:0:0:
430,86,180177,1,0,1:2:0:0:
181,268,180385,6,0,B|218:296|207:346|207:346|221:294|271:288,1,180,10|0,0:2|0:2,0:2:0:0:
242,202,180803,5,0,1:2:0:0:
128,326,181011,6,0,P|99:313|68:305,1,62.9999980773926,2|0,0:2|0:0,0:0:0:0:
0,240,181219,5,10,0:2:0:0:
65,195,181427,1,2,1:2:0:0:
28,60,181636,5,2,0:2:0:0:
156,140,181844,1,2,1:2:0:0:
255,91,182052,5,10,0:2:0:0:
135,244,182261,1,2,0:2:0:0:
267,357,182468,6,1,B|236:305|279:242|341:219|390:261|386:323|332:327,1,242.999992584229,2|0,1:2|0:0,0:2:0:0:
342,331,182886,1,8,0:2:0:0:
135,244,183094,6,0,B|199:245|236:170|224:99|158:76|103:114|127:167,1,270,2|0,1:2|0:0,0:2:0:0:
127,167,183511,1,0,1:2:0:0:
364,152,183719,6,0,B|336:105|374:47|431:26|475:65|472:121|423:125,1,215.999993408203,10|0,0:2|0:2,0:2:0:0:
282,19,184136,5,0,1:2:0:0:
483,272,184344,5,2,0:2:0:0:
426,216,184552,1,10,0:2:0:0:
484,281,184760,6,0,B|457:249|414:265|414:265|405:320|347:312,1,161.999995056153,2|0,1:2|0:0,0:2:0:0:
349,320,185177,5,2,1:2:0:0:
237,217,185386,1,10,0:2:0:0:
364,152,185594,1,2,1:2:0:0:
237,303,185802,6,0,B|188:318|155:272|164:266|170:258|143:205|83:227,1,188.999994232178,4|0,1:2|0:0,0:2:0:0:
29,273,186219,1,10,0:2:0:0:
145,120,186427,6,0,P|236:96|336:81,1,188.999994232178,2|0,1:2|0:0,0:2:0:0:
413,176,186844,6,0,P|382:176|364:152,1,62.9999980773926,2|0,1:2|0:0,0:2:0:0:
428,80,187052,6,0,P|451:55|492:73,1,62.9999980773926,10|0,0:2|0:0,0:2:0:0:
512,163,187261,5,2,1:2:0:0:
506,158,187364,1,0,1:2:0:0:
500,154,187468,2,1,B|431:155|382:226|423:286|423:286|434:244|479:240,1,256.499993150711,0|0,1:2|0:0,0:2:0:0:
493,308,187886,1,10,0:2:0:0:
396,362,188093,6,0,B|332:339|378:287|277:270|277:270|295:316|267:333,1,216,2|0,1:2|0:0,0:2:0:0:
271,331,188510,6,0,L|214:317,1,45,2|0,1:2|0:0,0:0:0:0:
156,243,188718,6,0,L|213:257,1,45,8|0,0:2|0:0,0:0:0:0:
38,370,188927,6,0,L|29:310,1,45,2|0,1:2|0:0,0:0:0:0:
14,234,189136,5,8,0:2:0:0:
97,291,189344,1,0,1:2:0:0:
172,121,189552,5,8,0:2:0:0:
87,213,189761,1,0,1:2:0:0:
57,70,189969,5,8,0:2:0:0:
169,199,190177,1,0,1:2:0:0:
222,9,190386,5,8,0:2:0:0:
98,140,190593,1,0,1:2:0:0:
411,267,190802,6,0,P|402:232|399:197,1,67.5000025749208,8|0,0:2|0:0,0:0:0:0:
319,138,191010,6,0,P|323:154|327:171,1,33.7500012874604,10|8,0:2|0:2,0:0:0:0:
311,342,191219,5,10,0:2:0:0:
240,373,191323,1,8,0:2:0:0:
190,322,191427,1,10,0:2:0:0:
198,274,191531,1,8,0:2:0:0:
225,259,191636,1,6,1:2:0:0:
245,225,191740,1,8,0:2:0:0:
243,211,191844,1,10,0:2:0:0:
235,205,191948,1,8,0:2:0:0:
228,203,192052,6,0,P|208:210|184:218,1,40.4999987640381,10|8,0:2|0:2,0:0:0:0:
145,131,192261,6,0,P|126:129|107:121,1,40.4999987640381,10|8,0:2|0:2,0:0:0:0:
25,169,192468,6,0,P|121:147|103:16,1,202.500007724762,6|0,1:2|0:2,0:2:0:0:
74,18,192885,2,0,P|61:23|73:20,1,45,12|0,0:2|0:0,0:2:0:0:
219,122,193093,6,0,P|268:110|320:101,1,67.5000025749208,0|0,1:2|0:0,0:2:0:0:
286,29,193302,6,0,P|331:40|378:47,1,53.9999983520508,2|0,0:2|0:0,0:0:0:0:
434,117,193510,5,0,1:2:0:0:
469,81,193614,1,2,0:2:0:0:
445,37,193718,1,8,0:2:0:0:
330,191,193927,5,2,1:2:0:0:
335,185,194031,1,0,1:2:0:0:
340,180,194135,2,0,B|383:155|435:193|453:246|416:286|365:280|361:234,1,202.500007724762,2|0,1:2|0:0,0:2:0:0:
292,245,194552,1,8,0:2:0:0:
486,239,194760,6,0,P|359:208|226:187,1,242.999992584229,2|0,1:2|0:0,0:2:0:0:
199,245,195177,1,0,1:2:0:0:
40,317,195385,5,10,0:2:0:0:
65,244,195593,1,2,0:2:0:0:
48,322,195802,6,0,B|105:343|132:290|126:282|117:276|150:230|199:245,1,188.999994232178,2|0,1:2|0:0,0:2:0:0:
232,310,196218,1,8,0:2:0:0:
438,205,196427,6,0,B|386:211|372:263|372:263|383:213|335:175,1,188.999994232178,2|0,1:2|0:0,0:2:0:0:
404,132,196843,1,0,1:2:0:0:
244,19,197052,5,8,0:2:0:0:
266,85,197260,1,2,0:2:0:0:
128,165,197468,6,1,B|114:164|101:179|101:179|108:152|129:153,1,72,0|0,1:2|0:0,0:2:0:0:
212,207,197677,5,2,0:2:0:0:
219,216,197781,1,2,0:2:0:0:
226,226,197885,2,0,L|213:287,3,45,10|2|2|2,0:2|0:2|1:2|0:2,0:0:0:0:
328,356,198302,6,0,P|352:349|390:344,1,53.9999983520508,2|2,0:2|0:2,0:0:0:0:
306,291,198510,6,0,P|334:282|380:276,1,72,2|2,1:2|0:2,0:0:0:0:
421,168,198718,6,0,B|383:172|362:133|392:122|370:87|340:89|340:89|364:123|336:154,1,188.999994232178,10|0,0:2|0:0,0:2:0:0:
269,164,199135,6,0,P|376:181|481:208,1,216,6|0,1:2|0:2,0:2:0:0:
512,145,199552,1,8,0:2:0:0:
235,306,199760,6,1,B|278:301|298:244|298:244|280:326|328:356,1,216,2|0,1:2|0:0,0:2:0:0:
367,290,200177,1,2,1:2:0:0:
249,380,200385,1,10,0:2:0:0:
161,301,200593,1,2,0:2:0:0:
55,354,200802,6,0,P|65:274|71:191,1,161.999995056153,2|0,1:2|0:0,0:2:0:0:
98,259,201218,1,8,0:2:0:0:
0,164,201427,6,1,B|60:173|89:136|89:91|89:91|81:122|41:125,1,188.999994232178,2|0,1:2|0:0,0:2:0:0:
18,55,201843,2,0,P|11:50|19:55,1,45,0|0,1:2|0:0,0:0:0:0:
127,8,202052,5,8,0:2:0:0:
210,72,202260,1,0,0:2:0:0:
291,10,202468,6,0,L|296:56,2,45,2|0|2,1:2|0:0|0:2,0:2:0:0:
365,31,202885,1,10,0:2:0:0:
208,172,203093,6,0,B|266:155|293:208|287:216|281:224|311:268|361:254,1,188.999994232178,2|0,1:2|0:0,0:2:0:0:
400,196,203510,1,0,1:2:0:0:
189,368,203718,6,0,P|183:331|174:301,1,62.9999980773926,8|0,0:2|0:0,0:2:0:0:
218,244,203926,1,2,1:2:0:0:
333,378,204135,5,8,0:2:0:0:
266,326,204343,1,2,1:2:0:0:
455,240,204552,5,10,0:2:0:0:
336,297,204760,1,2,1:2:0:0:
457,161,204968,1,10,0:2:0:0:
296,37,205177,6,0,L|287:97,1,45,10|8,0:2|0:2,0:0:0:0:
235,141,205385,5,10,0:2:0:0:
215,168,205489,5,8,0:2:0:0:
158,164,205593,5,10,0:2:0:0:
132,97,205697,5,8,0:2:0:0:
194,54,205802,6,0,P|313:79|453:120,1,256.499993150711,6|0,1:2|0:2,0:2:0:0:
509,168,206218,6,0,P|498:195|431:180,1,85.4999977169037,10|0,0:2|0:0,0:2:0:0:
227,274,206427,6,0,B|301:247|248:186|365:166|365:166|343:208|377:240,1,256.499993150711,2|0,1:2|0:0,0:2:0:0:
367,244,206843,6,0,P|388:251|409:259,1,45,2|0,1:2|0:0,0:2:0:0:
335,306,207052,6,0,P|369:317|404:330,1,65.250001991272,14|0,0:2|0:0,0:2:0:0:
476,321,207260,6,0,P|482:316|475:321,1,36,2|0,1:2|0:0,0:2:0:0:
345,384,207468,6,0,P|383:268|435:140,1,256.499993150711,6|0,1:2|0:2,0:2:0:0:
468,80,207885,6,0,P|504:98|506:138,1,85.4999977169037,10|0,0:2|0:0,0:2:0:0:
366,98,208093,6,0,B|329:83|350:36|350:36|291:15|223:104|301:138|301:138|334:154|326:184,1,297.000009063721,2|0,1:2|0:0,0:2:0:0:
323,182,208510,1,2,1:2:0:0:
115,262,208718,6,0,P|110:224|99:187,1,65.250001991272,10|0,0:2|0:0,0:2:0:0:
198,281,208927,6,0,P|200:302|206:324,1,36,2|0,1:2|0:0,0:2:0:0:
168,382,209135,6,0,P|154:257|124:124,1,256.499993150711,6|0,1:2|0:0,0:2:0:0:
87,67,209552,6,0,P|51:85|49:125,1,85.4999977169037,10|0,0:2|0:0,0:0:0:0:
202,107,209760,6,0,B|190:88|190:88|217:66|208:71|227:44|227:44|284:75|286:161|233:179|233:179|224:165|208:165,1,256.499993150711,2|0,1:2|0:0,0:2:0:0:
299,291,210177,6,0,P|305:269|313:248,1,45,2|0,1:2|0:0,0:2:0:0:
359,322,210386,6,0,P|369:290|380:259,1,65.250001991272,10|0,0:2|0:2,0:2:0:0:
455,220,210593,6,0,P|461:215|454:220,1,36,2|0,1:2|0:0,0:2:0:0:
456,336,210802,6,0,P|349:286|206:246,1,256.499993150711,4|0,1:2|0:0,0:0:0:0:
146,285,211218,5,8,0:2:0:0:
227,172,211427,1,0,1:2:0:0:
71,52,211635,5,8,0:2:0:0:
151,193,211843,1,0,1:2:0:0:
245,0,212052,5,8,0:2:0:0:
88,136,212260,1,8,0:2:0:0:
296,83,212468,6,0,B|345:68|375:114|369:120|363:128|390:181|450:159,1,188.999994232178,4|0,1:2|0:2,0:2:0:0:
492,100,212885,1,8,0:2:0:0:
408,242,213093,6,0,P|381:230|331:214,1,72,2|2,1:2|0:2,0:2:0:0:
207,328,213302,5,2,0:2:0:0:
210,351,213406,5,2,0:2:0:0:
245,374,213510,5,2,1:2:0:0:
305,342,213614,5,2,0:2:0:0:
279,272,213718,6,0,P|169:294|64:330,1,216,10|2,0:2|0:2,0:2:0:0:
68,335,214135,5,2,1:2:0:0:
50,335,214239,5,2,0:2:0:0:
18,301,214343,5,2,0:2:0:0:
59,240,214447,5,2,0:2:0:0:
139,270,214552,6,0,P|168:262|193:257,1,45,10|2,0:2|0:2,0:2:0:0:
245,147,214760,6,0,B|205:184|134:156|98:101|128:44|189:33|199:72,1,242.999992584229,2|0,1:2|0:0,0:2:0:0:
202,75,215177,6,0,L|252:66,1,45,2|0,1:2|0:0,0:0:0:0:
294,10,215385,6,0,L|335:23,1,45,10|0,0:2|0:0,0:0:0:0:
335,142,215593,6,0,L|378:134,1,45,2|0,1:2|0:0,0:0:0:0:
435,77,215802,6,0,P|450:71|437:79,1,45,10|0,0:2|0:2,0:2:0:0:
379,146,216010,5,10,0:2:0:0:
372,152,216114,5,8,0:2:0:0:
358,185,216218,5,8,0:2:0:0:
407,228,216322,5,8,0:2:0:0:
461,180,216427,6,0,L|511:171,1,45,4|0,1:2|0:2,0:2:0:0:
420,244,216635,5,10,0:2:0:0:
427,250,216739,5,8,0:2:0:0:
441,283,216843,5,8,0:2:0:0:
392,326,216947,5,8,0:2:0:0:
338,278,217052,6,0,L|288:269,1,45,4|0,1:2|0:2,0:2:0:0:
133,356,217260,5,10,0:2:0:0:
137,349,217364,1,8,0:2:0:0:
141,341,217468,2,0,P|134:310|122:278,1,62.9999980773926,2|0,1:2|0:2,0:2:0:0:
195,141,217677,5,10,0:2:0:0:
191,148,217781,1,8,0:2:0:0:
187,156,217885,2,0,P|195:193|207:225,1,62.9999980773926,10|8,0:2|0:2,0:2:0:0:
72,134,218093,6,0,P|58:147|76:139,1,53.9999983520508,2|0,1:2|0:2,0:2:0:0:
199,56,218302,6,0,L|260:75,3,45,10|8|10|8,0:2|0:2|0:2|0:2,0:0:0:0:
319,178,218718,6,0,L|380:159,3,45,10|8|10|8,0:2|0:2|0:2|0:2,0:0:0:0:
398,29,219135,5,2,0:2:0:0:
140,341,219900,6,0,L|160:349,2,22.5,2|2|2,0:2|0:2|0:2,0:2:0:0:
115,271,220108,1,2,0:2:0:0:
256,192,220212,12,0,226566,0:0:0:0:
