osu file format v14

[General]
AudioFilename: audio.mp3
AudioLeadIn: 0
PreviewTime: 95996
Countdown: 0
SampleSet: Normal
StackLeniency: 0.7
Mode: 1
LetterboxInBreaks: 0
WidescreenStoryboard: 1

[Editor]
Bookmarks: 588,10383,21812,34669,36506,41404,47934,51200,58139,63445,76302,78139,81404,90383,97730,103853,105894,115689,120587,133649,146506,149771,151608,162424
DistanceSpacing: 0.4
BeatDivisor: 4
GridSize: 32
TimelineZoom: 2

[Metadata]
Title:HAYARU YOROHIYA
TitleUnicode:はやるよろひや
Artist:vivid undress
ArtistUnicode:vivid undress
Creator:KyeX
Version:2199's Futsuu
Source:
Tags:paz08 gaston_2199 japanese alternative indie rock jrock j-rock Unveil kiila yu-ya yuya syunn rio tomoki
BeatmapID:3884312
BeatmapSetID:1604274

[Difficulty]
HPDrainRate:7
CircleSize:2
OverallDifficulty:4
ApproachRate:10
SliderMultiplier:1.4
SliderTickRate:1

[Events]
//Background and Video events
0,0,"bg.jpg",0,0
//Break Periods
2,106097,115246
//Storyboard Layer 0 (Background)
//Storyboard Layer 1 (Fail)
//Storyboard Layer 2 (Pass)
//Storyboard Layer 3 (Foreground)
//Storyboard Layer 4 (Overlay)
//Storyboard Sound Samples

[TimingPoints]
601,401.33779264214,3,1,0,90,1,0
601,-101.700680272109,3,1,0,90,0,0
1403,411.663807890223,3,1,0,90,1,8
1403,-99.1496598639456,3,1,0,90,0,8
1814,408.163265306122,3,1,0,90,1,0
1814,-100,3,1,0,90,0,0
4262,409.556313993174,3,1,0,90,1,0
4262,-99.6598639455783,3,1,0,90,0,0
5490,405.405405405405,3,1,0,90,1,0
5490,-100.680272108844,3,1,0,90,0,0
6300,416.666666666667,3,1,0,90,1,8
6300,-97.9591836734693,3,1,0,90,0,8
6716,405.405405405405,3,1,0,90,1,0
6716,-100.680272108844,3,1,0,90,0,0
7932,410.958904109589,3,1,0,90,1,0
7932,-99.3197278911565,3,1,0,90,0,0
8753,407.470288624788,3,1,0,90,1,8
8753,-100.170068027211,3,1,0,90,0,8
9160,407.608695652174,3,1,0,90,1,0
9160,-100.136054421769,3,1,0,90,0,0
10382,409.556313993174,4,1,0,90,1,0
10382,-99.6598639455783,4,1,0,90,0,0
10791,397.350993377483,4,1,0,90,1,8
10791,-102.721088435374,4,1,0,90,0,8
11188,405.405405405405,3,1,0,85,1,0
11188,-100.680272108844,3,1,0,85,0,0
11593,434.782608695652,3,1,0,85,1,8
11593,-93.8775510204082,3,1,0,85,0,8
12027,402.684563758389,3,1,0,85,1,8
12027,-101.360544217687,3,1,0,85,0,8
12429,413.793103448276,3,1,0,85,1,0
12429,-98.6394557823129,3,1,0,85,0,0
13256,404.721753794266,3,1,0,85,1,8
13256,-100.850340136055,3,1,0,85,0,8
13660,387.096774193548,3,1,0,85,1,0
13660,-105.442176870748,3,1,0,85,0,0
14047,412.371134020619,3,1,0,85,1,8
14047,-98.9795918367346,3,1,0,85,0,8
14871,415.22491349481,3,1,0,85,1,0
14871,-98.2993197278911,3,1,0,85,0,0
15701,405.405405405405,4,1,0,85,1,8
15701,-100.680272108844,4,1,0,85,0,8
16511,408.163265306122,3,1,0,85,1,0
16511,-100,3,1,0,85,0,0
17735,397.350993377483,3,1,0,85,1,0
17735,-102.721088435374,3,1,0,85,0,0
18529,402.684563758389,3,1,0,85,1,8
18529,-101.360544217687,3,1,0,85,0,8
18931,415.22491349481,3,1,0,85,1,0
18931,-98.2993197278911,3,1,0,85,0,0
20176,413.080895008606,4,1,0,85,1,0
20176,-98.8095238095238,4,1,0,85,0,0
20589,401.33779264214,4,1,0,85,1,8
20589,-101.700680272109,4,1,0,85,0,8
20990,410.958904109589,4,1,0,85,1,8
20990,-99.3197278911565,4,1,0,85,0,8
21400,424.028268551237,4,1,0,85,1,8
21400,-96.2585034013605,4,1,0,85,0,8
21824,400,4,1,0,90,1,1
21824,-102.040816326531,4,1,0,90,0,1
22224,406.779661016949,4,1,0,90,1,9
22224,-100.340136054422,4,1,0,90,0,9
23444,407.816482582838,4,1,0,90,1,1
23444,-100.085034013605,4,1,0,90,0,1
25075,419.58041958042,4,1,0,90,1,1
25075,-97.2789115646257,4,1,0,90,0,1
25494,402.684563758389,4,1,0,90,1,9
25494,-101.360544217687,4,1,0,90,0,9
26702,406.779661016949,4,1,0,90,1,1
26702,-100.340136054422,4,1,0,90,0,1
28329,412.371134020619,4,1,0,90,1,1
28329,-98.9795918367346,4,1,0,90,0,1
29978,406.779661016949,4,1,0,90,1,1
29978,-100.340136054422,4,1,0,90,0,1
31605,402.684563758389,4,1,0,90,1,1
31605,-101.360544217687,4,1,0,90,0,1
32410,425.531914893617,4,1,0,90,1,9
32410,-95.9183673469388,4,1,0,90,0,9
32835,389.61038961039,4,1,0,90,1,9
32835,-104.761904761905,4,1,0,90,0,9
33224,419.58041958042,4,1,0,90,1,1
33224,-97.2789115646257,4,1,0,90,0,1
33643,433.212996389892,4,1,0,90,1,9
33643,-94.2176870748299,4,1,0,90,0,9
34076,394.736842105263,4,1,0,90,1,9
34076,-103.401360544218,4,1,0,90,0,9
34668,410.958904109589,4,1,0,90,1,8
34668,-99.3197278911565,4,1,0,90,0,8
34873,410.958904109589,4,1,0,90,1,0
34873,-99.3197278911565,4,1,0,90,0,0
36311,428.571428571429,4,1,0,90,1,8
36311,-95.2380952380951,4,1,0,90,0,8
36525,404.721753794266,3,1,0,90,1,0
36525,-100.850340136055,3,1,0,90,0,0
37739,406.779661016949,3,1,0,90,1,0
37739,-100.340136054422,3,1,0,90,0,0
38959,408.163265306122,3,1,0,90,1,0
38959,-100,3,1,0,90,0,0
39775,402.684563758389,3,1,0,90,1,8
39775,-101.360544217687,3,1,0,90,0,8
40177,408.997955010225,3,1,0,90,1,0
40177,-99.7959183673469,3,1,0,90,0,0
40994,401.33779264214,3,1,0,90,1,8
40994,-101.700680272109,3,1,0,90,0,8
41395,413.793103448276,3,1,0,90,1,0
41395,-98.6394557823129,3,1,0,90,0,0
42636,406.091370558376,3,1,0,90,1,0
42636,-100.510204081633,3,1,0,90,0,0
43854,413.793103448276,3,1,0,90,1,0
43854,-98.6394557823129,3,1,0,90,0,0
44681,421.052631578947,3,1,0,90,1,8
44681,-96.9387755102042,3,1,0,90,0,8
45102,406.779661016949,3,1,0,90,1,0
45102,-100.340136054422,3,1,0,90,0,0
45915,399.334442595674,3,1,0,90,1,8
45915,-102.210884353741,3,1,0,90,0,8
46314,400.467211747038,4,1,0,90,1,0
46314,-101.921768707483,4,1,0,90,0,0
46714,407.470288624788,4,1,0,90,1,8
46714,-100.170068027211,4,1,0,90,0,8
47528,-100.170068027211,4,1,0,85,0,8
47936,431.654676258993,4,1,0,85,1,0
47936,-94.5578231292517,4,1,0,85,0,0
48583,375,4,1,0,85,1,8
48583,-108.843537414966,4,1,0,85,0,8
48958,419.58041958042,4,1,0,85,1,8
48958,-97.2789115646257,4,1,0,85,0,8
49167,413.793103448276,4,1,0,85,1,8
49167,-98.6394557823129,4,1,0,85,0,8
49580,408.163265306122,4,1,0,85,1,0
49580,-100,4,1,0,85,0,0
50804,397.350993377483,4,1,0,85,1,8
50804,-102.721088435374,4,1,0,85,0,8
51201,406.779661016949,3,1,0,85,1,0
51201,-100.340136054422,3,1,0,85,0,0
52421,413.793103448276,3,1,0,85,1,0
52421,-98.6394557823129,3,1,0,85,0,0
53248,394.736842105263,3,1,0,85,1,8
53248,-103.401360544218,3,1,0,85,0,8
53642,394.736842105263,3,1,0,85,1,0
53642,-103.401360544218,3,1,0,85,0,0
54036,422.535211267606,3,1,0,85,1,8
54036,-96.5986394557822,3,1,0,85,0,8
54458,408.163265306122,3,1,0,85,1,8
54458,-100,3,1,0,85,0,8
54866,408.163265306122,3,1,0,85,1,0
54866,-100,3,1,0,85,0,0
55682,422.535211267606,3,1,0,85,1,0
55682,-96.5986394557822,3,1,0,85,0,0
56104,416.666666666667,3,1,0,85,1,8
56104,-97.9591836734693,3,1,0,85,0,8
56520,407.470288624788,3,1,0,85,1,8
56520,-100.170068027211,3,1,0,85,0,8
56927,407.470288624788,3,1,0,85,1,0
56927,-100.170068027211,3,1,0,85,0,0
58149,387.096774193548,3,1,0,85,1,0
58149,-105.442176870748,3,1,0,85,0,0
58536,425.531914893617,3,1,0,85,1,8
58536,-95.9183673469388,3,1,0,85,0,8
58961,401.33779264214,3,1,0,85,1,8
58961,-101.700680272109,3,1,0,85,0,8
59362,407.608695652174,3,1,0,85,1,0
59362,-100.136054421769,3,1,0,85,0,0
60992,416.088765603329,3,1,0,85,1,8
60992,-98.095238095238,3,1,0,85,0,8
61824,402.684563758389,4,1,0,85,1,0
61824,-101.360544217687,4,1,0,85,0,0
62629,394.736842105263,4,1,0,85,1,8
62629,-103.401360544218,4,1,0,85,0,8
63023,416.666666666667,4,1,0,85,1,8
63023,-97.9591836734693,4,1,0,85,0,8
63439,408.163265306122,4,1,0,90,1,1
63439,-100,4,1,0,90,0,1
66704,404.040404040404,4,1,0,90,1,1
66704,-101.020408163265,4,1,0,90,0,1
68320,424.028268551237,4,1,0,90,1,1
68320,-96.2585034013605,4,1,0,90,0,1
69168,408.85860306644,4,1,0,90,1,9
69168,-99.829931972789,4,1,0,90,0,9
69985,400,4,1,0,90,1,1
69985,-102.040816326531,4,1,0,90,0,1
70585,416.666666666667,4,1,0,90,1,9
70585,-97.9591836734693,4,1,0,90,0,9
70793,416.666666666667,4,1,0,90,1,9
70793,-97.9591836734693,4,1,0,90,0,9
71209,408.163265306122,4,1,0,90,1,9
71209,-100,4,1,0,90,0,9
71617,403.361344537815,4,1,0,90,1,1
71617,-101.190476190476,4,1,0,90,0,1
73633,412.371134020619,4,1,0,90,1,9
73633,-98.9795918367346,4,1,0,90,0,9
74457,387.096774193548,4,1,0,90,1,9
74457,-105.442176870748,4,1,0,90,0,9
74844,437.956204379562,4,1,0,90,1,1
74844,-93.1972789115647,4,1,0,90,0,1
75281,419.58041958042,4,1,0,90,1,9
75281,-97.2789115646257,4,1,0,90,0,9
75700,406.779661016949,4,1,0,90,1,9
75700,-100.340136054422,4,1,0,90,0,9
76310,370.37037037037,4,1,0,90,1,8
76310,-110.204081632653,4,1,0,90,0,8
76515,401.33779264214,3,1,0,90,1,0
76515,-101.700680272109,3,1,0,90,0,0
76680,500,4,1,0,90,1,8
76680,-81.6326530612245,4,1,0,90,0,8
76930,408.163265306122,4,1,0,90,1,8
76930,-100,4,1,0,90,0,8
77950,434.782608695652,4,1,0,80,1,8
77950,-93.8775510204082,4,1,0,80,0,8
78167,407.608695652174,4,1,0,80,1,0
78167,-100.136054421769,4,1,0,80,0,0
80612,401.33779264214,4,1,0,80,1,8
80612,-101.700680272109,4,1,0,80,0,8
81414,410.25641025641,4,1,0,85,1,0
81414,-99.4897959183674,4,1,0,85,0,0
82234,408.163265306122,4,1,0,85,1,8
82234,-100,4,1,0,85,0,8
83050,400,4,1,0,85,1,0
83050,-102.040816326531,4,1,0,85,0,0
83850,415.944540727903,4,1,0,85,1,8
83850,-98.1292517006802,4,1,0,85,0,8
84681,405.405405405405,4,1,0,85,1,0
84681,-100.680272108844,4,1,0,85,0,0
85491,408.997955010225,4,1,0,85,1,8
85491,-99.7959183673469,4,1,0,85,0,8
86308,407.470288624788,4,1,0,85,1,0
86308,-100.170068027211,4,1,0,85,0,0
87122,410.958904109589,4,1,0,85,1,8
87122,-99.3197278911565,4,1,0,85,0,8
87532,423.280423280423,4,1,0,85,1,8
87532,-96.4285714285715,4,1,0,85,0,8
87955,405.405405405405,4,1,0,85,1,0
87955,-100.680272108844,4,1,0,85,0,0
89576,410.958904109589,4,1,0,85,1,0
89576,-99.3197278911565,4,1,0,85,0,0
90397,404.040404040404,4,1,0,85,1,8
90397,-101.020408163265,4,1,0,85,0,8
91205,407.470288624788,4,1,0,85,1,0
91205,-100.170068027211,4,1,0,85,0,0
92631,428.571428571429,4,1,0,85,1,8
92631,-95.2380952380951,4,1,0,85,0,8
92845,401.069518716578,4,1,0,85,1,0
92845,-101.768707482993,4,1,0,85,0,0
94048,422.535211267606,4,1,0,85,1,8
94048,-96.5986394557822,4,1,0,85,0,8
94470,406.091370558376,4,1,0,85,1,0
94470,-100.510204081633,4,1,0,85,0,0
95891,419.58041958042,4,1,0,85,1,8
95891,-97.2789115646257,4,1,0,85,0,8
96100,411.240575736806,4,1,0,85,1,0
96100,-99.2517006802721,4,1,0,85,0,0
97333,-99.2517006802721,4,1,0,90,0,0
97744,405.405405405405,4,1,0,90,1,0
97744,-100.680272108844,4,1,0,90,0,0
98554,400,4,1,0,90,1,8
98554,-102.040816326531,4,1,0,90,0,8
99354,412.371134020619,4,1,0,90,1,0
99354,-98.9795918367346,4,1,0,90,0,0
100178,401.33779264214,4,1,0,90,1,8
100178,-101.700680272109,4,1,0,90,0,8
100980,413.080895008606,4,1,0,90,1,0
100980,-98.8095238095238,4,1,0,90,0,0
101806,428.571428571429,4,1,0,90,1,8
101806,-95.2380952380951,4,1,0,90,0,8
102234,410.958904109589,4,1,0,90,1,8
102234,-99.3197278911565,4,1,0,90,0,8
102644,400,4,1,0,90,1,0
102644,-102.040816326531,4,1,0,90,0,0
103044,415.944540727903,4,1,0,90,1,8
103044,-98.1292517006802,4,1,0,90,0,8
103459,397.350993377483,4,1,0,90,1,8
103459,-102.721088435374,4,1,0,90,0,8
103856,413.507925568573,4,1,0,90,1,8
103856,-98.7074829931974,4,1,0,90,0,8
104269,413.507925568573,4,1,0,90,1,0
104269,-98.7074829931974,4,1,0,90,0,0
105716,363.636363636364,4,1,0,80,1,8
105716,-112.244897959184,4,1,0,80,0,8
105897,408.302143586254,4,1,0,80,1,0
105897,-99.9659863945578,4,1,0,80,0,0
105999,-99.9659863945578,4,1,0,40,0,0
115594,-99.9659863945578,4,1,0,90,0,0
115696,394.736842105263,4,1,0,90,1,0
115696,-103.401360544218,4,1,0,90,0,0
116090,409.556313993174,4,1,0,90,1,8
116090,-99.6598639455783,4,1,0,90,0,8
116704,437.956204379562,4,1,0,90,1,8
116704,-93.1972789115647,4,1,0,90,0,8
116922,410.958904109589,4,1,0,90,1,8
116922,-99.3197278911565,4,1,0,90,0,8
117332,408.163265306122,4,1,0,90,1,0
117332,-100,4,1,0,90,0,0
118556,402.684563758389,4,1,0,90,1,8
118556,-101.360544217687,4,1,0,90,0,8
118757,-101.360544217687,4,1,0,90,0,8
118958,397.350993377483,4,1,0,90,1,0
118958,-102.721088435374,4,1,0,90,0,0
119156,408.163265306122,4,1,0,90,1,8
119156,-100,4,1,0,90,0,8
119360,408.163265306122,4,1,0,90,1,8
119360,-100,4,1,0,90,0,8
119768,418.118466898955,4,1,0,90,1,8
119768,-97.6190476190475,4,1,0,90,0,8
120604,410.958904109589,4,1,0,90,1,1
120604,-99.3197278911565,4,1,0,90,0,1
121014,401.33779264214,4,1,0,90,1,9
121014,-101.700680272109,4,1,0,90,0,9
122218,407.470288624788,4,1,0,90,1,1
122218,-100.170068027211,4,1,0,90,0,1
123847,409.556313993174,4,1,0,90,1,1
123847,-99.6598639455783,4,1,0,90,0,1
124666,404.040404040404,4,1,0,90,1,9
124666,-101.020408163265,4,1,0,90,0,9
125474,413.793103448276,4,1,0,90,1,1
125474,-98.6394557823129,4,1,0,90,0,1
125887,408.85860306644,4,1,0,90,1,9
125887,-99.829931972789,4,1,0,90,0,9
127113,405.405405405405,4,1,0,90,1,1
127113,-100.680272108844,4,1,0,90,0,1
127923,414.651002073255,4,1,0,90,1,9
127923,-98.4353741496599,4,1,0,90,0,9
128752,409.836065573771,4,1,0,90,1,1
128752,-99.5918367346938,4,1,0,90,0,1
130391,402.684563758389,4,1,0,90,1,1
130391,-101.360544217687,4,1,0,90,0,1
131599,416.666666666667,4,1,0,90,1,9
131599,-97.9591836734693,4,1,0,90,0,9
132015,431.654676258993,4,1,0,90,1,1
132015,-94.5578231292517,4,1,0,90,0,1
132446,400.667779632721,4,1,0,90,1,9
132446,-101.87074829932,4,1,0,90,0,9
133648,415.944540727903,4,1,0,90,1,1
133648,-98.1292517006802,4,1,0,90,0,1
134479,406.779661016949,4,1,0,90,1,9
134479,-100.340136054422,4,1,0,90,0,9
135292,403.361344537815,4,1,0,90,1,1
135292,-101.190476190476,4,1,0,90,0,1
136905,411.805078929307,4,1,0,90,1,1
136905,-99.1156462585034,4,1,0,90,0,1
138140,394.736842105263,4,1,0,90,1,9
138140,-103.401360544218,4,1,0,90,0,9
138534,413.793103448276,4,1,0,90,1,1
138534,-98.6394557823129,4,1,0,90,0,1
139361,409.556313993174,4,1,0,90,1,9
139361,-99.6598639455783,4,1,0,90,0,9
140180,400,4,1,0,90,1,1
140180,-102.040816326531,4,1,0,90,0,1
140980,408.163265306122,4,1,0,90,1,9
140980,-100,4,1,0,90,0,9
141796,410.958904109589,4,1,0,90,1,1
141796,-99.3197278911565,4,1,0,90,0,1
143439,416.666666666667,4,1,0,90,1,1
143439,-97.9591836734693,4,1,0,90,0,1
144480,392.156862745098,4,1,0,90,1,9
144480,-104.081632653061,4,1,0,90,0,9
144676,375,4,1,0,90,1,9
144676,-108.843537414966,4,1,0,90,0,9
145051,451.127819548872,4,1,0,90,1,1
145051,-90.4761904761905,4,1,0,90,0,1
145276,416.666666666667,4,1,0,90,1,9
145276,-97.9591836734693,4,1,0,90,0,9
145484,416.666666666667,4,1,0,90,1,9
145484,-97.9591836734693,4,1,0,90,0,9
145900,405.405405405405,4,1,0,90,1,9
145900,-100.680272108844,4,1,0,90,0,9
146508,410.958904109589,4,1,0,90,1,8
146508,-99.3197278911565,4,1,0,90,0,8
146713,410.958904109589,4,1,0,90,1,0
146713,-99.3197278911565,4,1,0,90,0,0
146918,-99.3197278911565,4,1,0,90,0,0
147534,390.879478827362,4,1,0,90,1,8
147534,-104.421768707483,4,1,0,90,0,8
147924,402.684563758389,4,1,0,90,1,8
147924,-101.360544217687,4,1,0,90,0,8
148326,419.58041958042,4,1,0,90,1,0
148326,-97.2789115646257,4,1,0,90,0,0
149165,394.736842105263,4,1,0,90,1,8
149165,-103.401360544218,4,1,0,90,0,8
149559,413.793103448276,4,1,0,90,1,8
149559,-98.6394557823129,4,1,0,90,0,8
149972,424.028268551237,3,1,0,50,1,0
149972,-96.2585034013605,3,1,0,50,0,0
150502,405.405405405405,3,1,0,50,1,8
150502,-100.680272108844,3,1,0,50,0,8
150806,405.405405405405,3,1,0,50,1,8
150806,-100.680272108844,3,1,0,50,0,8
151211,402.684563758389,3,1,0,60,1,8
151211,-101.360544217687,3,1,0,60,0,8
151613,402.684563758389,3,1,0,90,1,0
151613,-101.360544217687,3,1,0,90,0,0
152015,418.118466898955,3,1,0,90,1,8
152015,-97.6190476190475,3,1,0,90,0,8
152851,405.405405405405,3,1,0,90,1,0
152851,-100.680272108844,3,1,0,90,0,0
153661,408.163265306122,3,1,0,90,1,8
153661,-100,3,1,0,90,0,8
154069,415.22491349481,3,1,0,90,1,0
154069,-98.2993197278911,3,1,0,90,0,0
154484,406.779661016949,3,1,0,90,1,8
154484,-100.340136054422,3,1,0,90,0,8
155297,413.793103448276,3,1,0,90,1,0
155297,-98.6394557823129,3,1,0,90,0,0
155710,397.350993377483,3,1,0,90,1,8
155710,-102.721088435374,3,1,0,90,0,8
156107,408.163265306122,3,1,0,90,1,8
156107,-100,3,1,0,90,0,8
156515,398.671096345515,3,1,0,90,1,0
156515,-102.380952380952,3,1,0,90,0,0
157312,408.163265306122,3,1,0,90,1,8
157312,-100,3,1,0,90,0,8
157720,411.734431291817,3,1,0,90,1,0
157720,-99.1326530612245,3,1,0,90,0,0
158955,413.793103448276,3,1,0,90,1,0
158955,-98.6394557823129,3,1,0,90,0,0
159368,400,3,1,0,90,1,8
159368,-102.040816326531,3,1,0,90,0,8
159768,413.793103448276,3,1,0,90,1,8
159768,-98.6394557823129,3,1,0,90,0,8
160181,402.684563758389,3,1,0,90,1,0
160181,-101.360544217687,3,1,0,90,0,0
160583,416.666666666667,3,1,0,90,1,8
160583,-97.9591836734693,3,1,0,90,0,8
160999,405.405405405405,3,1,0,90,1,8
160999,-100.680272108844,3,1,0,90,0,8
161404,412.371134020619,3,1,0,90,1,0
161404,-98.9795918367346,3,1,0,90,0,0
162434,408.163265306122,3,1,0,90,1,8
162434,-100,3,1,0,90,0,8
162638,408.163265306122,3,1,0,90,1,0
162638,-100,3,1,0,90,0,0

[HitObjects]
256,192,601,5,8,0:0:0:0:
256,192,1203,1,8,0:0:0:0:
256,192,1403,1,0,0:0:0:0:
256,192,1814,1,8,0:0:0:0:
256,192,2426,1,0,0:0:0:0:
256,192,2630,1,8,0:0:0:0:
256,192,3038,1,0,0:0:0:0:
256,192,3650,1,8,0:0:0:0:
256,192,3854,1,0,0:0:0:0:
256,192,4262,1,8,0:0:0:0:
256,192,5081,1,8,0:0:0:0:
256,192,5285,1,0,0:0:0:0:
256,192,5490,1,8,0:0:0:0:
256,192,6098,1,8,0:0:0:0:
256,192,6300,1,0,0:0:0:0:
256,192,6716,1,8,0:0:0:0:
256,192,7324,1,0,0:0:0:0:
256,192,7526,1,8,0:0:0:0:
256,192,7932,1,0,0:0:0:0:
256,192,8548,1,8,0:0:0:0:
256,192,8753,1,0,0:0:0:0:
256,192,9160,1,8,0:0:0:0:
256,192,9975,1,8,0:0:0:0:
256,192,10179,1,0,0:0:0:0:
256,192,10382,1,8,0:0:0:0:
256,192,10791,1,0,0:0:0:0:
256,192,11188,1,12,0:0:0:0:
256,192,11810,1,8,0:0:0:0:
256,192,12027,1,0,0:0:0:0:
256,192,12429,1,8,0:0:0:0:
256,192,12842,1,0,0:0:0:0:
256,192,13049,1,0,0:0:0:0:
256,192,13256,1,8,0:0:0:0:
256,160,13660,1,4,0:0:0:0:
256,160,14253,1,8,0:0:0:0:
256,160,14459,1,0,0:0:0:0:
256,160,14871,1,8,0:0:0:0:
256,160,15286,1,0,0:0:0:0:
256,160,15701,1,8,0:0:0:0:
256,128,16106,1,8,0:0:0:0:
256,192,16511,1,4,0:0:0:0:
256,192,17123,1,8,0:0:0:0:
256,192,17327,1,0,0:0:0:0:
256,192,17735,1,8,0:0:0:0:
256,192,18132,1,0,0:0:0:0:
256,192,18331,1,0,0:0:0:0:
256,192,18529,1,8,0:0:0:0:
256,160,18931,1,4,0:0:0:0:
256,160,19553,1,8,0:0:0:0:
256,160,19761,1,0,0:0:0:0:
256,160,20176,1,8,0:0:0:0:
256,160,20589,1,8,0:0:0:0:
256,160,21824,1,4,0:0:0:0:
256,160,22224,1,8,0:0:0:0:
256,160,22630,1,0,0:0:0:0:
256,160,23037,1,8,0:0:0:0:
256,160,23240,1,0,0:0:0:0:
256,160,23647,1,8,0:0:0:0:
256,160,24055,1,8,0:0:0:0:
256,160,24667,1,8,0:0:0:0:
256,160,24871,1,8,0:0:0:0:
256,160,25075,1,0,0:0:0:0:
256,160,25494,1,8,0:0:0:0:
224,128,25896,1,8,0:0:0:0:
256,160,26098,1,0,0:0:0:0:
192,96,26299,1,8,0:0:0:0:
192,96,26500,1,0,0:0:0:0:
192,96,26905,1,8,0:0:0:0:
192,96,27312,1,8,0:0:0:0:
192,96,28329,1,0,0:0:0:0:
192,96,28947,1,12,0:0:0:0:
192,96,29566,1,8,0:0:0:0:
192,96,29978,1,0,0:0:0:0:
192,96,30384,1,8,0:0:0:0:
192,96,30588,1,0,0:0:0:0:
192,96,31198,1,8,0:0:0:0:
192,96,31401,1,8,0:0:0:0:
192,96,31605,1,0,0:0:0:0:
192,96,32007,1,8,0:0:0:0:
192,96,32209,1,0,0:0:0:0:
192,96,32835,1,12,0:0:0:0:
192,96,33643,1,12,0:0:0:0:
192,96,34076,1,0,0:0:0:0:
192,96,34668,1,12,0:0:0:0:
256,192,36525,5,8,0:0:0:0:
256,192,37132,1,8,0:0:0:0:
256,192,37334,1,0,0:0:0:0:
256,192,37739,1,8,0:0:0:0:
256,192,38349,1,0,0:0:0:0:
256,192,38552,1,8,0:0:0:0:
256,192,38959,1,0,0:0:0:0:
256,192,39571,1,8,0:0:0:0:
256,192,39775,1,0,0:0:0:0:
256,192,40177,1,8,0:0:0:0:
256,192,40994,1,8,0:0:0:0:
256,192,41194,1,8,0:0:0:0:
256,192,41395,1,4,0:0:0:0:
256,192,42015,1,8,0:0:0:0:
256,192,42222,1,0,0:0:0:0:
256,192,42636,1,8,0:0:0:0:
256,192,43245,1,0,0:0:0:0:
256,192,43448,1,8,0:0:0:0:
256,192,43651,1,8,0:0:0:0:
256,192,43854,1,0,0:0:0:0:
256,192,44474,1,8,0:0:0:0:
256,192,44681,1,0,0:0:0:0:
256,192,45102,1,8,0:0:0:0:
256,192,45712,1,8,0:0:0:0:
256,192,45915,1,0,0:0:0:0:
256,192,46114,1,0,0:0:0:0:
256,192,46314,1,8,0:0:0:0:
256,192,46714,1,8,0:0:0:0:
256,192,47121,1,8,0:0:0:0:
256,192,47528,1,0,0:0:0:0:
256,192,47732,1,0,0:0:0:0:
256,192,47936,1,12,0:0:0:0:
256,192,49167,1,0,0:0:0:0:
256,192,49373,1,0,0:0:0:0:
256,192,49580,1,12,0:0:0:0:
256,192,50804,1,0,0:0:0:0:
256,192,51002,1,8,0:0:0:0:
256,192,51201,1,4,0:0:0:0:
256,192,51811,1,8,0:0:0:0:
256,192,52014,1,0,0:0:0:0:
256,192,52421,1,8,0:0:0:0:
256,192,52834,1,0,0:0:0:0:
256,192,53041,1,0,0:0:0:0:
256,192,53248,1,8,0:0:0:0:
256,160,53642,1,4,0:0:0:0:
256,160,54247,1,8,0:0:0:0:
256,160,54458,1,0,0:0:0:0:
256,160,54866,1,8,0:0:0:0:
256,160,55682,1,8,0:0:0:0:
256,160,56104,1,8,0:0:0:0:
256,192,56520,1,0,0:0:0:0:
256,160,56927,1,8,0:0:0:0:
256,192,57334,1,8,0:0:0:0:
256,192,57741,1,8,0:0:0:0:
256,192,58149,1,4,0:0:0:0:
256,192,58748,1,8,0:0:0:0:
256,192,58961,1,0,0:0:0:0:
256,192,59362,1,8,0:0:0:0:
256,192,59769,1,0,0:0:0:0:
256,192,59973,1,0,0:0:0:0:
256,192,60177,1,8,0:0:0:0:
256,160,60584,1,4,0:0:0:0:
256,160,61200,1,8,0:0:0:0:
256,160,61408,1,0,0:0:0:0:
256,160,61824,1,8,0:0:0:0:
256,160,62226,1,8,0:0:0:0:
256,160,62629,1,0,0:0:0:0:
224,128,63439,1,4,0:0:0:0:
224,128,63847,1,8,0:0:0:0:
224,128,64255,1,8,0:0:0:0:
224,96,64459,1,0,0:0:0:0:
224,128,64663,1,8,0:0:0:0:
224,128,64867,1,0,0:0:0:0:
224,128,65275,1,8,0:0:0:0:
224,128,65683,1,8,0:0:0:0:
224,128,66296,1,8,0:0:0:0:
224,128,66500,1,8,0:0:0:0:
224,128,66704,1,0,0:0:0:0:
224,128,67108,1,8,0:0:0:0:
192,96,67512,1,0,0:0:0:0:
160,64,67916,1,8,0:0:0:0:
160,64,68118,1,0,0:0:0:0:
160,64,68532,1,8,0:0:0:0:
160,64,68956,1,8,0:0:0:0:
160,64,69985,1,0,0:0:0:0:
160,64,70585,1,12,0:0:0:0:
160,64,71209,1,8,0:0:0:0:
160,64,71617,1,0,0:0:0:0:
160,64,72020,1,8,0:0:0:0:
160,64,72222,1,0,0:0:0:0:
160,64,72827,1,8,0:0:0:0:
160,64,73028,1,8,0:0:0:0:
160,64,73230,1,0,0:0:0:0:
160,64,73633,1,8,0:0:0:0:
160,64,73839,1,0,0:0:0:0:
160,64,74457,1,12,0:0:0:0:
160,64,75281,1,12,0:0:0:0:
160,64,75700,1,0,0:0:0:0:
160,64,76310,1,12,0:0:0:0:
224,192,78167,1,4,0:0:0:0:
256,192,81414,1,4,0:0:0:0:
256,192,81721,1,4,0:0:0:0:
256,192,82234,1,4,0:0:0:0:
256,192,82540,1,4,0:0:0:0:
256,192,83050,1,4,0:0:0:0:
256,192,83350,1,4,0:0:0:0:
256,192,83850,1,12,0:0:0:0:
256,192,84681,1,4,0:0:0:0:
256,192,84985,1,4,0:0:0:0:
256,192,85491,1,4,0:0:0:0:
256,192,85797,1,4,0:0:0:0:
256,192,86308,1,4,0:0:0:0:
256,192,86613,1,4,0:0:0:0:
256,192,87122,1,12,0:0:0:0:
256,192,87955,1,0,0:0:0:0:
256,192,88225,1,8,0:0:0:0:
256,192,88765,1,0,0:0:0:0:
256,192,89036,1,8,0:0:0:0:
256,192,89576,1,8,0:0:0:0:
256,192,89986,1,0,0:0:0:0:
256,192,90397,1,12,0:0:0:0:
256,192,91205,1,12,0:0:0:0:
256,192,92631,1,0,0:0:0:0:
256,192,92845,1,8,0:0:0:0:
256,192,94048,1,4,0:0:0:0:
256,192,94470,1,12,0:0:0:0:
256,192,95891,1,0,0:0:0:0:
256,192,96100,1,8,0:0:0:0:
160,32,97333,1,12,0:0:0:0:
256,192,97744,1,4,0:0:0:0:
256,192,98149,1,8,0:0:0:0:
256,192,98554,1,0,0:0:0:0:
256,192,98754,1,0,0:0:0:0:
256,192,98954,1,8,0:0:0:0:
256,192,99354,1,0,0:0:0:0:
256,192,99766,1,8,0:0:0:0:
256,192,100178,1,0,0:0:0:0:
256,192,100378,1,0,0:0:0:0:
256,192,100579,1,8,0:0:0:0:
256,192,100980,1,8,0:0:0:0:
256,192,101186,1,8,0:0:0:0:
256,192,101393,1,0,0:0:0:0:
256,192,101599,1,0,0:0:0:0:
256,192,101806,1,8,0:0:0:0:
256,192,102234,1,0,0:0:0:0:
256,192,102644,1,8,0:0:0:0:
256,192,102844,1,8,0:0:0:0:
256,192,103044,1,8,0:0:0:0:
256,192,103251,1,8,0:0:0:0:
256,192,103459,1,8,0:0:0:0:
256,192,103856,1,4,0:0:0:0:
256,192,105897,1,4,0:0:0:0:
256,192,115696,5,4,0:0:0:0:
256,160,116294,1,4,0:0:0:0:
256,160,116922,1,12,0:0:0:0:
256,160,117332,1,0,0:0:0:0:
224,128,117536,1,0,0:0:0:0:
256,128,117740,1,8,0:0:0:0:
256,160,118148,1,0,0:0:0:0:
256,128,118556,1,8,0:0:0:0:
224,96,118757,1,8,0:0:0:0:
256,128,118958,1,8,0:0:0:0:
256,128,119156,1,4,0:0:0:0:
256,128,119768,1,12,0:0:0:0:
256,160,120604,1,4,0:0:0:0:
256,160,121014,1,8,0:0:0:0:
256,160,121415,1,0,0:0:0:0:
256,160,121816,1,8,0:0:0:0:
256,160,122017,1,0,0:0:0:0:
256,160,122421,1,8,0:0:0:0:
256,160,122829,1,8,0:0:0:0:
256,160,123440,1,8,0:0:0:0:
256,160,123644,1,8,0:0:0:0:
256,160,123847,1,0,0:0:0:0:
256,160,124256,1,8,0:0:0:0:
224,128,124666,1,8,0:0:0:0:
256,160,124868,1,0,0:0:0:0:
192,96,125070,1,8,0:0:0:0:
192,96,125272,1,0,0:0:0:0:
192,96,125680,1,8,0:0:0:0:
192,96,126091,1,8,0:0:0:0:
192,96,127113,1,0,0:0:0:0:
192,96,127721,1,12,0:0:0:0:
192,96,128337,1,8,0:0:0:0:
192,96,128752,1,0,0:0:0:0:
192,96,129161,1,8,0:0:0:0:
192,96,129366,1,0,0:0:0:0:
192,96,129981,1,8,0:0:0:0:
192,96,130186,1,8,0:0:0:0:
192,96,130391,1,0,0:0:0:0:
192,96,130793,1,8,0:0:0:0:
192,96,130995,1,0,0:0:0:0:
192,64,131397,1,0,0:0:0:0:
192,96,131599,1,8,0:0:0:0:
192,96,131807,1,8,0:0:0:0:
192,96,132446,1,8,0:0:0:0:
192,96,132846,1,0,0:0:0:0:
192,96,133047,1,0,0:0:0:0:
192,96,133247,1,8,0:0:0:0:
224,128,133648,1,4,0:0:0:0:
224,128,134063,1,8,0:0:0:0:
224,128,134479,1,8,0:0:0:0:
224,96,134682,1,0,0:0:0:0:
224,128,134885,1,8,0:0:0:0:
224,128,135089,1,0,0:0:0:0:
224,128,135493,1,8,0:0:0:0:
224,128,135897,1,8,0:0:0:0:
224,128,136502,1,8,0:0:0:0:
224,128,136703,1,8,0:0:0:0:
224,128,136905,1,0,0:0:0:0:
224,128,137316,1,8,0:0:0:0:
192,96,137728,1,0,0:0:0:0:
160,64,138140,1,8,0:0:0:0:
160,64,138337,1,0,0:0:0:0:
160,64,138740,1,8,0:0:0:0:
160,64,139154,1,8,0:0:0:0:
160,64,140180,1,0,0:0:0:0:
160,64,140780,1,12,0:0:0:0:
160,64,141388,1,8,0:0:0:0:
160,64,141796,1,0,0:0:0:0:
160,64,142206,1,8,0:0:0:0:
160,64,142412,1,0,0:0:0:0:
160,64,143028,1,8,0:0:0:0:
160,64,143234,1,8,0:0:0:0:
160,64,143439,1,0,0:0:0:0:
160,64,143855,1,8,0:0:0:0:
160,64,144064,1,0,0:0:0:0:
160,64,144676,1,12,0:0:0:0:
160,64,145484,1,12,0:0:0:0:
160,64,145900,1,0,0:0:0:0:
160,64,146508,1,12,0:0:0:0:
192,64,147123,1,8,0:0:0:0:
192,64,147534,1,0,0:0:0:0:
192,64,147729,1,0,0:0:0:0:
192,64,147924,1,8,0:0:0:0:
192,64,148326,1,0,0:0:0:0:
192,64,148745,1,8,0:0:0:0:
192,64,148955,1,8,0:0:0:0:
192,64,149165,1,0,0:0:0:0:
192,64,149362,1,0,0:0:0:0:
192,64,149559,1,8,0:0:0:0:
192,64,149765,1,8,0:0:0:0:
256,160,151211,1,0,0:0:0:0:
256,192,151613,5,12,0:0:0:0:
256,192,152224,1,8,0:0:0:0:
256,192,152433,1,0,0:0:0:0:
256,192,152851,1,8,0:0:0:0:
256,192,153459,1,0,0:0:0:0:
256,192,153661,1,8,0:0:0:0:
256,192,154069,1,8,0:0:0:0:
256,192,154687,1,8,0:0:0:0:
256,192,154890,1,0,0:0:0:0:
256,192,155297,1,8,0:0:0:0:
256,192,156107,1,8,0:0:0:0:
256,192,156311,1,8,0:0:0:0:
256,192,156515,1,4,0:0:0:0:
256,192,157113,1,8,0:0:0:0:
256,192,157312,1,0,0:0:0:0:
256,192,157720,1,8,0:0:0:0:
256,192,158337,1,0,0:0:0:0:
256,192,158543,1,8,0:0:0:0:
256,192,158749,1,8,0:0:0:0:
256,192,158955,1,0,0:0:0:0:
256,192,159568,1,8,0:0:0:0:
256,192,159768,1,0,0:0:0:0:
256,192,160181,1,8,0:0:0:0:
256,192,160791,1,8,0:0:0:0:
256,192,160999,1,8,0:0:0:0:
256,192,161201,1,0,0:0:0:0:
224,160,162434,1,4,0:0:0:0:
