osu file format v14

[General]
AudioFilename: audio.mp3
AudioLeadIn: 0
PreviewTime: 95996
Countdown: 0
SampleSet: Normal
StackLeniency: 0.7
Mode: 1
LetterboxInBreaks: 0
WidescreenStoryboard: 1

[Editor]
Bookmarks: 588,6710,10383,21812,34669,36506,41404,45077,47934,51200,58139,63445,76302,78139,81404,90383,97730,103853,105894,115689,120587,133649,146506,149771,151608,162424
DistanceSpacing: 0.4
BeatDivisor: 4
GridSize: 32
TimelineZoom: 2.04

[Metadata]
Title:HAYARU YOROHIYA
TitleUnicode:はやるよろひや
Artist:vivid undress
ArtistUnicode:vivid undress
Creator:KyeX
Version:08's Oni
Source:
Tags:paz08 gaston_2199 japanese alternative indie rock jrock j-rock Unveil kiila yu-ya yuya syunn rio tomoki
BeatmapID:3299687
BeatmapSetID:1604274

[Difficulty]
HPDrainRate:5.5
CircleSize:5
OverallDifficulty:5.5
ApproachRate:10
SliderMultiplier:1.4
SliderTickRate:1

[Events]
//Background and Video events
0,0,"bg.jpg",0,0
//Break Periods
//Storyboard Layer 0 (Background)
//Storyboard Layer 1 (Fail)
//Storyboard Layer 2 (Pass)
//Storyboard Layer 3 (Foreground)
//Storyboard Layer 4 (Overlay)
//Storyboard Sound Samples

[TimingPoints]
601,401.33779264214,3,1,0,90,1,0
601,-96.8577907353419,3,1,0,90,0,0
1403,411.663807890223,3,1,0,90,1,8
1403,-94.428247489472,3,1,0,90,0,8
1814,408.163265306122,3,1,0,90,1,0
1814,-95.2380952380953,3,1,0,90,0,0
4262,409.556313993174,3,1,0,90,1,0
4262,-94.9141561386459,3,1,0,90,0,0
5490,405.405405405405,3,1,0,90,1,0
5490,-95.8859734369939,3,1,0,90,0,0
6300,416.666666666667,3,1,0,90,1,8
6300,-93.2944606413994,3,1,0,90,0,8
6716,405.405405405405,3,1,0,90,1,0
6716,-95.8859734369939,3,1,0,90,0,0
7932,410.958904109589,3,1,0,90,1,0
7932,-94.5902170391966,3,1,0,90,0,0
8753,407.470288624788,3,1,0,90,1,8
8753,-95.4000647878198,3,1,0,90,0,8
9160,407.608695652174,3,1,0,90,1,0
9160,-95.3676708778749,3,1,0,90,0,0
10382,409.556313993174,4,1,0,90,1,0
10382,-94.9141561386459,4,1,0,90,0,0
10791,397.350993377483,4,1,0,90,1,8
10791,-97.8296080336898,4,1,0,90,0,8
11188,405.405405405405,3,1,0,85,1,0
11188,-100.680272108844,3,1,0,85,0,0
11593,434.782608695652,3,1,0,85,1,8
11593,-93.8775510204082,3,1,0,85,0,8
12027,402.684563758389,3,1,0,85,1,8
12027,-101.360544217687,3,1,0,85,0,8
12429,413.793103448276,3,1,0,85,1,0
12429,-98.6394557823129,3,1,0,85,0,0
13256,404.721753794266,3,1,0,85,1,8
13256,-100.850340136055,3,1,0,85,0,8
13660,387.096774193548,3,1,0,85,1,0
13660,-105.442176870748,3,1,0,85,0,0
14047,412.371134020619,3,1,0,85,1,8
14047,-98.9795918367346,3,1,0,85,0,8
14871,415.22491349481,3,1,0,85,1,0
14871,-98.2993197278911,3,1,0,85,0,0
15701,405.405405405405,4,1,0,85,1,8
15701,-100.680272108844,4,1,0,85,0,8
16511,408.163265306122,3,1,0,85,1,0
16511,-100,3,1,0,85,0,0
17735,397.350993377483,3,1,0,85,1,0
17735,-102.721088435374,3,1,0,85,0,0
18529,402.684563758389,3,1,0,85,1,8
18529,-101.360544217687,3,1,0,85,0,8
18931,415.22491349481,3,1,0,85,1,0
18931,-98.2993197278911,3,1,0,85,0,0
20176,413.080895008606,4,1,0,85,1,0
20176,-98.8095238095238,4,1,0,85,0,0
20589,401.33779264214,4,1,0,85,1,8
20589,-101.700680272109,4,1,0,85,0,8
20990,410.958904109589,4,1,0,85,1,8
20990,-99.3197278911565,4,1,0,85,0,8
21400,424.028268551237,4,1,0,85,1,8
21400,-96.2585034013605,4,1,0,85,0,8
21824,400,4,1,0,90,1,1
21824,-92.7643784786642,4,1,0,90,0,1
22224,406.779661016949,4,1,0,90,1,9
22224,-91.2183055040198,4,1,0,90,0,9
23444,407.816482582838,4,1,0,90,1,1
23444,-90.9863945578231,4,1,0,90,0,1
25075,419.58041958042,4,1,0,90,1,1
25075,-88.4353741496598,4,1,0,90,0,1
25494,402.684563758389,4,1,0,90,1,9
25494,-92.1459492888065,4,1,0,90,0,9
26702,406.779661016949,4,1,0,90,1,1
26702,-91.2183055040198,4,1,0,90,0,1
28329,412.371134020619,4,1,0,90,1,1
28329,-89.9814471243042,4,1,0,90,0,1
29978,406.779661016949,4,1,0,90,1,1
29978,-91.2183055040198,4,1,0,90,0,1
31605,402.684563758389,4,1,0,90,1,1
31605,-92.1459492888065,4,1,0,90,0,1
32410,425.531914893617,4,1,0,90,1,9
32410,-87.1985157699443,4,1,0,90,0,9
32835,389.61038961039,4,1,0,90,1,9
32835,-95.2380952380951,4,1,0,90,0,9
33224,419.58041958042,4,1,0,90,1,1
33224,-88.4353741496598,4,1,0,90,0,1
33643,433.212996389892,4,1,0,90,1,9
33643,-85.6524427952999,4,1,0,90,0,9
34076,394.736842105263,4,1,0,90,1,9
34076,-94.0012368583797,4,1,0,90,0,9
34668,410.958904109589,4,1,0,90,1,8
34668,-90.2906617192331,4,1,0,90,0,8
34873,410.958904109589,4,1,0,90,1,0
34873,-90.2906617192331,4,1,0,90,0,0
36311,428.571428571429,4,1,0,90,1,8
36311,-95.2380952380951,4,1,0,90,0,8
36525,404.721753794266,3,1,0,90,1,0
36525,-100.850340136055,3,1,0,90,0,0
37739,406.779661016949,3,1,0,90,1,0
37739,-100.340136054422,3,1,0,90,0,0
38959,408.163265306122,3,1,0,90,1,0
38959,-100,3,1,0,90,0,0
39775,402.684563758389,3,1,0,90,1,8
39775,-101.360544217687,3,1,0,90,0,8
40177,408.997955010225,3,1,0,90,1,0
40177,-99.7959183673469,3,1,0,90,0,0
40790,-99.081188436616,3,1,0,90,0,0
40892,-98.3766233766234,3,1,0,90,0,0
40994,401.33779264214,3,1,0,90,1,8
40994,-99.5464224731843,3,1,0,90,0,8
41094,-98.8620664820308,3,1,0,90,0,8
41395,413.793103448276,3,1,0,90,1,0
41395,-93.942338840298,3,1,0,90,0,0
42636,406.091370558376,3,1,0,90,1,0
42636,-95.7240038872691,3,1,0,90,0,0
43854,413.793103448276,3,1,0,90,1,0
43854,-93.942338840298,3,1,0,90,0,0
44681,421.052631578947,3,1,0,90,1,8
44681,-92.3226433430516,3,1,0,90,0,8
45102,406.779661016949,3,1,0,90,1,0
45102,-95.5620343375446,3,1,0,90,0,0
45915,399.334442595674,3,1,0,90,1,8
45915,-97.3436993845157,3,1,0,90,0,8
46314,400.467211747038,4,1,0,90,1,0
46314,-97.0683511499839,4,1,0,90,0,0
46714,407.470288624788,4,1,0,90,1,8
46714,-89.0915797630012,4,1,0,90,0,8
47121,-83.4750566893424,4,1,0,90,0,8
47528,-100.170068027211,4,1,0,85,0,8
47936,431.654676258993,4,1,0,85,1,0
47936,-94.5578231292517,4,1,0,85,0,0
48583,375,4,1,0,85,1,8
48583,-108.843537414966,4,1,0,85,0,8
48958,419.58041958042,4,1,0,85,1,8
48958,-97.2789115646257,4,1,0,85,0,8
49167,413.793103448276,4,1,0,85,1,8
49167,-98.6394557823129,4,1,0,85,0,8
49580,408.163265306122,4,1,0,85,1,0
49580,-100,4,1,0,85,0,0
50804,397.350993377483,4,1,0,85,1,8
50804,-102.721088435374,4,1,0,85,0,8
51201,406.779661016949,3,1,0,85,1,0
51201,-100.340136054422,3,1,0,85,0,0
52421,413.793103448276,3,1,0,85,1,0
52421,-98.6394557823129,3,1,0,85,0,0
53248,394.736842105263,3,1,0,85,1,8
53248,-103.401360544218,3,1,0,85,0,8
53642,394.736842105263,3,1,0,85,1,0
53642,-103.401360544218,3,1,0,85,0,0
54036,422.535211267606,3,1,0,85,1,8
54036,-96.5986394557822,3,1,0,85,0,8
54458,408.163265306122,3,1,0,85,1,8
54458,-100,3,1,0,85,0,8
54866,408.163265306122,3,1,0,85,1,0
54866,-100,3,1,0,85,0,0
55682,422.535211267606,3,1,0,85,1,0
55682,-96.5986394557822,3,1,0,85,0,0
56104,416.666666666667,3,1,0,85,1,8
56104,-97.9591836734693,3,1,0,85,0,8
56520,407.470288624788,3,1,0,85,1,8
56520,-100.170068027211,3,1,0,85,0,8
56927,407.470288624788,3,1,0,85,1,0
56927,-100.170068027211,3,1,0,85,0,0
58149,387.096774193548,3,1,0,85,1,0
58149,-105.442176870748,3,1,0,85,0,0
58536,425.531914893617,3,1,0,85,1,8
58536,-95.9183673469388,3,1,0,85,0,8
58961,401.33779264214,3,1,0,85,1,8
58961,-101.700680272109,3,1,0,85,0,8
59362,407.608695652174,3,1,0,85,1,0
59362,-100.136054421769,3,1,0,85,0,0
60992,416.088765603329,3,1,0,85,1,8
60992,-98.095238095238,3,1,0,85,0,8
61824,402.684563758389,4,1,0,85,1,0
61824,-101.360544217687,4,1,0,85,0,0
62629,394.736842105263,4,1,0,85,1,8
62629,-103.401360544218,4,1,0,85,0,8
63023,416.666666666667,4,1,0,85,1,8
63023,-97.9591836734693,4,1,0,85,0,8
63439,408.163265306122,4,1,0,90,1,1
63439,-90.909090909091,4,1,0,90,0,1
66704,404.040404040404,4,1,0,90,1,1
66704,-91.8367346938776,4,1,0,90,0,1
68320,424.028268551237,4,1,0,90,1,1
68320,-87.5077303648732,4,1,0,90,0,1
69168,408.85860306644,4,1,0,90,1,9
69168,-90.7544836116264,4,1,0,90,0,9
69985,400,4,1,0,90,1,1
69985,-92.7643784786642,4,1,0,90,0,1
70585,416.666666666667,4,1,0,90,1,9
70585,-89.0538033395175,4,1,0,90,0,9
70793,416.666666666667,4,1,0,90,1,9
70793,-89.0538033395175,4,1,0,90,0,9
71209,408.163265306122,4,1,0,90,1,9
71209,-90.909090909091,4,1,0,90,0,9
71617,403.361344537815,4,1,0,90,1,1
71617,-91.991341991342,4,1,0,90,0,1
73633,412.371134020619,4,1,0,90,1,9
73633,-89.9814471243042,4,1,0,90,0,9
74457,387.096774193548,4,1,0,90,1,9
74457,-95.8565244279531,4,1,0,90,0,9
74844,437.956204379562,4,1,0,90,1,1
74844,-84.7247990105133,4,1,0,90,0,1
75281,419.58041958042,4,1,0,90,1,9
75281,-88.4353741496598,4,1,0,90,0,9
75700,406.779661016949,4,1,0,90,1,9
75700,-91.2183055040198,4,1,0,90,0,9
76310,370.37037037037,4,1,0,90,1,8
76310,-100.185528756957,4,1,0,90,0,8
76515,401.33779264214,3,1,0,90,1,0
76515,-92.4551638837354,3,1,0,90,0,0
76680,500,4,1,0,90,1,8
76680,-81.6326530612245,4,1,0,90,0,8
76930,408.163265306122,4,1,0,90,1,8
76930,-100,4,1,0,90,0,8
77950,434.782608695652,4,1,0,80,1,8
77950,-93.8775510204082,4,1,0,80,0,8
78167,407.608695652174,4,1,0,80,1,0
78167,-100.136054421769,4,1,0,80,0,0
80612,401.33779264214,4,1,0,80,1,8
80612,-101.700680272109,4,1,0,80,0,8
81414,410.25641025641,4,1,0,85,1,0
81414,-94.7521865889213,4,1,0,85,0,0
82234,408.163265306122,4,1,0,85,1,8
82234,-95.2380952380953,4,1,0,85,0,8
83050,400,4,1,0,85,1,0
83050,-97.1817298347911,4,1,0,85,0,0
83850,415.944540727903,4,1,0,85,1,8
83850,-93.456430191124,4,1,0,85,0,8
84681,405.405405405405,4,1,0,85,1,0
84681,-95.8859734369939,4,1,0,85,0,0
85491,408.997955010225,4,1,0,85,1,8
85491,-95.0437317784256,4,1,0,85,0,8
86308,407.470288624788,4,1,0,85,1,0
86308,-95.4000647878198,4,1,0,85,0,0
87122,410.958904109589,4,1,0,85,1,8
87122,-94.5902170391966,4,1,0,85,0,8
87532,423.280423280423,4,1,0,85,1,8
87532,-91.8367346938776,4,1,0,85,0,8
87955,405.405405405405,4,1,0,85,1,0
87955,-95.8859734369939,4,1,0,85,0,0
89576,410.958904109589,4,1,0,85,1,0
89576,-94.5902170391966,4,1,0,85,0,0
90397,404.040404040404,4,1,0,85,1,8
90397,-96.2099125364432,4,1,0,85,0,8
91205,407.470288624788,4,1,0,85,1,0
91205,-100.170068027211,4,1,0,85,0,0
92631,428.571428571429,4,1,0,85,1,8
92631,-95.2380952380951,4,1,0,85,0,8
92845,401.069518716578,4,1,0,85,1,0
92845,-101.768707482993,4,1,0,85,0,0
94048,422.535211267606,4,1,0,85,1,8
94048,-96.5986394557822,4,1,0,85,0,8
94470,406.091370558376,4,1,0,85,1,0
94470,-100.510204081633,4,1,0,85,0,0
95891,419.58041958042,4,1,0,85,1,8
95891,-97.2789115646257,4,1,0,85,0,8
96100,411.240575736806,4,1,0,85,1,0
96100,-99.2517006802721,4,1,0,85,0,0
97333,-94.5254292193068,4,1,0,90,0,0
97744,405.405405405405,4,1,0,90,1,0
97744,-95.8859734369939,4,1,0,90,0,0
98554,400,4,1,0,90,1,8
98554,-97.1817298347911,4,1,0,90,0,8
99354,412.371134020619,4,1,0,90,1,0
99354,-94.2662779397472,4,1,0,90,0,0
100178,401.33779264214,4,1,0,90,1,8
100178,-96.8577907353419,4,1,0,90,0,8
100980,413.080895008606,4,1,0,90,1,0
100980,-94.1043083900226,4,1,0,90,0,0
101806,428.571428571429,4,1,0,90,1,8
101806,-90.7029478458049,4,1,0,90,0,8
102234,410.958904109589,4,1,0,90,1,8
102234,-94.5902170391966,4,1,0,90,0,8
102644,400,4,1,0,90,1,0
102644,-97.1817298347911,4,1,0,90,0,0
102744,-96.4240366347693,4,1,0,90,0,0
102844,-95.6780669872776,4,1,0,90,0,0
102944,-94.9435508888032,4,1,0,90,0,0
103044,415.944540727903,4,1,0,90,1,8
103044,-90.6084512122691,4,1,0,90,0,8
103147,-89.9029806192641,4,1,0,90,0,8
103251,-89.2017198389143,4,1,0,90,0,8
103355,-88.5113143270257,4,1,0,90,0,8
103459,397.350993377483,4,1,0,90,1,8
103459,-91.9414808239226,4,1,0,90,0,8
103657,-90.6164634861879,4,1,0,90,0,8
103856,413.507925568573,4,1,0,90,1,8
103856,-85.8325939071282,4,1,0,90,0,8
104269,413.507925568573,4,1,0,90,1,0
104269,-85.8325939071282,4,1,0,90,0,8
105716,363.636363636364,4,1,0,80,1,8
105716,-112.244897959184,4,1,0,80,0,8
105897,408.302143586254,4,1,0,80,1,0
105897,-111.073318216175,4,1,0,80,0,0
105999,-111.073318216175,4,1,0,40,0,0
115594,-111.073318216175,4,1,0,90,0,0
115696,394.736842105263,4,1,0,90,1,0
115696,-103.401360544218,4,1,0,90,0,0
116090,409.556313993174,4,1,0,90,1,8
116090,-99.6598639455783,4,1,0,90,0,8
116704,437.956204379562,4,1,0,90,1,8
116704,-93.1972789115647,4,1,0,90,0,8
116922,410.958904109589,4,1,0,90,1,8
116922,-99.3197278911565,4,1,0,90,0,8
117332,408.163265306122,4,1,0,90,1,0
117332,-100,4,1,0,90,0,0
117434,-99.4438992476285,4,1,0,90,0,0
117536,-98.8939492517893,4,1,0,90,0,0
117740,-97.8120978120979,4,1,0,90,0,0
117944,-96.7536600891153,4,1,0,90,0,0
118046,-96.2329851218741,4,1,0,90,0,0
118148,-95.7178841309825,4,1,0,90,0,0
118352,-94.7040498442369,4,1,0,90,0,0
118556,402.684563758389,4,1,0,90,1,8
118556,-94.9864532742814,4,1,0,90,0,8
118656,-94.500936747629,4,1,0,90,0,8
118757,-94.015577245391,4,1,0,90,0,8
118958,397.350993377483,4,1,0,90,1,0
118958,-94.3135333263479,4,1,0,90,0,0
119156,408.163265306122,4,1,0,90,1,8
119156,-90.909090909091,4,1,0,90,0,8
119360,408.163265306122,4,1,0,90,1,8
119360,-90.909090909091,4,1,0,90,0,8
119768,418.118466898955,4,1,0,90,1,8
119768,-88.7445887445887,4,1,0,90,0,8
120604,410.958904109589,4,1,0,90,1,1
120604,-86.3649807749187,4,1,0,90,0,1
121014,401.33779264214,4,1,0,90,1,9
121014,-88.43537414966,4,1,0,90,0,9
122218,407.470288624788,4,1,0,90,1,1
122218,-87.1044069801833,4,1,0,90,0,1
123847,409.556313993174,4,1,0,90,1,1
123847,-86.6607512570246,4,1,0,90,0,1
124666,404.040404040404,4,1,0,90,1,9
124666,-87.8438331854481,4,1,0,90,0,9
125474,413.793103448276,4,1,0,90,1,1
125474,-85.7734398107069,4,1,0,90,0,1
125887,408.85860306644,4,1,0,90,1,9
125887,-86.8086364980774,4,1,0,90,0,9
127113,405.405405405405,4,1,0,90,1,1
127113,-87.5480627033423,4,1,0,90,0,1
127923,414.651002073255,4,1,0,90,1,9
127923,-85.5959775214434,4,1,0,90,0,9
128752,409.836065573771,4,1,0,90,1,1
128752,-86.6015971606033,4,1,0,90,0,1
130391,402.684563758389,4,1,0,90,1,1
130391,-88.139603667554,4,1,0,90,0,1
131599,416.666666666667,4,1,0,90,1,9
131599,-85.1818988464951,4,1,0,90,0,9
132015,431.654676258993,4,1,0,90,1,1
132015,-82.2241940254362,4,1,0,90,0,1
132446,400.667779632721,4,1,0,90,1,9
132446,-88.5832593907129,4,1,0,90,0,9
133648,415.944540727903,4,1,0,90,1,1
133648,-85.329784087548,4,1,0,90,0,1
134479,406.779661016949,4,1,0,90,1,9
134479,-87.2522922212364,4,1,0,90,0,9
135292,403.361344537815,4,1,0,90,1,1
135292,-87.9917184265011,4,1,0,90,0,1
136905,411.805078929307,4,1,0,90,1,1
136905,-86.1875184856551,4,1,0,90,0,1
138140,394.736842105263,4,1,0,90,1,9
138140,-89.9142265601893,4,1,0,90,0,9
138534,413.793103448276,4,1,0,90,1,1
138534,-85.7734398107069,4,1,0,90,0,1
139361,409.556313993174,4,1,0,90,1,9
139361,-86.6607512570246,4,1,0,90,0,9
140180,400,4,1,0,90,1,1
140180,-88.7311446317657,4,1,0,90,0,1
140980,408.163265306122,4,1,0,90,1,9
140980,-86.9565217391305,4,1,0,90,0,9
141796,410.958904109589,4,1,0,90,1,1
141796,-86.3649807749187,4,1,0,90,0,1
143439,416.666666666667,4,1,0,90,1,1
143439,-85.1818988464951,4,1,0,90,0,1
144480,392.156862745098,4,1,0,90,1,9
144480,-90.5057675244011,4,1,0,90,0,9
144676,375,4,1,0,90,1,9
144676,-94.6465542738835,4,1,0,90,0,9
145051,451.127819548872,4,1,0,90,1,1
145051,-78.6749482401657,4,1,0,90,0,1
145276,416.666666666667,4,1,0,90,1,9
145276,-85.1818988464951,4,1,0,90,0,9
145484,416.666666666667,4,1,0,90,1,9
145484,-85.1818988464951,4,1,0,90,0,9
145900,405.405405405405,4,1,0,90,1,9
145900,-87.5480627033423,4,1,0,90,0,9
146508,410.958904109589,4,1,0,90,1,8
146508,-86.3649807749187,4,1,0,90,0,8
146713,410.958904109589,4,1,0,90,1,0
146713,-90.2906617192331,4,1,0,90,0,0
146918,-90.2906617192331,4,1,0,90,0,0
147123,-89.7034659305001,4,1,0,90,0,0
147329,-89.1210493274466,4,1,0,90,0,0
147534,390.879478827362,4,1,0,90,1,8
147534,-93.0976655842557,4,1,0,90,0,8
147729,-92.5326118993413,4,1,0,90,0,8
147924,402.684563758389,4,1,0,90,1,8
147924,-89.2780587778843,4,1,0,90,0,8
148125,-88.7263157630535,4,1,0,90,0,8
148326,419.58041958042,4,1,0,90,1,0
148326,-84.6304235980106,4,1,0,90,0,0
148535,-84.0933567815903,4,1,0,90,0,0
148745,-83.5605422473116,4,1,0,90,0,0
148955,-83.0344370163967,4,1,0,90,0,0
149165,394.736842105263,4,1,0,90,1,8
149165,-87.7081615628018,4,1,0,90,0,8
149362,-87.1963725806072,4,1,0,90,0,8
149559,413.793103448276,4,1,0,90,1,8
149559,-82.698195009201,4,1,0,90,0,8
149765,-82.1995464852608,4,1,0,90,0,8
149972,424.028268551237,3,1,0,50,1,0
149972,-80.2154195011337,3,1,0,50,0,0
150502,405.405405405405,3,1,0,50,1,8
150502,-100.680272108844,3,1,0,50,0,8
150806,405.405405405405,3,1,0,50,1,8
150806,-100.680272108844,3,1,0,50,0,8
151211,402.684563758389,3,1,0,60,1,8
151211,-88.139603667554,3,1,0,60,0,8
151311,-88.139603667554,3,1,0,70,0,8
151412,-88.139603667554,3,1,0,80,0,8
151613,402.684563758389,3,1,0,90,1,0
151613,-88.139603667554,3,1,0,90,0,0
152015,418.118466898955,3,1,0,90,1,8
152015,-84.8861283643892,3,1,0,90,0,8
152851,405.405405405405,3,1,0,90,1,0
152851,-87.5480627033423,3,1,0,90,0,0
153661,408.163265306122,3,1,0,90,1,8
153661,-86.9565217391305,3,1,0,90,0,8
154069,415.22491349481,3,1,0,90,1,0
154069,-85.477669328601,3,1,0,90,0,0
154484,406.779661016949,3,1,0,90,1,8
154484,-87.2522922212364,3,1,0,90,0,8
155297,413.793103448276,3,1,0,90,1,0
155297,-85.7734398107069,3,1,0,90,0,0
155710,397.350993377483,3,1,0,90,1,8
155710,-89.3226855959776,3,1,0,90,0,8
156107,408.163265306122,3,1,0,90,1,8
156107,-86.9565217391305,3,1,0,90,0,8
156515,398.671096345515,3,1,0,90,1,0
156515,-85.3174603174603,3,1,0,90,0,0
157312,408.163265306122,3,1,0,90,1,8
157312,-83.3333333333334,3,1,0,90,0,8
157720,411.734431291817,3,1,0,90,1,0
157720,-82.6105442176871,3,1,0,90,0,0
158955,413.793103448276,3,1,0,90,1,0
158955,-82.1995464852607,3,1,0,90,0,0
159368,400,3,1,0,90,1,8
159368,-85.0340136054422,3,1,0,90,0,8
159768,413.793103448276,3,1,0,90,1,8
159768,-82.1995464852607,3,1,0,90,0,8
160181,402.684563758389,3,1,0,90,1,0
160181,-84.4671201814059,3,1,0,90,0,0
160583,416.666666666667,3,1,0,90,1,8
160583,-81.6326530612244,3,1,0,90,0,8
160999,405.405405405405,3,1,0,90,1,8
160999,-83.9002267573697,3,1,0,90,0,8
161404,412.371134020619,3,1,0,90,1,0
161404,-82.4829931972788,3,1,0,90,0,0
162434,408.163265306122,3,1,0,90,1,8
162434,-83.3333333333334,3,1,0,90,0,8
162638,408.163265306122,3,1,0,90,1,0
162638,-100,3,1,0,90,0,0

[HitObjects]
256,192,601,5,8,0:0:0:0:
256,192,801,1,0,0:0:0:0:
256,192,902,1,8,0:0:0:0:
256,192,1102,1,8,0:0:0:0:
256,192,1203,1,8,0:0:0:0:
256,192,1403,1,0,0:0:0:0:
256,192,1608,1,8,0:0:0:0:
256,192,1814,1,0,0:0:0:0:
256,192,2018,1,0,0:0:0:0:
256,192,2120,1,8,0:0:0:0:
256,192,2324,1,8,0:0:0:0:
256,192,2426,1,0,0:0:0:0:
256,192,2630,1,8,0:0:0:0:
256,192,3038,1,8,0:0:0:0:
256,192,3242,1,0,0:0:0:0:
256,192,3344,1,8,0:0:0:0:
256,192,3548,1,8,0:0:0:0:
256,192,3650,1,0,0:0:0:0:
256,192,3854,1,0,0:0:0:0:
256,192,4058,1,8,0:0:0:0:
256,192,4262,1,0,0:0:0:0:
256,192,4466,1,0,0:0:0:0:
256,192,4569,1,8,0:0:0:0:
256,192,4773,1,8,0:0:0:0:
256,192,4876,1,0,0:0:0:0:
256,192,5081,1,8,0:0:0:0:
256,192,5490,1,0,0:0:0:0:
256,192,5591,1,8,0:0:0:0:
256,192,5692,1,8,0:0:0:0:
256,192,5794,1,0,0:0:0:0:
256,192,5996,1,0,0:0:0:0:
256,192,6098,1,0,0:0:0:0:
256,192,6300,1,8,0:0:0:0:
256,192,6508,1,0,0:0:0:0:
256,192,6716,1,8,0:0:0:0:
256,192,6817,1,0,0:0:0:0:
256,192,6918,1,0,0:0:0:0:
256,192,7020,1,8,0:0:0:0:
256,192,7222,1,0,0:0:0:0:
256,192,7324,1,8,0:0:0:0:
256,192,7526,1,8,0:0:0:0:
256,192,7932,1,8,0:0:0:0:
256,192,8034,1,0,0:0:0:0:
256,192,8137,1,0,0:0:0:0:
256,192,8240,1,8,0:0:0:0:
256,192,8445,1,8,0:0:0:0:
256,192,8651,1,0,0:0:0:0:
256,192,8753,1,8,0:0:0:0:
256,192,8956,1,0,0:0:0:0:
256,192,9160,1,8,0:0:0:0:
256,192,9261,1,0,0:0:0:0:
256,192,9465,1,0,0:0:0:0:
256,192,9669,1,8,0:0:0:0:
256,192,9771,1,8,0:0:0:0:
256,192,9873,1,0,0:0:0:0:
256,192,9975,1,0,0:0:0:0:
256,192,10179,1,0,0:0:0:0:
256,192,10382,1,8,0:0:0:0:
256,192,10791,1,0,0:0:0:0:
256,192,11188,1,12,0:0:0:0:
256,192,11492,1,8,0:0:0:0:
256,192,11593,1,0,0:0:0:0:
256,192,11810,1,8,0:0:0:0:
256,192,12027,1,0,0:0:0:0:
256,192,12228,1,8,0:0:0:0:
256,192,12329,1,8,0:0:0:0:
256,192,12429,1,0,0:0:0:0:
256,192,12739,1,8,0:0:0:0:
256,192,12842,1,0,0:0:0:0:
256,192,13049,1,0,0:0:0:0:
256,192,13256,1,8,0:0:0:0:
256,192,13660,1,4,0:0:0:0:
256,192,13950,1,0,0:0:0:0:
256,192,14047,1,8,0:0:0:0:
256,192,14253,1,8,0:0:0:0:
256,192,14356,1,8,0:0:0:0:
256,192,14459,1,0,0:0:0:0:
256,192,14665,1,8,0:0:0:0:
256,192,14871,1,0,0:0:0:0:
256,192,15182,1,8,0:0:0:0:
256,192,15286,1,0,0:0:0:0:
256,192,15493,1,8,0:0:0:0:
256,192,15701,1,0,0:0:0:0:
256,192,16106,1,0,0:0:0:0:
256,192,16511,1,12,0:0:0:0:
256,192,16817,1,8,0:0:0:0:
256,192,16919,1,0,0:0:0:0:
256,192,17123,1,8,0:0:0:0:
256,192,17327,1,0,0:0:0:0:
256,192,17531,1,8,0:0:0:0:
256,192,17633,1,8,0:0:0:0:
256,192,17735,1,0,0:0:0:0:
256,192,17933,1,0,0:0:0:0:
256,192,18033,1,8,0:0:0:0:
256,192,18132,1,0,0:0:0:0:
256,192,18331,1,0,0:0:0:0:
256,192,18529,1,8,0:0:0:0:
256,192,18931,1,4,0:0:0:0:
256,192,19242,1,8,0:0:0:0:
256,192,19346,1,0,0:0:0:0:
256,192,19553,1,8,0:0:0:0:
256,192,19761,1,0,0:0:0:0:
256,192,19969,1,0,0:0:0:0:
256,192,20176,1,12,0:0:0:0:
256,192,20589,1,12,0:0:0:0:
256,192,21824,1,4,0:0:0:0:
256,192,22024,1,0,0:0:0:0:
256,192,22224,1,8,0:0:0:0:
256,192,22427,1,0,0:0:0:0:
256,192,22529,1,0,0:0:0:0:
256,192,22630,1,8,0:0:0:0:
256,192,22834,1,0,0:0:0:0:
256,192,23037,1,8,0:0:0:0:
256,192,23240,1,8,0:0:0:0:
256,192,23342,1,0,0:0:0:0:
256,192,23444,1,8,0:0:0:0:
256,192,23647,1,0,0:0:0:0:
256,192,23851,1,8,0:0:0:0:
256,192,24055,1,0,0:0:0:0:
256,192,24157,1,8,0:0:0:0:
256,192,24259,1,0,0:0:0:0:
256,192,24361,1,8,0:0:0:0:
256,192,24463,1,0,0:0:0:0:
256,192,24667,1,8,0:0:0:0:
256,192,24871,1,0,0:0:0:0:
256,192,24973,1,0,0:0:0:0:
256,192,25075,1,8,0:0:0:0:
256,192,25284,1,0,0:0:0:0:
256,192,25494,1,8,0:0:0:0:
256,192,25695,1,0,0:0:0:0:
256,192,25896,1,8,0:0:0:0:
256,192,25997,1,8,0:0:0:0:
256,192,26098,1,0,0:0:0:0:
256,192,26198,1,0,0:0:0:0:
256,192,26299,1,8,0:0:0:0:
256,192,26500,1,0,0:0:0:0:
256,192,26601,1,0,0:0:0:0:
256,192,26702,1,0,0:0:0:0:
256,192,26905,1,8,0:0:0:0:
256,192,27108,1,8,0:0:0:0:
256,192,27312,1,0,0:0:0:0:
256,192,27515,1,8,0:0:0:0:
256,192,27617,1,8,0:0:0:0:
256,192,27718,1,0,0:0:0:0:
256,192,27922,1,8,0:0:0:0:
256,192,28329,1,8,0:0:0:0:
256,192,28432,1,8,0:0:0:0:
256,192,28535,1,0,0:0:0:0:
256,192,28638,1,0,0:0:0:0:
256,192,28741,1,8,0:0:0:0:
256,192,28947,1,12,0:0:0:0:
256,192,29359,1,8,0:0:0:0:
256,192,29463,1,0,0:0:0:0:
256,192,29566,1,8,0:0:0:0:
256,192,29772,1,8,0:0:0:0:
256,192,29978,1,0,0:0:0:0:
256,192,30079,1,0,0:0:0:0:
256,192,30181,1,0,0:0:0:0:
256,192,30283,1,0,0:0:0:0:
256,192,30384,1,8,0:0:0:0:
256,192,30588,1,0,0:0:0:0:
256,192,30791,1,8,0:0:0:0:
256,192,30994,1,0,0:0:0:0:
256,192,31096,1,0,0:0:0:0:
256,192,31198,1,8,0:0:0:0:
256,192,31401,1,8,0:0:0:0:
256,192,31605,1,0,0:0:0:0:
256,192,31806,1,0,0:0:0:0:
256,192,32007,1,8,0:0:0:0:
256,192,32209,1,0,0:0:0:0:
256,192,32309,1,8,0:0:0:0:
256,192,32410,1,0,0:0:0:0:
256,192,32622,1,0,0:0:0:0:
256,192,32835,1,12,0:0:0:0:
256,192,33224,1,0,0:0:0:0:
256,192,33433,1,0,0:0:0:0:
256,192,33643,1,12,0:0:0:0:
256,192,33859,1,0,0:0:0:0:
256,192,33967,1,0,0:0:0:0:
256,192,34076,1,8,0:0:0:0:
256,192,34273,1,0,0:0:0:0:
256,192,34470,1,8,0:0:0:0:
256,192,34668,1,4,0:0:0:0:
256,192,36525,1,0,0:0:0:0:
256,192,36626,1,8,0:0:0:0:
256,192,36727,1,8,0:0:0:0:
256,192,36828,1,0,0:0:0:0:
256,192,37030,1,0,0:0:0:0:
256,192,37132,1,0,0:0:0:0:
256,192,37334,1,8,0:0:0:0:
256,192,37536,1,0,0:0:0:0:
256,192,37739,1,8,0:0:0:0:
256,192,37840,1,0,0:0:0:0:
256,192,38044,1,8,0:0:0:0:
256,192,38247,1,0,0:0:0:0:
256,192,38349,1,8,0:0:0:0:
256,192,38450,1,8,0:0:0:0:
256,192,38552,1,0,0:0:0:0:
256,192,38959,1,8,0:0:0:0:
256,192,39061,1,0,0:0:0:0:
256,192,39163,1,0,0:0:0:0:
256,192,39265,1,8,0:0:0:0:
256,192,39469,1,8,0:0:0:0:
256,192,39673,1,0,0:0:0:0:
256,192,39775,1,8,0:0:0:0:
256,192,39976,1,0,0:0:0:0:
256,192,40177,1,8,0:0:0:0:
256,192,40381,1,0,0:0:0:0:
256,192,40483,1,8,0:0:0:0:
256,192,40688,1,8,0:0:0:0:
256,192,40790,1,8,0:0:0:0:
256,192,40892,1,0,0:0:0:0:
256,192,40994,1,0,0:0:0:0:
256,192,41094,1,8,0:0:0:0:
256,192,41395,1,4,0:0:0:0:
256,192,41601,1,0,0:0:0:0:
256,192,41705,1,8,0:0:0:0:
256,192,41912,1,8,0:0:0:0:
256,192,42119,1,0,0:0:0:0:
256,192,42222,1,8,0:0:0:0:
256,192,42429,1,0,0:0:0:0:
256,192,42636,1,8,0:0:0:0:
256,192,42839,1,0,0:0:0:0:
256,192,42940,1,8,0:0:0:0:
256,192,43143,1,0,0:0:0:0:
256,192,43346,1,0,0:0:0:0:
256,192,43448,1,8,0:0:0:0:
256,192,43651,1,0,0:0:0:0:
256,192,43854,1,8,0:0:0:0:
256,192,44060,1,0,0:0:0:0:
256,192,44164,1,8,0:0:0:0:
256,192,44371,1,8,0:0:0:0:
256,192,44474,1,0,0:0:0:0:
256,192,44681,1,8,0:0:0:0:
256,192,44891,1,0,0:0:0:0:
256,192,45102,1,8,0:0:0:0:
256,192,45305,1,0,0:0:0:0:
256,192,45407,1,8,0:0:0:0:
256,192,45610,1,8,0:0:0:0:
256,192,45712,1,0,0:0:0:0:
256,192,45915,1,8,0:0:0:0:
256,192,46114,1,0,0:0:0:0:
256,192,46314,1,8,0:0:0:0:
256,192,46714,1,8,0:0:0:0:
256,192,47121,1,8,0:0:0:0:
256,192,47528,1,8,0:0:0:0:
256,192,47630,1,8,0:0:0:0:
256,192,47732,1,8,0:0:0:0:
256,192,47936,1,4,0:0:0:0:
256,192,49167,1,8,0:0:0:0:
256,192,49270,1,8,0:0:0:0:
256,192,49373,1,8,0:0:0:0:
256,192,49580,1,4,0:0:0:0:
256,192,50804,1,8,0:0:0:0:
256,192,50903,1,8,0:0:0:0:
256,192,51002,1,8,0:0:0:0:
256,192,51201,1,4,0:0:0:0:
256,192,51506,1,8,0:0:0:0:
256,192,51607,1,0,0:0:0:0:
256,192,51811,1,8,0:0:0:0:
256,192,52014,1,0,0:0:0:0:
256,192,52217,1,8,0:0:0:0:
256,192,52319,1,8,0:0:0:0:
256,192,52421,1,0,0:0:0:0:
256,192,52731,1,8,0:0:0:0:
256,192,52834,1,0,0:0:0:0:
256,192,53041,1,0,0:0:0:0:
256,192,53248,1,8,0:0:0:0:
256,192,53642,1,4,0:0:0:0:
256,192,53938,1,0,0:0:0:0:
256,192,54036,1,8,0:0:0:0:
256,192,54247,1,8,0:0:0:0:
256,192,54352,1,8,0:0:0:0:
256,192,54458,1,0,0:0:0:0:
256,192,54662,1,8,0:0:0:0:
256,192,54866,1,0,0:0:0:0:
256,192,55172,1,8,0:0:0:0:
256,192,55274,1,0,0:0:0:0:
256,192,55478,1,8,0:0:0:0:
256,192,55682,1,0,0:0:0:0:
256,192,56104,1,0,0:0:0:0:
256,192,56520,1,8,0:0:0:0:
256,192,56927,1,8,0:0:0:0:
256,192,57334,1,0,0:0:0:0:
256,192,57741,1,8,0:0:0:0:
256,192,58149,1,4,0:0:0:0:
256,192,58439,1,8,0:0:0:0:
256,192,58536,1,0,0:0:0:0:
256,192,58748,1,8,0:0:0:0:
256,192,58961,1,0,0:0:0:0:
256,192,59161,1,8,0:0:0:0:
256,192,59262,1,8,0:0:0:0:
256,192,59362,1,0,0:0:0:0:
256,192,59667,1,8,0:0:0:0:
256,192,59769,1,0,0:0:0:0:
256,192,59973,1,0,0:0:0:0:
256,192,60177,1,8,0:0:0:0:
256,192,60584,1,4,0:0:0:0:
256,192,60890,1,8,0:0:0:0:
256,192,60992,1,0,0:0:0:0:
256,192,61200,1,8,0:0:0:0:
256,192,61408,1,0,0:0:0:0:
256,192,61616,1,0,0:0:0:0:
256,192,61824,1,12,0:0:0:0:
256,192,62226,1,12,0:0:0:0:
256,192,62629,1,8,0:0:0:0:
256,192,62727,1,8,0:0:0:0:
256,192,62826,1,0,0:0:0:0:
256,192,62925,1,0,0:0:0:0:
256,192,63023,1,8,0:0:0:0:
256,192,63231,1,8,0:0:0:0:
256,192,63439,1,4,0:0:0:0:
256,192,63643,1,0,0:0:0:0:
256,192,63847,1,8,0:0:0:0:
256,192,64051,1,0,0:0:0:0:
256,192,64153,1,0,0:0:0:0:
256,192,64255,1,8,0:0:0:0:
256,192,64459,1,0,0:0:0:0:
256,192,64663,1,8,0:0:0:0:
256,192,64867,1,8,0:0:0:0:
256,192,64969,1,0,0:0:0:0:
256,192,65071,1,8,0:0:0:0:
256,192,65275,1,0,0:0:0:0:
256,192,65479,1,8,0:0:0:0:
256,192,65683,1,0,0:0:0:0:
256,192,65785,1,0,0:0:0:0:
256,192,65887,1,8,0:0:0:0:
256,192,65990,1,8,0:0:0:0:
256,192,66092,1,0,0:0:0:0:
256,192,66296,1,8,0:0:0:0:
256,192,66500,1,0,0:0:0:0:
256,192,66602,1,0,0:0:0:0:
256,192,66704,1,8,0:0:0:0:
256,192,66906,1,0,0:0:0:0:
256,192,67108,1,8,0:0:0:0:
256,192,67310,1,8,0:0:0:0:
256,192,67512,1,0,0:0:0:0:
256,192,67613,1,8,0:0:0:0:
256,192,67714,1,0,0:0:0:0:
256,192,67815,1,0,0:0:0:0:
256,192,67916,1,8,0:0:0:0:
256,192,68118,1,0,0:0:0:0:
256,192,68320,1,0,0:0:0:0:
256,192,68532,1,8,0:0:0:0:
256,192,68638,1,0,0:0:0:0:
256,192,68744,1,8,0:0:0:0:
256,192,68956,1,0,0:0:0:0:
256,192,69168,1,8,0:0:0:0:
256,192,69270,1,8,0:0:0:0:
256,192,69372,1,0,0:0:0:0:
256,192,69576,1,8,0:0:0:0:
256,192,69985,1,8,0:0:0:0:
256,192,70085,1,8,0:0:0:0:
256,192,70185,1,0,0:0:0:0:
256,192,70285,1,0,0:0:0:0:
256,192,70385,1,8,0:0:0:0:
256,192,70585,1,12,0:0:0:0:
256,192,71001,1,8,0:0:0:0:
256,192,71105,1,0,0:0:0:0:
256,192,71209,1,8,0:0:0:0:
256,192,71413,1,0,0:0:0:0:
256,192,71617,1,8,0:0:0:0:
256,192,71717,1,0,0:0:0:0:
256,192,71818,1,8,0:0:0:0:
256,192,71919,1,0,0:0:0:0:
256,192,72020,1,8,0:0:0:0:
256,192,72222,1,0,0:0:0:0:
256,192,72423,1,8,0:0:0:0:
256,192,72625,1,0,0:0:0:0:
256,192,72726,1,0,0:0:0:0:
256,192,72827,1,8,0:0:0:0:
256,192,73028,1,8,0:0:0:0:
256,192,73230,1,0,0:0:0:0:
256,192,73331,1,0,0:0:0:0:
256,192,73432,1,0,0:0:0:0:
256,192,73633,1,8,0:0:0:0:
256,192,73839,1,0,0:0:0:0:
256,192,73942,1,8,0:0:0:0:
256,192,74045,1,0,0:0:0:0:
256,192,74251,1,0,0:0:0:0:
256,192,74457,1,12,0:0:0:0:
256,192,74844,1,0,0:0:0:0:
256,192,75062,1,0,0:0:0:0:
256,192,75281,1,12,0:0:0:0:
256,192,75490,1,0,0:0:0:0:
256,192,75595,1,0,0:0:0:0:
256,192,75700,1,8,0:0:0:0:
256,192,75903,1,0,0:0:0:0:
256,192,76106,1,8,0:0:0:0:
256,192,76310,1,4,0:0:0:0:
256,192,78167,1,12,0:0:0:0:
256,192,81414,1,4,0:0:0:0:
256,192,81721,1,4,0:0:0:0:
256,192,82029,1,8,0:0:0:0:
256,192,82234,1,4,0:0:0:0:
256,192,82540,1,4,0:0:0:0:
256,192,82846,1,8,0:0:0:0:
256,192,83050,1,4,0:0:0:0:
256,192,83350,1,4,0:0:0:0:
256,192,83650,1,8,0:0:0:0:
256,192,83850,1,0,0:0:0:0:
256,192,84057,1,8,0:0:0:0:
256,192,84161,1,8,0:0:0:0:
256,192,84265,1,8,0:0:0:0:
256,192,84681,1,4,0:0:0:0:
256,192,84985,1,4,0:0:0:0:
256,192,85289,1,8,0:0:0:0:
256,192,85491,1,4,0:0:0:0:
256,192,85797,1,4,0:0:0:0:
256,192,86104,1,8,0:0:0:0:
256,192,86308,1,4,0:0:0:0:
256,192,86613,1,4,0:0:0:0:
256,192,86919,1,8,0:0:0:0:
256,192,87122,1,0,0:0:0:0:
256,192,87327,1,8,0:0:0:0:
256,192,87430,1,0,0:0:0:0:
256,192,87532,1,8,0:0:0:0:
256,192,87955,1,0,0:0:0:0:
256,192,88225,1,0,0:0:0:0:
256,192,88495,1,8,0:0:0:0:
256,192,88765,1,0,0:0:0:0:
256,192,89036,1,0,0:0:0:0:
256,192,89306,1,8,0:0:0:0:
256,192,89576,1,8,0:0:0:0:
256,192,89712,1,8,0:0:0:0:
256,192,89849,1,0,0:0:0:0:
256,192,89986,1,0,0:0:0:0:
256,192,90123,1,0,0:0:0:0:
256,192,90397,1,12,0:0:0:0:
256,192,91205,1,4,0:0:0:0:
256,192,92631,1,8,0:0:0:0:
256,192,92845,1,4,0:0:0:0:
256,192,94048,1,12,0:0:0:0:
256,192,94470,1,4,0:0:0:0:
256,192,95891,1,8,0:0:0:0:
256,192,96100,1,4,0:0:0:0:
256,192,97333,1,4,0:0:0:0:
256,192,97744,1,0,0:0:0:0:
256,192,97845,1,0,0:0:0:0:
256,192,97946,1,8,0:0:0:0:
256,192,98048,1,8,0:0:0:0:
256,192,98149,1,0,0:0:0:0:
256,192,98352,1,8,0:0:0:0:
256,192,98554,1,0,0:0:0:0:
256,192,98754,1,8,0:0:0:0:
256,192,98954,1,0,0:0:0:0:
256,192,99354,1,0,0:0:0:0:
256,192,99457,1,0,0:0:0:0:
256,192,99560,1,8,0:0:0:0:
256,192,99663,1,8,0:0:0:0:
256,192,99766,1,0,0:0:0:0:
256,192,99972,1,8,0:0:0:0:
256,192,100075,1,8,0:0:0:0:
256,192,100178,1,0,0:0:0:0:
256,192,100378,1,8,0:0:0:0:
256,192,100579,1,0,0:0:0:0:
256,192,100980,1,8,0:0:0:0:
256,192,101083,1,8,0:0:0:0:
256,192,101186,1,0,0:0:0:0:
256,192,101289,1,0,0:0:0:0:
256,192,101393,1,8,0:0:0:0:
256,192,101599,1,0,0:0:0:0:
256,192,101806,1,0,0:0:0:0:
256,192,102020,1,8,0:0:0:0:
256,192,102127,1,8,0:0:0:0:
256,192,102234,1,0,0:0:0:0:
256,192,102644,1,8,0:0:0:0:
256,192,102744,1,8,0:0:0:0:
256,192,102844,1,8,0:0:0:0:
256,192,102944,1,8,0:0:0:0:
256,192,103044,1,0,0:0:0:0:
256,192,103147,1,0,0:0:0:0:
256,192,103251,1,0,0:0:0:0:
256,192,103355,1,0,0:0:0:0:
256,192,103459,1,8,0:0:0:0:
256,192,103657,1,8,0:0:0:0:
256,192,103856,1,4,0:0:0:0:
256,192,105897,1,4,0:0:0:0:
256,192,106509,1,8,0:0:0:0:
256,192,107530,1,0,0:0:0:0:
256,192,108142,1,8,0:0:0:0:
256,192,108755,1,0,0:0:0:0:
256,192,109163,1,0,0:0:0:0:
256,192,109775,1,8,0:0:0:0:
256,192,110796,1,0,0:0:0:0:
256,192,111409,1,8,0:0:0:0:
256,192,112429,1,0,0:0:0:0:
256,192,113042,1,8,0:0:0:0:
256,192,114063,1,0,0:0:0:0:
256,192,114675,1,8,0:0:0:0:
256,192,115696,1,12,0:0:0:0:
256,192,115893,1,0,0:0:0:0:
256,192,116090,1,0,0:0:0:0:
256,192,116294,1,12,0:0:0:0:
256,192,116499,1,0,0:0:0:0:
256,192,116704,1,0,0:0:0:0:
256,192,116922,1,12,0:0:0:0:
256,192,117127,1,8,0:0:0:0:
256,192,117332,1,8,0:0:0:0:
256,192,117434,1,8,0:0:0:0:
256,192,117536,1,8,0:0:0:0:
256,192,117740,1,0,0:0:0:0:
256,192,117944,1,8,0:0:0:0:
256,192,118046,1,8,0:0:0:0:
256,192,118148,1,8,0:0:0:0:
256,192,118352,1,0,0:0:0:0:
256,192,118556,1,8,0:0:0:0:
256,192,118656,1,8,0:0:0:0:
256,192,118757,1,8,0:0:0:0:
256,192,118958,1,0,0:0:0:0:
256,192,119156,1,12,0:0:0:0:
256,192,119462,1,4,0:0:0:0:
256,192,119768,1,4,0:0:0:0:
256,192,120604,1,12,0:0:0:0:
256,192,120809,1,0,0:0:0:0:
256,192,121014,1,8,0:0:0:0:
256,192,121214,1,0,0:0:0:0:
256,192,121315,1,0,0:0:0:0:
256,192,121415,1,8,0:0:0:0:
256,192,121616,1,0,0:0:0:0:
256,192,121816,1,8,0:0:0:0:
256,192,122017,1,8,0:0:0:0:
256,192,122117,1,0,0:0:0:0:
256,192,122218,1,8,0:0:0:0:
256,192,122421,1,0,0:0:0:0:
256,192,122625,1,8,0:0:0:0:
256,192,122829,1,0,0:0:0:0:
256,192,122931,1,0,0:0:0:0:
256,192,123032,1,8,0:0:0:0:
256,192,123134,1,8,0:0:0:0:
256,192,123236,1,0,0:0:0:0:
256,192,123440,1,8,0:0:0:0:
256,192,123644,1,0,0:0:0:0:
256,192,123746,1,0,0:0:0:0:
256,192,123847,1,8,0:0:0:0:
256,192,124051,1,0,0:0:0:0:
256,192,124256,1,8,0:0:0:0:
256,192,124461,1,0,0:0:0:0:
256,192,124666,1,8,0:0:0:0:
256,192,124767,1,8,0:0:0:0:
256,192,124868,1,0,0:0:0:0:
256,192,124969,1,0,0:0:0:0:
256,192,125070,1,8,0:0:0:0:
256,192,125272,1,0,0:0:0:0:
256,192,125373,1,0,0:0:0:0:
256,192,125474,1,8,0:0:0:0:
256,192,125680,1,0,0:0:0:0:
256,192,125887,1,8,0:0:0:0:
256,192,126091,1,0,0:0:0:0:
256,192,126295,1,8,0:0:0:0:
256,192,126398,1,8,0:0:0:0:
256,192,126500,1,0,0:0:0:0:
256,192,126704,1,8,0:0:0:0:
256,192,127113,1,8,0:0:0:0:
256,192,127214,1,8,0:0:0:0:
256,192,127315,1,0,0:0:0:0:
256,192,127417,1,0,0:0:0:0:
256,192,127518,1,8,0:0:0:0:
256,192,127721,1,12,0:0:0:0:
256,192,128130,1,8,0:0:0:0:
256,192,128233,1,0,0:0:0:0:
256,192,128337,1,8,0:0:0:0:
256,192,128544,1,0,0:0:0:0:
256,192,128752,1,8,0:0:0:0:
256,192,128854,1,8,0:0:0:0:
256,192,128956,1,0,0:0:0:0:
256,192,129059,1,0,0:0:0:0:
256,192,129161,1,8,0:0:0:0:
256,192,129366,1,0,0:0:0:0:
256,192,129571,1,8,0:0:0:0:
256,192,129776,1,0,0:0:0:0:
256,192,129879,1,0,0:0:0:0:
256,192,129981,1,8,0:0:0:0:
256,192,130186,1,8,0:0:0:0:
256,192,130288,1,0,0:0:0:0:
256,192,130391,1,8,0:0:0:0:
256,192,130592,1,0,0:0:0:0:
256,192,130793,1,8,0:0:0:0:
256,192,130995,1,0,0:0:0:0:
256,192,131095,1,8,0:0:0:0:
256,192,131196,1,0,0:0:0:0:
256,192,131397,1,0,0:0:0:0:
256,192,131599,1,12,0:0:0:0:
256,192,132015,1,0,0:0:0:0:
256,192,132122,1,8,0:0:0:0:
256,192,132230,1,0,0:0:0:0:
256,192,132446,1,12,0:0:0:0:
256,192,132846,1,8,0:0:0:0:
256,192,132946,1,8,0:0:0:0:
256,192,133047,1,0,0:0:0:0:
256,192,133147,1,0,0:0:0:0:
256,192,133247,1,8,0:0:0:0:
256,192,133447,1,0,0:0:0:0:
256,192,133648,1,12,0:0:0:0:
256,192,133855,1,0,0:0:0:0:
256,192,134063,1,8,0:0:0:0:
256,192,134271,1,0,0:0:0:0:
256,192,134375,1,0,0:0:0:0:
256,192,134479,1,8,0:0:0:0:
256,192,134580,1,8,0:0:0:0:
256,192,134682,1,0,0:0:0:0:
256,192,134885,1,8,0:0:0:0:
256,192,135089,1,8,0:0:0:0:
256,192,135190,1,0,0:0:0:0:
256,192,135292,1,8,0:0:0:0:
256,192,135493,1,0,0:0:0:0:
256,192,135695,1,8,0:0:0:0:
256,192,135897,1,0,0:0:0:0:
256,192,136098,1,0,0:0:0:0:
256,192,136199,1,8,0:0:0:0:
256,192,136300,1,0,0:0:0:0:
256,192,136502,1,8,0:0:0:0:
256,192,136703,1,0,0:0:0:0:
256,192,136804,1,0,0:0:0:0:
256,192,136905,1,8,0:0:0:0:
256,192,137110,1,0,0:0:0:0:
256,192,137316,1,8,0:0:0:0:
256,192,137522,1,0,0:0:0:0:
256,192,137728,1,8,0:0:0:0:
256,192,137831,1,8,0:0:0:0:
256,192,137934,1,0,0:0:0:0:
256,192,138037,1,0,0:0:0:0:
256,192,138140,1,8,0:0:0:0:
256,192,138337,1,0,0:0:0:0:
256,192,138436,1,0,0:0:0:0:
256,192,138534,1,0,0:0:0:0:
256,192,138740,1,8,0:0:0:0:
256,192,138947,1,8,0:0:0:0:
256,192,139154,1,0,0:0:0:0:
256,192,139361,1,8,0:0:0:0:
256,192,139463,1,8,0:0:0:0:
256,192,139565,1,0,0:0:0:0:
256,192,139770,1,8,0:0:0:0:
256,192,140180,1,8,0:0:0:0:
256,192,140280,1,8,0:0:0:0:
256,192,140380,1,0,0:0:0:0:
256,192,140480,1,0,0:0:0:0:
256,192,140580,1,8,0:0:0:0:
256,192,140780,1,12,0:0:0:0:
256,192,141184,1,8,0:0:0:0:
256,192,141286,1,0,0:0:0:0:
256,192,141388,1,8,0:0:0:0:
256,192,141592,1,8,0:0:0:0:
256,192,141796,1,0,0:0:0:0:
256,192,141898,1,8,0:0:0:0:
256,192,142001,1,0,0:0:0:0:
256,192,142104,1,0,0:0:0:0:
256,192,142206,1,8,0:0:0:0:
256,192,142412,1,0,0:0:0:0:
256,192,142617,1,8,0:0:0:0:
256,192,142823,1,0,0:0:0:0:
256,192,142926,1,0,0:0:0:0:
256,192,143028,1,8,0:0:0:0:
256,192,143234,1,8,0:0:0:0:
256,192,143337,1,8,0:0:0:0:
256,192,143439,1,0,0:0:0:0:
256,192,143647,1,0,0:0:0:0:
256,192,143855,1,8,0:0:0:0:
256,192,144064,1,0,0:0:0:0:
256,192,144168,1,8,0:0:0:0:
256,192,144272,1,0,0:0:0:0:
256,192,144480,1,0,0:0:0:0:
256,192,144676,1,12,0:0:0:0:
256,192,145051,1,0,0:0:0:0:
256,192,145276,1,0,0:0:0:0:
256,192,145484,1,12,0:0:0:0:
256,192,145796,1,0,0:0:0:0:
256,192,145900,1,8,0:0:0:0:
256,192,146001,1,8,0:0:0:0:
256,192,146102,1,0,0:0:0:0:
256,192,146305,1,8,0:0:0:0:
256,192,146508,1,4,0:0:0:0:
256,192,146918,1,8,0:0:0:0:
256,192,147123,1,8,0:0:0:0:
256,192,147329,1,8,0:0:0:0:
256,192,147534,1,8,0:0:0:0:
256,192,147729,1,8,0:0:0:0:
256,192,147924,1,8,0:0:0:0:
256,192,148125,1,8,0:0:0:0:
256,192,148326,1,8,0:0:0:0:
256,192,148535,1,8,0:0:0:0:
256,192,148745,1,8,0:0:0:0:
256,192,148955,1,8,0:0:0:0:
256,192,149165,1,8,0:0:0:0:
256,192,149362,1,8,0:0:0:0:
256,192,149559,1,8,0:0:0:0:
256,192,149765,1,8,0:0:0:0:
256,192,151211,1,0,0:0:0:0:
256,192,151311,1,0,0:0:0:0:
256,192,151412,1,0,0:0:0:0:
256,192,151613,1,12,0:0:0:0:
256,192,151814,1,8,0:0:0:0:
256,192,151915,1,0,0:0:0:0:
256,192,152119,1,0,0:0:0:0:
256,192,152224,1,8,0:0:0:0:
256,192,152433,1,8,0:0:0:0:
256,192,152642,1,0,0:0:0:0:
256,192,152851,1,8,0:0:0:0:
256,192,152952,1,0,0:0:0:0:
256,192,153155,1,8,0:0:0:0:
256,192,153357,1,0,0:0:0:0:
256,192,153459,1,8,0:0:0:0:
256,192,153560,1,8,0:0:0:0:
256,192,153661,1,0,0:0:0:0:
256,192,154069,1,8,0:0:0:0:
256,192,154172,1,0,0:0:0:0:
256,192,154276,1,0,0:0:0:0:
256,192,154380,1,8,0:0:0:0:
256,192,154585,1,8,0:0:0:0:
256,192,154789,1,0,0:0:0:0:
256,192,154890,1,8,0:0:0:0:
256,192,155094,1,0,0:0:0:0:
256,192,155297,1,8,0:0:0:0:
256,192,155503,1,0,0:0:0:0:
256,192,155607,1,8,0:0:0:0:
256,192,155809,1,8,0:0:0:0:
256,192,155908,1,8,0:0:0:0:
256,192,156008,1,0,0:0:0:0:
256,192,156107,1,0,0:0:0:0:
256,192,156311,1,8,0:0:0:0:
256,192,156515,1,4,0:0:0:0:
256,192,156714,1,0,0:0:0:0:
256,192,156814,1,8,0:0:0:0:
256,192,157013,1,8,0:0:0:0:
256,192,157212,1,0,0:0:0:0:
256,192,157312,1,8,0:0:0:0:
256,192,157516,1,0,0:0:0:0:
256,192,157720,1,8,0:0:0:0:
256,192,157925,1,0,0:0:0:0:
256,192,158028,1,8,0:0:0:0:
256,192,158234,1,8,0:0:0:0:
256,192,158337,1,0,0:0:0:0:
256,192,158440,1,0,0:0:0:0:
256,192,158543,1,8,0:0:0:0:
256,192,158749,1,0,0:0:0:0:
256,192,158955,1,8,0:0:0:0:
256,192,159161,1,0,0:0:0:0:
256,192,159265,1,8,0:0:0:0:
256,192,159468,1,8,0:0:0:0:
256,192,159568,1,0,0:0:0:0:
256,192,159768,1,8,0:0:0:0:
256,192,159974,1,0,0:0:0:0:
256,192,160181,1,8,0:0:0:0:
256,192,160382,1,0,0:0:0:0:
256,192,160483,1,8,0:0:0:0:
256,192,160687,1,8,0:0:0:0:
256,192,160791,1,0,0:0:0:0:
256,192,160999,1,8,0:0:0:0:
256,192,161201,1,0,0:0:0:0:
256,192,162434,1,4,0:0:0:0:
