osu file format v14

[General]
AudioFilename: 128vivi.mp3
AudioLeadIn: 0
PreviewTime: 46579
Countdown: 0
SampleSet: Soft
StackLeniency: 0.3
Mode: 0
LetterboxInBreaks: 0
WidescreenStoryboard: 1

[Editor]
DistanceSpacing: 1.1
BeatDivisor: 8
GridSize: 4
TimelineZoom: 1.7

[Metadata]
Title:Have a good time!
TitleUnicode:Have a good time!
Artist:vivi
ArtistUnicode:vivi
Creator:fanzhen0019
Version:Advanced
Source:GITADORA EXCHAIN
Tags:iyiyim GFDM DrumMania GuitarFreaks video game japanese Yoshihiko Koezuka 肥塚良彦
BeatmapID:2465711
BeatmapSetID:1130109

[Difficulty]
HPDrainRate:4.3
CircleSize:4
OverallDifficulty:6
ApproachRate:7.5
SliderMultiplier:1.4
SliderTickRate:1

[Events]
//Background and Video events
0,0,"vivi1.png",0,0
//Break Periods
2,75050,81084
//Storyboard Layer 0 (Background)
//Storyboard Layer 1 (Fail)
//Storyboard Layer 2 (Pass)
//Storyboard Layer 3 (Foreground)
//Storyboard Layer 4 (Overlay)
//Storyboard Sound Samples

[TimingPoints]
733,441.176470588235,4,2,0,65,1,0
3600,-133.333333333333,4,2,0,65,0,0
4262,-100,4,2,0,65,0,0
46615,-100,4,2,0,65,0,1
73085,-100,4,2,0,65,0,0
74850,-100,4,2,0,45,0,0
88968,-100,4,2,0,55,0,0
89188,-100,4,2,0,35,0,0
89409,-100,4,2,0,60,0,0
89630,-100,4,2,0,35,0,0
90071,-100,4,2,0,35,0,0
90291,-100,4,2,0,60,0,0
90512,-100,4,2,0,35,0,0
90953,-100,4,2,0,35,0,0
91174,-100,4,2,0,60,0,0
91394,-100,4,2,0,35,0,0
91615,-100,4,2,0,60,0,0
91725,-100,4,2,0,35,0,0
92056,-100,4,2,0,60,0,0
92277,-100,4,2,0,35,0,0
92718,-100,4,2,0,35,0,0
92938,-100,4,2,0,60,0,0
93159,-100,4,2,0,35,0,0
93600,-100,4,2,0,45,0,0
93821,-100,4,2,0,60,0,0
94041,-100,4,2,0,35,0,0
94482,-100,4,2,0,35,0,0
94703,-100,4,2,0,60,0,0
94924,-100,4,2,0,35,0,0
95255,-100,4,2,0,35,0,0
95585,-100,4,2,0,60,0,0
95806,-100,4,2,0,35,0,0
96027,-100,4,2,0,55,0,0
103085,-100,4,2,0,65,0,1
113674,-100,4,2,0,65,0,0

[Colours]
Combo1 : 191,255,128
Combo2 : 255,187,255
Combo3 : 255,255,98
Combo4 : 181,106,255

[HitObjects]
256,347,733,5,4,0:0:0:0:
256,192,1174,12,4,2498,0:0:0:0:
163,154,3159,5,4,3:0:0:0:
16,242,3600,2,0,L|138:233,1,105.000004005432,8|0,0:3|0:0,0:0:0:0:
201,301,4262,5,4,0:0:0:0:
201,301,4482,1,0,0:0:0:0:
201,301,4703,2,0,L|360:309,1,140,2|2,0:0|0:0,0:0:0:0:
419,326,5365,2,0,P|453:309|469:271,1,70,0|2,0:0|0:0,0:0:0:0:
457,204,5806,1,2,0:0:0:0:
398,162,6027,6,0,L|394:82,2,70,0|2|2,0:0|0:0|0:0,0:0:0:0:
289,61,6909,2,0,L|293:141,1,70,2|0,0:0|0:0,0:0:0:0:
239,183,7350,2,0,L|165:186,1,70,2|0,0:0|0:0,0:0:0:0:
96,166,7791,5,0,1:1:0:0:
96,166,8012,1,0,0:0:0:0:
96,166,8232,2,0,P|54:200|42:292,1,140,2|2,0:0|0:0,0:0:0:0:
92,343,8894,2,0,L|164:338,1,70,0|2,0:0|0:0,0:0:0:0:
230,372,9335,1,2,0:0:0:0:
302,351,9556,6,0,L|318:275,2,70,0|2|2,0:0|0:0|0:0,0:0:0:0:
205,242,10438,2,0,L|221:169,1,70,2|8,0:0|0:3,0:0:0:0:
188,103,10880,1,4,0:3:0:0:
239,49,11100,1,0,1:0:0:0:
310,40,11321,6,0,L|390:45,1,70,4|0,0:0|0:0,0:0:0:0:
457,49,11762,1,2,0:0:0:0:
377,175,12203,1,2,0:0:0:0:
310,40,12644,1,0,0:0:0:0:
243,70,12865,6,0,P|184:82|146:78,1,70,2|0,0:0|0:0,0:0:0:0:
100,57,13306,1,2,0:0:0:0:
100,57,13527,2,0,P|42:45|4:49,1,70,2|0,0:0|0:0,0:0:0:0:
0,112,13968,2,0,P|-4:158|4:192,1,70,2|0,0:0|0:0,0:0:0:0:
113,217,14409,2,0,P|117:171|109:137,1,70,2|0,0:0|0:0,0:0:0:0:
12,179,14850,6,0,L|21:338,1,140,4|2,0:0|0:0,0:0:0:0:
92,347,15512,1,0,0:0:0:0:
159,376,15732,2,0,L|235:372,2,70,4|8|8,3:0|3:0|3:0,0:0:0:0:
155,301,16394,6,0,L|146:154,1,140,4|0,0:0|0:0,0:0:0:0:
197,99,17056,1,2,0:0:0:0:
268,116,17277,1,2,0:0:0:0:
247,45,17497,6,0,L|256:7,4,35,0|0|0|0|4,3:0|3:0|3:0|3:0|3:2,0:0:0:0:
390,74,18380,5,4,0:0:0:0:
444,120,18600,1,0,0:0:0:0:
474,187,18821,2,0,P|469:250|428:330,1,140,2|0,0:0|0:0,0:0:0:0:
369,359,19482,2,0,L|293:334,1,70,0|2,0:0|0:0,0:0:0:0:
264,271,19924,2,0,P|268:208|310:129,1,140
301,139,20585,1,2,0:0:0:0:
222,330,21027,1,0,0:0:0:0:
151,347,21247,1,2,0:0:0:0:
79,330,21468,2,0,P|54:292|46:259,1,70,2|0,0:0|0:0,0:0:0:0:
33,192,21909,5,0,1:0:0:0:
104,175,22130,1,0,0:0:0:0:
172,200,22350,2,0,P|201:166|222:57,1,140,2|0,0:0|0:0,0:0:0:0:
285,28,23012,2,0,L|365:57,1,70,0|2,0:0|0:0,0:0:0:0:
377,124,23453,2,0,P|348:158|327:267,1,140
324,248,24115,1,2,0:0:0:0:
449,137,24556,2,0,P|469:179|474:212,1,70,0|2,0:0|0:0,0:0:0:0:
499,275,24997,2,0,L|419:288,1,70,2|0,0:0|0:0,0:0:0:0:
364,324,25438,5,4,0:0:0:0:
292,352,25659,1,0,0:0:0:0:
232,304,25880,2,0,B|156:283|164:336|72:312,1,140,2|0,0:0|0:0,0:0:0:0:
116,240,26541,2,0,L|108:160,1,70,0|2,0:0|0:0,0:0:0:0:
136,96,26982,2,0,B|67:77|74:130|0:109,1,140,0|0,3:0|3:0,0:0:0:0:
24,36,27644,1,2,0:0:0:0:
176,28,28085,1,0,0:0:0:0:
109,170,28527,1,2,0:0:0:0:
12,288,28968,6,0,P|56:276|144:324,1,140,4|0,0:0|0:0,0:0:0:0:
204,356,29630,1,2,0:0:0:0:
248,292,29850,2,0,L|260:216,1,70,2|0,0:0|0:0,0:0:0:0:
320,180,30291,1,0,0:0:0:0:
396,184,30512,1,2,0:0:0:0:
452,240,30732,6,0,P|436:200|452:104,1,140,2|0,0:0|0:0,0:0:0:0:
496,44,31394,2,0,P|408:96|352:80,1,140,2|0,0:0|3:0,0:0:0:0:
375,91,31946,1,0,3:0:0:0:
375,91,32056,1,4,3:0:0:0:
304,64,32277,1,0,3:0:0:0:
228,72,32497,6,0,L|148:76,1,70,4|0,3:2|0:0,0:0:0:0:
112,136,32938,2,0,L|32:140,1,70,10|0,0:0|0:0,0:0:0:0:
24,216,33380,1,0,0:0:0:0:
16,292,33600,1,2,0:0:0:0:
92,300,33821,1,10,0:0:0:0:
104,224,34041,1,0,0:0:0:0:
172,240,34262,5,2,0:0:0:0:
165,301,34482,1,0,0:0:0:0:
227,308,34703,1,10,0:0:0:0:
236,246,34924,2,0,L|252:96,1,140,2|2,0:0|0:0,0:0:0:0:
300,48,35585,2,0,P|348:36|388:56,1,70,10|0,0:0|0:0,0:0:0:0:
424,96,36027,6,0,L|493:99,1,70,2|0,0:0|0:0,0:0:0:0:
440,176,36468,2,0,L|370:172,1,70,10|2,0:0|0:0,0:0:0:0:
488,244,36910,1,2,0:0:0:0:
496,320,37130,1,0,0:0:0:0:
420,328,37351,1,10,0:0:0:0:
408,252,37571,1,2,0:0:0:0:
340,268,37792,5,0,0:0:0:0:
347,329,38012,1,2,0:0:0:0:
285,336,38233,1,10,0:0:0:0:
276,274,38454,2,0,P|232:252|144:264,1,140,2|2,0:0|0:0,0:0:0:0:
72,240,39115,2,0,L|76:324,1,70,10|8,0:0|0:3,0:0:0:0:
20,364,39556,5,4,1:2:0:0:
96,356,39777,1,0,0:0:0:0:
172,348,39997,1,0,1:0:0:0:
236,208,40438,5,0,1:0:0:0:
312,216,40659,1,0,0:0:0:0:
388,228,40880,1,0,1:0:0:0:
464,236,41100,2,0,P|476:172|476:148,1,70,0|0,0:0|1:0,0:0:0:0:
456,92,41541,5,0,0:0:0:0:
380,96,41762,2,0,L|240:88,2,140,0|0|0,1:0|1:0|1:0,0:0:0:0:
368,324,43085,5,4,0:0:0:0:
220,276,43527,1,2,3:0:0:0:
296,268,43747,1,2,0:0:0:0:
352,324,43968,1,6,0:0:0:0:
252,204,44409,1,2,3:0:0:0:
328,196,44630,1,4,0:0:0:0:
264,336,45071,1,4,0:0:0:0:
188,344,45292,1,6,0:0:0:0:
60,256,45732,6,0,L|24:252,4,35,4|2|2|2|2,3:0|3:0|3:0|3:0|3:0,0:0:0:0:
44,104,46615,5,4,0:0:0:0:
104,56,46835,1,0,0:0:0:0:
180,52,47056,2,0,P|224:72|272:156,1,140,2|2,0:0|0:0,0:0:0:0:
284,72,47718,2,0,P|316:48|372:40,1,70,0|2,0:0|0:0,0:0:0:0:
420,44,48159,1,2,0:0:0:0:
484,84,48380,6,0,P|480:120|472:168,2,70,0|2|2,0:0|0:0|0:0,0:0:0:0:
336,128,49262,1,2,0:0:0:0:
372,196,49482,1,0,0:0:0:0:
372,196,49703,2,0,L|456:212,1,70,8|4,0:3|0:3,0:0:0:0:
468,280,50144,5,4,0:0:0:0:
408,328,50364,1,0,0:0:0:0:
332,332,50585,2,0,P|288:312|240:228,1,140,2|2,0:0|0:0,0:0:0:0:
228,312,51247,2,0,P|196:336|140:344,1,70,0|2,0:0|0:0,0:0:0:0:
96,320,51688,1,2,0:0:0:0:
48,260,51909,6,0,P|52:224|60:176,2,70,0|2|2,0:0|0:0|0:0,0:0:0:0:
152,144,52791,1,2,0:0:0:0:
84,108,53012,2,0,P|79:70|72:32,2,70,0|8|0,3:0|3:0|3:0,3:0:0:0:
148,68,53674,5,4,3:2:0:0:
224,72,53894,1,0,0:0:0:0:
300,76,54115,2,0,B|388:84|360:40|440:48,2,140,2|2|2,0:0|0:0|0:0,0:0:0:0:
260,140,55218,2,0,P|248:184|252:224,1,70,2|0,0:0|0:0,0:0:0:0:
292,272,55659,1,2,0:0:0:0:
216,280,55880,2,0,B|128:288|156:244|76:252,1,140,2|2,0:0|0:0,0:0:0:0:
12,284,56541,1,0,0:0:0:0:
76,328,56762,1,4,0:0:0:0:
76,328,56982,1,0,0:0:0:0:
148,356,57203,6,0,L|224:352,1,70,4|0,0:0|0:0,0:0:0:0:
296,348,57644,2,0,L|376:344,1,70,2|0,0:0|0:0,0:0:0:0:
428,300,58085,5,0,1:0:0:0:
436,224,58306,1,2,1:2:0:0:
444,148,58527,1,2,1:2:0:0:
508,192,58747,2,0,L|368:180,1,140,4|4,0:0|3:0,0:0:0:0:
300,140,59409,2,0,P|288:164|300:216,1,70,8|0,0:3|0:0,0:0:0:0:
212,164,59850,6,0,L|168:160,4,35,0|6|0|6|4,3:0|3:0|3:0|3:0|0:0,0:0:0:0:
224,316,60732,5,4,0:0:0:0:
148,336,60953,1,0,0:0:0:0:
80,304,61174,2,0,P|56:244|88:168,1,140,2|2,0:0|0:0,0:0:0:0:
128,116,61835,2,0,P|136:72|128:32,1,70,0|2,0:0|0:0,0:0:0:0:
64,16,62277,1,2,0:0:0:0:
32,88,62497,5,0,0:0:0:0:
108,80,62718,1,2,0:0:0:0:
184,72,62938,1,2,0:0:0:0:
288,184,63380,1,6,0:0:0:0:
364,176,63601,1,0,0:0:0:0:
440,168,63821,2,0,P|464:136|472:100,1,70,8|4,0:3|0:3,0:0:0:0:
436,32,64262,5,4,0:0:0:0:
360,12,64483,1,0,0:0:0:0:
292,44,64704,2,0,P|268:104|300:180,1,140,2|2,0:0|0:0,0:0:0:0:
340,232,65365,2,0,P|348:276|340:316,1,70,0|2,0:0|0:0,0:0:0:0:
276,332,65806,6,0,P|228:328|116:320,1,140,6|2,0:0|0:0,0:0:0:0:
64,348,66468,2,0,P|52:296|56:264,1,70,2|0,0:0|0:0,0:0:0:0:
52,279,66799,1,0,3:0:0:0:
52,279,66909,1,0,3:0:0:0:
100,216,67130,1,0,0:0:0:0:
176,204,67350,2,0,P|176:152|168:124,1,70,4|2,3:0|0:3,0:0:0:0:
104,100,67791,5,4,0:0:0:0:
168,56,68012,1,0,0:0:0:0:
236,88,68232,2,0,L|400:80,1,140,2|2,0:0|0:0,0:0:0:0:
436,32,68894,1,0,0:0:0:0:
500,76,69115,1,2,0:0:0:0:
440,124,69335,1,2,0:0:0:0:
375,81,69556,6,0,P|340:56|300:52,1,70,0|2,0:0|0:0,0:0:0:0:
256,100,69997,2,0,L|240:184,1,70,2|0,0:0|0:0,0:0:0:0:
320,184,70438,2,0,P|355:159|395:155,1,70,4|0,0:0|0:0,0:0:0:0:
436,208,70879,2,0,L|452:292,1,70,4|0,3:0|0:0,0:0:0:0:
440,352,71321,6,0,P|384:364|320:312,1,140,4|0,0:0|0:0,0:0:0:0:
256,280,71982,1,0,0:0:0:0:
190,316,72203,2,0,P|139:361|72:352,1,140,2|4,0:0|0:3,0:0:0:0:
20,296,72865,1,0,3:3:0:0:
8,220,73085,5,2,0:0:0:0:
80,244,73306,1,0,0:0:0:0:
120,96,73747,1,2,1:2:0:0:
218,214,74188,1,0,0:0:0:0:
142,193,74409,1,2,1:2:0:0:
282,130,74850,5,4,0:0:0:0:
456,68,81909,5,6,0:0:0:0:
456,68,82130,1,2,0:0:0:0:
456,68,82350,2,0,L|440:220,1,140,2|2,0:0|0:0,0:0:0:0:
368,236,83012,1,0,0:0:0:0:
300,204,83232,1,2,0:0:0:0:
228,236,83453,1,0,0:0:0:0:
188,304,83674,5,2,0:0:0:0:
188,304,83894,1,2,0:0:0:0:
188,304,84115,2,0,B|112:320|116:264|32:284,1,140,2|0,0:0|0:0,0:0:0:0:
16,212,84777,1,2,0:0:0:0:
24,136,84997,1,2,0:0:0:0:
24,136,85107,1,2,0:0:0:0:
24,136,85218,1,2,0:0:0:0:
56,68,85438,5,4,0:0:0:0:
208,100,85880,1,0,0:0:0:0:
132,84,86100,1,2,0:0:0:0:
108,12,86321,1,4,0:0:0:0:
156,156,86762,1,0,0:0:0:0:
80,140,86983,1,2,0:0:0:0:
180,24,87424,1,6,0:0:0:0:
256,40,87645,1,2,0:0:0:0:
380,128,88085,5,0,0:0:0:0:
456,120,88306,1,0,0:0:0:0:
412,56,88527,2,0,P|404:128|424:204,1,140,0|0,0:0|3:0,0:0:0:0:
484,332,89409,6,0,P|444:340|420:368,1,70,8|0,0:3|0:0,0:0:0:0:
308,160,90291,2,0,P|268:152|244:124,1,70,4|0,0:3|0:0,0:0:0:0:
364,332,91174,2,0,P|324:340|300:368,1,70,2|0,0:0|0:0,0:0:0:0:
188,160,92056,2,0,P|148:152|124:124,1,70,2|0,0:0|0:0,0:0:0:0:
108,56,92497,5,4,3:2:0:0:
24,184,92938,2,0,P|64:192|88:220,1,70,8|0,0:3|0:0,0:0:0:0:
252,372,93820,2,0,P|292:364|316:336,1,70,4|0,0:3|0:0,0:0:0:0:
204,140,94703,2,0,P|244:148|268:176,1,70,2|0,0:0|0:0,0:0:0:0:
432,328,95585,2,0,P|472:320|496:292,1,70,2|0,0:0|0:0,0:0:0:0:
496,224,96027,5,4,0:0:0:0:
496,224,96247,1,0,0:0:0:0:
496,224,96468,2,0,P|464:160|464:88,1,140,10|2,0:0|0:0,0:0:0:0:
388,116,97130,1,0,0:0:0:0:
348,52,97350,1,8,0:0:0:0:
312,120,97571,1,2,0:0:0:0:
360,192,97791,5,4,0:0:0:0:
360,192,98012,1,0,0:0:0:0:
360,192,98232,2,0,L|356:272,1,70,10|0,0:0|0:0,0:0:0:0:
244,284,98674,5,2,0:0:0:0:
244,284,98895,1,0,0:0:0:0:
244,284,99115,2,0,L|248:204,1,70,10|0,0:0|0:0,0:0:0:0:
188,128,99556,6,0,P|148:104|48:128,1,140,4|0,0:0|1:0,0:0:0:0:
32,188,100218,1,0,0:0:0:0:
52,264,100438,5,0,3:0:0:0:
128,256,100659,1,2,1:2:0:0:
204,248,100880,1,2,1:2:0:0:
160,184,101100,2,0,L|176:328,1,140,4|0,0:0|0:0,0:0:0:0:
252,332,101762,2,0,L|336:340,1,70,2|4,0:0|3:0,0:0:0:0:
384,292,102203,6,0,P|396:276|400:260,4,35,0|2|0|2|2,3:0|3:0|3:0|3:0|0:0,0:0:0:0:
308,104,103085,5,4,0:0:0:0:
364,48,103306,1,0,0:0:0:0:
432,80,103527,2,0,P|456:140|424:216,1,140,2|2,0:0|0:0,0:0:0:0:
384,268,104188,2,0,P|376:312|384:352,1,70,0|2,0:0|0:0,0:0:0:0:
448,368,104630,1,2,0:0:0:0:
480,296,104850,5,0,0:0:0:0:
404,304,105071,1,2,0:0:0:0:
328,312,105291,1,2,0:0:0:0:
224,200,105733,1,2,0:0:0:0:
148,208,105954,1,0,3:0:0:0:
72,216,106174,2,0,P|48:248|40:284,1,70,8|4,0:3|0:3,0:0:0:0:
76,352,106615,5,4,0:0:0:0:
152,372,106836,1,0,0:0:0:0:
220,340,107057,2,0,P|244:280|212:204,1,140,2|2,0:0|0:0,0:0:0:0:
172,152,107718,2,0,P|164:108|172:68,1,70,0|2,0:0|0:0,0:0:0:0:
236,52,108159,6,0,P|284:56|396:64,1,140,6|2,0:0|0:0,0:0:0:0:
447,35,108821,2,0,P|458:69|458:104,1,70,2|0,0:0|3:0,0:0:0:0:
458,104,109152,1,0,3:0:0:0:
458,104,109262,1,8,3:0:0:0:
412,168,109483,1,0,0:0:0:0:
336,180,109703,2,0,P|336:232|344:260,1,70,4|0,0:3|0:0,0:0:0:0:
408,284,110144,5,4,0:0:0:0:
344,328,110365,1,0,0:0:0:0:
276,296,110585,2,0,L|112:304,1,140,2|2,0:0|0:0,0:0:0:0:
76,352,111247,1,0,0:0:0:0:
12,308,111468,1,2,0:0:0:0:
72,260,111688,1,2,0:0:0:0:
137,303,111909,6,0,P|172:328|212:332,1,70,0|2,0:0|0:0,0:0:0:0:
256,284,112350,2,0,L|272:200,1,70,2|0,0:0|0:0,0:0:0:0:
344,204,112791,2,0,L|328:120,1,70,4|0,0:0|0:0,0:0:0:0:
368,68,113232,2,0,P|412:48|448:56,1,70,2|4,0:0|0:3,0:0:0:0:
484,108,113674,6,0,P|480:176|464:248,1,140,4|0,0:0|0:0,0:0:0:0:
340,336,114556,2,0,P|272:332|204:352,1,140
128,328,115218,1,2,0:0:0:0:
84,264,115438,1,8,0:3:0:0:
256,192,115880,12,2,117369,0:0:0:0:
