osu file format v14

[General]
AudioFilename: audio.mp3
AudioLeadIn: 0
PreviewTime: 77104
Countdown: 0
SampleSet: Normal
StackLeniency: 0.7
Mode: 1
LetterboxInBreaks: 0
WidescreenStoryboard: 1

[Editor]
Bookmarks: 91815
DistanceSpacing: 0.3
BeatDivisor: 8
GridSize: 32
TimelineZoom: 2.5

[Metadata]
Title:moment
TitleUnicode:moment
Artist:vierre cloud
ArtistUnicode:vierre cloud
Creator:Boaz
Version:oni
Source:
Tags:lildeath lil death english electronic breakcore d&b dnb drum and bass a new kind of love horiiizon arcpotato
BeatmapID:3216946
BeatmapSetID:1575667

[Difficulty]
HPDrainRate:5.5
CircleSize:5
OverallDifficulty:5.5
ApproachRate:5
SliderMultiplier:1.4
SliderTickRate:1

[Events]
//Background and Video events
0,0,"bg.png",0,0
//Break Periods
//Storyboard Layer 0 (Background)
//Storyboard Layer 1 (Fail)
//Storyboard Layer 2 (Pass)
//Storyboard Layer 3 (Foreground)
//Storyboard Layer 4 (Overlay)
//Storyboard Sound Samples

[TimingPoints]
11255,350.262697022767,4,1,0,60,1,0
11255,-100,4,1,0,60,0,0
14013,-90.9090909090909,4,1,0,80,0,0
16813,-90.9090909090909,4,1,0,60,0,0
17034,-100,4,1,0,60,0,0
19661,-90.9090909090909,4,1,0,80,0,0
22638,-100,4,1,0,60,0,0
25221,-90.9090909090909,4,1,0,80,0,0
28242,-100,4,1,0,60,0,0
31001,-90.9090909090909,4,1,0,80,0,0
33649,-90.9090909090909,4,1,0,70,0,0
33671,-90.9090909090909,4,1,0,70,0,1
36430,-83.3333333333333,4,1,0,90,0,1
36473,-83.3333333333333,4,1,0,90,0,1
39451,-90.9090909090909,4,1,0,70,0,1
42078,-83.3333333333333,4,1,0,70,0,1
42209,-83.3333333333333,4,1,0,90,0,1
42253,-83.3333333333333,4,1,0,90,0,1
43128,-83.3333333333333,4,1,0,90,0,1
43304,-84.7398022003537,4,1,0,90,0,1
43479,-86.1945618127061,4,1,0,90,0,1
43566,-86.9408723821017,4,1,0,90,0,1
43654,-87.7001426881321,4,1,0,90,0,1
43829,-89.2592552921812,4,1,0,90,0,1
44004,-90.874806323069,4,1,0,90,0,1
44179,-92.5499167976248,4,1,0,90,0,1
44267,-93.4108892810071,4,1,0,90,0,1
44354,-94.2879421750908,4,1,0,90,0,1
44529,-96.0924947917868,4,1,0,90,0,1
44705,-97.9674689222697,4,1,0,90,0,1
44792,-98.9327138826341,4,1,0,90,0,1
44880,-99.8756548097619,4,1,0,50,0,0
47638,-90.9090909090909,4,1,0,70,0,0
50659,-100,4,1,0,50,0,0
53111,-97.0873786407767,4,1,0,50,0,0
53198,-94.3396226415094,4,1,0,50,0,0
53286,-91.743119266055,4,1,0,50,0,0
53417,-90.9090909090909,4,1,0,70,0,0
55388,-90.9090909090909,4,1,0,70,0,0
55475,-94.1176470588235,4,1,0,70,0,0
55563,-97.5609756097561,4,1,0,70,0,0
55738,-105.263157894737,4,1,0,70,0,0
55913,-114.285714285714,4,1,0,70,0,0
56001,-119.402985074627,4,1,0,70,0,0
56066,-125,4,1,0,20,0,0
67253,-111.111111111111,4,1,0,30,0,0
67647,-100,4,1,0,30,0,0
67822,-102.564102564103,4,1,0,30,0,0
67909,-103.896103896104,4,1,0,30,0,0
67997,-105.263157894737,4,1,0,30,0,0
68172,-108.108108108108,4,1,0,30,0,0
68347,-111.111111111111,4,1,0,30,0,0
73251,-100,4,1,0,30,0,0
73426,-102.536969704427,4,1,0,30,0,0
73514,-103.854346356322,4,1,0,30,0,0
73601,-105.206125100603,4,1,0,30,0,0
73776,-108.017840226492,4,1,0,30,0,0
73952,-110.983972804487,4,1,0,30,0,0
77104,-100,4,1,0,40,0,0
77191,-99.3788819875776,4,1,0,40,0,0
77279,-98.7654320987654,4,1,0,40,0,0
77454,-97.5609756097561,4,1,0,40,0,0
77629,-96.3855421686747,4,1,0,40,0,0
77804,-95.8083832335329,4,1,0,50,0,0
77892,-94.6745562130178,4,1,0,50,0,0
77980,-94.1176470588235,4,1,0,50,0,0
78155,-93.0232558139535,4,1,0,50,0,0
78242,-92.485549132948,4,1,0,60,0,0
78330,-91.9540229885058,4,1,0,60,0,0
78417,-91.4285714285714,4,1,0,70,0,0
78505,-90.9090909090909,4,1,0,70,0,1
81285,-83.3333333333333,4,1,0,90,0,1
81307,-83.3333333333333,4,1,0,90,0,1
84284,-90.9090909090909,4,1,0,70,0,1
86736,-89.2857142857143,4,1,0,70,0,1
86824,-87.719298245614,4,1,0,70,0,1
86911,-86.2068965517241,4,1,0,70,0,1
87043,-83.3333333333333,4,1,0,90,0,1
89888,-90.9090909090909,4,1,0,70,0,1
92472,-83.3333333333333,4,1,0,90,0,1
95493,-90.9090909090909,4,1,0,70,0,1
98076,-83.3333333333333,4,1,0,90,0,1
100222,365.853658536585,4,1,0,90,1,9
100222,-80,4,1,0,90,0,1
100542,-88.4955752212389,4,1,0,70,0,1
100587,405.405405405405,4,1,0,70,1,9
100587,-81.3008130081301,4,1,0,70,0,9
100967,-84.7457627118644,4,1,0,50,0,9
100992,442.151805453206,4,1,0,50,1,0
100992,-74.0740740740741,4,1,0,50,0,0
104473,-74.0740740740741,4,1,0,70,0,0
108038,-74.0740740740741,4,1,0,40,0,0
108287,-86.9565217391304,4,1,0,40,0,0
111603,-80,4,1,0,60,0,0
114256,-80,4,1,0,60,0,0
114367,-81.3008130081301,4,1,0,60,0,0
114477,-82.6446280991736,4,1,0,60,0,0
114698,-85.4700854700855,4,1,0,60,0,0
114919,-88.495575221239,4,1,0,60,0,0
115030,-90.0900900900901,4,1,0,60,0,0
115140,-91.743119266055,4,1,0,60,0,0
115361,-95.2380952380952,4,1,0,30,0,0
118622,-86.9565217391304,4,1,0,25,0,0
121109,-86.9565217391304,4,1,0,25,0,0
121220,-88.2263676851519,4,1,0,25,0,0
121330,-89.5337707953374,4,1,0,25,0,0
121552,-92.2685420555401,4,1,0,25,0,0
121773,-95.1755513043809,4,1,0,25,0,0
121883,-96.6988931844686,4,1,0,25,0,0
121994,-98.2717922612929,4,1,0,25,0,0
122215,-101.576157231765,4,1,0,20,0,0
122436,-105.263157894737,4,1,0,20,0,0
125973,-105.263157894737,4,1,0,20,0,0
126194,-105.263157894737,4,1,0,19,0,0
126415,-105.263157894737,4,1,0,18,0,0
126636,-105.263157894737,4,1,0,17,0,0
126857,-105.263157894737,4,1,0,16,0,0
127078,-105.263157894737,4,1,0,15,0,0
127300,-105.263157894737,4,1,0,14,0,0
127521,-105.263157894737,4,1,0,13,0,0
127742,-105.263157894737,4,1,0,12,0,0
127963,-105.263157894737,4,1,0,11,0,0
128184,-105.263157894737,4,1,0,10,0,0
128405,-105.263157894737,4,1,0,9,0,0
128626,-105.263157894737,4,1,0,8,0,0
128847,-105.263157894737,4,1,0,7,0,0
129068,-105.263157894737,4,1,0,6,0,0
129289,-105.263157894737,4,1,0,5,0,0

[HitObjects]
259,183,11255,5,0,0:0:0:0:
259,183,11430,1,0,0:0:0:0:
259,183,11605,1,8,0:0:0:0:
259,183,12130,1,0,0:0:0:0:
259,183,12305,1,8,0:0:0:0:
252,191,12393,1,8,0:0:0:0:
246,199,12480,1,0,0:0:0:0:
259,183,12656,1,0,0:0:0:0:
259,183,12831,1,0,0:0:0:0:
259,183,13006,1,8,0:0:0:0:
259,183,13531,1,0,0:0:0:0:
259,183,13706,1,8,0:0:0:0:
259,183,14057,5,0,0:0:0:0:
259,183,14232,1,0,0:0:0:0:
259,183,14407,1,8,0:0:0:0:
259,183,14582,1,0,0:0:0:0:
259,183,14670,1,8,0:0:0:0:
259,183,14845,1,8,0:0:0:0:
259,183,14932,1,0,0:0:0:0:
259,183,15107,1,8,0:0:0:0:
259,183,15195,1,0,0:0:0:0:
259,183,15283,1,8,0:0:0:0:
259,183,15458,1,0,0:0:0:0:
273,163,15633,1,0,0:0:0:0:
259,183,15808,1,8,0:0:0:0:
259,183,15983,1,8,0:0:0:0:
252,161,16071,1,8,0:0:0:0:
252,161,16158,1,0,0:0:0:0:
259,183,16333,1,0,0:0:0:0:
259,183,16508,1,8,0:0:0:0:
259,183,16596,1,8,0:0:0:0:
334,226,16684,1,0,0:0:0:0:
229,226,16771,1,8,0:0:0:0:
259,183,16859,1,0,0:0:0:0:
337,147,17034,1,0,0:0:0:0:
337,147,17209,1,8,0:0:0:0:
337,147,17384,1,8,0:0:0:0:
213,209,17472,1,0,0:0:0:0:
337,147,17647,1,0,0:0:0:0:
337,147,17734,1,0,0:0:0:0:
363,190,17909,1,8,0:0:0:0:
363,190,18260,1,8,0:0:0:0:
363,190,18435,1,0,0:0:0:0:
363,190,18610,1,8,0:0:0:0:
363,190,18785,1,8,0:0:0:0:
183,189,18873,1,0,0:0:0:0:
363,190,19048,1,0,0:0:0:0:
363,190,19135,1,0,0:0:0:0:
363,190,19311,1,8,0:0:0:0:
363,190,19661,1,0,0:0:0:0:
306,193,19836,1,0,0:0:0:0:
306,193,20011,1,0,0:0:0:0:
311,108,20186,1,8,0:0:0:0:
311,108,20274,1,8,0:0:0:0:
311,108,20361,1,0,0:0:0:0:
311,108,20536,1,0,0:0:0:0:
311,108,20712,1,8,0:0:0:0:
311,108,21062,1,8,0:0:0:0:
311,108,21237,1,0,0:0:0:0:
311,108,21412,1,8,0:0:0:0:
311,108,21587,1,0,0:0:0:0:
311,108,21762,1,8,0:0:0:0:
311,108,21850,1,8,0:0:0:0:
327,218,21938,1,0,0:0:0:0:
311,108,22113,1,0,0:0:0:0:
311,108,22288,1,8,0:0:0:0:
311,108,22375,1,8,0:0:0:0:
311,108,22463,1,0,0:0:0:0:
272,124,22638,1,0,0:0:0:0:
272,124,22813,1,8,0:0:0:0:
272,124,23339,1,0,0:0:0:0:
272,124,23514,1,8,0:0:0:0:
154,201,23864,1,0,0:0:0:0:
154,201,24039,1,0,0:0:0:0:
154,201,24214,1,8,0:0:0:0:
154,201,24389,1,0,0:0:0:0:
154,201,24477,1,0,0:0:0:0:
154,201,24564,1,8,0:0:0:0:
154,201,24740,1,0,0:0:0:0:
154,201,24915,1,8,0:0:0:0:
268,214,25265,1,0,0:0:0:0:
268,214,25440,1,0,0:0:0:0:
268,214,25615,1,8,0:0:0:0:
360,191,25790,1,0,0:0:0:0:
360,191,25878,1,8,0:0:0:0:
360,191,26053,1,8,0:0:0:0:
360,191,26141,1,0,0:0:0:0:
360,191,26316,1,8,0:0:0:0:
360,191,26491,1,0,0:0:0:0:
360,191,26578,1,8,0:0:0:0:
360,191,26666,1,0,0:0:0:0:
360,191,26841,1,0,0:0:0:0:
360,191,27016,1,0,0:0:0:0:
360,191,27191,1,8,0:0:0:0:
360,191,27279,1,8,0:0:0:0:
360,191,27367,1,0,0:0:0:0:
186,203,27542,1,0,0:0:0:0:
360,191,27717,1,8,0:0:0:0:
360,191,27804,1,8,0:0:0:0:
360,191,27892,1,8,0:0:0:0:
360,191,27980,1,8,0:0:0:0:
360,191,28067,1,0,0:0:0:0:
360,191,28242,1,0,0:0:0:0:
132,159,28417,1,8,0:0:0:0:
132,159,28593,1,8,0:0:0:0:
132,159,28680,1,0,0:0:0:0:
132,159,28855,1,8,0:0:0:0:
132,159,28943,1,0,0:0:0:0:
132,159,29118,1,8,0:0:0:0:
132,159,29468,1,0,0:0:0:0:
323,175,29643,1,0,0:0:0:0:
323,175,29818,1,8,0:0:0:0:
323,175,29994,1,0,0:0:0:0:
323,175,30081,1,8,0:0:0:0:
323,175,30256,1,8,0:0:0:0:
323,175,30344,1,0,0:0:0:0:
323,175,30519,1,8,0:0:0:0:
323,175,30694,1,8,0:0:0:0:
323,175,30782,1,8,0:0:0:0:
323,175,30869,1,0,0:0:0:0:
323,175,31044,1,0,0:0:0:0:
300,189,31219,1,8,0:0:0:0:
300,189,31395,1,0,0:0:0:0:
300,189,31482,1,0,0:0:0:0:
300,189,31570,1,8,0:0:0:0:
300,189,31745,1,0,0:0:0:0:
300,189,31920,1,8,0:0:0:0:
300,189,32095,1,0,0:0:0:0:
300,189,32183,1,8,0:0:0:0:
300,189,32270,1,0,0:0:0:0:
300,189,32621,1,0,0:0:0:0:
300,189,32796,1,0,0:0:0:0:
298,179,32971,1,8,0:0:0:0:
298,179,33058,1,8,0:0:0:0:
298,179,33146,1,0,0:0:0:0:
298,179,33321,1,0,0:0:0:0:
298,179,33408,1,0,0:0:0:0:
298,179,33496,1,8,0:0:0:0:
298,179,33583,1,8,0:0:0:0:
298,179,33671,1,0,0:0:0:0:
250,151,33846,1,0,0:0:0:0:
250,151,34022,1,8,0:0:0:0:
201,216,34372,1,0,0:0:0:0:
371,193,34547,1,8,0:0:0:0:
303,151,34635,1,0,0:0:0:0:
371,193,34722,1,8,0:0:0:0:
276,141,34897,1,8,0:0:0:0:
276,141,35072,1,0,0:0:0:0:
276,141,35423,1,8,0:0:0:0:
276,141,35598,1,0,0:0:0:0:
276,141,35948,1,8,0:0:0:0:
276,141,36123,1,8,0:0:0:0:
276,141,36211,1,0,0:0:0:0:
276,141,36298,1,0,0:0:0:0:
276,141,36473,1,0,0:0:0:0:
276,141,36649,1,8,0:0:0:0:
276,141,36824,1,8,0:0:0:0:
276,141,36999,1,0,0:0:0:0:
276,141,37086,1,0,0:0:0:0:
276,141,37174,1,8,0:0:0:0:
276,141,37262,1,8,0:0:0:0:
276,141,37349,1,0,0:0:0:0:
276,141,37524,1,8,0:0:0:0:
276,141,37699,1,0,0:0:0:0:
276,141,37787,1,0,0:0:0:0:
276,141,37874,1,8,0:0:0:0:
276,141,38225,1,0,0:0:0:0:
276,141,38400,1,8,0:0:0:0:
387,152,38487,1,8,0:0:0:0:
387,152,38575,1,0,0:0:0:0:
276,141,38750,1,0,0:0:0:0:
276,141,38925,1,8,0:0:0:0:
276,141,39013,1,0,0:0:0:0:
276,141,39100,1,8,0:0:0:0:
276,141,39188,1,8,0:0:0:0:
276,141,39276,1,0,0:0:0:0:
303,151,39451,1,0,0:0:0:0:
303,151,39626,1,8,0:0:0:0:
303,151,39801,1,0,0:0:0:0:
303,151,40151,1,8,0:0:0:0:
303,151,40239,1,0,0:0:0:0:
303,151,40326,1,8,0:0:0:0:
303,151,40501,1,0,0:0:0:0:
303,151,40677,1,8,0:0:0:0:
331,129,40852,1,0,0:0:0:0:
331,129,41027,1,8,0:0:0:0:
331,129,41202,1,8,0:0:0:0:
331,129,41552,1,0,0:0:0:0:
270,116,41640,1,0,0:0:0:0:
331,129,41727,1,8,0:0:0:0:
331,129,41902,1,0,0:0:0:0:
331,129,42078,1,8,0:0:0:0:
270,116,42253,1,8,0:0:0:0:
270,116,42340,1,0,0:0:0:0:
270,116,42428,1,8,0:0:0:0:
270,116,42603,1,0,0:0:0:0:
270,116,42778,1,8,0:0:0:0:
270,116,43128,1,8,0:0:0:0:
270,116,43304,1,0,0:0:0:0:
270,116,43479,1,0,0:0:0:0:
259,136,43566,1,8,0:0:0:0:
270,116,43654,1,0,0:0:0:0:
270,116,43829,1,8,0:0:0:0:
270,116,44004,1,0,0:0:0:0:
270,116,44179,1,8,0:0:0:0:
259,136,44267,1,8,0:0:0:0:
270,116,44354,1,8,0:0:0:0:
270,116,44529,1,0,0:0:0:0:
270,116,44705,1,8,0:0:0:0:
259,136,44792,1,8,0:0:0:0:
270,116,44880,1,0,0:0:0:0:
267,176,45055,1,0,0:0:0:0:
267,176,45230,1,8,0:0:0:0:
282,151,45580,1,8,0:0:0:0:
256,157,45755,1,0,0:0:0:0:
256,157,45931,1,8,0:0:0:0:
181,148,46281,1,0,0:0:0:0:
181,148,46456,1,0,0:0:0:0:
181,148,46543,1,0,0:0:0:0:
181,148,46631,1,8,0:0:0:0:
181,148,46894,1,8,0:0:0:0:
181,148,46981,1,0,0:0:0:0:
181,148,47156,1,0,0:0:0:0:
181,148,47332,1,8,0:0:0:0:
181,148,47682,1,0,0:0:0:0:
234,160,47857,1,8,0:0:0:0:
234,160,48032,1,8,0:0:0:0:
296,136,48207,1,0,0:0:0:0:
296,136,48295,1,8,0:0:0:0:
296,136,48382,1,8,0:0:0:0:
296,136,48557,1,0,0:0:0:0:
296,136,48733,1,8,0:0:0:0:
296,136,48820,1,0,0:0:0:0:
296,136,48908,1,8,0:0:0:0:
296,136,49083,1,0,0:0:0:0:
296,136,49258,1,8,0:0:0:0:
296,136,49433,1,0,0:0:0:0:
296,136,49608,1,8,0:0:0:0:
296,136,49696,1,8,0:0:0:0:
296,136,49783,1,0,0:0:0:0:
296,136,49959,1,0,0:0:0:0:
296,136,50134,1,8,0:0:0:0:
296,136,50221,1,8,0:0:0:0:
296,136,50309,1,8,0:0:0:0:
296,136,50396,1,8,0:0:0:0:
296,136,50484,1,0,0:0:0:0:
296,136,50659,1,0,0:0:0:0:
296,136,50834,1,8,0:0:0:0:
296,136,51009,1,8,0:0:0:0:
296,136,51097,1,0,0:0:0:0:
296,136,51184,1,0,0:0:0:0:
296,136,51535,1,8,0:0:0:0:
296,136,51710,1,0,0:0:0:0:
296,136,51885,1,0,0:0:0:0:
268,121,52060,1,0,0:0:0:0:
268,121,52235,1,8,0:0:0:0:
268,121,52410,1,8,0:0:0:0:
311,117,52498,1,0,0:0:0:0:
311,117,52673,1,0,0:0:0:0:
268,121,52761,1,0,0:0:0:0:
268,121,52936,1,8,0:0:0:0:
268,121,53111,1,8,0:0:0:0:
268,121,53198,1,0,0:0:0:0:
268,121,53286,1,0,0:0:0:0:
233,87,53461,1,0,0:0:0:0:
233,87,53636,1,8,0:0:0:0:
277,98,53811,1,0,0:0:0:0:
277,98,53899,1,0,0:0:0:0:
277,98,53987,1,8,0:0:0:0:
277,98,54162,1,0,0:0:0:0:
277,98,54337,1,8,0:0:0:0:
429,200,54512,1,8,0:0:0:0:
429,200,54600,1,8,0:0:0:0:
429,200,54687,1,0,0:0:0:0:
429,200,54862,1,0,0:0:0:0:
429,200,55037,1,8,0:0:0:0:
429,200,55212,1,0,0:0:0:0:
207,123,55388,1,8,0:0:0:0:
178,169,55475,1,8,0:0:0:0:
207,123,55563,1,8,0:0:0:0:
429,200,55738,1,0,0:0:0:0:
207,123,55913,1,8,0:0:0:0:
100,135,56001,1,8,0:0:0:0:
207,123,56088,1,0,0:0:0:0:
429,200,56438,1,8,0:0:0:0:
336,125,56964,1,0,0:0:0:0:
336,125,57139,1,8,0:0:0:0:
336,125,57489,1,0,0:0:0:0:
336,125,57839,1,8,0:0:0:0:
288,143,58365,1,0,0:0:0:0:
288,143,58540,1,8,0:0:0:0:
247,156,58890,1,0,0:0:0:0:
247,156,59240,1,8,0:0:0:0:
247,156,59766,1,0,0:0:0:0:
247,156,59941,1,8,0:0:0:0:
247,156,60291,1,0,0:0:0:0:
247,156,60642,1,8,0:0:0:0:
247,156,61167,1,0,0:0:0:0:
247,156,61342,1,8,0:0:0:0:
247,156,61692,1,0,0:0:0:0:
247,156,62043,1,8,0:0:0:0:
247,156,62568,1,0,0:0:0:0:
247,156,62743,1,8,0:0:0:0:
247,156,63093,1,0,0:0:0:0:
247,156,63444,1,8,0:0:0:0:
247,156,63969,1,0,0:0:0:0:
247,156,64144,1,8,0:0:0:0:
247,156,64494,1,0,0:0:0:0:
247,156,64845,1,8,0:0:0:0:
247,156,65370,1,0,0:0:0:0:
247,156,65545,1,8,0:0:0:0:
247,156,65895,1,0,0:0:0:0:
247,156,66246,1,8,0:0:0:0:
247,156,66771,1,0,0:0:0:0:
247,156,66946,1,8,0:0:0:0:
247,156,67297,1,0,0:0:0:0:
247,156,67647,1,8,0:0:0:0:
247,156,67822,1,0,0:0:0:0:
247,156,67909,1,0,0:0:0:0:
247,156,67997,1,8,0:0:0:0:
247,156,68172,1,0,0:0:0:0:
247,156,68347,1,8,0:0:0:0:
247,156,68698,1,0,0:0:0:0:
247,156,69048,1,8,0:0:0:0:
247,156,69573,1,0,0:0:0:0:
247,156,69748,1,8,0:0:0:0:
247,156,70099,1,0,0:0:0:0:
247,156,70449,1,8,0:0:0:0:
312,132,70624,1,0,0:0:0:0:
247,156,70974,1,0,0:0:0:0:
247,156,71149,1,8,0:0:0:0:
352,141,71500,1,0,0:0:0:0:
352,141,71850,1,8,0:0:0:0:
352,141,72375,1,0,0:0:0:0:
352,141,72550,1,8,0:0:0:0:
352,141,72901,1,0,0:0:0:0:
352,141,73251,1,8,0:0:0:0:
352,141,73426,1,0,0:0:0:0:
352,141,73514,1,8,0:0:0:0:
352,141,73601,1,0,0:0:0:0:
352,141,73776,1,0,0:0:0:0:
352,141,73952,1,8,0:0:0:0:
232,141,74302,1,0,0:0:0:0:
336,91,74652,1,8,0:0:0:0:
336,91,75177,1,0,0:0:0:0:
336,91,75353,1,8,0:0:0:0:
336,91,75703,1,0,0:0:0:0:
336,91,76053,1,8,0:0:0:0:
312,169,76228,1,0,0:0:0:0:
336,91,76578,1,0,0:0:0:0:
336,91,76754,1,8,0:0:0:0:
336,91,77104,1,8,0:0:0:0:
336,91,77191,1,0,0:0:0:0:
336,91,77279,1,0,0:0:0:0:
336,91,77454,1,0,0:0:0:0:
314,119,77629,1,8,0:0:0:0:
336,91,77804,1,0,0:0:0:0:
336,91,77892,1,0,0:0:0:0:
388,180,77980,1,8,0:0:0:0:
357,130,78155,1,0,0:0:0:0:
357,130,78242,1,0,0:0:0:0:
357,130,78330,1,8,0:0:0:0:
357,130,78417,1,8,0:0:0:0:
357,130,78505,1,8,0:0:0:0:
357,130,78680,1,0,0:0:0:0:
357,130,78855,1,8,0:0:0:0:
277,161,79205,1,0,0:0:0:0:
277,161,79381,1,0,0:0:0:0:
277,161,79556,1,8,0:0:0:0:
277,161,79731,1,8,0:0:0:0:
277,161,79818,1,8,0:0:0:0:
277,161,79906,1,0,0:0:0:0:
277,161,80256,1,8,0:0:0:0:
277,161,80431,1,0,0:0:0:0:
277,161,80607,1,0,0:0:0:0:
277,161,80782,1,0,0:0:0:0:
277,161,80869,1,0,0:0:0:0:
277,161,80957,1,8,0:0:0:0:
277,161,81132,1,0,0:0:0:0:
277,161,81307,1,8,0:0:0:0:
277,161,81482,1,0,0:0:0:0:
277,161,81657,1,8,0:0:0:0:
277,161,81832,1,0,0:0:0:0:
277,161,81920,1,8,0:0:0:0:
277,161,82008,1,8,0:0:0:0:
277,161,82183,1,0,0:0:0:0:
277,161,82358,1,8,0:0:0:0:
241,158,82445,1,8,0:0:0:0:
241,158,82533,1,0,0:0:0:0:
241,158,82621,1,0,0:0:0:0:
241,158,82708,1,8,0:0:0:0:
211,52,83058,1,8,0:0:0:0:
211,52,83233,1,8,0:0:0:0:
211,52,83321,1,8,0:0:0:0:
211,52,83409,1,0,0:0:0:0:
211,52,83584,1,0,0:0:0:0:
211,52,83759,1,8,0:0:0:0:
211,52,83846,1,8,0:0:0:0:
211,52,83934,1,8,0:0:0:0:
211,52,84022,1,8,0:0:0:0:
211,52,84109,1,0,0:0:0:0:
363,134,84284,1,0,0:0:0:0:
272,171,84459,1,8,0:0:0:0:
304,113,84810,1,8,0:0:0:0:
304,113,84985,1,0,0:0:0:0:
304,113,85160,1,8,0:0:0:0:
281,137,85335,1,0,0:0:0:0:
281,137,85423,1,0,0:0:0:0:
281,137,85510,1,8,0:0:0:0:
281,137,85685,1,0,0:0:0:0:
281,137,85860,1,8,0:0:0:0:
329,139,86036,1,0,0:0:0:0:
329,139,86123,1,8,0:0:0:0:
329,139,86298,1,8,0:0:0:0:
329,139,86386,1,0,0:0:0:0:
329,139,86561,1,8,0:0:0:0:
329,139,86736,1,0,0:0:0:0:
329,139,86824,1,0,0:0:0:0:
329,139,86911,1,8,0:0:0:0:
329,139,87086,1,8,0:0:0:0:
329,139,87262,1,0,0:0:0:0:
329,139,87437,1,8,0:0:0:0:
329,139,87612,1,0,0:0:0:0:
329,139,87699,1,0,0:0:0:0:
329,139,87787,1,0,0:0:0:0:
329,139,87962,1,8,0:0:0:0:
329,139,88137,1,0,0:0:0:0:
329,139,88225,1,0,0:0:0:0:
329,139,88312,1,8,0:0:0:0:
329,139,88663,1,8,0:0:0:0:
329,139,88838,1,0,0:0:0:0:
329,139,89013,1,8,0:0:0:0:
329,139,89100,1,8,0:0:0:0:
329,139,89188,1,8,0:0:0:0:
329,139,89363,1,0,0:0:0:0:
329,139,89538,1,8,0:0:0:0:
329,139,89626,1,8,0:0:0:0:
329,139,89713,1,0,0:0:0:0:
375,160,89888,1,0,0:0:0:0:
375,160,90064,1,8,0:0:0:0:
340,172,90414,1,0,0:0:0:0:
340,172,90589,1,0,0:0:0:0:
340,172,90764,1,8,0:0:0:0:
340,172,90939,1,0,0:0:0:0:
340,172,91027,1,0,0:0:0:0:
340,172,91114,1,8,0:0:0:0:
340,172,91290,1,0,0:0:0:0:
340,172,91465,1,8,0:0:0:0:
331,160,91815,1,8,0:0:0:0:
331,160,91990,1,0,0:0:0:0:
331,160,92165,1,8,0:0:0:0:
331,160,92253,1,8,0:0:0:0:
331,160,92340,1,0,0:0:0:0:
331,160,92515,1,8,0:0:0:0:
301,117,92691,1,0,0:0:0:0:
301,117,92866,1,8,0:0:0:0:
301,117,92953,1,0,0:0:0:0:
301,117,93041,1,8,0:0:0:0:
301,117,93128,1,8,0:0:0:0:
301,117,93216,1,0,0:0:0:0:
301,117,93391,1,0,0:0:0:0:
301,117,93566,1,8,0:0:0:0:
301,117,93741,1,8,0:0:0:0:
301,117,93828,1,8,0:0:0:0:
301,117,93916,1,0,0:0:0:0:
301,117,94092,1,0,0:0:0:0:
301,117,94267,1,0,0:0:0:0:
301,117,94442,1,8,0:0:0:0:
199,207,94529,1,8,0:0:0:0:
199,207,94617,1,0,0:0:0:0:
301,117,94792,1,0,0:0:0:0:
301,117,94967,1,8,0:0:0:0:
301,117,95055,1,8,0:0:0:0:
301,117,95142,1,8,0:0:0:0:
301,117,95230,1,8,0:0:0:0:
301,117,95318,1,0,0:0:0:0:
301,117,95493,1,0,0:0:0:0:
301,117,95668,1,8,0:0:0:0:
301,117,95843,1,0,0:0:0:0:
301,117,95931,1,8,0:0:0:0:
301,117,96018,1,8,0:0:0:0:
301,117,96193,1,0,0:0:0:0:
301,117,96368,1,8,0:0:0:0:
301,117,96719,5,8,0:0:0:0:
301,117,96894,1,0,0:0:0:0:
301,117,97069,1,8,0:0:0:0:
301,117,97244,1,0,0:0:0:0:
186,189,97332,1,8,0:0:0:0:
186,189,97419,1,0,0:0:0:0:
186,189,97594,1,0,0:0:0:0:
186,189,97769,1,8,0:0:0:0:
186,189,97945,1,0,0:0:0:0:
186,189,98120,1,8,0:0:0:0:
334,240,98295,1,0,0:0:0:0:
334,240,98470,1,8,0:0:0:0:
271,122,98645,1,8,0:0:0:0:
271,122,98820,1,0,0:0:0:0:
350,154,98908,1,0,0:0:0:0:
350,154,98995,1,8,0:0:0:0:
350,154,99083,1,0,0:0:0:0:
350,154,99170,1,8,0:0:0:0:
350,154,99346,1,0,0:0:0:0:
350,154,99521,1,8,0:0:0:0:
350,154,99871,1,8,0:0:0:0:
273,149,100046,1,0,0:0:0:0:
273,149,100222,1,8,0:0:0:0:
339,134,100313,1,8,0:0:0:0:
339,134,100404,1,0,0:0:0:0:
273,149,100587,1,0,0:0:0:0:
273,149,100789,1,8,0:0:0:0:
273,149,100891,1,8,0:0:0:0:
273,149,100992,1,0,0:0:0:0:
273,149,101213,1,0,0:0:0:0:
273,149,101434,1,8,0:0:0:0:
339,134,101765,1,0,0:0:0:0:
273,149,102097,1,0,0:0:0:0:
273,149,102318,1,8,0:0:0:0:
273,149,102760,1,0,0:0:0:0:
273,149,102981,1,0,0:0:0:0:
273,149,103092,1,0,0:0:0:0:
273,149,103202,1,8,0:0:0:0:
273,149,103423,1,8,0:0:0:0:
273,149,103644,1,0,0:0:0:0:
273,149,103865,1,0,0:0:0:0:
273,149,104087,1,8,0:0:0:0:
273,149,104529,1,8,0:0:0:0:
273,149,104750,1,8,0:0:0:0:
273,149,104860,1,0,0:0:0:0:
273,149,104971,1,8,0:0:0:0:
327,149,105192,1,8,0:0:0:0:
243,183,105413,1,0,0:0:0:0:
327,149,105634,1,0,0:0:0:0:
327,149,105855,5,8,0:0:0:0:
327,149,106076,1,0,0:0:0:0:
327,149,106187,1,0,0:0:0:0:
327,149,106297,1,8,0:0:0:0:
327,149,106518,1,0,0:0:0:0:
327,149,106739,1,8,0:0:0:0:
327,149,106961,1,8,0:0:0:0:
327,149,107071,1,8,0:0:0:0:
327,149,107182,1,0,0:0:0:0:
327,149,107403,1,0,0:0:0:0:
327,149,107624,1,8,0:0:0:0:
327,149,107734,1,8,0:0:0:0:
327,149,107845,1,8,0:0:0:0:
327,149,107955,1,8,0:0:0:0:
327,149,108066,1,0,0:0:0:0:
327,149,108287,1,0,0:0:0:0:
327,149,108508,1,8,0:0:0:0:
111,170,108729,1,8,0:0:0:0:
327,149,108950,1,0,0:0:0:0:
327,149,109171,1,0,0:0:0:0:
327,149,109392,1,8,0:0:0:0:
327,149,109835,1,8,0:0:0:0:
327,149,109945,1,8,0:0:0:0:
327,149,110056,1,0,0:0:0:0:
327,149,110277,1,8,0:0:0:0:
327,149,110498,1,0,0:0:0:0:
327,149,110940,5,0,0:0:0:0:
327,149,111050,1,0,0:0:0:0:
327,149,111161,1,8,0:0:0:0:
327,149,111382,1,0,0:0:0:0:
327,149,111603,1,8,0:0:0:0:
327,149,111824,1,8,0:0:0:0:
327,149,112045,1,8,0:0:0:0:
327,149,112266,1,0,0:0:0:0:
327,149,112487,1,8,0:0:0:0:
327,149,112709,1,0,0:0:0:0:
327,149,112819,1,8,0:0:0:0:
327,149,112930,1,8,0:0:0:0:
289,165,113151,1,0,0:0:0:0:
289,165,113372,1,8,0:0:0:0:
207,163,113814,1,8,0:0:0:0:
207,163,114035,1,0,0:0:0:0:
207,163,114256,1,8,0:0:0:0:
207,163,114367,1,8,0:0:0:0:
207,163,114477,1,0,0:0:0:0:
207,163,114698,1,8,0:0:0:0:
207,163,114919,1,8,0:0:0:0:
207,163,115030,1,8,0:0:0:0:
207,163,115140,1,0,0:0:0:0:
207,163,115361,1,0,0:0:0:0:
207,163,115583,1,8,0:0:0:0:
207,163,116025,1,0,0:0:0:0:
207,163,116135,1,0,0:0:0:0:
207,163,116246,1,0,0:0:0:0:
207,163,116467,1,8,0:0:0:0:
207,163,116688,1,0,0:0:0:0:
207,163,116909,1,0,0:0:0:0:
207,163,117351,1,8,0:0:0:0:
207,163,117572,1,0,0:0:0:0:
207,163,117683,1,8,0:0:0:0:
207,163,117793,1,0,0:0:0:0:
207,163,118014,1,0,0:0:0:0:
207,163,118235,1,8,0:0:0:0:
207,163,118678,1,8,0:0:0:0:
207,163,118899,1,0,0:0:0:0:
207,163,119009,1,0,0:0:0:0:
207,163,119120,1,8,0:0:0:0:
207,163,119341,1,0,0:0:0:0:
295,109,119451,1,8,0:0:0:0:
207,163,119562,1,0,0:0:0:0:
207,163,119783,1,0,0:0:0:0:
207,163,120004,1,8,0:0:0:0:
295,109,120115,1,8,0:0:0:0:
295,109,120225,1,8,0:0:0:0:
207,163,120446,1,0,0:0:0:0:
295,109,120667,1,0,0:0:0:0:
295,109,120888,1,8,0:0:0:0:
305,124,121109,1,8,0:0:0:0:
305,124,121220,1,8,0:0:0:0:
305,124,121330,1,0,0:0:0:0:
305,124,121552,1,0,0:0:0:0:
305,124,121773,1,8,0:0:0:0:
305,124,121883,1,8,0:0:0:0:
305,124,121994,1,8,0:0:0:0:
305,124,122215,1,0,0:0:0:0:
305,124,122436,1,0,0:0:0:0:
305,124,122657,1,8,0:0:0:0:
299,161,122878,1,8,0:0:0:0:
299,161,123099,1,0,0:0:0:0:
299,161,123320,1,0,0:0:0:0:
299,161,123541,1,8,0:0:0:0:
299,161,123983,1,0,0:0:0:0:
299,161,124426,1,8,0:0:0:0:
299,161,124647,1,0,0:0:0:0:
299,161,125089,1,0,0:0:0:0:
299,161,125310,1,8,0:0:0:0:
299,161,125531,1,8,0:0:0:0:
231,180,125752,1,0,0:0:0:0:
256,192,125973,12,0,129289,0:0:0:0:
