osu file format v14

[General]
AudioFilename: audio.mp3
AudioLeadIn: 0
PreviewTime: 77104
Countdown: 0
SampleSet: Normal
StackLeniency: 0.7
Mode: 1
LetterboxInBreaks: 0
WidescreenStoryboard: 1

[Editor]
Bookmarks: 1097
DistanceSpacing: 0.3
BeatDivisor: 2
GridSize: 32
TimelineZoom: 1.7

[Metadata]
Title:moment
TitleUnicode:moment
Artist:vierre cloud
ArtistUnicode:vierre cloud
Creator:Boaz
Version:arc's futsuu
Source:
Tags:lildeath lil death english electronic breakcore d&b dnb drum and bass a new kind of love horiiizon arcpotato
BeatmapID:3219815
BeatmapSetID:1575667

[Difficulty]
HPDrainRate:7
CircleSize:5
OverallDifficulty:4
ApproachRate:5
SliderMultiplier:1.4
SliderTickRate:1

[Events]
//Background and Video events
0,0,"bg.png",0,0
//Break Periods
//Storyboard Layer 0 (Background)
//Storyboard Layer 1 (Fail)
//Storyboard Layer 2 (Pass)
//Storyboard Layer 3 (Foreground)
//Storyboard Layer 4 (Overlay)
//Storyboard Sound Samples

[TimingPoints]
11255,350.262697022767,4,1,0,60,1,0
11255,-100,4,1,0,60,0,0
14013,-100,4,1,0,80,0,0
16837,-100,4,1,0,60,0,0
19792,-100,4,1,0,80,0,0
22441,-100,4,1,0,60,0,0
25221,-100,4,1,0,80,0,0
28045,-100,4,1,0,60,0,0
31001,-100,4,1,0,80,0,0
33649,-100,4,1,0,70,0,0
33671,-100,4,1,0,70,0,1
36430,-100,4,1,0,90,0,1
39254,-100,4,1,0,70,0,1
43128,-100,4,1,0,90,0,1
44880,-99.8756548097619,4,1,0,50,0,0
47638,-100,4,1,0,70,0,0
50462,-100,4,1,0,50,0,0
53417,-100,4,1,0,70,0,0
56066,-100,4,1,0,20,0,0
67253,-100,4,1,0,30,0,0
77104,-100,4,1,0,40,0,0
77629,-100,4,1,0,50,0,0
78155,-100,4,1,0,60,0,0
78505,-100,4,1,0,70,0,1
81307,-100,4,1,0,90,0,1
84087,-100,4,1,0,70,0,1
87043,-100,4,1,0,90,0,1
89691,-100,4,1,0,70,0,1
92472,-100,4,1,0,90,0,1
95296,-100,4,1,0,70,0,1
98251,-100,4,1,0,90,0,1
100222,365.853658536585,4,1,0,90,1,9
100222,-95.7384700724415,4,1,0,90,0,1
100587,405.405405405405,4,1,0,70,1,9
100587,-86.3981313673911,4,1,0,70,0,9
100770,-89.2857142857143,4,1,0,70,0,9
100992,442.151805453206,4,1,0,50,1,0
100992,-84.8973973777452,4,1,0,50,0,0
101434,-87.8004589874354,4,1,0,50,0,0
104473,-90.9090909090909,4,1,0,60,0,0
108038,-90.9090909090909,4,1,0,40,0,0
111769,-95.2380952380952,4,1,0,50,0,0
115113,-95.2380952380952,4,1,0,30,0,0
118622,-100,4,1,0,25,0,0
122187,-100,4,1,0,20,0,0
122436,-105.263157894737,4,1,0,20,0,0
126194,-105.263157894737,4,1,0,19,0,0
126415,-105.263157894737,4,1,0,18,0,0
126636,-105.263157894737,4,1,0,17,0,0
126857,-105.263157894737,4,1,0,16,0,0
127078,-105.263157894737,4,1,0,15,0,0
127300,-105.263157894737,4,1,0,14,0,0
127521,-105.263157894737,4,1,0,13,0,0
127742,-105.263157894737,4,1,0,12,0,0
127963,-105.263157894737,4,1,0,11,0,0
128184,-105.263157894737,4,1,0,10,0,0
128405,-105.263157894737,4,1,0,9,0,0
128626,-105.263157894737,4,1,0,8,0,0
128847,-105.263157894737,4,1,0,7,0,0
129068,-105.263157894737,4,1,0,6,0,0
129289,-105.263157894737,4,1,0,5,0,0

[HitObjects]
259,183,11255,5,0,0:0:0:0:
259,183,11605,1,8,0:0:0:0:
259,183,12130,1,0,0:0:0:0:
259,183,12305,1,8,0:0:0:0:
259,183,12656,1,0,0:0:0:0:
259,183,13006,1,8,0:0:0:0:
259,183,13531,1,0,0:0:0:0:
259,183,13706,1,8,0:0:0:0:
259,183,14057,1,0,0:0:0:0:
259,183,14407,1,8,0:0:0:0:
259,183,14582,1,0,0:0:0:0:
259,183,14932,1,0,0:0:0:0:
259,183,15107,1,8,0:0:0:0:
291,194,15983,1,0,0:0:0:0:
291,194,16158,1,8,0:0:0:0:
104,140,16508,1,8,0:0:0:0:
259,183,16859,1,0,0:0:0:0:
337,147,17034,1,0,0:0:0:0:
337,147,17384,1,8,0:0:0:0:
363,190,17909,1,8,0:0:0:0:
148,162,18260,1,0,0:0:0:0:
363,190,18610,1,8,0:0:0:0:
363,190,18785,1,0,0:0:0:0:
363,190,19311,1,8,0:0:0:0:
306,193,19661,1,0,0:0:0:0:
181,60,19836,1,0,0:0:0:0:
311,108,20186,1,8,0:0:0:0:
311,108,20536,1,0,0:0:0:0:
311,108,20712,1,8,0:0:0:0:
311,108,21062,1,0,0:0:0:0:
266,151,21587,1,0,0:0:0:0:
329,186,21762,1,8,0:0:0:0:
327,218,22113,1,8,0:0:0:0:
311,108,22463,1,8,0:0:0:0:
272,124,22638,1,0,0:0:0:0:
272,124,22813,1,8,0:0:0:0:
272,124,23514,1,8,0:0:0:0:
154,201,23864,1,0,0:0:0:0:
154,201,24039,1,0,0:0:0:0:
154,201,24214,1,8,0:0:0:0:
154,201,24740,1,0,0:0:0:0:
330,65,24915,1,8,0:0:0:0:
268,214,25265,1,0,0:0:0:0:
268,214,25615,1,8,0:0:0:0:
360,191,25790,1,0,0:0:0:0:
360,191,26141,1,0,0:0:0:0:
360,191,26316,1,8,0:0:0:0:
286,184,27191,1,8,0:0:0:0:
316,189,27542,1,0,0:0:0:0:
360,191,27717,1,8,0:0:0:0:
360,191,28067,1,0,0:0:0:0:
201,160,28242,1,0,0:0:0:0:
132,159,28417,1,8,0:0:0:0:
132,159,29118,1,8,0:0:0:0:
296,71,29468,1,0,0:0:0:0:
258,156,29643,1,0,0:0:0:0:
323,175,29818,1,8,0:0:0:0:
170,175,30344,1,0,0:0:0:0:
323,175,30519,1,8,0:0:0:0:
323,175,30869,1,0,0:0:0:0:
300,189,31219,1,8,0:0:0:0:
300,189,31395,1,0,0:0:0:0:
300,189,31745,1,0,0:0:0:0:
300,189,31920,1,8,0:0:0:0:
300,189,32621,1,8,0:0:0:0:
300,189,32796,1,0,0:0:0:0:
298,179,32971,1,8,0:0:0:0:
298,179,33321,1,8,0:0:0:0:
153,189,33671,1,8,0:0:0:0:
250,151,33846,1,0,0:0:0:0:
250,151,34197,1,0,0:0:0:0:
371,193,34372,1,8,0:0:0:0:
276,141,35072,1,8,0:0:0:0:
276,141,35423,1,8,0:0:0:0:
276,141,35598,1,0,0:0:0:0:
249,181,35948,1,0,0:0:0:0:
276,141,36123,1,0,0:0:0:0:
276,141,36473,1,8,0:0:0:0:
276,141,36824,1,0,0:0:0:0:
276,141,36999,1,0,0:0:0:0:
276,141,37174,1,8,0:0:0:0:
177,157,37874,1,8,0:0:0:0:
364,312,38225,1,0,0:0:0:0:
276,141,38400,1,8,0:0:0:0:
387,152,38575,1,0,0:0:0:0:
276,141,38925,1,8,0:0:0:0:
276,141,39276,1,8,0:0:0:0:
303,151,39451,1,0,0:0:0:0:
303,151,39801,1,0,0:0:0:0:
303,151,39976,1,8,0:0:0:0:
303,151,40677,1,0,0:0:0:0:
331,129,41027,1,8,0:0:0:0:
331,129,41202,1,0,0:0:0:0:
331,129,41727,1,0,0:0:0:0:
331,129,41902,1,0,0:0:0:0:
331,129,42078,1,8,0:0:0:0:
270,116,42428,1,0,0:0:0:0:
270,116,42778,1,8,0:0:0:0:
270,116,43128,1,8,0:0:0:0:
270,116,43304,1,0,0:0:0:0:
270,116,43479,1,0,0:0:0:0:
270,116,43829,1,0,0:0:0:0:
270,116,44179,1,8,0:0:0:0:
270,116,44354,1,0,0:0:0:0:
290,144,44705,1,8,0:0:0:0:
270,116,44880,1,0,0:0:0:0:
231,104,45055,1,8,0:0:0:0:
267,176,45230,1,0,0:0:0:0:
256,157,45931,1,8,0:0:0:0:
181,148,46281,1,0,0:0:0:0:
181,148,46456,1,0,0:0:0:0:
181,148,46631,1,8,0:0:0:0:
181,148,47332,1,8,0:0:0:0:
181,148,47682,1,8,0:0:0:0:
234,160,47857,1,0,0:0:0:0:
234,160,48032,1,8,0:0:0:0:
296,136,49083,1,0,0:0:0:0:
72,157,49258,1,8,0:0:0:0:
72,157,49433,1,0,0:0:0:0:
296,136,49783,1,0,0:0:0:0:
296,136,50134,1,8,0:0:0:0:
296,136,50484,1,0,0:0:0:0:
296,136,50659,1,0,0:0:0:0:
296,136,50834,1,8,0:0:0:0:
296,136,51535,1,8,0:0:0:0:
296,136,51710,1,0,0:0:0:0:
296,136,51885,1,8,0:0:0:0:
115,128,52410,1,8,0:0:0:0:
268,121,52936,1,8,0:0:0:0:
268,121,53286,1,0,0:0:0:0:
269,191,53636,1,8,0:0:0:0:
269,191,53811,1,8,0:0:0:0:
224,191,53987,1,0,0:0:0:0:
173,195,54337,1,0,0:0:0:0:
429,200,54512,1,8,0:0:0:0:
429,200,54687,1,0,0:0:0:0:
207,123,55388,1,8,0:0:0:0:
429,200,55738,1,0,0:0:0:0:
207,123,55913,1,8,0:0:0:0:
429,200,56438,1,8,0:0:0:0:
336,125,57139,1,8,0:0:0:0:
336,125,57489,1,0,0:0:0:0:
336,125,57839,1,8,0:0:0:0:
288,143,58540,1,0,0:0:0:0:
247,156,58890,1,0,0:0:0:0:
247,156,59240,1,8,0:0:0:0:
247,156,59941,1,8,0:0:0:0:
247,156,60291,1,0,0:0:0:0:
247,156,60642,1,8,0:0:0:0:
247,156,61342,1,8,0:0:0:0:
247,156,61692,1,8,0:0:0:0:
247,156,62043,1,0,0:0:0:0:
247,156,62743,1,8,0:0:0:0:
247,156,63093,1,0,0:0:0:0:
247,156,63444,1,8,0:0:0:0:
247,156,64144,1,0,0:0:0:0:
247,156,64494,1,0,0:0:0:0:
247,156,64845,1,8,0:0:0:0:
247,156,65545,1,0,0:0:0:0:
247,156,65895,1,8,0:0:0:0:
247,156,66246,1,8,0:0:0:0:
247,156,66771,1,0,0:0:0:0:
247,156,66946,1,8,0:0:0:0:
247,156,67297,1,0,0:0:0:0:
247,156,67647,1,8,0:0:0:0:
247,156,68172,1,0,0:0:0:0:
247,156,68347,1,8,0:0:0:0:
247,156,68698,1,0,0:0:0:0:
247,156,69048,1,8,0:0:0:0:
247,156,69748,1,8,0:0:0:0:
247,156,70099,1,0,0:0:0:0:
247,156,70449,1,8,0:0:0:0:
247,156,71149,1,0,0:0:0:0:
352,141,71500,1,0,0:0:0:0:
352,141,71850,1,8,0:0:0:0:
352,141,72550,1,8,0:0:0:0:
352,141,72901,1,0,0:0:0:0:
352,141,73251,1,8,0:0:0:0:
352,141,73426,1,0,0:0:0:0:
352,141,73776,1,0,0:0:0:0:
352,141,73952,1,8,0:0:0:0:
232,141,74302,1,0,0:0:0:0:
336,91,74652,1,8,0:0:0:0:
336,91,75353,1,8,0:0:0:0:
336,91,75703,1,0,0:0:0:0:
336,91,76053,1,8,0:0:0:0:
336,91,76754,1,8,0:0:0:0:
336,91,77104,1,0,0:0:0:0:
336,91,77454,1,0,0:0:0:0:
314,119,77629,1,8,0:0:0:0:
336,91,77804,1,0,0:0:0:0:
357,130,78155,1,0,0:0:0:0:
357,130,78505,1,8,0:0:0:0:
189,152,78680,1,0,0:0:0:0:
189,152,79030,1,0,0:0:0:0:
189,152,79205,1,8,0:0:0:0:
277,161,79906,1,8,0:0:0:0:
111,139,80256,1,0,0:0:0:0:
243,247,80431,1,0,0:0:0:0:
277,161,80782,1,0,0:0:0:0:
277,161,80957,1,8,0:0:0:0:
277,161,81307,1,8,0:0:0:0:
277,161,81482,1,0,0:0:0:0:
277,161,81657,1,8,0:0:0:0:
277,161,82008,1,8,0:0:0:0:
241,158,82708,1,8,0:0:0:0:
211,52,83058,1,0,0:0:0:0:
211,52,83233,1,8,0:0:0:0:
211,52,83759,1,8,0:0:0:0:
211,52,84109,1,8,0:0:0:0:
363,134,84284,1,0,0:0:0:0:
158,165,84635,1,0,0:0:0:0:
158,165,84810,1,8,0:0:0:0:
281,137,85510,1,8,0:0:0:0:
281,137,85860,1,0,0:0:0:0:
329,139,86036,1,0,0:0:0:0:
215,177,86386,1,0,0:0:0:0:
329,139,86561,1,8,0:0:0:0:
329,139,86911,1,0,0:0:0:0:
261,243,87262,1,8,0:0:0:0:
329,139,87962,1,8,0:0:0:0:
329,139,88312,1,0,0:0:0:0:
329,139,88663,1,8,0:0:0:0:
299,166,88838,1,0,0:0:0:0:
329,139,89013,1,8,0:0:0:0:
329,139,89363,1,8,0:0:0:0:
329,139,89713,1,8,0:0:0:0:
375,160,89888,1,0,0:0:0:0:
164,151,90239,1,0,0:0:0:0:
164,151,90414,1,8,0:0:0:0:
340,172,90764,1,0,0:0:0:0:
340,172,91114,1,0,0:0:0:0:
340,172,91290,1,0,0:0:0:0:
340,172,91465,1,8,0:0:0:0:
331,160,91990,1,8,0:0:0:0:
331,160,92340,1,0,0:0:0:0:
331,160,92515,1,8,0:0:0:0:
302,161,92866,1,8,0:0:0:0:
302,161,93041,1,0,0:0:0:0:
302,161,93216,1,0,0:0:0:0:
301,117,93566,1,8,0:0:0:0:
301,117,94267,1,8,0:0:0:0:
57,180,94442,1,0,0:0:0:0:
71,181,94617,1,8,0:0:0:0:
172,112,94967,1,8,0:0:0:0:
301,117,95318,1,8,0:0:0:0:
158,188,95493,1,0,0:0:0:0:
174,185,95843,1,0,0:0:0:0:
301,117,96018,1,8,0:0:0:0:
301,117,96368,1,8,0:0:0:0:
223,158,96719,1,0,0:0:0:0:
301,117,97069,1,8,0:0:0:0:
186,189,97769,1,8,0:0:0:0:
186,189,98120,1,0,0:0:0:0:
334,240,98470,1,8,0:0:0:0:
271,122,98645,1,0,0:0:0:0:
164,148,98995,1,0,0:0:0:0:
164,148,99170,1,8,0:0:0:0:
350,154,99521,1,0,0:0:0:0:
350,154,99871,1,8,0:0:0:0:
273,149,100222,1,8,0:0:0:0:
339,250,100587,1,0,0:0:0:0:
273,149,100789,1,8,0:0:0:0:
278,172,100992,1,0,0:0:0:0:
273,149,101434,1,8,0:0:0:0:
339,134,101876,1,0,0:0:0:0:
273,149,102318,1,8,0:0:0:0:
273,149,102760,1,0,0:0:0:0:
104,164,102981,1,0,0:0:0:0:
273,149,103202,1,8,0:0:0:0:
273,149,103644,1,0,0:0:0:0:
273,149,104087,1,0,0:0:0:0:
273,149,104529,1,8,0:0:0:0:
327,149,105413,1,0,0:0:0:0:
327,149,105855,1,8,0:0:0:0:
327,149,106297,1,0,0:0:0:0:
327,149,106518,1,8,0:0:0:0:
327,149,106739,1,0,0:0:0:0:
327,149,107182,1,0,0:0:0:0:
327,149,107624,1,8,0:0:0:0:
327,149,108066,1,0,0:0:0:0:
327,149,108287,1,0,0:0:0:0:
111,170,108729,1,8,0:0:0:0:
327,149,109171,1,0,0:0:0:0:
327,149,109392,1,8,0:0:0:0:
327,149,110277,1,8,0:0:0:0:
327,149,110498,1,0,0:0:0:0:
327,149,110719,1,0,0:0:0:0:
327,149,111161,1,8,0:0:0:0:
327,149,111603,1,0,0:0:0:0:
327,149,112045,1,8,0:0:0:0:
327,149,112266,1,0,0:0:0:0:
327,149,112709,1,0,0:0:0:0:
327,149,112930,1,8,0:0:0:0:
289,165,113372,1,0,0:0:0:0:
207,163,114256,1,8,0:0:0:0:
207,163,114698,1,0,0:0:0:0:
285,133,114919,1,8,0:0:0:0:
207,163,115583,1,8,0:0:0:0:
207,163,116246,1,8,0:0:0:0:
207,163,116467,1,8,0:0:0:0:
207,163,116909,1,0,0:0:0:0:
207,163,117351,1,8,0:0:0:0:
207,163,117793,1,0,0:0:0:0:
207,163,118014,1,0,0:0:0:0:
207,163,118235,1,8,0:0:0:0:
207,163,118678,1,8,0:0:0:0:
207,163,119120,1,0,0:0:0:0:
207,163,119341,1,8,0:0:0:0:
207,163,119783,1,8,0:0:0:0:
207,163,120004,1,0,0:0:0:0:
207,163,120446,1,8,0:0:0:0:
305,124,121109,1,0,0:0:0:0:
260,165,121773,1,8,0:0:0:0:
305,124,122657,1,8,0:0:0:0:
276,176,123099,1,0,0:0:0:0:
299,161,123541,1,8,0:0:0:0:
299,161,124426,1,0,0:0:0:0:
299,161,124647,1,8,0:0:0:0:
299,161,125310,1,8,0:0:0:0:
231,180,125752,1,0,0:0:0:0:
256,192,125973,8,0,129289,0:0:0:0:
