osu file format v14

[General]
AudioFilename: audio.mp3
AudioLeadIn: 0
PreviewTime: 48294
Countdown: 0
SampleSet: None
StackLeniency: 0.2
Mode: 0
LetterboxInBreaks: 0
WidescreenStoryboard: 1

[Editor]
DistanceSpacing: 0.6
BeatDivisor: 4
GridSize: 32
TimelineZoom: 1.700001

[Metadata]
Title:black rover
TitleUnicode:black rover
Artist:vickeblanka
ArtistUnicode:vickeblanka
Creator:Hexikey
Version:1-2 no nerf
Source:
Tags:
BeatmapID:2178331
BeatmapSetID:1042308

[Difficulty]
HPDrainRate:5.2
CircleSize:4.2
OverallDifficulty:9.6
ApproachRate:9.7
SliderMultiplier:2.02
SliderTickRate:1

[Events]
//Background and Video events
0,0,"BG.jpg",0,0
//Break Periods
//Storyboard Layer 0 (Background)
//Storyboard Layer 1 (Fail)
//Storyboard Layer 2 (Pass)
//Storyboard Layer 3 (Foreground)
//Storyboard Layer 4 (Overlay)
//Storyboard Sound Samples

[TimingPoints]
1022,294.117647058824,4,2,22,42,1,0
1022,-238.095238095238,4,2,22,42,0,0
7344,255.31914893617,4,2,22,42,1,0
7344,-100,4,2,22,62,0,0
7471,335.195530726257,4,2,22,62,1,0
7638,250,4,2,22,62,1,0
7763,294.117647058824,4,2,22,62,1,0
7918,329.67032967033,4,2,22,72,1,0
8082,329.67032967033,4,2,22,72,1,0
8247,294.117647058824,4,2,22,72,1,0
8368,294.117647058824,4,2,22,72,1,0
8368,-89.2857142857143,4,2,22,72,0,0
8956,-98.0392156862745,4,2,22,72,0,0
9250,294.117647058824,4,2,22,72,1,0
10279,-98.0392156862745,4,2,22,72,0,0
17485,-121.951219512195,4,2,22,52,0,0
18930,-121.951219512195,4,2,22,52,0,0
19827,-121.951219512195,4,2,22,52,0,0
22193,-121.951219512195,4,2,22,52,0,0
22474,-121.951219512195,4,2,22,52,0,0
23058,-121.951219512195,4,2,22,52,0,0
24530,-121.951219512195,4,2,22,52,0,0
26004,294.117647058824,4,2,22,52,1,0
26897,294.117647058824,4,2,22,62,1,0
26897,-98.0392156862745,4,2,22,62,0,0
33441,-98.0392156862745,4,2,22,5,0,0
33514,-98.0392156862745,4,2,22,62,0,0
36283,-161.290322580645,4,2,22,52,0,0
45695,-454.545454545455,4,2,22,42,0,0
47328,294.117647058824,4,2,22,72,1,0
47328,-98.0392156862745,4,2,22,72,0,0
47475,346.820809248555,4,2,22,72,1,0
47648,250,4,2,22,72,1,0
47773,306.122448979592,4,2,22,72,1,0
47926,294.117647058824,4,2,22,82,1,0
47926,-81.9672131147541,4,2,22,82,0,0
48073,294.117647058824,4,2,22,82,1,0
48073,-81.9672131147541,4,2,22,82,0,0
48367,-98.0392156862745,4,2,22,82,0,0
56282,-89.2857142857143,4,2,22,82,0,0
57311,-81.9672131147541,4,2,22,82,0,0
57752,-98.0392156862745,4,2,22,82,0,0
65694,-89.2857142857143,4,2,22,82,0,0
66896,-81.9672131147541,4,2,22,92,0,1
71598,-81.9672131147541,4,2,22,92,0,1
72768,294.117647058824,4,2,22,92,1,1
76297,294.117647058824,4,2,22,92,1,9
76310,294.117647058824,4,2,22,92,1,1
76310,-454.545454545455,4,2,22,62,0,0
76341,-100,4,2,22,62,0,0
77444,-238.095238095238,4,2,22,62,0,0
78620,-121.951219512195,4,2,22,62,0,0
85679,-121.951219512195,4,2,22,52,0,0
86415,-121.951219512195,4,2,22,5,0,0

[Colours]
Combo1 : 224,214,214
Combo2 : 255,17,17
Combo3 : 135,255,47
Combo4 : 36,244,255

[HitObjects]
159,192,66897,5,10,0:0:0:0:
352,192,67044,1,0,1:0:0:0:
159,192,67191,5,8,0:0:0:0:
352,192,67338,1,0,1:0:0:0:
159,192,67485,5,10,0:0:0:0:
352,192,67632,1,0,1:0:0:0:
97,277,67779,5,10,0:0:0:0:
257,95,67926,1,2,1:0:0:0:
97,277,68073,5,8,0:0:0:0:
257,95,68220,1,2,1:0:0:0:
97,277,68367,5,10,0:0:0:0:
257,95,68515,1,0,1:0:0:0:
97,277,68662,5,8,0:0:0:0:
257,95,68809,1,2,1:0:0:0:
61,88,68956,5,8,0:0:0:0:
380,297,69103,1,0,1:0:0:0:
56,310,69250,5,10,0:0:0:0:
370,121,69397,1,0,1:0:0:0:
56,310,69544,5,8,0:0:0:0:
370,121,69691,1,2,1:0:0:0:
56,310,69838,5,10,0:0:0:0:
370,121,69985,1,0,1:0:0:0:
40,111,70132,5,10,0:0:0:0:
287,261,70279,1,2,1:0:0:0:
40,111,70426,5,8,0:0:0:0:
287,261,70573,1,0,1:0:0:0:
287,261,70720,5,10,0:0:0:0:
40,111,70867,1,2,1:0:0:0:
512,44,71015,5,10,0:0:0:0:
46,283,71162,1,2,1:0:0:0:
512,46,71309,5,8,0:0:0:0:
46,283,71456,1,0,1:0:0:0:
253,36,71603,5,10,0:0:0:0:
425,331,71750,1,0,1:0:0:0:
427,43,71897,5,8,0:0:0:0:
192,320,72044,1,0,1:0:0:0:
236,143,72191,5,10,0:0:0:0:
389,250,72338,1,0,1:0:0:0:
229,38,72485,5,8,0:0:0:0:
461,324,72632,1,0,1:0:0:0:
280,365,72768,5,10,0:0:0:0:
385,42,72914,1,0,1:0:0:0:
58,266,73061,5,8,0:0:0:0:
220,233,73208,1,0,1:0:0:0:
97,32,73355,5,10,0:2:0:0:
321,290,73503,1,0,1:0:0:0:
101,229,73650,5,8,0:0:0:0:
374,154,73797,1,0,1:0:0:0:
137,21,73944,5,10,0:0:0:0:
229,323,74091,1,0,1:0:0:0:
429,44,74238,5,8,0:0:0:0:
88,119,74385,1,0,1:0:0:0:
366,357,74532,5,10,0:0:0:0:
345,44,74679,1,0,1:0:0:0:
57,255,74826,5,8,0:0:0:0:
411,140,74973,1,0,1:0:0:0:
88,119,75120,5,10,0:0:0:0:
396,221,75267,1,0,1:0:0:0:
57,255,75414,5,8,0:0:0:0:
380,130,75561,1,0,1:0:0:0:
106,35,75708,5,10,0:0:0:0:
221,278,75855,1,0,1:0:0:0:
292,45,76003,5,8,3:0:0:0:
243,320,76150,1,4,3:0:0:0:
180,83,76310,6,0,P|170:126|169:170,1,88.8800027124024,6|2,1:0|0:0,0:0:0:0:
169,170,77486,6,0,P|186:241|198:347,1,169.679994821777,6|2,1:0|0:0,0:0:0:0:
197,336,78663,6,0,P|215:282|237:245,1,82.8200012637329,6|2,1:0|1:0,0:0:0:0:
374,132,78957,1,2,0:0:0:0:
299,161,79104,2,0,P|244:140|200:135,1,82.8200012637329,2|8,1:0|0:0,0:0:0:0:
25,197,79398,1,2,1:0:0:0:
100,226,79545,2,0,P|155:205|199:200,1,82.8200012637329,2|0,1:0|0:0,0:0:0:0:
410,291,79839,5,2,1:0:0:0:
270,273,79986,1,2,1:0:0:0:
423,268,80133,1,2,0:0:0:0:
254,292,80280,2,0,P|203:303|169:323,1,82.8200012637329,2|8,1:0|0:0,0:0:0:0:
348,158,80574,1,2,1:0:0:0:
277,101,80721,2,0,P|240:82|199:75,1,82.8200012637329,2|0,1:0|0:0,0:0:0:0:
24,222,81016,6,0,P|80:185|192:181,1,165.640002527466,6|2,1:0|0:0,0:0:0:0:
340,234,81457,2,0,P|298:231|261:213,1,82.8200012637329,2|8,1:0|0:0,0:0:0:0:
430,131,81751,1,2,1:0:0:0:
365,72,81898,2,0,P|323:75|286:93,1,82.8200012637329,2|0,1:0|0:0,0:0:0:0:
183,248,82192,5,2,1:0:0:0:
193,101,82339,1,2,1:0:0:0:
205,271,82486,1,2,0:0:0:0:
175,81,82633,2,0,P|160:27|140:-4,1,82.8200012637329,2|8,1:0|0:0,0:0:0:0:
61,204,82927,1,2,1:0:0:0:
19,128,83074,2,0,P|34:74|54:43,1,82.8200012637329,2|0,1:0|0:0,0:0:0:0:
183,248,83368,6,0,P|261:193|358:184,1,165.640002527466,6|2,1:0|0:0,0:0:0:0:
465,113,83810,2,0,P|417:95|379:72,1,82.8200012637329,2|10,1:0|0:0,0:0:0:0:
218,115,84104,1,2,1:0:0:0:
258,45,84251,2,0,P|297:31|333:11,1,82.8200012637329,2|0,1:0|0:0,0:0:0:0:
104,104,84545,5,2,1:0:0:0:
235,213,84692,1,2,1:0:0:0:
122,73,84839,1,2,0:0:0:0:
225,243,84986,2,0,P|238:300|241:337,1,82.8200012637329,2|10,1:0|0:0,0:0:0:0:
377,154,85280,1,2,1:0:0:0:
337,231,85427,2,0,P|324:288|321:325,1,82.8200012637329,2|0,1:0|0:0,0:0:0:0:
259,135,85721,5,2,1:0:0:0:
256,192,85795,12,0,86751,0:0:0:0:
