osu file format v14

[General]
AudioFilename: audio.mp3
AudioLeadIn: 0
PreviewTime: 140050
Countdown: 0
SampleSet: Soft
StackLeniency: 0.7
Mode: 0
LetterboxInBreaks: 0
WidescreenStoryboard: 0

[Editor]
Bookmarks: 12123,85123,109123,141123,178123,210113,226113,242113
DistanceSpacing: 1
BeatDivisor: 4
GridSize: 4
TimelineZoom: 6.999996

[Metadata]
Title:Q
TitleUnicode:Q
Artist:vflower
ArtistUnicode:vflower
Creator:Deca
Version:Impulse
Source:
Tags:vocaloid kagamine rin
BeatmapID:2114861
BeatmapSetID:1010287

[Difficulty]
HPDrainRate:4.7
CircleSize:4
OverallDifficulty:8
ApproachRate:9.5
SliderMultiplier:1.7
SliderTickRate:1

[Events]
//Background and Video events
0,0,"74925694_p0.jpg",0,0
//Break Periods
2,51313,52088
2,107313,108088
2,140313,156588
//Storyboard Layer 0 (Background)
//Storyboard Layer 1 (Fail)
//Storyboard Layer 2 (Pass)
//Storyboard Layer 3 (Foreground)
//Storyboard Sound Samples

[TimingPoints]
1113,250,4,2,0,85,1,0
11863,-100,4,2,0,5,0,0
12113,-100,4,2,0,85,0,0
29113,-142.857142857143,4,2,0,85,0,0
52613,-333.333333333333,4,2,0,85,0,0
53113,-100,4,2,0,85,0,0
67488,-83.3333333333333,4,2,0,85,0,0
68113,-142.857142857143,4,2,0,85,0,0
69113,-111.111111111111,4,2,0,85,0,0
81113,-125,4,2,0,85,0,0
82113,-142.857142857143,4,2,0,85,0,0
84113,-166.666666666667,4,2,0,85,0,0
85113,-142.857142857143,4,2,0,85,0,0
108613,-333.333333333334,4,2,0,85,0,0
109113,-90.909090909091,4,2,0,85,0,0
123488,-76.9230769230769,4,2,0,85,0,0
124113,-125,4,2,0,85,0,0
125113,-100,4,2,0,85,0,0
137113,-125,4,2,0,85,0,0
138113,-142.857142857143,4,2,0,85,0,0
157113,-142.857142857143,4,2,0,85,0,0
173613,-250.000000000001,4,2,0,85,0,0
177613,-250.000000000001,4,2,0,85,0,0
178113,-83.3333333333333,4,2,0,85,0,0
192488,-71.4285714285714,4,2,0,85,0,0
193113,-111.111111111111,4,2,0,85,0,0
194113,-90.9090909090908,4,2,0,85,0,0
206113,-111.111111111111,4,2,0,85,0,0
207113,-125,4,2,0,85,0,0
209113,-166.666666666667,4,2,0,85,0,0
210113,-90.9090909090909,4,2,0,85,0,0
226113,-285.714285714286,4,2,0,85,0,0

[Colours]
Combo1 : 117,175,215
Combo2 : 46,134,182
Combo3 : 100,193,186
Combo4 : 146,220,220

[HitObjects]
256,192,9113,12,0,11863,0:0:0:0:
124,169,12113,5,0,0:0:0:0:
124,169,12363,1,0,0:0:0:0:
124,169,12613,1,0,0:0:0:0:
124,169,12863,1,0,0:0:0:0:
124,169,13113,2,0,P|142:130|131:88,1,85
20,260,13363,2,0,P|114:248|230:236,1,170
283,183,13738,1,0,0:0:0:0:
361,239,13863,5,0,0:0:0:0:
419,145,13988,2,0,P|438:110|465:67,1,85
359,257,14238,1,0,0:0:0:0:
333,120,14363,2,0,P|341:82|363:17,1,85
169,166,14613,2,0,B|196:196|196:196|187:244,1,85
97,267,14863,2,0,B|69:236|69:236|78:188,1,85
20,79,15113,6,0,P|65:90|109:96,1,85
322,102,15363,2,0,B|225:110|277:152|162:166,1,170
368,191,15738,1,0,0:0:0:0:
414,106,15863,5,0,0:0:0:0:
499,179,15988,2,0,P|489:233|486:295,1,85
420,97,16238,1,0,0:0:0:0:
412,266,16363,2,0,P|404:317|396:382,1,85
232,289,16613,2,0,B|276:304|276:304|321:292,1,85
121,378,16863,2,0,P|144:292|163:230,1,127.5
165,232,17113,6,0,B|121:217|121:217|83:226,1,85
13,148,17363,2,0,P|26:117|48:54,1,85
135,4,17613,1,0,0:0:0:0:
188,80,17738,1,0,0:0:0:0:
257,16,17863,5,0,0:0:0:0:
278,129,17988,2,0,P|284:177|276:227,1,85
273,24,18238,1,0,0:0:0:0:
353,81,18363,2,0,P|376:113|385:165,1,85
512,240,18613,2,0,P|479:232|420:221,1,85
283,300,18863,2,0,P|340:283|378:275,1,85
181,179,19113,6,0,B|199:221|199:221|176:268,1,85
0,162,19363,2,0,P|37:129|180:112,1,170
235,49,19738,1,0,0:0:0:0:
294,150,19863,5,0,0:0:0:0:
374,82,19988,2,0,P|381:131|355:196,1,85
289,164,20238,1,0,0:0:0:0:
438,210,20363,2,0,P|413:254|375:291,1,85
222,232,20613,6,0,P|257:241|326:248,1,85
153,384,20863,2,0,P|148:328|73:290,1,127.5
81,298,21113,2,0,B|123:293|123:293|156:248,1,85
228,156,21363,2,0,B|171:146|171:146|157:133|157:133|55:115,1,170
260,78,21738,1,0,0:0:0:0:
324,180,21863,5,0,0:0:0:0:
392,108,21988,2,0,P|409:76|423:18,1,85
315,193,22238,1,0,0:0:0:0:
434,185,22363,2,0,P|468:153|496:92,1,85
510,280,22613,2,0,P|461:274|422:267,1,85
324,384,22863,2,0,P|346:345|342:295,1,85
146,222,23113,6,0,P|200:216|239:213,1,85
322,57,23363,2,0,P|258:53|203:136,1,170
259,289,23738,1,0,0:0:0:0:
342,201,23863,2,0,B|337:160|337:160|292:129,1,85
266,304,24113,1,0,0:0:0:0:
390,271,24238,2,0,B|418:240|418:240|421:184,1,85
512,98,24488,5,0,0:0:0:0:
512,98,24550,1,0,0:0:0:0:
512,98,24613,2,0,P|458:91|409:83,1,85
301,135,24863,2,0,B|320:99|320:99|307:44,1,85
139,103,25113,6,0,P|194:101|236:96,1,85
94,219,25363,2,0,P|43:203|57:89,1,170
202,173,25738,1,0,0:0:0:0:
146,290,25863,1,0,0:0:0:0:
267,242,25988,2,0,P|315:234|380:234,1,85
152,302,26238,1,0,0:0:0:0:
292,319,26363,2,0,P|340:322|399:349,1,85
457,244,26613,6,0,B|472:204|472:204|451:161,1,85
512,52,26863,2,0,B|417:64|471:93|361:100,1,127.5
381,106,27113,2,0,B|362:68|362:68|377:28,1,85
366,188,27363,2,0,B|306:181|306:181|290:169|290:169|182:158,1,170
114,206,27738,1,0,0:0:0:0:
65,112,27863,5,0,0:0:0:0:
3,200,27988,2,0,P|-11:246|-2:288,1,85
71,104,28238,1,0,0:0:0:0:
102,220,28363,2,0,P|113:271|136:306,1,85
296,357,28613,2,0,P|252:350|209:342,1,85
238,186,28863,2,0,B|257:225|257:225|243:279,1,85
375,240,29113,5,0,0:0:0:0:
484,168,29363,2,0,P|478:126|472:87,1,59.4999981842042
341,161,29613,2,0,P|379:154|405:152,1,59.4999981842042
266,76,29863,1,0,0:0:0:0:
336,32,29988,2,0,P|383:31|462:18,1,118.999996368408
260,66,30363,1,0,0:0:0:0:
142,17,30488,1,0,0:0:0:0:
182,122,30613,2,0,P|185:165|192:245,1,118.999996368408
272,172,30988,1,0,0:0:0:0:
358,246,31113,6,0,P|318:249|280:259,1,59.4999981842042
225,312,31363,1,0,0:0:0:0:
225,312,31488,1,0,0:0:0:0:
74,217,31613,2,0,P|133:230|191:240,1,118.999996368408
272,172,31988,1,0,0:0:0:0:
410,156,32113,2,0,P|357:145|336:134,1,59.4999981842042
404,73,32363,2,0,P|396:37|391:5,1,59.4999981842042
238,23,32613,5,0,0:0:0:0:
129,104,32738,1,0,0:0:0:0:
37,9,32863,2,0,P|74:20|113:27,1,59.4999981842042
197,160,33113,2,0,P|211:131|209:85,1,59.4999981842042
49,141,33363,2,0,P|74:175|106:189,1,59.4999981842042
258,235,33613,1,0,0:0:0:0:
313,159,33738,2,0,P|348:154|391:141,1,59.4999981842042
498,266,33988,6,0,P|462:253|369:233,1,118.999996368408
316,293,34363,1,0,0:0:0:0:
258,235,34488,1,0,0:0:0:0:
183,363,34613,2,0,P|192:321|199:289,1,59.4999981842042
131,174,34863,2,0,P|141:211|151:238,1,59.4999981842042
298,158,35113,6,0,P|243:145|187:92,1,118.999996368408
59,125,35488,1,0,0:0:0:0:
126,43,35613,2,0,P|163:38|193:27,1,59.4999981842042
308,17,35863,1,0,0:0:0:0:
308,17,35988,2,0,P|345:27|377:33,1,59.4999981842042
511,132,36238,5,0,0:0:0:0:
451,49,36363,2,0,B|429:73|429:73|430:107,1,59.4999981842042
333,207,36613,2,0,P|376:219|419:229,1,89.2499972763062
426,243,36863,2,0,B|448:219|448:219|448:193,1,59.4999981842042
246,117,37113,6,0,P|242:148|235:185,1,59.4999981842042
284,269,37363,1,0,0:0:0:0:
202,305,37488,1,0,0:0:0:0:
155,226,37613,1,0,0:0:0:0:
235,196,37738,1,0,0:0:0:0:
235,196,37988,2,0,P|241:167|245:138,1,59.4999981842042
355,202,38238,5,0,0:0:0:0:
425,99,38363,2,0,P|385:108|343:123,1,59.4999981842042
248,120,38613,1,0,0:0:0:0:
181,50,38738,1,0,0:0:0:0:
316,0,38863,2,0,B|324:30|324:30|307:67,1,59.4999981842042
152,193,39113,6,0,B|79:183|110:159|39:152,1,118.999996368408
192,266,39488,1,0,0:0:0:0:
257,212,39613,1,0,0:0:0:0:
260,311,39738,1,0,0:0:0:0:
260,311,39988,2,0,P|303:306|343:302,1,59.4999981842042
449,329,40238,5,0,0:0:0:0:
394,263,40363,1,0,0:0:0:0:
510,258,40488,1,0,0:0:0:0:
447,189,40613,2,0,P|414:180|376:178,1,59.4999981842042
206,141,40863,2,0,P|258:137|312:110,1,89.2499972763062
298,126,41113,2,0,P|308:158|292:195,1,59.4999981842042
183,216,41363,2,0,P|150:200|133:177,1,59.4999981842042
150,30,41613,1,0,0:0:0:0:
224,4,41738,2,0,B|231:37|231:37|219:67,1,59.4999981842042
90,118,41988,6,0,P|59:123|17:130,1,59.4999981842042
93,269,42238,1,0,0:0:0:0:
183,216,42363,1,0,0:0:0:0:
229,312,42488,2,0,P|193:301|156:291,1,59.4999981842042
0,267,42738,1,0,0:0:0:0:
13,384,42863,5,0,0:0:0:0:
13,384,43113,2,0,P|38:356|46:328,1,59.4999981842042
179,384,43363,2,0,P|146:373|108:360,1,59.4999981842042
0,265,43613,2,0,P|41:260|81:251,1,59.4999981842042
212,308,43863,1,0,0:0:0:0:
247,228,43988,2,0,P|239:198|231:154,1,59.4999981842042
248,70,44238,5,0,0:0:0:0:
151,116,44363,1,0,0:0:0:0:
256,79,44488,1,0,0:0:0:0:
104,23,44613,2,0,P|147:33|179:37,1,59.4999981842042
313,138,44863,2,0,P|362:125|382:123,1,59.4999981842042
487,0,45113,6,0,P|476:37|457:117,1,118.999996368408
455,306,45488,1,0,0:0:0:0:
512,191,45613,2,0,B|404:197|477:246|339:251,1,178.499994552612
207,135,46113,6,0,P|256:166|264:230,1,118.999996368408
132,359,46488,1,0,0:0:0:0:
25,239,46613,2,0,B|95:252|95:252|119:272|119:272|203:291,1,178.499994552612
342,384,47113,6,0,P|346:344|351:317,1,59.4999981842042
282,290,47300,1,0,0:0:0:0:
282,290,47363,2,0,P|280:253|277:225,1,59.4999981842042
425,115,47613,2,0,P|344:166|261:118,1,178.499994552612
136,20,48113,6,0,B|159:73|159:73|118:135,1,118.999996368408
0,168,48488,1,0,0:0:0:0:
0,168,48550,1,0,0:0:0:0:
0,168,48613,2,0,P|44:178|73:184,1,59.4999981842042
184,218,48863,2,0,P|144:223|112:230,1,59.4999981842042
19,307,49113,6,0,P|48:323|136:302,1,118.999996368408
312,293,49488,1,0,0:0:0:0:
268,208,49613,2,0,B|306:308|230:273|270:404,1,178.499994552612
469,331,50113,6,0,P|436:325|396:313,1,59.4999981842042
349,207,50363,1,0,0:0:0:0:
428,175,50488,2,0,B|435:205|435:205|421:249,1,59.4999981842042
268,208,50738,1,0,0:0:0:0:
333,113,50863,2,0,P|373:104|401:95,1,59.4999981842042
140,30,51113,5,0,0:0:0:0:
278,119,52613,6,0,B|265:157|265:157|276:195,1,76.4999976654053
286,193,53113,2,0,B|275:155|275:155|298:83,1,85
81,195,53363,2,0,B|193:203|122:255|258:263,1,170
353,282,53738,1,0,0:0:0:0:
447,141,53863,2,0,P|384:152|343:155,1,85
178,51,54113,6,0,P|194:101|190:159,1,85
49,271,54363,2,0,P|55:236|91:185,1,85
232,260,54613,2,0,P|177:244|125:228,1,85
11,119,54863,2,0,P|46:115|108:106,1,85
285,107,55113,6,0,B|272:72|272:72|291:16,1,85
447,141,55363,1,0,0:0:0:0:
287,196,55488,2,0,B|236:185|236:185|221:170|221:170|166:158,1,127.5
168,158,55738,2,0,B|152:203|152:203|165:238,1,85
286,358,55988,1,0,0:0:0:0:
385,254,56113,2,0,P|377:208|369:141,1,85
254,288,56363,2,0,P|209:304|158:322,1,85
45,153,56613,5,0,0:0:0:0:
165,238,56738,1,0,0:0:0:0:
20,258,56863,5,0,0:0:0:0:
180,148,56988,1,0,0:0:0:0:
54,75,57113,6,0,B|32:112|32:112|53:179,1,85
260,130,57363,2,0,P|224:68|113:68,1,170
154,237,57738,1,0,0:0:0:0:
267,213,57863,2,0,P|307:220|364:233,1,85
490,357,58113,6,0,P|470:330|460:265,1,85
432,91,58363,2,0,P|420:145|411:185,1,85
310,357,58613,1,0,0:0:0:0:
267,213,58738,1,0,0:0:0:0:
384,265,58863,2,0,P|322:275|269:291,1,85
100,308,59113,6,0,P|62:282|80:160,1,170
261,123,59488,2,0,P|253:85|243:20,1,85
145,222,59738,2,0,P|152:173|157:117,1,85
161,50,59988,1,0,0:0:0:0:
280,209,60113,6,0,B|381:198|324:153|457:147,1,170
504,207,60488,1,0,0:0:0:0:
408,326,60613,2,0,B|395:282|395:282|413:234,1,85
435,67,60863,2,0,B|448:111|448:111|430:159,1,85
309,316,61113,5,0,0:0:0:0:
280,209,61238,1,0,0:0:0:0:
408,245,61363,2,0,B|315:229|356:180|252:165,1,170
94,189,61738,1,0,0:0:0:0:
212,296,61863,2,0,P|174:304|116:319,1,85
22,153,62113,2,0,B|8:193|8:193|33:250,1,85
167,223,62363,2,0,B|181:183|181:183|156:126,1,85
2,71,62613,2,0,P|56:67|99:60,1,85
226,8,62863,2,0,P|179:35|163:81,1,85
177,234,63113,6,0,B|274:222|223:177|336:169,1,170
451,63,63488,2,0,P|437:128|429:165,1,85
493,280,63738,2,0,B|509:240|509:240|489:191,1,85
329,169,63988,1,0,0:0:0:0:
408,269,64113,2,0,P|334:266|225:254,1,170
115,174,64488,5,0,0:0:0:0:
115,174,64550,1,0,0:0:0:0:
115,174,64613,1,0,0:0:0:0:
282,99,64738,1,0,0:0:0:0:
182,26,64863,5,0,0:0:0:0:
239,242,64988,1,0,0:0:0:0:
83,91,65113,6,0,P|128:90|183:135,1,85
176,304,65363,2,0,P|252:291|373:266,1,170
369,120,65738,1,0,0:0:0:0:
369,120,65863,2,0,B|351:161|351:161|367:224,1,85
512,296,66113,2,0,P|455:280|412:268,1,85
291,366,66363,2,0,P|342:355|393:345,1,85
502,207,66613,2,0,B|522:173|522:173|503:102,1,85
401,27,66863,2,0,B|361:26|361:26|309:77,1,85
360,199,67113,5,0,0:0:0:0:
197,87,67238,1,0,0:0:0:0:
197,87,67488,2,0,B|232:97|232:97|244:112|244:112|308:131,1,101.999996887207
111,252,67738,2,0,B|146:242|146:242|158:227|158:227|222:208,1,101.999996887207
59,54,67988,1,0,0:0:0:0:
0,239,68113,6,0,P|7:283|130:337,1,178.499994552612
257,237,68613,2,0,P|218:221|187:206,1,59.4999981842042
335,300,68863,2,0,P|296:316|267:338,1,59.4999981842042
398,227,69113,6,0,P|373:203|355:160,1,76.4999976654053
512,90,69363,2,0,B|427:88|475:45|355:40,1,152.999995330811
254,5,69738,1,0,0:0:0:0:
263,152,69863,2,0,B|285:118|285:118|275:70,1,76.4999976654053
45,104,70113,6,0,P|97:115|174:131,1,114.749996498108
166,123,70363,2,0,B|158:85|158:85|184:47,1,76.4999976654053
294,266,70613,2,0,B|195:263|255:209|121:210,1,152.999995330811
34,302,70988,1,0,0:0:0:0:
34,302,71050,1,0,0:0:0:0:
34,302,71113,2,0,P|78:293|126:284,1,76.4999976654053
194,334,71363,2,0,P|262:346|348:366,1,152.999995330811
317,197,71738,1,0,0:0:0:0:
317,197,71863,2,0,P|297:224|299:280,1,76.4999976654053
466,364,72113,6,0,P|488:336|486:283,1,76.4999976654053
393,89,72363,2,0,P|386:135|411:181,1,76.4999976654053
512,213,72613,2,0,P|468:223|418:234,1,76.4999976654053
467,105,72863,2,0,P|423:95|373:84,1,76.4999976654053
243,157,73113,6,0,B|262:125|262:125|246:70,1,76.4999976654053
57,167,73363,2,0,P|88:211|185:215,1,152.999995330811
217,15,73738,1,0,0:0:0:0:
81,80,73863,2,0,P|32:89|-10:96,1,76.4999976654053
36,240,74113,2,0,P|47:209|58:151,1,76.4999976654053
201,290,74363,2,0,P|190:259|179:201,1,76.4999976654053
0,384,74613,2,0,P|42:359|168:367,1,152.999995330811
259,205,74988,5,0,0:0:0:0:
334,309,75113,2,0,P|374:322|413:328,1,76.4999976654053
484,271,75363,2,0,B|497:236|497:236|483:200,1,76.4999976654053
348,121,75613,2,0,B|335:156|335:156|349:192,1,76.4999976654053
504,104,75863,2,0,P|463:112|424:118,1,76.4999976654053
252,0,76113,6,0,P|286:33|292:87,1,76.4999976654053
241,210,76363,2,0,P|247:165|255:114,1,76.4999976654053
60,144,76613,2,0,B|108:135|108:135|121:124|121:124|186:112,1,114.749996498108
178,105,76863,2,0,P|193:67|169:28,1,76.4999976654053
60,144,77113,6,0,P|45:182|69:221,1,76.4999976654053
142,329,77363,2,0,B|45:337|91:279|-26:285,1,152.999995330811
241,210,77738,1,0,0:0:0:0:
243,334,77863,2,0,P|292:339|348:352,1,76.4999976654053
474,384,78113,6,0,P|421:365|414:269,1,152.999995330811
456,115,78488,1,0,0:0:0:0:
512,234,78613,2,0,B|462:217|462:217|441:193|441:193|368:168,1,152.999995330811
277,208,78988,1,0,0:0:0:0:
277,208,79050,1,0,0:0:0:0:
277,208,79113,2,0,P|230:214|180:221,1,76.4999976654053
96,97,79363,2,0,P|131:123|145:171,1,76.4999976654053
101,248,79613,2,0,P|87:300|77:343,1,76.4999976654053
201,217,79863,6,0,P|208:275|216:348,1,114.749996498108
219,338,80113,2,0,P|261:334|304:334,1,76.4999976654053
355,283,80363,2,0,P|406:297|439:304,1,76.4999976654053
508,175,80613,2,0,B|520:219|520:219|492:270,1,76.4999976654053
346,198,80863,2,0,P|379:193|440:182,1,76.4999976654053
360,21,81113,6,0,B|271:23|240:124|240:124|244:132|244:132|243:200|188:268|133:284|27:251|79:122|145:132|178:153,1,510
167,141,82113,2,0,B|161:195|161:195|162:205|162:205|152:287,1,118.999996368408
66,216,82488,1,0,0:0:0:0:
137,346,82613,2,0,P|93:336|64:334,1,59.4999981842042
213,247,82863,2,0,P|177:255|149:260,1,59.4999981842042
264,363,83113,5,0,0:0:0:0:
264,363,83363,1,0,0:0:0:0:
374,250,83488,1,0,0:0:0:0:
270,180,83613,5,0,0:0:0:0:
377,368,83738,1,0,0:0:0:0:
451,192,83863,1,0,0:0:0:0:
295,278,83988,1,0,0:0:0:0:
467,303,84113,6,0,B|211:280|405:158|133:136,1,382.499988327027
137,144,85113,5,0,0:0:0:0:
28,216,85363,2,0,P|34:258|40:297,1,59.4999981842042
205,235,85613,1,0,0:0:0:0:
131,277,85738,1,0,0:0:0:0:
246,308,85863,1,0,0:0:0:0:
176,352,85988,2,0,P|129:353|50:366,1,118.999996368408
251,319,86363,1,0,0:0:0:0:
350,376,86488,2,0,P|358:336|366:304,1,59.4999981842042
294,137,86738,2,0,P|302:194|305:258,1,118.999996368408
154,138,87113,6,0,P|194:135|232:125,1,59.4999981842042
295,56,87363,1,0,0:0:0:0:
295,56,87488,1,0,0:0:0:0:
410,159,87613,2,0,P|351:146|293:136,1,118.999996368408
224,225,87988,2,0,P|216:261|210:291,1,59.4999981842042
121,260,88238,1,0,0:0:0:0:
121,260,88363,2,0,P|129:296|134:328,1,59.4999981842042
274,361,88613,5,0,0:0:0:0:
383,280,88738,1,0,0:0:0:0:
475,375,88863,2,0,P|438:364|399:357,1,59.4999981842042
315,224,89113,2,0,P|301:253|303:299,1,59.4999981842042
463,243,89363,2,0,P|438:209|406:195,1,59.4999981842042
254,149,89613,1,0,0:0:0:0:
199,225,89738,2,0,P|164:230|121:243,1,59.4999981842042
14,118,89988,6,0,P|50:131|143:151,1,118.999996368408
196,91,90363,1,0,0:0:0:0:
254,149,90488,1,0,0:0:0:0:
329,21,90613,2,0,P|320:63|313:95,1,59.4999981842042
381,210,90863,2,0,P|371:173|361:146,1,59.4999981842042
214,226,91113,6,0,P|269:239|325:292,1,118.999996368408
453,259,91488,1,0,0:0:0:0:
386,341,91613,2,0,P|349:346|319:357,1,59.4999981842042
204,367,91863,1,0,0:0:0:0:
204,367,91988,2,0,P|167:357|135:351,1,59.4999981842042
1,252,92238,5,0,0:0:0:0:
61,335,92363,2,0,B|83:311|83:311|82:277,1,59.4999981842042
179,177,92613,2,0,P|136:165|93:155,1,89.2499972763062
86,141,92863,2,0,B|64:165|64:165|64:191,1,59.4999981842042
266,267,93113,6,0,P|270:236|277:199,1,59.4999981842042
228,115,93363,1,0,0:0:0:0:
310,79,93488,1,0,0:0:0:0:
357,158,93613,1,0,0:0:0:0:
277,188,93738,1,0,0:0:0:0:
277,188,93988,2,0,P|271:217|267:246,1,59.4999981842042
157,182,94238,5,0,0:0:0:0:
87,285,94363,2,0,P|127:276|169:261,1,59.4999981842042
264,264,94613,1,0,0:0:0:0:
331,334,94738,1,0,0:0:0:0:
196,384,94863,2,0,B|188:354|188:354|205:317,1,59.4999981842042
360,191,95113,6,0,B|433:201|402:225|473:232,1,118.999996368408
320,118,95488,1,0,0:0:0:0:
255,172,95613,1,0,0:0:0:0:
252,73,95738,1,0,0:0:0:0:
252,73,95988,2,0,P|209:78|169:82,1,59.4999981842042
63,55,96238,5,0,0:0:0:0:
118,121,96363,1,0,0:0:0:0:
2,126,96488,1,0,0:0:0:0:
65,195,96613,2,0,P|98:204|136:206,1,59.4999981842042
306,243,96863,2,0,P|254:247|200:274,1,89.2499972763062
214,258,97113,2,0,P|204:226|220:189,1,59.4999981842042
329,168,97363,2,0,P|362:184|379:207,1,59.4999981842042
362,354,97613,1,0,0:0:0:0:
288,380,97738,2,0,B|281:347|281:347|293:317,1,59.4999981842042
422,266,97988,6,0,P|453:261|495:254,1,59.4999981842042
419,115,98238,1,0,0:0:0:0:
329,168,98363,1,0,0:0:0:0:
283,72,98488,2,0,P|319:83|356:93,1,59.4999981842042
512,117,98738,1,0,0:0:0:0:
499,0,98863,5,0,0:0:0:0:
499,0,99113,2,0,P|474:28|466:56,1,59.4999981842042
333,0,99363,2,0,P|366:11|404:24,1,59.4999981842042
512,119,99613,2,0,P|471:124|431:133,1,59.4999981842042
300,76,99863,1,0,0:0:0:0:
265,156,99988,2,0,P|273:186|281:230,1,59.4999981842042
264,314,100238,5,0,0:0:0:0:
361,268,100363,1,0,0:0:0:0:
256,305,100488,1,0,0:0:0:0:
408,361,100613,2,0,P|365:351|333:347,1,59.4999981842042
199,246,100863,2,0,P|150:259|130:261,1,59.4999981842042
25,384,101113,6,0,P|36:347|55:267,1,118.999996368408
57,78,101488,1,0,0:0:0:0:
0,193,101613,2,0,B|108:187|35:138|173:133,1,178.499994552612
305,249,102113,6,0,P|256:218|248:154,1,118.999996368408
380,25,102488,1,0,0:0:0:0:
487,145,102613,2,0,B|414:127|414:127|397:108|397:108|309:93,1,178.499994552612
170,0,103113,6,0,P|166:40|161:67,1,59.4999981842042
241,101,103300,1,0,0:0:0:0:
241,101,103363,2,0,P|243:138|246:166,1,59.4999981842042
87,269,103613,2,0,P|168:218|251:266,1,178.499994552612
376,364,104113,6,0,B|353:311|353:311|394:249,1,118.999996368408
512,216,104488,1,0,0:0:0:0:
512,216,104550,1,0,0:0:0:0:
512,216,104613,2,0,P|468:206|439:200,1,59.4999981842042
328,166,104863,2,0,P|368:161|400:154,1,59.4999981842042
493,77,105113,6,0,P|464:61|376:82,1,118.999996368408
200,91,105488,1,0,0:0:0:0:
244,176,105613,2,0,B|206:76|282:111|242:-20,1,178.499994552612
43,53,106113,6,0,P|76:59|116:71,1,59.4999981842042
163,177,106363,1,0,0:0:0:0:
84,209,106488,2,0,B|77:179|77:179|91:135,1,59.4999981842042
244,176,106738,1,0,0:0:0:0:
179,271,106863,2,0,P|139:280|111:289,1,59.4999981842042
372,354,107113,5,0,0:0:0:0:
372,354,108613,6,0,P|371:312|366:273,1,76.4999976654053
375,269,109113,2,0,P|378:323|385:383,1,93.5000028533936
230,287,109363,2,0,P|279:263|263:129,1,187.000005706787
402,54,109738,1,0,0:0:0:0:
221,49,109863,2,0,P|272:58|325:65,1,93.5000028533936
478,174,110113,6,0,P|421:178|371:189,1,93.5000028533936
205,123,110363,2,0,B|183:166|183:166|206:222,1,93.5000028533936
380,281,110613,2,0,B|402:238|402:238|379:182,1,93.5000028533936
164,299,110863,2,0,P|228:287|259:275,1,93.5000028533936
410,109,111113,6,0,P|415:73|428:14,1,93.5000028533936
235,50,111363,1,0,0:0:0:0:
77,176,111488,2,0,B|167:164|122:128|240:119,1,140.25000428009
214,129,111738,2,0,B|231:170|231:170|209:213,1,93.5000028533936
129,344,111988,1,0,0:0:0:0:
0,241,112113,2,0,P|58:258|99:262,1,93.5000028533936
234,384,112363,2,0,P|210:348|215:298,1,93.5000028533936
326,90,112613,5,0,0:0:0:0:
356,315,112738,1,0,0:0:0:0:
219,220,112863,5,0,0:0:0:0:
454,168,112988,1,0,0:0:0:0:
189,130,113113,6,0,P|240:144|287:155,1,93.5000028533936
447,252,113363,2,0,P|390:227|383:95,1,187.000005706787
481,14,113738,1,0,0:0:0:0:
492,177,113863,2,0,P|500:132|519:67,1,93.5000028533936
317,34,114113,6,0,P|265:47|205:57,1,93.5000028533936
12,98,114363,2,0,B|90:104|62:150|160:157,1,140.25000428009
142,145,114613,2,0,P|155:109|120:49,1,93.5000028533936
7,196,114863,2,0,P|-7:232|14:286,1,93.5000028533936
255,249,115113,6,0,P|197:235|160:223,1,93.5000028533936
92,312,115363,1,0,0:0:0:0:
267,347,115488,2,0,B|280:308|280:308|253:254,1,93.5000028533936
316,187,115738,2,0,P|365:181|415:171,1,93.5000028533936
461,233,115988,1,0,0:0:0:0:
491,112,116113,2,0,P|476:65|346:38,1,187.000005706787
294,95,116488,1,0,0:0:0:0:
177,11,116613,6,0,B|203:57|203:57|187:109,1,93.5000028533936
24,229,116863,1,0,0:0:0:0:
99,81,116988,1,0,0:0:0:0:
204,181,117113,6,0,P|156:172|106:159,1,93.5000028533936
295,253,117363,2,0,P|226:261|175:369,1,187.000005706787
338,330,117738,1,0,0:0:0:0:
453,270,117863,2,0,B|467:228|467:228|447:183,1,93.5000028533936
297,90,118113,2,0,P|341:98|402:111,1,93.5000028533936
505,118,118363,2,0,P|496:72|489:25,1,93.5000028533936
363,188,118613,2,0,P|299:202|261:211,1,93.5000028533936
158,4,118863,2,0,P|164:73|172:153,1,140.25000428009
162,153,119113,6,0,P|156:98|150:52,1,93.5000028533936
33,18,119363,1,0,0:0:0:0:
3,186,119488,2,0,P|60:193|115:202,1,93.5000028533936
289,280,119738,1,0,0:0:0:0:
118,283,119863,1,0,0:0:0:0:
264,154,119988,1,0,0:0:0:0:
260,367,120113,2,0,P|221:335|210:280,1,93.5000028533936
332,84,120363,2,0,P|348:138|336:204,1,93.5000028533936
0,177,120613,5,0,0:0:0:0:
153,77,120738,1,0,0:0:0:0:
22,46,120863,5,0,0:0:0:0:
104,213,120988,1,0,0:0:0:0:
264,154,121113,6,0,P|189:157|131:160,1,93.5000028533936
0,274,121363,2,0,B|118:280|39:329|191:339,1,187.000005706787
328,215,121738,1,0,0:0:0:0:
249,330,121863,2,0,P|244:283|234:233,1,93.5000028533936
439,188,122113,6,0,P|423:248|413:304,1,93.5000028533936
274,157,122363,2,0,B|315:131|315:131|373:143,1,93.5000028533936
472,337,122613,2,0,B|431:363|431:363|373:351,1,93.5000028533936
147,223,122863,2,0,P|201:231|249:238,1,93.5000028533936
439,188,123113,1,0,0:0:0:0:
249,330,123238,1,0,0:0:0:0:
249,330,123488,2,0,P|294:312|304:229,1,110.499994941712
211,149,123738,2,0,P|166:167|156:250,1,110.499994941712
252,342,123988,1,0,0:0:0:0:
282,146,124113,6,0,P|242:128|133:221,1,204
74,275,124613,2,0,P|30:257|0:246,1,68
171,360,124863,2,0,P|131:373|92:392,1,68
271,279,125113,6,0,P|241:254|221:212,1,85
403,130,125363,2,0,B|387:194|387:194|393:226|393:226|376:304,1,170
146,249,125738,1,0,0:0:0:0:
234,132,125863,2,0,P|279:146|321:154,1,85
512,51,126113,2,0,P|495:25|431:3,1,85
323,71,126363,2,0,B|311:26|311:26|339:-20,1,85
505,128,126613,2,0,P|492:178|466:310,1,170
403,130,126988,1,0,0:0:0:0:
289,245,127113,6,0,B|178:241|257:188|103:183,1,170
38,111,127488,2,0,P|49:160|54:208,1,85
202,338,127738,1,0,0:0:0:0:
73,325,127863,2,0,P|108:291|160:276,1,85
319,370,128113,6,0,P|285:334|322:240,1,127.5
289,245,128363,2,0,B|332:262|332:262|370:315,1,85
512,251,128613,2,0,P|459:266|421:269,1,85
348,174,128863,2,0,P|361:129|370:79,1,85
131,53,129113,6,0,P|82:43|38:28,1,85
117,233,129363,2,0,B|216:225|154:162|305:165,1,170
215,99,129738,1,0,0:0:0:0:
47,116,129863,2,0,B|30:159|30:159|47:209,1,85
243,269,130113,2,0,P|235:314|224:373,1,85
117,233,130363,2,0,P|129:282|132:331,1,85
267,165,130613,6,0,P|322:177|400:263,1,170
424,124,130988,1,0,0:0:0:0:
340,81,131113,2,0,B|331:44|331:44|357:-9,1,85
496,99,131363,2,0,B|505:136|505:136|479:189,1,85
480,278,131613,2,0,P|423:262|378:253,1,85
191,270,131863,2,0,P|245:260|291:248,1,85
424,124,132113,6,0,P|376:111|285:105,1,127.5
288,104,132363,2,0,B|262:136|262:136|269:190,1,85
377,331,132613,2,0,B|403:299|403:299|396:245,1,85
490,181,132863,2,0,P|501:136|518:85,1,85
312,255,133113,6,0,P|257:275|175:191,1,170
117,96,133488,1,0,0:0:0:0:
0,210,133613,2,0,P|55:201|99:199,1,85
215,141,133863,2,0,B|198:105|198:105|221:54,1,85
431,196,134113,6,0,P|438:156|456:64,1,127.5
466,69,134363,2,0,P|420:55|361:41,1,85
249,222,134613,2,0,P|297:207|347:202,1,85
488,305,134863,2,0,P|428:287|408:273,1,85
242,321,135113,6,0,P|283:310|316:170,1,170
250,96,135488,1,0,0:0:0:0:
169,187,135613,2,0,B|159:234|159:234|184:274,1,85
114,332,135863,2,0,P|54:319|13:311,1,85
78,60,136113,6,0,B|56:97|56:97|6:112,1,85
171,68,136363,2,0,P|219:87|277:103,1,85
307,251,136613,2,0,P|276:221|266:175,1,85
332,30,136863,2,0,B|342:78|342:78|317:123,1,85
102,266,137113,6,0,B|79:272|17:266|30:136|153:147|184:259|184:259|182:267|182:267|199:338|257:366|315:330|315:330|272:338|236:321,1,510
250,322,138113,2,0,B|190:332|190:332|183:338|183:338|122:352,1,118.999996368408
301,256,138488,1,0,0:0:0:0:
394,311,138613,2,0,P|377:278|385:246,1,59.4999981842042
460,183,138863,2,0,P|473:213|471:264,1,59.4999981842042
478,323,139113,1,0,0:0:0:0:
478,323,139363,1,0,0:0:0:0:
379,180,139488,1,0,0:0:0:0:
468,96,139613,5,0,0:0:0:0:
356,5,139738,1,0,0:0:0:0:
357,98,139863,5,0,0:0:0:0:
450,0,139988,1,0,0:0:0:0:
477,110,140113,5,0,0:0:0:0:
184,194,157113,6,0,B|227:198|250:184|250:184|267:163|267:163|294:139|355:148,1,178.499994552612
352,155,157613,2,0,P|346:192|343:230,1,59.4999981842042
192,56,157863,2,0,P|202:88|207:117,1,59.4999981842042
253,285,158113,2,0,B|231:336|153:321|134:288|125:228|212:143|280:176|360:223,1,356.999989105225
377,338,159113,6,0,P|432:342|416:161,1,297.499990921021
360,120,159863,2,0,B|331:116|331:116|347:101|378:118,1,59.4999981842042
378,240,160113,2,0,B|241:227|334:138|161:134,1,237.999992736817
114,307,161050,6,0,B|116:256|93:228|56:215|56:215|56:208|56:208|52:206|52:206|108:96|108:96|90:141|111:186,1,327.249990013123
33,324,161863,2,0,P|20:324|37:319,1,59.4999981842042
177,218,162113,2,0,B|228:229|228:229|236:240|236:240|300:255,1,118.999996368408
308,343,162488,1,0,0:0:0:0:
308,343,162613,2,0,B|359:332|359:332|367:321|367:321|431:306,1,118.999996368408
502,232,163113,6,0,B|313:207|462:129|241:92,1,297.499990921021
167,35,163863,2,0,P|171:75|171:105,1,59.4999981842042
37,225,164113,2,0,P|54:192|131:171,1,118.999996368408
181,272,164613,2,0,P|198:305|275:326,1,118.999996368408
410,251,165113,6,0,P|375:260|338:265,1,59.4999981842042
295,175,165363,1,0,0:0:0:0:
295,175,165488,1,0,0:0:0:0:
295,175,165613,2,0,P|324:179|353:187,1,59.4999981842042
449,117,165863,2,0,P|435:152|433:191,1,59.4999981842042
440,361,166113,6,0,P|442:322|407:248,1,118.999996368408
284,297,166488,1,0,0:0:0:0:
284,297,166613,2,0,P|247:304|215:313,1,59.4999981842042
155,271,166863,2,0,P|119:265|91:259,1,59.4999981842042
17,292,167113,1,0,0:0:0:0:
117,127,167363,5,0,0:0:0:0:
117,127,167488,1,0,0:0:0:0:
117,127,167613,2,0,B|103:156|103:156|109:185,1,59.4999981842042
193,194,167863,2,0,B|207:165|207:165|201:136,1,59.4999981842042
123,30,168113,6,0,P|178:44|249:58,1,118.999996368408
337,15,168488,1,0,0:0:0:0:
304,99,168613,2,0,P|312:135|318:176,1,59.4999981842042
425,36,168863,2,0,P|413:73|403:117,1,59.4999981842042
348,234,169113,6,0,P|383:229|425:221,1,59.4999981842042
488,374,169363,1,0,0:0:0:0:
419,299,169488,1,0,0:0:0:0:
332,362,169613,2,0,P|292:347|275:266,1,118.999996368408
285,62,170113,6,0,P|291:105|297:138,1,59.4999981842042
104,161,170363,1,0,0:0:0:0:
162,91,170488,1,0,0:0:0:0:
211,185,170613,2,0,P|252:196|283:203,1,59.4999981842042
420,143,170863,2,0,P|381:154|349:164,1,59.4999981842042
432,340,171113,6,0,P|425:298|423:261,1,59.4999981842042
317,384,171363,2,0,P|324:342|326:305,1,59.4999981842042
226,339,171613,2,0,P|219:297|217:260,1,59.4999981842042
111,383,171863,2,0,P|118:341|120:304,1,59.4999981842042
281,218,172113,6,0,B|311:224|311:224|372:222|340:179|434:177|434:177|345:161|345:161|342:155|342:155|337:159|337:159|253:141|253:141|247:145|247:145|155:127|155:127|151:130|151:130|148:125|148:125|98:114|98:114|116:58|176:58|176:58|181:55|181:55|183:60|183:60|246:72,1,684.249979118348
244,79,173613,6,0,B|318:57|310:-6|269:-43|224:-38|164:-18|135:70|215:142|247:138|247:138|249:146|249:146|332:176|364:267|318:343|225:384|161:337|157:272|157:272|198:249|198:249|196:271,1,816
205,268,177613,6,0,B|214:229|214:229|210:211|210:211|222:164,1,102
211,163,178113,2,0,B|200:205|200:205|204:223|204:223|195:262,1,102
357,134,178363,2,0,B|245:125|306:64|149:63,1,203.999993774414
43,108,178738,1,0,0:0:0:0:
122,244,178863,2,0,P|67:253|14:270,1,101.999996887207
279,350,179113,2,0,B|257:301|257:301|278:249,1,101.999996887207
353,40,179363,2,0,B|375:89|375:89|354:141,1,101.999996887207
453,313,179613,2,0,P|400:299|355:285,1,101.999996887207
175,119,179863,2,0,P|236:110|290:102,1,101.999996887207
22,266,180113,6,0,P|76:275|145:289,1,101.999996887207
275,256,180363,1,0,0:0:0:0:
175,119,180488,2,0,B|154:168|154:168|179:222,1,101.999996887207
356,133,180738,2,0,B|372:87|372:87|352:30,1,101.999996887207
163,14,180988,1,0,0:0:0:0:
23,95,181113,2,0,P|111:109|183:120,1,152.999995330811
187,128,181363,2,0,P|225:107|226:44,1,101.999996887207
22,188,181613,5,0,0:0:0:0:
168,281,181738,1,0,0:0:0:0:
288,190,181863,5,0,0:0:0:0:
74,278,181988,1,0,0:0:0:0:
254,371,182113,6,0,B|243:321|243:321|275:272,1,101.999996887207
479,249,182363,2,0,P|412:234|375:110,1,203.999993774414
204,21,182738,1,0,0:0:0:0:
42,96,182863,2,0,P|101:86|153:79,1,101.999996887207
270,152,183113,2,0,B|293:107|293:107|272:40,1,101.999996887207
146,90,183363,2,0,B|123:135|123:135|144:202,1,101.999996887207
370,298,183613,2,0,P|315:285|265:277,1,101.999996887207
69,283,183863,2,0,P|139:267|183:255,1,101.999996887207
512,168,184113,6,0,B|421:155|459:118|355:115,1,152.999995330811
364,102,184363,1,0,0:0:0:0:
444,339,184488,2,0,B|456:295|456:295|432:229,1,101.999996887207
474,8,184738,2,0,P|462:57|455:109,1,101.999996887207
281,70,184988,1,0,0:0:0:0:
147,262,185113,2,0,B|231:239|231:239|242:219|242:219|355:185,1,203.999993774414
436,242,185488,5,0,0:0:0:0:
436,242,185550,1,0,0:0:0:0:
436,242,185613,1,0,0:0:0:0:
301,306,185738,1,0,0:0:0:0:
245,190,185863,5,0,0:0:0:0:
417,324,185988,1,0,0:0:0:0:
512,140,186113,6,0,P|457:152|405:159,1,101.999996887207
233,0,186363,2,0,P|303:3|338:137,1,203.999993774414
191,246,186738,1,0,0:0:0:0:
101,130,186863,2,0,B|92:82|92:82|131:18,1,101.999996887207
312,188,187113,2,0,P|234:169|185:155,1,101.999996887207
71,306,187363,2,0,B|98:260|98:260|89:212,1,101.999996887207
261,310,187613,2,0,B|324:295|324:295|342:274|342:274|419:256,1,152.999995330811
409,272,187863,2,0,P|427:236|395:178,1,101.999996887207
317,0,188113,6,0,P|306:53|295:110,1,101.999996887207
247,320,188363,1,0,0:0:0:0:
89,212,188488,2,0,B|126:176|126:176|184:169,1,101.999996887207
169,376,188738,2,0,P|156:314|141:254,1,101.999996887207
290,113,188988,1,0,0:0:0:0:
335,281,189113,2,0,P|348:219|363:159,1,101.999996887207
512,122,189363,2,0,B|463:138|463:138|415:111,1,101.999996887207
207,9,189613,5,0,0:0:0:0:
176,169,189738,1,0,0:0:0:0:
88,56,189863,5,0,0:0:0:0:
290,113,189988,1,0,0:0:0:0:
99,228,190113,6,0,B|79:180|79:180|109:114,1,101.999996887207
30,353,190363,2,0,B|150:345|95:280|236:282,1,203.999993774414
335,218,190738,1,0,0:0:0:0:
296,384,190863,2,0,B|277:343|277:343|305:281,1,101.999996887207
508,166,191113,6,0,P|450:159|396:148,1,101.999996887207
331,13,191363,2,0,B|343:63|343:63|325:121,1,101.999996887207
168,199,191613,2,0,P|216:173|300:158,1,101.999996887207
159,18,191863,2,0,P|212:33|271:52,1,101.999996887207
65,314,192113,5,0,0:0:0:0:
141,118,192238,1,0,0:0:0:0:
141,118,192488,2,0,B|96:104|96:104|84:89|84:89|19:71,1,118.999996368408
216,203,192738,2,0,B|171:216|171:216|159:231|159:231|94:249,1,118.999996368408
258,45,192988,1,0,0:0:0:0:
334,203,193113,2,0,P|325:252|164:308,1,229.499992996216
218,116,193613,2,0,P|261:129|308:138,1,76.4999976654053
104,46,193863,2,0,P|146:26|186:10,1,76.4999976654053
42,197,194113,6,0,B|24:155|24:155|47:88,1,93.5000028533936
208,226,194363,2,0,P|183:278|56:289,1,187.000005706787
218,116,194738,1,0,0:0:0:0:
302,206,194863,2,0,P|354:216|432:228,1,93.5000028533936
498,122,195113,6,0,B|486:79|486:79|514:33,1,93.5000028533936
325,128,195363,2,0,P|373:125|427:116,1,93.5000028533936
493,327,195613,2,0,P|409:311|399:212,1,187.000005706787
321,342,195988,1,0,0:0:0:0:
212,234,196113,2,0,P|247:242|309:252,1,93.5000028533936
148,384,196363,2,0,P|197:375|262:366,1,93.5000028533936
139,178,196613,2,0,P|91:207|115:304,1,140.25000428009
105,285,196863,2,0,B|134:246|134:246|114:190,1,93.5000028533936
22,79,197113,6,0,P|70:91|129:108,1,93.5000028533936
214,205,197363,2,0,P|251:196|330:182,1,93.5000028533936
236,41,197613,2,0,P|200:92|215:144,1,93.5000028533936
335,262,197863,1,0,0:0:0:0:
417,135,197988,5,0,0:0:0:0:
417,135,198050,1,0,0:0:0:0:
417,135,198113,2,0,B|366:126|366:126|325:90,1,93.5000028533936
446,234,198363,2,0,P|373:246|358:373,1,187.000005706787
232,201,198738,1,0,0:0:0:0:
169,293,198863,2,0,P|227:287|270:282,1,93.5000028533936
442,320,199113,2,0,P|429:287|446:233,1,93.5000028533936
489,104,199363,2,0,P|512:150|510:202,1,93.5000028533936
360,145,199613,6,0,B|247:134|323:106|170:95,1,187.000005706787
30,125,199988,1,0,0:0:0:0:
151,261,200113,2,0,P|158:227|173:161,1,93.5000028533936
95,0,200363,2,0,P|105:72|117:123,1,93.5000028533936
0,236,200613,2,0,P|33:211|98:200,1,93.5000028533936
257,302,200863,2,0,P|202:336|142:342,1,93.5000028533936
145,334,201050,5,0,0:0:0:0:
145,334,201113,2,0,B|254:316|217:387|336:377,1,187.000005706787
424,270,201488,1,0,0:0:0:0:
340,183,201613,2,0,B|323:234|323:234|343:294,1,93.5000028533936
512,211,201863,2,0,P|447:189|424:162,1,93.5000028533936
206,159,202113,6,0,P|247:148|291:109,1,93.5000028533936
512,0,202363,2,0,P|456:-6|376:87,1,187.000005706787
340,183,202738,1,0,0:0:0:0:
512,118,202863,2,0,P|504:175|504:221,1,93.5000028533936
365,334,203113,2,0,P|326:300|257:277,1,93.5000028533936
131,260,203363,2,0,P|169:246|220:209,1,93.5000028533936
111,11,203613,2,0,P|88:101|91:212,1,187.000005706787
255,57,203988,5,0,0:0:0:0:
323,140,204113,2,0,P|249:133|209:124,1,93.5000028533936
385,0,204363,2,0,B|368:46|368:46|388:98,1,93.5000028533936
474,174,204613,2,0,B|491:128|491:128|471:76,1,93.5000028533936
388,219,204863,2,0,P|314:226|274:235,1,93.5000028533936
105,121,205113,6,0,P|118:193|124:233,1,93.5000028533936
25,353,205363,2,0,P|36:314|72:257,1,93.5000028533936
270,305,205613,2,0,P|213:286|175:272,1,93.5000028533936
193,154,205863,2,0,P|247:143|301:132,1,93.5000028533936
492,235,206113,6,0,B|435:259|414:326|414:326|441:257|400:167|400:167|392:159|392:159|370:112|332:28|438:-26|521:34|488:118|428:133,1,573.74998249054
436,116,207113,2,0,B|385:120|385:120|376:124|376:124|284:130,1,136
147,81,207488,1,0,0:0:0:0:
180,213,207613,2,0,P|186:175|195:134,1,68
233,0,207863,2,0,P|241:45|247:74,1,68
313,259,208113,5,0,0:0:0:0:
313,259,208363,1,0,0:0:0:0:
184,225,208488,1,0,0:0:0:0:
204,324,208613,5,0,0:0:0:0:
283,167,208738,1,0,0:0:0:0:
386,318,208863,1,0,0:0:0:0:
278,153,208988,1,0,0:0:0:0:
186,233,209113,6,0,P|237:238|305:250,1,101.999996887207
404,216,209613,2,0,P|377:192|385:124,1,101.999996887207
507,33,210113,6,0,P|525:68|507:125,1,93.5000028533936
262,99,210363,2,0,P|311:61|438:70,1,187.000005706787
280,255,210738,1,0,0:0:0:0:
176,142,210863,2,0,B|156:187|156:187|182:244,1,93.5000028533936
105,324,211113,6,0,P|167:311|216:304,1,93.5000028533936
422,352,211363,2,0,P|374:339|317:324,1,93.5000028533936
391,189,211613,2,0,P|335:173|287:162,1,93.5000028533936
82,244,211863,2,0,P|144:231|193:224,1,93.5000028533936
308,0,212113,6,0,P|330:56|315:99,1,93.5000028533936
109,165,212363,2,0,P|108:140|152:81,1,93.5000028533936
300,164,212613,2,0,P|245:152|184:139,1,93.5000028533936
219,20,212863,1,0,0:0:0:0:
339,94,212988,5,0,0:0:0:0:
339,94,213050,1,0,0:0:0:0:
339,94,213113,2,0,P|375:91|438:89,1,93.5000028533936
399,268,213363,2,0,B|382:224|382:224|402:162,1,93.5000028533936
503,42,213613,2,0,B|520:86|520:86|500:148,1,93.5000028533936
323,10,213863,2,0,P|370:7|431:4,1,93.5000028533936
284,200,214113,6,0,P|216:191|167:183,1,93.5000028533936
33,338,214363,2,0,P|97:305|97:198,1,187.000005706787
216,41,214738,1,0,0:0:0:0:
119,0,214863,2,0,P|130:60|136:116,1,93.5000028533936
319,43,215113,2,0,P|304:103|286:181,1,140.25000428009
284,193,215363,2,0,P|326:179|384:186,1,93.5000028533936
446,384,215613,6,0,B|406:291|493:303|448:192,1,187.000005706787
504,78,215988,1,0,0:0:0:0:
504,78,216050,1,0,0:0:0:0:
504,78,216113,2,0,P|446:90|401:92,1,93.5000028533936
320,0,216363,2,0,B|346:41|346:41|329:89,1,93.5000028533936
196,200,216613,2,0,P|171:150|269:66,1,187.000005706787
315,252,216988,5,0,0:0:0:0:
157,289,217113,2,0,P|110:279|49:268,1,93.5000028533936
261,384,217363,2,0,P|244:345|249:274,1,93.5000028533936
317,118,217613,5,0,0:0:0:0:
451,214,217738,1,0,0:0:0:0:
318,247,217863,5,0,0:0:0:0:
432,94,217988,1,0,0:0:0:0:
461,206,218113,2,0,P|399:186|368:176,1,93.5000028533936
212,198,218363,6,0,P|264:176|264:53,1,187.000005706787
123,1,218738,1,0,0:0:0:0:
49,72,218863,2,0,P|59:124|66:176,1,93.5000028533936
0,280,219113,2,0,P|18:257|134:260,1,140.25000428009
125,259,219363,2,0,B|132:303|132:303|102:353,1,93.5000028533936
309,384,219613,6,0,P|258:368|246:245,1,187.000005706787
281,144,219988,1,0,0:0:0:0:
411,240,220113,2,0,P|356:224|301:215,1,93.5000028533936
464,101,220363,2,0,P|417:112|362:122,1,93.5000028533936
261,53,220613,2,0,B|287:96|287:96|270:145,1,93.5000028533936
159,151,220863,2,0,B|133:108|133:108|150:59,1,93.5000028533936
95,221,221113,6,0,B|54:218|54:218|-4:188,1,93.5000028533936
157,310,221363,2,0,B|115:328|115:328|67:371,1,93.5000028533936
228,206,221613,2,0,B|185:190|185:190|151:140,1,93.5000028533936
280,301,221863,2,0,B|250:340|250:340|245:393,1,93.5000028533936
332,199,222113,6,0,P|317:164|327:102,1,93.5000028533936
470,80,222363,2,0,P|406:59|352:45,1,93.5000028533936
133,71,222613,2,0,B|251:53|171:13|313:-2,1,187.000005706787
332,199,222988,1,0,0:0:0:0:
238,169,223113,2,0,P|184:161|133:153,1,93.5000028533936
31,69,223363,2,0,P|55:116|60:175,1,93.5000028533936
8,302,223613,2,0,P|35:254|166:249,1,187.000005706787
243,179,223988,5,0,0:0:0:0:
380,320,224113,2,0,P|386:279|393:214,1,93.5000028533936
241,384,224363,2,0,P|235:337|228:291,1,93.5000028533936
426,139,224613,2,0,P|376:133|324:118,1,93.5000028533936
147,73,224863,1,0,0:0:0:0:
269,30,224988,1,0,0:0:0:0:
226,145,225113,6,0,P|179:166|119:168,1,93.5000028533936
28,62,225363,2,0,P|54:103|18:230,1,187.000005706787
80,326,225738,1,0,0:0:0:0:
166,241,225863,2,0,P|216:255|270:273,1,93.5000028533936
426,368,226113,5,0,0:0:0:0:
426,368,226863,1,0,0:0:0:0:
426,368,227113,2,0,P|430:334|446:250,1,118.999996368408
407,177,228113,1,0,0:0:0:0:
407,177,229113,6,0,P|377:172|341:163,1,59.4999981842042
269,116,229613,2,0,P|248:123|208:134,1,59.4999981842042
132,99,230113,1,0,0:0:0:0:
132,99,230863,1,0,0:0:0:0:
56,144,231113,2,0,B|60:190|60:190|72:203|72:203|80:271,1,118.999996368408
46,345,232113,5,0,0:0:0:0:
46,345,232863,1,0,0:0:0:0:
171,272,233113,5,0,0:0:0:0:
171,272,233363,2,0,P|200:278|230:283,1,59.4999981842042
283,335,233863,1,0,0:0:0:0:
402,333,234113,6,0,P|375:321|404:198,1,178.499994552612
483,202,235113,1,0,0:0:0:0:
393,99,235613,2,0,P|324:113|266:120,1,118.999996368408
128,110,236863,5,0,0:0:0:0:
128,110,237113,2,0,P|132:139|136:180,1,59.4999981842042
173,288,237613,2,0,P|177:260|189:224,1,59.4999981842042
226,106,238113,5,0,0:0:0:0:
287,176,238613,5,0,0:0:0:0:
258,254,239113,5,0,0:0:0:0:
280,291,239613,5,0,0:0:0:0:
278,310,240113,6,0,B|88:303|206:218|2:194,1,297.499990921021
