osu file format v14

[General]
AudioFilename: audio.mp3
AudioLeadIn: 0
PreviewTime: 56364
Countdown: 1
SampleSet: Soft
StackLeniency: 0.2
Mode: 0
LetterboxInBreaks: 0
WidescreenStoryboard: 0

[Editor]
Bookmarks: 7204,25602,56188,87243,118298,125798
DistanceSpacing: 1.8
BeatDivisor: 4
GridSize: 4
TimelineZoom: 2.799999

[Metadata]
Title:night
TitleUnicode:night
Artist:verzache
ArtistUnicode:verzache
Creator:Ancelysia
Version:lights
Source:
Tags:1M
BeatmapID:1678514
BeatmapSetID:799444

[Difficulty]
HPDrainRate:5
CircleSize:5
OverallDifficulty:8.5
ApproachRate:9.3
SliderMultiplier:1.5
SliderTickRate:0.5

[Events]
//Background and Video events
0,0,"bg.jpg",0,0
//Break Periods
2,86388,87243
//Storyboard Layer 0 (Background)
//Storyboard Layer 1 (Fail)
//Storyboard Layer 2 (Pass)
//Storyboard Layer 3 (Foreground)
//Storyboard Sound Samples

[TimingPoints]
56,468.75,4,2,4,5,1,0
7556,-133.333333333333,4,2,1,50,0,0
15993,-200,4,2,1,50,0,0
17634,-333.333333333333,4,2,1,50,0,0
18806,-133.333333333333,4,2,1,50,0,0
21384,-166.666666666667,4,2,1,50,0,0
22556,937.5,4,2,1,20,1,0
25368,-50,4,2,2,40,0,0
26306,468.75,4,2,1,70,1,0
26306,-50,4,2,1,70,0,0
27712,-45.045045045045,4,2,1,70,0,0
28181,-100,4,2,1,70,0,0
28532,-100,4,2,1,5,0,0
28649,-100,4,2,1,70,0,0
28884,-43.4782608695652,4,2,1,70,0,0
29763,-43.4782608695652,4,2,1,5,0,0
29821,-250,4,2,1,70,0,0
30056,-33.3333333333333,4,2,1,70,0,0
31931,-66.6666666666667,4,2,1,70,0,0
32399,-50,4,2,1,70,0,0
32575,-50,4,2,1,5,0,0
32634,-50,4,2,1,70,0,0
32809,-50,4,2,1,5,0,0
32868,-100,4,2,1,70,0,0
33806,-40,4,2,1,70,0,0
35212,-45.045045045045,4,2,1,70,0,0
35681,-100,4,2,1,70,0,0
36032,-100,4,2,1,5,0,0
36149,-100,4,2,1,70,0,0
37087,-43.4782608695652,4,2,1,70,0,0
37263,-43.4782608695652,4,2,1,5,0,0
37321,-250,4,2,1,70,0,0
37497,-250,4,2,1,5,0,0
37556,-33.3333333333333,4,2,1,70,0,0
39431,-66.6666666666667,4,2,1,70,0,0
39899,-50,4,2,1,70,0,0
40075,-50,4,2,1,5,0,0
40134,-50,4,2,1,70,0,0
40309,-50,4,2,1,5,0,0
40368,-50,4,2,1,70,0,0
41306,-100,4,2,1,70,0,0
43649,-50,4,2,1,70,0,0
43884,-43.4782608695652,4,2,1,70,0,0
45056,-100,4,2,1,70,0,0
47634,-40,4,2,1,70,0,0
48806,-100,4,2,1,70,0,0
51149,-250,4,2,1,70,0,0
51501,-250,4,2,1,5,0,0
51618,-250,4,2,1,70,0,0
52556,-66.6666666666667,4,2,1,70,0,0
54431,-133.333333333333,4,2,1,70,0,0
56306,-200,4,2,2,50,0,0
58181,-100,4,2,2,60,0,1
58182,-100,4,2,2,60,0,0
60993,-75.187969924812,4,2,2,60,0,0
61638,-75.187969924812,4,2,2,5,0,0
61696,-75.187969924812,4,2,2,60,0,0
61872,-75.187969924812,4,2,2,5,0,0
61931,-100,4,2,2,60,0,0
68493,-75.187969924812,4,2,2,60,0,0
69138,-75.187969924812,4,2,2,5,0,0
69196,-75.187969924812,4,2,2,60,0,0
69372,-75.187969924812,4,2,2,5,0,0
69431,-100,4,2,2,60,0,0
73181,-100,4,2,3,100,0,0
73210,-100,4,2,2,60,0,0
75993,-75.187969924812,4,2,2,60,0,0
76638,-75.187969924812,4,2,2,5,0,0
76696,-75.187969924812,4,2,2,60,0,0
76872,-75.187969924812,4,2,2,5,0,0
76931,-100,4,2,2,60,0,0
86306,937.5,4,2,2,5,1,0
86306,-1000,4,2,2,5,0,0
88181,468.75,4,2,1,90,1,0
88181,-200,4,2,1,90,0,0
88298,-200,4,2,1,5,0,0
88415,-25,4,2,1,90,0,0
88532,-33.3333333333333,4,2,1,5,0,0
88649,-33.3333333333333,4,2,1,90,0,0
89001,-50,4,2,1,5,0,0
89118,-100,4,2,1,90,0,0
89587,-250,4,2,1,90,0,0
89938,-250,4,2,1,5,0,0
90056,-50,4,2,1,90,0,0
90407,-50,4,2,1,5,0,0
90524,-50,4,2,1,90,0,0
90876,-50,4,2,1,5,0,0
90993,-250,4,2,1,90,0,0
91462,-33.3333333333333,4,2,1,90,0,0
91696,-33.3333333333333,4,2,1,90,0,0
91813,-33.3333333333333,4,2,1,5,0,0
91931,-33.3333333333333,4,2,1,90,0,0
92282,-33.3333333333333,4,2,1,5,0,0
92399,-50,4,2,1,90,0,0
92868,-100,4,2,1,90,0,0
93337,-33.3333333333333,4,2,1,90,0,0
94157,-33.3333333333333,4,2,1,5,0,0
94274,-33.3333333333333,4,2,1,90,0,0
95212,-100,4,2,1,90,0,0
95681,-200,4,2,1,90,0,0
95915,-25,4,2,1,90,0,0
96149,-33.3333333333333,4,2,1,90,0,0
96501,-33.3333333333333,4,2,1,5,0,0
96618,-100,4,2,1,90,0,0
97087,-33.3333333333333,4,2,1,90,0,0
97438,-33.3333333333333,4,2,1,5,0,0
97556,-50,4,2,1,90,0,0
97907,-50,4,2,1,5,0,0
98024,-50,4,2,1,90,0,0
98376,-50,4,2,1,5,0,0
98493,-50,4,2,1,90,0,0
99431,-33.3333333333333,4,2,1,90,0,0
99782,-33.3333333333333,4,2,1,5,0,0
99899,-50,4,2,1,90,0,0
100368,-100,4,2,1,90,0,0
100837,-50,4,2,1,90,0,0
101306,-25,4,2,1,90,0,0
101657,-25,4,2,1,5,0,0
101774,-25,4,2,1,90,0,0
102477,-50,4,2,1,90,0,0
103181,-200,4,2,1,90,0,1
103182,-200,4,2,1,90,0,0
103298,-200,4,2,1,5,0,0
103415,-25,4,2,1,90,0,0
103532,-25,4,2,1,5,0,0
103649,-33.3333333333333,4,2,1,90,0,0
104001,-33.3333333333333,4,2,1,5,0,0
104118,-50,4,2,1,90,0,0
104587,-250,4,2,1,90,0,0
104938,-250,4,2,1,5,0,0
105056,-50,4,2,1,90,0,0
105407,-50,4,2,1,5,0,0
105524,-50,4,2,1,90,0,0
105876,-50,4,2,1,5,0,0
105993,-33.3333333333333,4,2,1,90,0,0
106813,-33.3333333333333,4,2,1,5,0,0
106931,-33.3333333333333,4,2,1,90,0,0
107282,-33.3333333333333,4,2,1,5,0,0
107399,-50,4,2,1,90,0,0
107868,-100,4,2,1,90,0,0
108337,-33.3333333333333,4,2,1,90,0,0
109157,-33.3333333333333,4,2,1,5,0,0
109274,-33.3333333333333,4,2,1,90,0,0
110212,-50,4,2,1,90,0,0
110681,-200,4,2,1,90,0,1
110682,-200,4,2,1,90,0,0
110915,-25,4,2,1,90,0,0
111149,-33.3333333333333,4,2,1,90,0,0
111618,-100,4,2,1,90,0,0
112087,-33.3333333333333,4,2,1,90,0,0
112556,-50,4,2,1,90,0,0
112907,-50,4,2,1,5,0,0
113024,-50,4,2,1,90,0,0
113376,-50,4,2,1,5,0,0
113493,-50,4,2,1,90,0,0
113962,-133.333333333333,4,2,1,90,0,0
114431,-40,4,2,1,90,0,0
114782,-40,4,2,1,5,0,0
114899,-50,4,2,1,90,0,0
115368,-100,4,2,1,90,0,0
115837,-33.3333333333333,4,2,1,90,0,0
116306,-25,4,2,1,90,0,0
116657,-25,4,2,1,5,0,0
116774,-25,4,2,1,90,0,0
117477,-50,4,2,1,90,0,0
118298,937.5,4,2,1,10,1,0
118298,-91.743119266055,4,2,1,10,0,0
118356,-91.743119266055,4,2,4,10,0,0

[Colours]
Combo1 : 172,172,172
Combo2 : 142,179,198
Combo3 : 180,241,189
Combo4 : 255,187,187
Combo5 : 215,210,159
Combo6 : 172,172,172
SliderBorder : 149,166,193

[HitObjects]
256,192,524,12,0,7204,0:0:0:0:
452,48,7556,6,0,L|444:168,1,112.500004291535,0|8,3:0|0:0,0:0:0:0:
444,160,8962,1,8,0:0:0:0:
444,160,9899,1,8,0:0:0:0:
444,160,10837,1,10,0:0:0:0:
328,132,11306,6,0,L|336:252,1,112.500004291535,0|8,3:0|0:0,0:0:0:0:
336,244,12712,1,8,0:0:0:0:
336,244,13649,1,8,0:0:0:0:
336,244,14470,1,2,0:0:0:0:
360,324,14587,1,4,1:2:0:0:
284,296,15056,6,0,L|164:288,1,112.500004291535,4|8,3:2|0:0,0:0:0:0:
72,376,15993,2,0,P|68:348|80:308,1,56.25,2|0,0:0|0:0,0:0:0:0:
77,316,16462,1,8,0:0:0:0:
77,316,17399,1,8,0:0:0:0:
128,176,17634,2,0,P|132:204|124:240,1,56.2499982833863,2|0,0:0|0:0,0:0:0:0:
124,240,18337,1,8,0:0:0:0:
192,304,18571,1,2,0:0:0:0:
260,232,18806,6,0,L|252:112,1,112.500004291535,4|8,3:1|0:0,0:0:0:0:
252,120,20212,1,8,0:0:0:0:
252,120,20681,2,0,P|276:168|336:184,1,112.500004291535,2|8,0:0|0:0,0:0:0:0:
396,112,21384,2,0,P|372:64|312:48,1,112.500004291535,2|2,0:0|0:0,0:0:0:0:
324,116,22087,1,12,1:2:0:0:
48,344,22556,6,0,B|72:324|88:324|112:348|128:352|156:348|168:332|176:328|176:312|204:320|216:328|226:347|254:348|288:296|315:331,1,271.875,0|0,3:0|0:0,0:0:0:0:
387,248,24431,2,0,B|443:228|455:240|463:276|467:276|459:304|427:312,1,131.25,0|0,1:0|0:0,0:0:0:0:
392,368,25368,1,8,0:0:0:0:
476,36,25661,5,0,0:0:0:0:
453,64,25720,1,0,0:0:0:0:
482,70,25778,1,0,0:0:0:0:
472,60,25837,2,0,L|444:164,1,93.75
408,256,26306,6,0,B|352:320|284:316|268:280|260:268|228:236|188:240|172:260|164:308|216:328|236:296|224:268,1,300,0|0,1:0|3:1,0:0:0:0:
226,283,27009,1,8,0:0:0:0:
234,303,27067,1,8,0:0:0:0:
242,319,27126,1,8,0:0:0:0:
242,319,27243,5,10,0:0:0:0:
364,104,27477,1,2,0:0:0:0:
392,212,27712,6,0,L|376:148,1,41.6250010162354,2|0,0:0|0:0,0:0:0:0:
256,56,27829,2,0,L|320:72,1,41.6250010162354,2|0,0:0|0:0,0:0:0:0:
456,24,27946,2,0,L|401:61,1,41.6250010162354,2|0,1:2|0:0,0:0:0:0:
284,184,28181,6,0,L|140:172,1,112.5
88,252,28649,2,0,L|159:245,1,37.5,0|0,3:0|0:0,0:0:0:0:
192,308,28884,2,0,L|188:352,4,43.1250008225441,0|0|0|0|8,0:0|0:0|0:0|0:0|0:0,0:0:0:0:
192,308,29352,37,0,0:0:0:0:
192,308,29587,2,0,P|296:312|316:272,1,129.375002467632
352,208,29821,6,0,L|356:236,1,22.5,10|0,0:0|0:0,0:0:0:0:
420,156,30056,6,0,B|376:120|340:112|256:112|272:220|220:232|152:220|120:188|96:132|124:72|176:64|228:64|248:112|248:120,2,450.000017166138,4|0|8,3:0|3:0|0:0,0:0:0:0:
420,156,31227,1,2,0:0:0:0:
420,156,31345,1,2,0:0:0:0:
420,156,31462,5,2,0:0:0:0:
420,156,31696,1,2,0:0:0:0:
368,208,31931,38,0,L|384:340,1,112.500004291535,0|0,3:0|0:0,0:0:0:0:
436,364,32282,1,2,0:0:0:0:
496,328,32399,6,0,P|424:292|396:304,1,112.500004291535
348,360,32634,2,0,P|293:368|251:333,1,112.500004291535
192,364,32868,5,8,0:0:0:0:
192,364,33102,1,0,0:0:0:0:
192,364,33220,1,0,0:0:0:0:
192,364,33337,1,0,3:0:0:0:
192,364,33571,1,2,0:1:0:0:
44,112,33806,6,0,B|36:140|68:180|68:180|96:144|132:128|180:132|228:148|252:224|204:296|116:296|84:216,1,375,0|0,1:0|3:0,0:0:0:0:
126,261,34509,1,8,0:0:0:0:
134,281,34567,1,8,0:0:0:0:
142,297,34626,1,8,0:0:0:0:
142,297,34743,37,10,0:0:0:0:
124,128,34977,1,0,0:0:0:0:
200,204,35212,6,0,P|220:156|216:136,1,41.6250010162354,0|0,3:0|0:0,0:0:0:0:
21,163,35329,2,0,P|28:182|41:199,1,41.6250010162354
144,36,35446,2,0,P|93:42|78:56,1,41.6250010162354,0|0,1:0|0:0,0:0:0:0:
308,232,35681,6,0,L|296:356,1,112.5
364,356,36149,2,0,L|368:304,1,37.5,0|0,3:0|0:0,0:0:0:0:
424,232,36384,5,0,0:0:0:0:
424,232,36501,1,0,0:0:0:0:
512,384,36618,37,8,0:0:0:0:
512,384,37087,6,0,P|404:348|364:368,1,129.375002467632,4|0,3:0|0:0,0:0:0:0:
332,292,37321,6,0,L|328:264,1,22.5,2|0,0:1|0:0,0:0:0:0:
393,243,37556,6,0,B|228:272|228:272|176:156|184:104|244:88|300:96|312:152,2,450.000017166138,0|0|8,1:0|3:0|1:0,0:0:0:0:
393,243,38727,1,2,0:0:0:0:
393,243,38845,1,2,0:0:0:0:
393,243,38962,1,0,3:0:0:0:
393,243,39196,1,8,0:0:0:0:
393,243,39431,38,0,P|409:183|393:135,1,112.500004291535,0|0,3:0|0:0,0:0:0:0:
364,72,39782,1,0,0:0:0:0:
296,102,39899,6,0,P|388:138|420:118,1,112.5,0|0,3:0|0:0,0:0:0:0:
432,40,40134,2,0,P|340:4|308:24,1,112.5
364,72,40368,5,8,0:0:0:0:
364,72,40602,1,0,0:0:0:0:
364,72,40720,1,0,0:0:0:0:
364,72,40837,5,0,3:0:0:0:
364,72,41071,1,8,0:0:0:0:
68,324,41306,38,0,B|160:352|132:288|244:328,1,150,4|0,0:0|3:0,0:0:0:0:
214,318,42009,1,8,0:0:0:0:
234,326,42067,1,8,0:0:0:0:
250,334,42126,1,8,0:0:0:0:
250,334,42243,5,8,0:0:0:0:
384,320,42712,1,0,1:0:0:0:
250,334,42946,1,8,0:0:0:0:
384,320,43415,1,2,0:0:0:0:
441,361,43649,6,0,P|429:265|397:249,1,131.25,4|0,3:0|0:0,0:0:0:0:
391,252,43884,2,0,L|347:260,3,43.1250008225441
312,192,44118,1,8,0:0:0:0:
312,192,44470,5,2,0:0:0:0:
312,192,44587,1,4,1:2:0:0:
376,268,45056,38,0,B|308:316|248:264|248:264|252:272|252:272|256:280|256:280|192:216|100:288,1,300,0|8,0:0|0:0,0:0:0:0:
136,344,46227,1,2,0:0:0:0:
268,204,46462,5,0,0:0:0:0:
260,280,46696,1,2,0:0:0:0:
384,156,46931,6,0,L|400:336,1,150,0|0,0:0|3:0,0:0:0:0:
397,305,47634,2,0,L|444:312,3,46.875
496,364,47868,1,8,0:0:0:0:
472,212,48220,5,2,0:0:0:0:
496,364,48337,1,4,1:2:0:0:
472,212,48806,38,0,B|404:236|404:236|348:324,1,150,0|0,1:0|3:0,0:0:0:0:
362,301,49509,1,8,0:0:0:0:
354,281,49567,1,8,0:0:0:0:
346,265,49626,1,8,0:0:0:0:
346,265,49743,5,8,0:0:0:0:
288,144,50212,1,0,1:0:0:0:
346,265,50446,1,8,0:0:0:0:
288,144,50915,1,2,0:0:0:0:
224,292,51149,6,0,L|232:336,1,45,4|0,3:0|0:0,0:0:0:0:
232,336,51618,1,8,0:0:0:0:
204,200,51969,5,2,0:0:0:0:
232,336,52087,1,4,1:2:0:0:
92,80,52556,38,0,B|152:200|40:192|116:328,2,225.000008583069,0|0|8,1:0|3:0|0:0,0:0:0:0:
64,8,53727,1,2,0:0:0:0:
208,80,53962,5,0,3:0:0:0:
200,156,54196,1,2,1:2:0:0:
428,332,54431,6,0,L|412:208,2,112.500004291535,2|0|8,0:0|3:0|0:0,0:0:0:0:
413,220,55720,5,2,0:0:0:0:
428,332,55837,1,4,1:2:0:0:
420,56,56071,1,8,0:0:0:0:
432,64,56306,6,0,B|440:76|440:76|432:152,3,75
384,224,57946,1,0,0:0:0:0:
68,56,58181,22,0,L|76:136,1,75,4|0,0:0|0:0,0:0:0:0:
176,184,58649,1,0,1:0:0:0:
160,104,58884,1,0,0:0:0:0:
68,56,59118,6,0,L|76:136,1,75,8|0,0:0|0:0,0:0:0:0:
176,184,59587,1,8,3:0:0:0:
160,104,59821,1,0,0:0:0:0:
68,56,60056,6,0,L|76:136,1,75,8|0,0:0|0:0,0:0:0:0:
176,184,60524,1,8,3:0:0:0:
160,104,60759,1,0,0:0:0:0:
68,56,60993,6,0,L|76:136,1,75,8|0,0:0|0:0,0:0:0:0:
176,184,61227,1,8,3:0:0:0:
160,104,61345,1,8,3:0:0:0:
68,56,61462,38,0,L|76:136,1,75,8|0,3:0|0:0,0:0:0:0:
75,130,61696,2,0,L|68:56,1,75,8|0,3:0|0:0,0:0:0:0:
168,8,61931,5,10,0:0:0:0:
236,36,62165,1,0,0:0:0:0:
236,36,62399,2,0,L|228:132,1,75,0|0,1:0|0:0,0:0:0:0:
168,8,62868,5,8,0:0:0:0:
236,36,63102,1,0,0:0:0:0:
236,36,63337,2,0,L|228:132,1,75,0|0,1:0|0:0,0:0:0:0:
168,8,63806,5,8,0:0:0:0:
236,36,64040,1,0,0:0:0:0:
236,36,64274,2,0,L|228:132,1,75,0|0,1:0|0:0,0:0:0:0:
168,8,64743,37,8,0:0:0:0:
304,60,65095,1,2,0:0:0:0:
236,36,65212,2,0,L|228:132,1,75,4|0,1:2|0:0,0:0:0:0:
412,272,65681,6,0,L|416:176,1,75,4|0,0:0|0:0,0:0:0:0:
312,156,66149,1,0,1:0:0:0:
328,232,66384,1,0,0:0:0:0:
412,272,66618,6,0,L|416:176,1,75,8|0,0:0|0:0,0:0:0:0:
312,156,67086,1,8,3:0:0:0:
328,232,67321,1,0,0:0:0:0:
412,272,67556,6,0,L|416:176,1,75,8|0,0:0|0:0,0:0:0:0:
312,156,68024,1,8,3:0:0:0:
328,232,68259,1,0,0:0:0:0:
412,272,68493,38,0,L|416:176,1,75,10|0,0:0|0:0,0:0:0:0:
312,156,68727,1,8,3:0:0:0:
328,232,68845,1,8,3:0:0:0:
412,272,68962,6,0,L|416:176,1,75,8|0,3:0|0:0,0:0:0:0:
415,197,69196,2,0,L|411:271,1,75,8|0,3:0|0:0,0:0:0:0:
344,344,69431,5,6,1:2:0:0:
248,356,69665,1,0,0:0:0:0:
248,356,69899,2,0,L|240:252,1,75,0|0,1:0|0:0,0:0:0:0:
344,344,70368,5,8,0:0:0:0:
248,356,70602,1,0,0:0:0:0:
248,356,70836,2,0,L|240:252,1,75,0|0,1:0|0:0,0:0:0:0:
344,344,71306,37,8,0:0:0:0:
248,356,71540,1,0,0:0:0:0:
248,356,71774,2,0,L|240:252,1,75,0|0,1:0|0:0,0:0:0:0:
344,344,72243,5,8,0:0:0:0:
156,368,72595,1,0,0:0:0:0:
248,356,72711,2,0,L|240:252,1,75,6|0,1:2|0:0,0:0:0:0:
224,52,73181,6,0,L|236:224,1,150,2|8,0:0|0:0,0:0:0:0:
336,264,73884,1,0,0:0:0:0:
229,126,74118,6,0,L|238:235,1,75,8|0,0:0|0:0,0:0:0:0:
336,264,74587,1,8,3:0:0:0:
328,188,74821,1,0,0:0:0:0:
229,126,75056,38,0,L|238:235,1,75,8|0,0:0|0:0,0:0:0:0:
336,264,75524,1,8,3:0:0:0:
328,188,75759,1,0,0:0:0:0:
229,126,75993,6,0,L|238:235,1,75,8|0,0:0|0:0,0:0:0:0:
336,264,76227,1,8,3:0:0:0:
328,188,76345,1,0,0:0:0:0:
229,126,76462,6,0,L|235:200,1,75,8|0,3:0|0:0,0:0:0:0:
235,200,76696,2,0,L|229:126,1,75,8|0,3:0|0:0,0:0:0:0:
132,76,76931,5,6,0:0:0:0:
80,176,77165,1,0,0:0:0:0:
80,176,77399,2,0,L|156:172,1,75,8|0,0:0|0:0,0:0:0:0:
132,76,77868,37,0,0:0:0:0:
80,176,78102,1,0,0:0:0:0:
80,176,78337,2,0,L|156:172,1,75,8|0,0:0|0:0,0:0:0:0:
132,76,78806,5,0,0:0:0:0:
80,176,79040,1,0,0:0:0:0:
80,176,79275,2,0,L|156:172,1,75,8|0,0:0|0:0,0:0:0:0:
132,76,79743,5,0,0:0:0:0:
80,176,80095,1,2,0:0:0:0:
80,176,80212,2,0,L|156:172,1,75,6|0,1:2|0:0,0:0:0:0:
424,156,80915,5,8,0:0:0:0:
424,156,81149,37,10,0:0:0:0:
444,272,81384,1,8,0:0:0:0:
344,144,81618,5,8,0:0:0:0:
500,216,81852,1,8,0:0:0:0:
352,276,82087,5,10,0:0:0:0:
464,136,82321,1,8,0:0:0:0:
296,220,82556,5,8,0:0:0:0:
496,272,82790,1,8,0:0:0:0:
368,160,83024,37,10,0:0:0:0:
384,352,83259,1,8,0:0:0:0:
448,200,83493,5,8,0:0:0:0:
312,344,83727,1,8,0:0:0:0:
464,296,83962,5,10,0:0:0:0:
264,224,84196,2,8,L|256:280,1,37.5
212,316,84431,5,8,0:0:0:0:
188,293,84548,1,8,0:0:0:0:
174,264,84665,1,8,0:0:0:0:
172,232,84782,1,8,0:0:0:0:
181,201,84899,1,10,0:0:0:0:
201,175,85016,1,8,0:0:0:0:
228,158,85134,1,8,0:0:0:0:
260,151,85251,1,8,0:0:0:0:
292,157,85368,1,8,0:0:0:0:
320,173,85485,1,8,0:0:0:0:
340,199,85602,1,8,0:0:0:0:
350,229,85720,1,8,0:0:0:0:
348,262,85837,1,10,0:0:0:0:
335,291,85954,1,8,0:0:0:0:
312,314,86071,1,8,0:0:0:0:
283,328,86188,1,8,0:0:0:0:
128,176,88181,38,0,L|133:204,1,18.75,0|0,3:0|0:0,0:0:0:0:
45,164,88415,2,0,P|109:92|173:104,1,150
272,256,88649,6,0,P|334:149|331:278,1,337.500012874604
322,213,89118,1,2,1:2:0:0:
408,356,89235,1,0,0:0:0:0:
464,128,89587,2,0,L|412:124,1,45,0|0,3:0|0:0,0:0:0:0:
336,208,90056,6,0,P|328:132|184:140,1,225
224,32,90524,2,0,P|150:69|183:209,1,225
163,195,90993,6,0,L|160:218,1,15,2|0,1:2|0:0,0:0:0:0:
408,344,91227,37,0,0:0:0:0:
456,268,91345,1,0,0:0:0:0:
408,196,91462,2,0,P|356:176|296:208,1,112.500004291535,2|0,0:1|0:0,0:0:0:0:
248,280,91696,2,0,P|300:300|360:268,1,112.500004291535
252,112,91931,6,0,B|154:71|170:145|116:135|92:142|44:121|30:72|30:72|61:40|125:60,1,337.500012874604,0|0,3:0|0:0,0:0:0:0:
209,172,92399,6,0,P|201:68|325:88,1,225,0|8,0:0|0:0,0:0:0:0:
361,100,92868,2,0,L|369:4,1,75,0|0,1:0|0:0,0:0:0:0:
189,252,93337,6,0,B|281:200|253:116|253:116|256:204|365:260|449:124,1,337.500012874604,0|2,3:0|0:1,0:0:0:0:
429,167,93806,38,0,P|349:259|385:135,1,337.500012874604
452,164,94274,2,0,P|345:286|408:120,1,450.000017166138,0|0,0:0|1:0,0:0:0:0:
363,112,94977,5,0,0:0:0:0:
363,112,95095,1,0,0:0:0:0:
363,112,95212,2,0,L|372:180,1,37.5,2|0,3:0|0:0,0:0:0:0:
380,232,95446,1,0,1:0:0:0:
104,324,95681,6,0,L|99:352,1,18.75,0|0,3:0|0:0,0:0:0:0:
164,264,95915,2,0,P|68:249|27:300,1,150
272,120,96149,6,0,P|220:164|264:64,1,337.500012874604
211,100,96618,2,0,L|148:96,1,37.5,2|2,1:2|0:0,0:0:0:0:
40,208,97087,38,0,B|276:176|276:176|184:256,1,337.500012874604,0|0,3:0|0:0,0:0:0:0:
48,352,97556,6,0,B|120:264|120:264|196:348,1,225
201,241,98024,2,0,B|276:324|276:324|348:236,1,225
347,236,98493,1,0,1:0:0:0:
460,48,98727,5,0,1:0:0:0:
452,144,98845,1,0,1:0:0:0:
444,240,98962,1,2,0:0:0:0:
444,240,99196,1,0,0:0:0:0:
132,44,99431,6,0,B|168:164|88:192|128:328|128:328|152:264|228:320,1,337.500012874604,0|0,3:0|0:0,0:0:0:0:
264,372,99899,38,0,P|240:284|392:264,1,225,0|8,0:0|0:0,0:0:0:0:
404,280,100368,2,0,L|412:196,1,75,8|0,1:0|0:0,0:0:0:0:
184,40,100837,6,0,B|136:164|268:128|184:300,1,225,0|2,3:0|0:1,0:0:0:0:
157,324,101306,6,0,P|189:172|221:336,1,450
132,352,101774,2,0,P|177:134|223:369,1,600,0|0,0:0|1:0,0:0:0:0:
200,256,102477,5,0,0:0:0:0:
200,256,102595,1,0,1:0:0:0:
200,256,102712,2,0,L|288:248,1,75
392,240,102946,1,0,0:0:0:0:
308,88,103181,38,0,L|312:124,1,18.75,4|0,0:1|0:0,0:0:0:0:
268,220,103415,2,0,P|322:170|395:161,1,150
340,340,103649,6,0,P|348:232|396:352,1,337.500012874604
381,288,104118,1,0,1:0:0:0:
456,104,104235,1,2,0:0:0:0:
296,188,104587,2,0,L|244:184,1,45,0|0,3:0|0:0,0:0:0:0:
188,256,105056,6,0,P|156:184|250:91,1,225,2|0,0:1|0:0,0:0:0:0:
312,116,105524,2,0,P|343:205|228:276,1,225,2|0,0:1|0:0,0:0:0:0:
253,279,105993,1,0,1:0:0:0:
140,336,106227,5,0,0:0:0:0:
40,296,106345,1,0,0:0:0:0:
168,228,106462,2,0,L|176:72,1,112.500004291535,2|0,0:1|0:0,0:0:0:0:
40,196,106696,2,0,L|28:68,1,112.500004291535
140,32,106931,38,0,B|212:80|280:24|280:24|320:60|320:60|408:-8|512:96,1,337.500012874604,0|0,3:0|0:0,0:0:0:0:
348,188,107399,6,0,P|380:108|432:204,1,225,0|8,0:0|0:0,0:0:0:0:
412,256,107868,2,0,L|500:244,1,75,0|0,1:0|0:0,0:0:0:0:
304,348,108337,6,0,B|236:272|280:196|280:196|276:280|164:360|80:272,1,337.500012874604,0|2,3:0|0:1,0:0:0:0:
72,112,108806,6,0,P|104:232|144:96,1,337.500012874604
178,84,109274,2,0,P|129:250|59:92,1,450.000017166138,2|0,0:1|1:0,0:0:0:0:
128,160,109977,37,0,1:0:0:0:
136,256,110095,1,0,1:0:0:0:
144,348,110212,1,0,0:0:0:0:
144,348,110446,1,0,1:0:0:0:
280,244,110681,6,0,L|316:240,1,18.75,4|0,0:1|0:0,0:0:0:0:
404,332,110915,2,0,P|396:180|440:152,1,150
480,72,111149,6,0,P|468:152|436:32,1,337.500012874604,2|0,0:1|0:0,0:0:0:0:
480,72,111618,2,0,P|488:128|488:136,1,37.5,2|2,1:2|0:0,0:0:0:0:
368,324,112087,6,0,B|412:92,1,225.000008583069,0|0,3:0|1:0,0:0:0:0:
409,102,112556,38,0,B|264:144|264:144|300:224,1,225,2|0,0:1|0:0,0:0:0:0:
308,60,113024,2,0,B|162:101|162:101|198:181,1,225,2|0,0:1|0:0,0:0:0:0:
244,296,113493,1,0,1:0:0:0:
364,212,113727,5,0,0:0:0:0:
364,212,113845,1,0,0:0:0:0:
364,212,113962,2,0,L|372:288,1,56.2500021457673,2|0,0:0|0:0,0:0:0:0:
456,80,114431,6,0,B|296:24|336:164|164:84,1,281.25,0|0,3:0|0:0,0:0:0:0:
152,172,114899,6,0,P|96:88|184:12,1,225,0|2,0:0|0:1,0:0:0:0:
248,52,115368,2,0,L|352:36,1,75,0|2,1:0|0:0,0:0:0:0:
436,232,115837,38,0,B|276:312|280:120|92:220,1,337.500012874604,0|2,3:0|0:1,0:0:0:0:
188,147,116306,6,0,P|112:303|76:123,1,450,2|0,0:1|0:0,0:0:0:0:
44,103,116774,2,0,P|100:328|210:123,1,600,2|0,0:1|1:0,0:0:0:0:
108,192,117477,6,0,L|116:312,1,75,0|0,1:0|1:0,0:0:0:0:
116,352,117712,1,0,0:0:0:0:
108,192,117946,5,0,0:0:0:0:
116,352,118063,1,2,0:1:0:0:
436,80,118298,6,0,B|480:144|480:212|476:248|460:280|424:320|388:336|388:336|336:316|308:268|300:236|296:184|308:152|336:96|336:96|296:88|268:104|236:136|224:160|232:204|240:248|184:312|92:322|26:289|-1:240|-10:212|-16:171|-4:120|16:88|48:56|96:44|152:48|196:72|224:136|184:180|156:192|117:212|104:188|88:172,1,1308.00001397095,0|2,1:0|0:0,0:0:0:0:
