osu file format v14

[General]
AudioFilename: audio.mp3
AudioLeadIn: 0
PreviewTime: 28119
Countdown: 0
SampleSet: Normal
StackLeniency: 0.7
Mode: 1
LetterboxInBreaks: 0
WidescreenStoryboard: 1

[Editor]
Bookmarks: 533,14861,29189,57846,72174,86503,115159,125906,129488,158144
DistanceSpacing: 1.4
BeatDivisor: 6
GridSize: 4
TimelineZoom: 1.3

[Metadata]
Title:Losing My Love
TitleUnicode:Losing My Love
Artist:verzache
ArtistUnicode:verzache
Creator:WTHBRO
Version:muzukashii
Source:
Tags:english electronic pop experimental indie Zach Farache
BeatmapID:3545446
BeatmapSetID:1734658

[Difficulty]
HPDrainRate:6.5
CircleSize:6
OverallDifficulty:4.5
ApproachRate:4
SliderMultiplier:1.4
SliderTickRate:1

[Events]
//Background and Video events
0,0,"75309585_p0.jpg",0,0
//Break Periods
//Storyboard Layer 0 (Background)
//Storyboard Layer 1 (Fail)
//Storyboard Layer 2 (Pass)
//Storyboard Layer 3 (Foreground)
//Storyboard Layer 4 (Overlay)
//Storyboard Sound Samples

[TimingPoints]
582,895.522388059701,4,1,0,65,1,0
582,-66.666666666667,4,1,0,65,0,0
25656,-66.666666666667,4,1,0,70,0,0
26104,-68.966845084524,4,1,0,70,0,0
26552,-71.431420252862,4,1,0,70,0,0
26999,-74.072542288763,4,1,0,70,0,0
27298,-75.950977481871,4,1,0,70,0,0
27447,-76.923076923077,4,1,0,70,0,0
29238,-62.5,4,1,0,70,0,1
56999,-62.5,4,1,0,60,0,0
57895,-71.428571428571,4,1,0,60,0,0
68641,-71.428571428571,4,1,0,60,0,0
69089,-73.17139589347,4,1,0,60,0,0
69537,-75.001395634455,4,1,0,60,0,0
69984,-76.920874842551,4,1,0,60,0,0
70283,-78.260616298713,4,1,0,60,0,0
70432,-78.945822070749,4,1,0,60,0,0
70880,-81.080265540133,4,1,0,60,0,0
71328,-83.333333333333,4,1,0,60,0,0
72223,-66.666666666667,4,1,0,60,0,0
82970,-66.666666666667,4,1,0,60,0,0
83417,-68.961534018713,4,1,0,60,0,0
83865,-71.425722831505,4,1,0,60,0,0
84313,-74.072542288763,4,1,0,60,0,0
84611,-75.944536318535,4,1,0,60,0,0
84761,-76.923076923077,4,1,0,60,0,0
86552,-62.5,4,1,0,70,0,1
115208,-66.666666666667,4,1,0,60,0,0
122373,-66.666666666667,4,1,0,60,0,0
122820,-67.794685441744,4,1,0,60,0,0
123268,-68.964189449365,4,1,0,60,0,0
123567,-69.767441860465,4,1,0,60,0,0
123716,-70.174751195047,4,1,0,60,0,0
124014,-71.003805899144,4,1,0,60,0,0
124164,-71.428571428571,4,1,0,60,0,0
124611,-72.725057863321,4,1,0,60,0,0
125059,-74.072542288763,4,1,0,60,0,0
125358,-75,4,1,0,60,0,0
125507,-75.47090303822,4,1,0,60,0,0
125805,-76.43067468954,4,1,0,60,0,0
125955,-76.923076923077,4,1,0,60,0,0
126104,-76.923076923077,4,1,0,5,0,0
129537,-76.923076923077,4,1,0,50,0,0

[HitObjects]
258,159,582,5,0,0:0:0:0:
262,177,1029,1,8,0:0:0:0:
255,176,1477,1,0,0:0:0:0:
266,168,1925,1,8,0:0:0:0:
266,168,2223,1,0,0:0:0:0:
261,163,2671,1,0,0:0:0:0:
261,163,2820,1,8,0:0:0:0:
251,163,3268,1,0,0:0:0:0:
251,163,3716,1,8,0:0:0:0:
251,163,4014,1,8,0:0:0:0:
251,163,4164,1,0,0:0:0:0:
253,153,4611,1,8,0:0:0:0:
252,157,5059,1,0,0:0:0:0:
243,160,5507,1,8,0:0:0:0:
243,177,5805,1,0,0:0:0:0:
243,177,5955,1,0,0:0:0:0:
249,167,6402,1,8,0:0:0:0:
243,177,6850,1,0,0:0:0:0:
242,174,7298,1,8,0:0:0:0:
244,172,7746,1,0,0:0:0:0:
244,172,8193,1,8,0:0:0:0:
244,172,8641,1,0,0:0:0:0:
244,172,9089,1,8,0:0:0:0:
244,172,9387,1,0,0:0:0:0:
244,172,9835,1,0,0:0:0:0:
244,172,9984,1,8,0:0:0:0:
256,159,10432,1,0,0:0:0:0:
256,159,10880,1,8,0:0:0:0:
258,169,11179,1,8,0:0:0:0:
258,169,11328,1,0,0:0:0:0:
251,160,11776,1,8,0:0:0:0:
251,160,12223,1,0,0:0:0:0:
251,160,12671,1,8,0:0:0:0:
251,160,12970,1,0,0:0:0:0:
251,160,13119,1,0,0:0:0:0:
242,174,13567,1,8,0:0:0:0:
242,174,14014,1,0,0:0:0:0:
242,174,14462,1,8,0:0:0:0:
258,159,14910,1,0,0:0:0:0:
264,186,15358,1,0,0:0:0:0:
258,159,15805,1,8,0:0:0:0:
266,168,16253,1,8,0:0:0:0:
266,168,16552,1,0,0:0:0:0:
267,160,16999,1,8,0:0:0:0:
267,160,17149,1,0,0:0:0:0:
267,160,17596,1,8,0:0:0:0:
251,163,18044,1,8,0:0:0:0:
251,163,18343,1,8,0:0:0:0:
251,163,18492,1,0,0:0:0:0:
256,164,18940,1,0,0:0:0:0:
256,164,19387,1,8,0:0:0:0:
256,164,19835,1,8,0:0:0:0:
243,177,20134,1,0,0:0:0:0:
243,177,20283,1,0,0:0:0:0:
258,168,20731,1,0,0:0:0:0:
258,168,21179,1,8,0:0:0:0:
251,175,21626,1,8,0:0:0:0:
244,172,22074,1,0,0:0:0:0:
241,163,22522,1,0,0:0:0:0:
250,175,22970,1,8,0:0:0:0:
244,172,23417,1,8,0:0:0:0:
244,172,23716,1,0,0:0:0:0:
250,175,24164,1,8,0:0:0:0:
250,175,24313,1,0,0:0:0:0:
250,165,24761,1,8,0:0:0:0:
256,159,25208,1,8,0:0:0:0:
258,169,25507,1,8,0:0:0:0:
258,169,25656,1,0,0:0:0:0:
251,160,26104,1,0,0:0:0:0:
251,160,26552,1,8,0:0:0:0:
251,160,26999,1,0,0:0:0:0:
253,170,27298,1,0,0:0:0:0:
254,170,27447,1,0,0:0:0:0:
253,170,28343,1,8,0:0:0:0:
259,174,29238,1,0,0:0:0:0:
259,174,29686,1,0,0:0:0:0:
259,174,29984,1,0,0:0:0:0:
264,171,30134,1,8,0:0:0:0:
259,174,30581,1,0,0:0:0:0:
259,174,30880,1,8,0:0:0:0:
259,174,31328,1,8,0:0:0:0:
256,184,31477,1,0,0:0:0:0:
258,174,31925,1,8,0:0:0:0:
259,174,32223,1,8,0:0:0:0:
254,165,32373,1,0,0:0:0:0:
258,174,32820,1,0,0:0:0:0:
258,174,32970,1,8,0:0:0:0:
255,176,33268,1,8,0:0:0:0:
258,174,33716,1,0,0:0:0:0:
258,174,33865,1,8,0:0:0:0:
260,170,34164,1,8,0:0:0:0:
254,150,34611,1,0,0:0:0:0:
242,163,34761,1,8,0:0:0:0:
259,158,34910,1,0,0:0:0:0:
255,173,35059,1,8,0:0:0:0:
250,157,35507,1,8,0:0:0:0:
249,160,35805,1,0,0:0:0:0:
249,160,35955,1,8,0:0:0:0:
255,163,36253,1,8,0:0:0:0:
250,157,36402,1,0,0:0:0:0:
250,157,36850,1,0,0:0:0:0:
250,157,37149,1,0,0:0:0:0:
250,157,37298,1,8,0:0:0:0:
250,157,37746,1,0,0:0:0:0:
250,157,38044,1,8,0:0:0:0:
249,152,38492,1,8,0:0:0:0:
249,152,38641,1,0,0:0:0:0:
244,151,39089,1,8,0:0:0:0:
244,151,39387,1,8,0:0:0:0:
244,151,39537,1,0,0:0:0:0:
244,151,39984,1,0,0:0:0:0:
244,151,40134,1,8,0:0:0:0:
244,151,40432,1,8,0:0:0:0:
244,151,40880,1,0,0:0:0:0:
244,151,41029,1,8,0:0:0:0:
244,151,41328,1,8,0:0:0:0:
248,187,41776,1,0,0:0:0:0:
246,171,41925,1,8,0:0:0:0:
248,187,42223,1,8,0:0:0:0:
249,169,42522,1,0,0:0:0:0:
249,169,42671,1,8,0:0:0:0:
250,172,42970,1,0,0:0:0:0:
249,169,43119,1,8,0:0:0:0:
249,169,43567,1,0,0:0:0:0:
250,172,44014,1,0,0:0:0:0:
250,172,44313,1,0,0:0:0:0:
250,172,44462,1,8,0:0:0:0:
250,172,44910,1,0,0:0:0:0:
250,172,45208,1,8,0:0:0:0:
256,158,45656,1,8,0:0:0:0:
256,158,45805,1,0,0:0:0:0:
256,158,46253,1,8,0:0:0:0:
256,122,46552,1,8,0:0:0:0:
256,122,46701,1,0,0:0:0:0:
247,157,47149,1,0,0:0:0:0:
246,146,47298,1,8,0:0:0:0:
246,146,47596,1,8,0:0:0:0:
246,146,48044,1,0,0:0:0:0:
246,146,48193,1,8,0:0:0:0:
246,146,48492,1,8,0:0:0:0:
246,146,48940,1,0,0:0:0:0:
246,146,49089,1,8,0:0:0:0:
240,143,49238,1,0,0:0:0:0:
246,146,49387,1,8,0:0:0:0:
243,151,49835,1,8,0:0:0:0:
243,152,50134,1,0,0:0:0:0:
243,152,50283,1,8,0:0:0:0:
243,151,50581,1,8,0:0:0:0:
237,151,50731,1,0,0:0:0:0:
252,150,51179,1,0,0:0:0:0:
252,150,51477,1,0,0:0:0:0:
252,150,51626,1,8,0:0:0:0:
257,152,52074,1,0,0:0:0:0:
257,152,52373,1,8,0:0:0:0:
269,157,52820,1,8,0:0:0:0:
269,157,52970,1,0,0:0:0:0:
261,151,53417,1,8,0:0:0:0:
261,151,53716,1,8,0:0:0:0:
267,149,53865,1,8,0:0:0:0:
267,149,54313,1,0,0:0:0:0:
271,157,54462,1,8,0:0:0:0:
271,157,54761,1,8,0:0:0:0:
271,157,55208,1,0,0:0:0:0:
271,157,55358,1,8,0:0:0:0:
271,157,55656,1,8,0:0:0:0:
271,157,56104,1,0,0:0:0:0:
271,157,56253,1,8,0:0:0:0:
261,163,56552,1,0,0:0:0:0:
255,160,56999,1,8,0:0:0:0:
255,160,57895,1,0,0:0:0:0:
255,160,58343,1,0,0:0:0:0:
261,158,58790,1,0,0:0:0:0:
261,158,59238,1,0,0:0:0:0:
250,132,59537,1,0,0:0:0:0:
255,160,59686,1,8,0:0:0:0:
255,160,60134,1,8,0:0:0:0:
261,158,60581,1,0,0:0:0:0:
253,149,61029,1,0,0:0:0:0:
243,158,61328,1,8,0:0:0:0:
243,158,61477,1,0,0:0:0:0:
239,146,61925,1,0,0:0:0:0:
239,146,62373,1,0,0:0:0:0:
241,129,62671,1,0,0:0:0:0:
241,129,62820,1,0,0:0:0:0:
246,143,63119,1,0,0:0:0:0:
246,143,63268,1,8,0:0:0:0:
246,143,63716,1,8,0:0:0:0:
242,149,64164,1,8,0:0:0:0:
243,153,64462,1,8,0:0:0:0:
246,138,64611,1,8,0:0:0:0:
243,153,65059,1,0,0:0:0:0:
243,153,65507,1,0,0:0:0:0:
243,153,65955,1,0,0:0:0:0:
243,153,66402,1,0,0:0:0:0:
243,153,66701,1,0,0:0:0:0:
241,142,66850,1,8,0:0:0:0:
241,142,67298,1,8,0:0:0:0:
236,151,67746,1,0,0:0:0:0:
241,142,68193,1,0,0:0:0:0:
241,142,68492,1,8,0:0:0:0:
241,142,68641,1,0,0:0:0:0:
241,142,69089,1,0,0:0:0:0:
254,135,69537,1,0,0:0:0:0:
241,142,69984,1,0,0:0:0:0:
241,142,70283,1,8,0:0:0:0:
241,142,70432,1,0,0:0:0:0:
241,142,70880,1,0,0:0:0:0:
241,142,71328,1,8,0:0:0:0:
241,142,72223,1,0,0:0:0:0:
241,142,72671,1,0,0:0:0:0:
241,142,73119,1,8,0:0:0:0:
241,142,73567,1,8,0:0:0:0:
241,142,74014,1,0,0:0:0:0:
240,146,74313,1,8,0:0:0:0:
240,146,74462,1,0,0:0:0:0:
240,146,74910,1,8,0:0:0:0:
251,148,75208,1,0,0:0:0:0:
251,148,75358,1,8,0:0:0:0:
251,148,75656,1,8,0:0:0:0:
251,148,75805,1,0,0:0:0:0:
251,148,76253,1,0,0:0:0:0:
251,148,76701,1,8,0:0:0:0:
251,148,76999,1,8,0:0:0:0:
251,148,77149,1,8,0:0:0:0:
251,148,77447,1,8,0:0:0:0:
251,148,77596,1,0,0:0:0:0:
251,148,78044,1,0,0:0:0:0:
251,148,78492,1,8,0:0:0:0:
251,148,78790,1,0,0:0:0:0:
251,148,78940,1,8,0:0:0:0:
246,140,79387,1,0,0:0:0:0:
251,148,79835,1,0,0:0:0:0:
226,143,80134,1,0,0:0:0:0:
226,143,80283,1,8,0:0:0:0:
226,143,80731,1,8,0:0:0:0:
226,143,81029,1,8,0:0:0:0:
226,143,81179,1,0,0:0:0:0:
226,143,81626,1,0,0:0:0:0:
226,143,82074,1,8,0:0:0:0:
239,162,82522,1,8,0:0:0:0:
235,146,82820,1,8,0:0:0:0:
235,146,82970,1,0,0:0:0:0:
230,168,83417,1,0,0:0:0:0:
230,168,83865,1,8,0:0:0:0:
233,161,84313,1,0,0:0:0:0:
230,168,84611,1,8,0:0:0:0:
230,168,84761,1,0,0:0:0:0:
233,161,85656,1,8,0:0:0:0:
259,174,86552,1,0,0:0:0:0:
259,174,86999,1,0,0:0:0:0:
259,174,87298,1,0,0:0:0:0:
264,171,87447,1,8,0:0:0:0:
259,174,87895,1,0,0:0:0:0:
259,174,88193,1,8,0:0:0:0:
259,174,88641,1,8,0:0:0:0:
256,184,88790,1,0,0:0:0:0:
258,174,89238,1,8,0:0:0:0:
259,174,89537,1,8,0:0:0:0:
254,165,89686,1,0,0:0:0:0:
258,174,90134,1,0,0:0:0:0:
258,174,90283,1,8,0:0:0:0:
255,176,90581,1,8,0:0:0:0:
258,174,91029,1,0,0:0:0:0:
258,174,91179,1,8,0:0:0:0:
260,170,91477,1,8,0:0:0:0:
254,150,91925,1,0,0:0:0:0:
242,163,92074,1,8,0:0:0:0:
259,158,92223,1,0,0:0:0:0:
255,173,92373,1,8,0:0:0:0:
250,157,92820,1,8,0:0:0:0:
249,160,93119,1,0,0:0:0:0:
249,160,93268,1,8,0:0:0:0:
255,163,93567,1,8,0:0:0:0:
250,157,93716,1,0,0:0:0:0:
250,157,94164,1,0,0:0:0:0:
250,157,94462,1,0,0:0:0:0:
250,157,94611,1,8,0:0:0:0:
250,157,95059,1,0,0:0:0:0:
250,157,95358,1,8,0:0:0:0:
249,152,95805,1,8,0:0:0:0:
249,152,95955,1,0,0:0:0:0:
244,151,96402,1,8,0:0:0:0:
244,151,96701,1,8,0:0:0:0:
244,151,96850,1,0,0:0:0:0:
244,151,97298,1,0,0:0:0:0:
244,151,97447,1,8,0:0:0:0:
244,151,97746,1,8,0:0:0:0:
244,151,98193,1,0,0:0:0:0:
244,151,98343,1,8,0:0:0:0:
244,151,98641,1,8,0:0:0:0:
248,187,99089,1,0,0:0:0:0:
246,171,99238,1,8,0:0:0:0:
248,187,99537,1,8,0:0:0:0:
249,169,99835,1,0,0:0:0:0:
249,169,99984,1,8,0:0:0:0:
250,172,100283,1,0,0:0:0:0:
249,169,100432,1,8,0:0:0:0:
249,169,100880,1,0,0:0:0:0:
250,172,101328,1,0,0:0:0:0:
250,172,101626,1,0,0:0:0:0:
250,172,101776,1,8,0:0:0:0:
250,172,102223,1,0,0:0:0:0:
250,172,102522,1,8,0:0:0:0:
256,158,102970,1,8,0:0:0:0:
256,158,103119,1,0,0:0:0:0:
256,158,103567,1,8,0:0:0:0:
256,122,103865,1,8,0:0:0:0:
256,122,104014,1,0,0:0:0:0:
247,157,104462,1,0,0:0:0:0:
246,146,104611,1,8,0:0:0:0:
246,146,104910,1,8,0:0:0:0:
246,146,105358,1,0,0:0:0:0:
246,146,105507,1,8,0:0:0:0:
246,146,105805,1,8,0:0:0:0:
246,146,106253,1,0,0:0:0:0:
246,146,106402,1,8,0:0:0:0:
240,143,106552,1,0,0:0:0:0:
246,146,106701,1,8,0:0:0:0:
243,151,107149,1,8,0:0:0:0:
243,152,107447,1,0,0:0:0:0:
243,152,107596,1,8,0:0:0:0:
243,151,107895,1,8,0:0:0:0:
237,151,108044,1,0,0:0:0:0:
252,150,108492,1,0,0:0:0:0:
252,150,108790,1,0,0:0:0:0:
252,150,108940,1,8,0:0:0:0:
257,152,109387,1,0,0:0:0:0:
257,152,109686,1,8,0:0:0:0:
269,157,110134,1,8,0:0:0:0:
269,157,110283,1,0,0:0:0:0:
261,151,110731,1,8,0:0:0:0:
261,151,111029,1,8,0:0:0:0:
267,149,111179,1,8,0:0:0:0:
267,149,111626,1,0,0:0:0:0:
271,157,111776,1,8,0:0:0:0:
271,157,112074,1,8,0:0:0:0:
271,157,112522,1,0,0:0:0:0:
271,157,112671,1,8,0:0:0:0:
271,157,112970,1,8,0:0:0:0:
271,157,113417,1,0,0:0:0:0:
271,157,113567,1,8,0:0:0:0:
261,163,113865,1,0,0:0:0:0:
255,160,114313,1,8,0:0:0:0:
266,178,115208,1,0,0:0:0:0:
277,173,115656,1,0,0:0:0:0:
263,174,115955,1,8,0:0:0:0:
277,173,116104,1,0,0:0:0:0:
277,173,116552,1,0,0:0:0:0:
263,174,116850,1,8,0:0:0:0:
271,174,117298,1,8,0:0:0:0:
266,174,117447,1,0,0:0:0:0:
271,185,117895,1,0,0:0:0:0:
271,185,118193,1,8,0:0:0:0:
246,166,118343,1,0,0:0:0:0:
259,182,118790,1,0,0:0:0:0:
259,158,119238,1,0,0:0:0:0:
259,158,119686,1,0,0:0:0:0:
258,137,119984,1,8,0:0:0:0:
259,158,120134,1,0,0:0:0:0:
258,137,120432,1,8,0:0:0:0:
258,137,120581,1,0,0:0:0:0:
258,137,121029,1,0,0:0:0:0:
258,137,121477,1,8,0:0:0:0:
258,137,121776,1,8,0:0:0:0:
258,137,121925,1,8,0:0:0:0:
258,137,122223,1,8,0:0:0:0:
258,137,122373,1,0,0:0:0:0:
258,137,122820,1,0,0:0:0:0:
258,137,123268,1,0,0:0:0:0:
258,137,123716,1,0,0:0:0:0:
250,139,124014,1,8,0:0:0:0:
250,147,124164,1,0,0:0:0:0:
250,147,124611,1,0,0:0:0:0:
250,147,125059,1,0,0:0:0:0:
250,147,125507,1,0,0:0:0:0:
263,139,125805,1,8,0:0:0:0:
263,139,125955,1,0,0:0:0:0:
237,177,129537,1,0,0:0:0:0:
237,177,129984,1,0,0:0:0:0:
237,177,130283,1,0,0:0:0:0:
237,177,130432,1,8,0:0:0:0:
237,177,130880,1,8,0:0:0:0:
237,177,131029,1,8,0:0:0:0:
237,177,131179,1,0,0:0:0:0:
237,177,131328,1,0,0:0:0:0:
246,164,131626,1,8,0:0:0:0:
244,169,131776,1,0,0:0:0:0:
239,164,132223,1,8,0:0:0:0:
236,190,132522,1,0,0:0:0:0:
255,171,132671,1,8,0:0:0:0:
252,160,133119,1,0,0:0:0:0:
249,189,133268,1,8,0:0:0:0:
249,189,133567,1,8,0:0:0:0:
245,164,134014,1,0,0:0:0:0:
249,189,134164,1,8,0:0:0:0:
245,164,134462,1,8,0:0:0:0:
255,162,134761,1,8,0:0:0:0:
255,162,134910,1,0,0:0:0:0:
256,157,135059,1,8,0:0:0:0:
256,157,135358,1,8,0:0:0:0:
256,157,135805,1,8,0:0:0:0:
256,157,136104,1,0,0:0:0:0:
256,157,136253,1,8,0:0:0:0:
237,177,136701,1,0,0:0:0:0:
237,177,137149,1,0,0:0:0:0:
237,177,137447,1,0,0:0:0:0:
237,177,137596,1,8,0:0:0:0:
237,177,138044,1,8,0:0:0:0:
237,177,138193,1,8,0:0:0:0:
237,177,138343,1,0,0:0:0:0:
237,177,138492,1,0,0:0:0:0:
242,162,138790,1,8,0:0:0:0:
244,169,138940,1,0,0:0:0:0:
239,164,139387,1,8,0:0:0:0:
238,177,139686,1,0,0:0:0:0:
255,171,139835,1,8,0:0:0:0:
252,160,140283,1,0,0:0:0:0:
249,189,140432,1,8,0:0:0:0:
249,189,140731,1,8,0:0:0:0:
245,164,141179,1,0,0:0:0:0:
249,189,141328,1,8,0:0:0:0:
245,164,141626,1,8,0:0:0:0:
206,129,141925,1,8,0:0:0:0:
255,162,142074,1,0,0:0:0:0:
256,157,142223,1,8,0:0:0:0:
256,157,142522,1,8,0:0:0:0:
256,157,142970,1,8,0:0:0:0:
256,157,143268,1,0,0:0:0:0:
256,157,143417,1,8,0:0:0:0:
237,177,143865,1,0,0:0:0:0:
237,177,144313,1,0,0:0:0:0:
237,177,144611,1,0,0:0:0:0:
237,177,144761,1,8,0:0:0:0:
237,177,145208,1,8,0:0:0:0:
237,177,145358,1,8,0:0:0:0:
237,177,145507,1,0,0:0:0:0:
237,177,145656,1,0,0:0:0:0:
242,162,145955,1,8,0:0:0:0:
244,169,146104,1,0,0:0:0:0:
239,164,146552,1,8,0:0:0:0:
238,163,146850,1,0,0:0:0:0:
255,171,146999,1,8,0:0:0:0:
252,160,147447,1,0,0:0:0:0:
249,189,147596,1,8,0:0:0:0:
249,189,147895,1,8,0:0:0:0:
245,164,148343,1,0,0:0:0:0:
249,189,148492,1,8,0:0:0:0:
245,164,148790,1,8,0:0:0:0:
239,149,149089,1,0,0:0:0:0:
233,124,149238,1,0,0:0:0:0:
245,164,149387,1,8,0:0:0:0:
256,157,149686,1,8,0:0:0:0:
256,157,150134,1,8,0:0:0:0:
256,157,150432,1,0,0:0:0:0:
256,157,150581,1,8,0:0:0:0:
237,177,151029,1,0,0:0:0:0:
237,177,151477,1,0,0:0:0:0:
244,165,151776,1,0,0:0:0:0:
244,165,151925,1,8,0:0:0:0:
237,177,152373,1,8,0:0:0:0:
237,177,152522,1,8,0:0:0:0:
237,177,152671,1,0,0:0:0:0:
237,177,152820,1,0,0:0:0:0:
242,162,153119,1,0,0:0:0:0:
244,169,153268,1,0,0:0:0:0:
239,164,153716,1,8,0:0:0:0:
242,183,154014,1,0,0:0:0:0:
255,171,154164,1,8,0:0:0:0:
252,160,154611,1,0,0:0:0:0:
249,189,154761,1,8,0:0:0:0:
249,189,155059,1,8,0:0:0:0:
245,164,155507,1,0,0:0:0:0:
249,189,155656,1,8,0:0:0:0:
245,164,155955,1,8,0:0:0:0:
247,139,156253,1,0,0:0:0:0:
255,162,156402,1,0,0:0:0:0:
256,157,156552,1,8,0:0:0:0:
256,157,156850,1,8,0:0:0:0:
256,157,157298,1,8,0:0:0:0:
256,157,157596,1,0,0:0:0:0:
256,157,157746,1,8,0:0:0:0:
256,157,158044,1,8,0:0:0:0:
226,176,158193,1,0,0:0:0:0:
