osu file format v14

[General]
AudioFilename: audio.mp3
AudioLeadIn: 0
PreviewTime: 28119
Countdown: 0
SampleSet: Normal
StackLeniency: 0.7
Mode: 1
LetterboxInBreaks: 0
WidescreenStoryboard: 1

[Editor]
Bookmarks: 533,14861,29189,57846,72174,86503,115159,125906,129488,158144
DistanceSpacing: 1.4
BeatDivisor: 4
GridSize: 4
TimelineZoom: 1.3

[Metadata]
Title:Losing My Love
TitleUnicode:Losing My Love
Artist:verzache
ArtistUnicode:verzache
Creator:WTHBRO
Version:kantan
Source:
Tags:english electronic pop experimental indie Zach Farache
BeatmapID:3545445
BeatmapSetID:1734658

[Difficulty]
HPDrainRate:8
CircleSize:6
OverallDifficulty:3
ApproachRate:4
SliderMultiplier:1.4
SliderTickRate:1

[Events]
//Background and Video events
0,0,"75309585_p0.jpg",0,0
//Break Periods
//Storyboard Layer 0 (Background)
//Storyboard Layer 1 (Fail)
//Storyboard Layer 2 (Pass)
//Storyboard Layer 3 (Foreground)
//Storyboard Layer 4 (Overlay)
//Storyboard Sound Samples

[TimingPoints]
582,895.522388059701,4,1,0,65,1,0
582,-66.666666666667,4,1,0,65,0,0
25656,-66.666666666667,4,1,0,70,0,0
29238,-62.5,4,1,0,70,0,1
56999,-62.5,4,1,0,60,0,0
57895,-71.428571428571,4,1,0,60,0,0
86552,-62.5,4,1,0,70,0,1
115208,-66.666666666667,4,1,0,60,0,0
126104,-66.666666666667,4,1,0,5,0,0
129537,-76.9230769230769,4,1,0,50,0,0

[HitObjects]
258,159,582,5,0,0:0:0:0:
234,202,1029,1,0,0:0:0:0:
255,176,1477,1,0,0:0:0:0:
266,168,2373,1,8,0:0:0:0:
261,163,2820,1,8,0:0:0:0:
267,162,3268,1,8,0:0:0:0:
251,163,4164,1,0,0:0:0:0:
267,162,4611,1,0,0:0:0:0:
252,157,5059,1,0,0:0:0:0:
258,171,5955,1,8,0:0:0:0:
258,171,6402,1,8,0:0:0:0:
242,172,6850,1,8,0:0:0:0:
244,172,7746,1,0,0:0:0:0:
256,183,8193,1,0,0:0:0:0:
244,172,8641,1,0,0:0:0:0:
244,172,9537,1,8,0:0:0:0:
244,172,9984,1,8,0:0:0:0:
247,192,10432,1,8,0:0:0:0:
258,169,11328,1,0,0:0:0:0:
248,185,11776,1,0,0:0:0:0:
251,160,12223,1,0,0:0:0:0:
292,194,13119,1,8,0:0:0:0:
241,182,13567,1,8,0:0:0:0:
251,160,14014,1,8,0:0:0:0:
258,159,14910,1,0,0:0:0:0:
264,186,15358,1,0,0:0:0:0:
258,159,15805,1,8,0:0:0:0:
266,168,16701,1,0,0:0:0:0:
249,229,16999,1,0,0:0:0:0:
267,160,17149,1,0,0:0:0:0:
267,160,17596,1,8,0:0:0:0:
251,163,18492,1,0,0:0:0:0:
256,164,18940,1,0,0:0:0:0:
256,164,19387,1,8,0:0:0:0:
243,177,20283,1,0,0:0:0:0:
258,168,20731,1,0,0:0:0:0:
258,168,21179,1,8,0:0:0:0:
244,172,22074,1,0,0:0:0:0:
241,163,22522,1,0,0:0:0:0:
250,175,22970,1,8,0:0:0:0:
244,172,23865,1,0,0:0:0:0:
244,183,24164,1,0,0:0:0:0:
250,175,24313,1,0,0:0:0:0:
250,165,24761,1,8,0:0:0:0:
258,169,25656,1,0,0:0:0:0:
251,160,26104,1,0,0:0:0:0:
251,160,26552,1,8,0:0:0:0:
251,160,26999,1,0,0:0:0:0:
253,170,27298,1,0,0:0:0:0:
254,170,27447,1,0,0:0:0:0:
253,170,28343,1,8,0:0:0:0:
259,174,29238,1,0,0:0:0:0:
247,170,29686,1,0,0:0:0:0:
247,170,30134,1,8,0:0:0:0:
251,167,30880,1,8,0:0:0:0:
259,174,31328,1,0,0:0:0:0:
260,178,31477,1,0,0:0:0:0:
258,174,31925,1,8,0:0:0:0:
251,182,32820,1,0,0:0:0:0:
258,187,33268,1,8,0:0:0:0:
251,182,33716,1,8,0:0:0:0:
261,182,34611,1,0,0:0:0:0:
256,173,35059,1,0,0:0:0:0:
250,157,35507,1,8,0:0:0:0:
250,157,36402,1,0,0:0:0:0:
250,157,36850,1,0,0:0:0:0:
250,157,37298,1,8,0:0:0:0:
250,157,38044,1,8,0:0:0:0:
241,165,38492,1,0,0:0:0:0:
241,165,38641,1,0,0:0:0:0:
244,151,39089,1,8,0:0:0:0:
251,164,39984,1,0,0:0:0:0:
244,151,40432,1,8,0:0:0:0:
244,151,40880,1,8,0:0:0:0:
223,186,41776,1,8,0:0:0:0:
244,188,42223,1,0,0:0:0:0:
249,169,42671,1,8,0:0:0:0:
249,169,43567,1,0,0:0:0:0:
250,172,44014,1,0,0:0:0:0:
250,172,44462,1,8,0:0:0:0:
250,172,45208,1,8,0:0:0:0:
256,158,45656,1,0,0:0:0:0:
243,141,45805,1,0,0:0:0:0:
256,158,46253,1,8,0:0:0:0:
219,137,47149,1,0,0:0:0:0:
246,146,47596,1,8,0:0:0:0:
246,146,48044,1,8,0:0:0:0:
236,144,48940,1,0,0:0:0:0:
229,143,49387,1,0,0:0:0:0:
243,151,49835,1,8,0:0:0:0:
237,151,50731,1,0,0:0:0:0:
252,150,51179,1,0,0:0:0:0:
252,150,51626,1,8,0:0:0:0:
257,152,52373,1,8,0:0:0:0:
196,235,52820,1,0,0:0:0:0:
196,235,52970,1,0,0:0:0:0:
261,151,53417,1,8,0:0:0:0:
240,152,54313,1,0,0:0:0:0:
271,157,54761,1,8,0:0:0:0:
271,157,55208,1,8,0:0:0:0:
258,152,56104,1,0,0:0:0:0:
261,163,56552,1,0,0:0:0:0:
255,160,56999,1,8,0:0:0:0:
255,160,57895,1,0,0:0:0:0:
255,160,58343,1,0,0:0:0:0:
255,160,58790,1,0,0:0:0:0:
255,160,59686,1,8,0:0:0:0:
255,160,60134,1,8,0:0:0:0:
253,149,60581,1,8,0:0:0:0:
243,158,61477,1,0,0:0:0:0:
239,146,61925,1,0,0:0:0:0:
239,146,62373,1,0,0:0:0:0:
234,143,63268,5,8,0:0:0:0:
235,163,63716,1,8,0:0:0:0:
246,149,64164,1,8,0:0:0:0:
243,153,65059,1,0,0:0:0:0:
243,153,65507,1,0,0:0:0:0:
243,153,65955,1,0,0:0:0:0:
245,147,66402,1,0,0:0:0:0:
241,142,66850,1,8,0:0:0:0:
241,142,67298,1,8,0:0:0:0:
241,142,67746,1,8,0:0:0:0:
241,142,68641,1,0,0:0:0:0:
254,135,69537,1,0,0:0:0:0:
241,142,70432,1,8,0:0:0:0:
241,142,71328,1,8,0:0:0:0:
241,142,72223,1,0,0:0:0:0:
241,142,73119,1,8,0:0:0:0:
241,142,73567,1,8,0:0:0:0:
241,142,74014,1,0,0:0:0:0:
240,146,74910,1,8,0:0:0:0:
257,153,75208,1,8,0:0:0:0:
251,148,75358,1,8,0:0:0:0:
251,148,75805,1,0,0:0:0:0:
251,148,76701,1,8,0:0:0:0:
251,148,76999,1,8,0:0:0:0:
251,148,77149,1,8,0:0:0:0:
251,148,77596,1,0,0:0:0:0:
251,148,78044,1,0,0:0:0:0:
251,148,78492,1,8,0:0:0:0:
246,140,79387,1,0,0:0:0:0:
251,148,79835,1,0,0:0:0:0:
226,143,80283,1,8,0:0:0:0:
226,143,80731,1,8,0:0:0:0:
226,143,81179,1,0,0:0:0:0:
226,143,82074,1,8,0:0:0:0:
239,162,82522,1,8,0:0:0:0:
235,146,82970,1,0,0:0:0:0:
230,168,83417,1,0,0:0:0:0:
230,168,83865,1,8,0:0:0:0:
230,168,84313,1,8,0:0:0:0:
230,168,84761,1,0,0:0:0:0:
233,161,85656,1,8,0:0:0:0:
259,174,86552,1,0,0:0:0:0:
247,170,86999,1,0,0:0:0:0:
247,170,87447,1,8,0:0:0:0:
251,167,88193,1,8,0:0:0:0:
259,174,88641,1,0,0:0:0:0:
260,178,88790,1,0,0:0:0:0:
258,174,89238,1,8,0:0:0:0:
251,182,90134,1,0,0:0:0:0:
258,187,90581,1,8,0:0:0:0:
251,182,91029,1,8,0:0:0:0:
261,182,91925,1,0,0:0:0:0:
256,173,92373,1,0,0:0:0:0:
250,157,92820,1,8,0:0:0:0:
250,157,93716,1,0,0:0:0:0:
250,157,94164,1,0,0:0:0:0:
250,157,94611,1,8,0:0:0:0:
250,157,95358,1,8,0:0:0:0:
241,165,95805,1,0,0:0:0:0:
241,165,95955,1,0,0:0:0:0:
244,151,96402,1,8,0:0:0:0:
245,156,97298,1,8,0:0:0:0:
244,151,97746,1,8,0:0:0:0:
244,151,98193,1,8,0:0:0:0:
234,160,99089,1,0,0:0:0:0:
244,188,99537,1,0,0:0:0:0:
249,169,99984,1,8,0:0:0:0:
249,169,100880,1,0,0:0:0:0:
250,172,101328,1,0,0:0:0:0:
250,172,101776,1,8,0:0:0:0:
250,172,102522,1,8,0:0:0:0:
256,158,102970,1,0,0:0:0:0:
243,141,103119,1,0,0:0:0:0:
256,158,103567,1,8,0:0:0:0:
219,137,104462,1,0,0:0:0:0:
246,146,104910,1,8,0:0:0:0:
246,146,105358,1,8,0:0:0:0:
236,144,106253,1,0,0:0:0:0:
229,143,106701,1,0,0:0:0:0:
243,151,107149,1,8,0:0:0:0:
237,151,108044,1,0,0:0:0:0:
252,150,108492,1,0,0:0:0:0:
252,150,108940,1,8,0:0:0:0:
257,152,109686,1,8,0:0:0:0:
196,235,110134,1,0,0:0:0:0:
196,235,110283,1,0,0:0:0:0:
261,151,110731,1,8,0:0:0:0:
240,152,111626,1,0,0:0:0:0:
271,157,112074,1,8,0:0:0:0:
271,157,112522,1,8,0:0:0:0:
258,152,113417,1,0,0:0:0:0:
261,163,113865,1,0,0:0:0:0:
255,160,114313,5,8,0:0:0:0:
266,178,115208,5,0,0:0:0:0:
277,173,115656,1,0,0:0:0:0:
277,173,116104,1,0,0:0:0:0:
237,162,116552,1,0,0:0:0:0:
263,174,116999,1,8,0:0:0:0:
266,174,117447,1,8,0:0:0:0:
271,185,117895,1,8,0:0:0:0:
259,182,118790,1,0,0:0:0:0:
259,158,119238,1,0,0:0:0:0:
259,158,119686,1,0,0:0:0:0:
259,158,120134,1,0,0:0:0:0:
258,137,120581,1,8,0:0:0:0:
258,137,121029,1,8,0:0:0:0:
253,153,121477,1,8,0:0:0:0:
258,137,122373,1,0,0:0:0:0:
258,137,122820,1,0,0:0:0:0:
258,137,123268,1,0,0:0:0:0:
241,147,124164,1,8,0:0:0:0:
241,147,124611,1,8,0:0:0:0:
241,147,125059,1,8,0:0:0:0:
263,139,125955,1,0,0:0:0:0:
237,177,129537,1,0,0:0:0:0:
237,177,129984,1,0,0:0:0:0:
237,177,130432,1,8,0:0:0:0:
237,177,131328,1,0,0:0:0:0:
246,164,131626,1,0,0:0:0:0:
244,169,131776,1,0,0:0:0:0:
239,164,132223,1,8,0:0:0:0:
255,167,133119,5,0,0:0:0:0:
249,189,133567,1,8,0:0:0:0:
249,189,134014,1,8,0:0:0:0:
235,148,134910,1,0,0:0:0:0:
257,151,135358,1,0,0:0:0:0:
256,157,135805,1,8,0:0:0:0:
237,177,136701,1,0,0:0:0:0:
237,177,137149,1,0,0:0:0:0:
237,177,137596,1,8,0:0:0:0:
237,177,138492,1,0,0:0:0:0:
242,162,138790,1,0,0:0:0:0:
244,169,138940,1,0,0:0:0:0:
239,164,139387,1,8,0:0:0:0:
252,160,140283,1,0,0:0:0:0:
243,189,140731,1,0,0:0:0:0:
249,189,141179,1,8,0:0:0:0:
255,162,142074,1,8,0:0:0:0:
237,145,142522,1,0,0:0:0:0:
256,157,142970,1,8,0:0:0:0:
237,177,143865,1,0,0:0:0:0:
237,177,144313,1,0,0:0:0:0:
237,177,144761,1,8,0:0:0:0:
237,177,145656,1,0,0:0:0:0:
242,162,145955,1,0,0:0:0:0:
244,169,146104,1,0,0:0:0:0:
239,164,146552,1,8,0:0:0:0:
231,175,147447,1,8,0:0:0:0:
257,163,147895,1,0,0:0:0:0:
257,163,148343,1,8,0:0:0:0:
233,124,149238,1,0,0:0:0:0:
260,151,149686,1,0,0:0:0:0:
256,157,150134,1,8,0:0:0:0:
237,177,151029,1,0,0:0:0:0:
237,177,151477,1,0,0:0:0:0:
244,165,151925,1,8,0:0:0:0:
237,177,152820,1,0,0:0:0:0:
242,162,153119,1,0,0:0:0:0:
244,169,153268,1,0,0:0:0:0:
239,164,153716,1,8,0:0:0:0:
252,160,154611,1,0,0:0:0:0:
249,189,155059,1,0,0:0:0:0:
245,164,155507,1,8,0:0:0:0:
255,162,156402,1,0,0:0:0:0:
259,187,156850,1,0,0:0:0:0:
256,157,157298,1,8,0:0:0:0:
256,157,157746,1,8,0:0:0:0:
226,176,158193,1,0,0:0:0:0:
