osu file format v14

[General]
AudioFilename: audio.mp3
AudioLeadIn: 0
PreviewTime: -1
Countdown: 1
SampleSet: Normal
StackLeniency: 0.7
Mode: 0
LetterboxInBreaks: 0
WidescreenStoryboard: 1

[Editor]
DistanceSpacing: 1.2
BeatDivisor: 4
GridSize: 16
TimelineZoom: 0.9

[Metadata]
Title:clairo - pretty girl (remix)
TitleUnicode:clairo - pretty girl (remix)
Artist:vaselin
ArtistUnicode:vaselin
Creator:GothemCloud
Version:DONT PLAY
Source:
Tags:poorly drawn neko gril slow edm dance future
BeatmapID:2049836
BeatmapSetID:976162

[Difficulty]
HPDrainRate:4
CircleSize:3.2
OverallDifficulty:4.5
ApproachRate:6
SliderMultiplier:1.3
SliderTickRate:1

[Events]
//Background and Video events
0,0,"neko background.png",0,0
//Break Periods
//Storyboard Layer 0 (Background)
//Storyboard Layer 1 (Fail)
//Storyboard Layer 2 (Pass)
//Storyboard Layer 3 (Foreground)
//Storyboard Sound Samples

[TimingPoints]
4252,504.201680672269,4,1,0,20,1,0
5764,-100,4,1,0,20,0,0
8033,-100,4,1,0,30,0,0
10050,-100,4,1,0,40,0,0
37275,-117.647058823529,4,1,0,40,0,0
41813,-83.3333333333333,4,1,0,80,0,1
57191,-100,4,1,0,60,0,0
57569,-117.647058823529,4,1,0,40,0,0
58452,-83.3333333333333,4,1,0,80,0,1
71562,-80,4,1,0,80,0,1
72571,-66.6666666666667,4,1,0,80,0,1
74838,-100,4,1,0,40,0,0
88957,-100,4,1,0,40,0,0
100806,-117.647058823529,4,1,0,30,0,0
102823,-166.666666666667,4,1,0,30,0,0
106352,-83.3333333333333,4,1,0,60,0,0
121478,-100,4,1,0,60,0,0
121983,-117.647058823529,4,1,0,40,0,0
122487,-142.857142857143,4,1,0,20,0,0
123242,-83.3333333333333,4,1,0,80,0,1
136100,-71.4285714285714,4,1,0,80,0,1
137109,-64.5161290322581,4,1,0,80,0,1
139376,-117.647058823529,4,1,0,40,0,0
141268,-117.647058823529,4,1,0,30,0,0
143285,-117.647058823529,4,1,0,20,0,0
145176,-117.647058823529,4,1,0,10,0,0
147319,-117.647058823529,4,1,0,7,0,0
149336,-117.647058823529,4,1,0,5,0,0

[Colours]
Combo1 : 245,190,116
Combo2 : 255,128,192
Combo3 : 128,128,192
Combo4 : 255,128,128

[HitObjects]
256,192,4252,5,0,2:0:0:0:
256,192,4756,1,0,2:0:0:0:
256,192,5260,1,0,2:0:0:0:
256,192,5764,1,0,2:0:0:0:
256,192,6268,1,0,2:0:0:0:
256,192,6772,1,0,2:0:0:0:
256,192,7276,1,0,2:0:0:0:
256,192,7780,1,0,2:0:0:0:
256,192,8285,1,0,2:0:0:0:
256,192,8789,1,0,2:0:0:0:
256,192,9293,1,0,2:0:0:0:
256,192,9797,1,0,2:0:0:0:
256,192,10302,1,0,3:0:0:0:
256,192,10806,1,0,3:0:0:0:
256,192,11310,1,0,3:0:0:0:
256,192,11814,1,0,3:0:0:0:
256,192,12318,1,0,3:0:0:0:
256,192,12822,1,0,3:0:0:0:
256,192,13326,1,0,3:0:0:0:
256,192,13830,1,0,3:0:0:0:
256,192,14335,1,0,3:0:0:0:
256,192,14839,1,0,3:0:0:0:
256,192,15343,1,0,3:0:0:0:
256,192,15847,1,0,3:0:0:0:
256,192,16352,1,0,3:0:0:0:
256,192,16856,1,0,3:0:0:0:
256,192,17360,1,0,3:0:0:0:
256,192,17864,1,0,3:0:0:0:
256,192,18368,1,0,3:0:0:0:
256,192,18872,1,0,3:0:0:0:
256,192,19376,1,0,3:0:0:0:
256,192,19880,1,0,3:0:0:0:
256,192,20385,1,0,3:0:0:0:
256,192,20889,1,0,3:0:0:0:
256,192,21393,1,0,3:0:0:0:
256,192,21897,1,0,3:0:0:0:
256,192,22403,1,0,3:0:0:0:
256,192,22907,1,0,3:0:0:0:
256,192,23411,1,0,3:0:0:0:
256,192,23915,1,0,3:0:0:0:
256,192,24419,1,0,3:0:0:0:
256,192,24923,1,0,3:0:0:0:
256,192,25427,1,0,3:0:0:0:
256,192,25931,1,0,3:0:0:0:
256,192,26436,1,0,1:0:0:0:
256,192,26940,1,0,1:0:0:0:
256,192,27444,1,0,1:0:0:0:
256,192,27948,1,0,1:0:0:0:
256,192,28453,1,0,1:0:0:0:
256,192,28957,1,0,1:0:0:0:
256,192,29461,1,0,1:0:0:0:
256,192,29965,1,0,1:0:0:0:
256,192,30469,1,0,1:0:0:0:
256,192,30973,1,0,1:0:0:0:
256,192,31477,1,0,1:0:0:0:
256,192,31981,1,0,1:0:0:0:
256,192,32486,1,0,1:0:0:0:
256,192,32990,1,0,1:0:0:0:
256,192,33494,1,0,1:0:0:0:
256,192,33998,1,0,1:0:0:0:
256,192,34504,1,0,1:0:0:0:
256,192,35008,1,0,1:0:0:0:
256,192,35512,1,0,1:0:0:0:
256,192,36016,1,0,1:0:0:0:
256,192,36520,1,0,1:0:0:0:
256,192,37024,1,0,1:0:0:0:
256,192,37528,1,0,1:0:0:0:
256,192,38032,1,0,1:0:0:0:
256,192,38537,1,0,1:0:0:0:
256,192,39041,1,0,1:0:0:0:
256,192,39545,1,0,1:0:0:0:
256,192,40049,1,0,1:0:0:0:
256,192,40554,1,0,1:0:0:0:
256,192,41058,1,0,1:0:0:0:
256,192,41562,1,0,1:0:0:0:
256,192,42066,1,12,1:0:0:0:
256,192,42570,1,0,1:0:0:0:
256,192,43074,1,0,1:0:0:0:
256,192,43578,1,0,1:0:0:0:
256,192,44082,1,0,1:0:0:0:
256,192,44587,1,0,1:0:0:0:
256,192,45091,1,0,1:0:0:0:
256,192,45595,1,0,1:0:0:0:
256,192,46099,1,0,1:0:0:0:
256,192,46604,1,0,1:0:0:0:
256,192,47108,1,0,1:0:0:0:
256,192,47612,1,0,1:0:0:0:
256,192,48116,1,0,1:0:0:0:
256,192,48620,1,0,1:0:0:0:
256,192,49124,1,0,1:0:0:0:
256,192,49628,1,0,1:0:0:0:
256,192,50132,1,0,1:0:0:0:
256,192,50637,1,0,1:0:0:0:
256,192,51141,1,0,1:0:0:0:
256,192,51645,1,0,1:0:0:0:
256,192,52149,1,0,1:0:0:0:
256,192,52654,1,0,1:0:0:0:
256,192,53158,1,0,1:0:0:0:
256,192,53662,1,0,1:0:0:0:
256,192,54166,1,0,1:0:0:0:
256,192,54670,1,0,1:0:0:0:
256,192,55174,1,0,1:0:0:0:
256,192,55678,1,0,1:0:0:0:
256,192,56182,1,0,1:0:0:0:
256,192,56687,1,0,1:0:0:0:
256,192,57191,1,0,1:0:0:0:
256,192,57695,1,0,1:0:0:0:
256,192,58199,1,0,1:0:0:0:
256,192,58705,1,12,3:0:0:0:
256,192,59208,1,0,1:0:0:0:
256,192,59712,1,0,1:0:0:0:
256,192,60218,1,6,3:0:0:0:
256,192,60720,1,0,1:0:0:0:
256,192,61224,1,6,3:0:0:0:
256,192,61728,1,0,1:0:0:0:
256,192,62232,1,6,3:0:0:0:
256,192,62737,1,0,1:0:0:0:
256,192,63241,1,0,1:0:0:0:
256,192,63745,1,0,1:0:0:0:
256,192,64249,1,0,1:0:0:0:
256,192,64755,1,0,1:0:0:0:
256,192,65259,1,0,1:0:0:0:
256,192,65763,1,0,1:0:0:0:
256,192,66267,1,0,1:0:0:0:
256,192,66771,1,0,1:0:0:0:
256,192,67275,1,0,1:0:0:0:
256,192,67779,1,0,1:0:0:0:
256,192,68285,1,6,3:0:0:0:
256,192,68788,1,0,1:0:0:0:
256,192,69294,1,6,3:0:0:0:
256,192,69796,1,0,1:0:0:0:
256,192,70302,1,6,3:0:0:0:
256,192,70805,1,0,1:0:0:0:
256,192,71309,1,0,1:0:0:0:
256,192,71813,1,0,1:0:0:0:
256,192,72317,1,0,1:0:0:0:
256,192,72821,1,2,1:0:0:0:
256,192,73325,1,0,1:0:0:0:
256,192,73829,1,0,1:0:0:0:
256,192,74333,1,0,1:0:0:0:
256,192,74838,1,0,3:0:0:0:
256,192,75342,1,0,1:0:0:0:
256,192,75846,1,0,3:0:0:0:
256,192,76351,1,0,1:0:0:0:
256,192,76856,1,0,3:0:0:0:
256,192,77361,1,0,1:0:0:0:
256,192,77864,1,0,3:0:0:0:
256,192,78368,1,0,1:0:0:0:
256,192,78872,1,0,3:0:0:0:
256,192,79376,1,0,1:0:0:0:
256,192,79880,1,0,3:0:0:0:
256,192,80386,1,0,1:0:0:0:
256,192,80889,1,0,3:0:0:0:
256,192,81393,1,0,1:0:0:0:
256,192,81897,1,0,3:0:0:0:
256,192,82401,1,0,1:0:0:0:
256,192,82906,1,0,3:0:0:0:
256,192,83410,1,0,1:0:0:0:
256,192,83914,1,0,3:0:0:0:
256,192,84418,1,0,1:0:0:0:
256,192,84922,1,0,3:0:0:0:
256,192,85426,1,0,1:0:0:0:
256,192,85930,1,0,3:0:0:0:
256,192,86434,1,0,1:0:0:0:
256,192,86939,1,0,3:0:0:0:
256,192,87443,1,0,1:0:0:0:
256,192,87947,1,0,3:0:0:0:
256,192,88451,1,0,1:0:0:0:
256,192,88957,1,0,3:0:0:0:
256,192,89461,1,0,1:0:0:0:
256,192,89965,1,0,3:0:0:0:
256,192,90469,1,0,1:0:0:0:
256,192,90973,1,0,3:0:0:0:
256,192,91477,1,0,1:0:0:0:
256,192,91981,1,0,3:0:0:0:
256,192,92361,1,4,3:0:0:0:
224,192,92487,1,8,3:0:0:0:
224,192,92613,1,4,3:0:0:0:
256,192,92992,1,0,3:0:0:0:
256,192,93497,1,0,1:0:0:0:
256,192,93999,1,0,3:0:0:0:
256,192,94505,1,0,1:0:0:0:
256,192,95008,1,0,3:0:0:0:
256,192,95514,1,0,1:0:0:0:
256,192,96016,1,0,3:0:0:0:
256,192,96521,1,0,1:0:0:0:
256,192,97023,1,0,3:0:0:0:
256,192,97529,1,0,1:0:0:0:
256,192,98033,1,0,3:0:0:0:
256,192,98535,1,0,1:0:0:0:
256,192,99041,1,0,3:0:0:0:
256,192,99544,1,0,1:0:0:0:
256,192,100049,1,0,3:0:0:0:
352,112,100428,1,4,3:0:0:0:
256,192,100552,1,8,3:0:0:0:
288,176,100680,1,4,3:0:0:0:
256,192,101058,1,0,3:0:0:0:
256,192,101561,1,0,1:0:0:0:
256,192,102069,1,0,3:0:0:0:
256,192,102569,1,0,1:0:0:0:
256,192,103073,1,0,2:0:0:0:
256,192,103577,1,0,2:0:0:0:
256,192,104081,1,0,2:0:0:0:
256,192,104585,1,0,2:0:0:0:
256,192,105090,1,0,2:0:0:0:
256,192,105594,1,0,2:0:0:0:
256,192,106098,1,0,2:0:0:0:
256,192,106602,1,12,3:0:0:0:
256,192,107108,1,0,1:0:0:0:
256,192,107612,1,8,1:0:0:0:
256,192,108116,1,0,1:0:0:0:
256,192,108495,1,4,3:0:0:0:
224,192,108621,1,8,3:0:0:0:
224,192,108747,1,4,3:0:0:0:
256,192,109124,1,0,1:0:0:0:
256,192,109630,1,8,1:0:0:0:
256,192,110132,1,0,1:0:0:0:
256,192,110512,1,4,3:0:0:0:
224,192,110638,1,8,3:0:0:0:
224,192,110764,1,4,3:0:0:0:
256,192,111142,1,0,1:0:0:0:
256,192,111645,1,8,1:0:0:0:
256,192,112151,1,0,1:0:0:0:
256,192,112529,1,4,3:0:0:0:
224,192,112655,1,8,3:0:0:0:
224,192,112781,1,4,3:0:0:0:
256,192,113158,1,0,1:0:0:0:
256,192,113663,1,8,1:0:0:0:
256,192,114166,1,0,1:0:0:0:
256,192,114546,1,4,3:0:0:0:
224,192,114672,1,8,3:0:0:0:
224,192,114798,1,4,3:0:0:0:
256,192,115174,1,0,1:0:0:0:
256,192,115678,1,8,1:0:0:0:
256,192,116182,1,0,1:0:0:0:
256,192,116562,1,4,3:0:0:0:
224,192,116688,1,8,3:0:0:0:
224,192,116814,1,4,3:0:0:0:
256,192,117191,1,0,1:0:0:0:
256,192,117695,1,8,1:0:0:0:
256,192,118199,1,0,1:0:0:0:
256,192,118579,1,4,3:0:0:0:
224,192,118705,1,8,3:0:0:0:
224,192,118831,1,4,3:0:0:0:
256,192,119209,1,0,1:0:0:0:
256,192,119714,1,8,1:0:0:0:
256,192,120217,1,0,1:0:0:0:
256,192,120596,1,4,3:0:0:0:
224,192,120722,1,8,3:0:0:0:
224,192,120848,1,4,3:0:0:0:
256,192,121226,1,0,2:0:0:0:
256,192,121729,1,0,2:0:0:0:
256,192,122233,1,0,2:0:0:0:
176,160,122613,1,0,2:0:0:0:
256,192,122737,1,0,2:0:0:0:
176,160,122865,1,0,2:0:0:0:
256,192,123242,1,6,3:0:0:0:
256,192,123747,1,8,3:0:0:0:
256,192,124250,1,0,1:0:0:0:
256,192,124754,1,8,3:0:0:0:
256,192,125259,1,0,1:0:0:0:
256,192,125763,1,8,3:0:0:0:
256,192,126267,1,0,1:0:0:0:
256,192,126771,1,8,3:0:0:0:
256,192,127275,1,0,1:0:0:0:
256,192,127781,1,8,3:0:0:0:
256,192,128284,1,0,1:0:0:0:
256,192,128788,1,8,3:0:0:0:
256,192,129293,1,0,1:0:0:0:
256,192,129797,1,8,3:0:0:0:
256,192,130301,1,0,1:0:0:0:
92,270,130680,1,0,3:0:0:0:
256,192,130806,1,10,3:0:0:0:
182,288,131058,1,4,3:0:0:0:
256,192,131309,1,0,1:0:0:0:
256,192,131815,1,8,3:0:0:0:
256,192,132318,1,0,1:0:0:0:
256,192,132822,1,8,3:0:0:0:
256,192,133327,1,0,1:0:0:0:
256,192,133831,1,8,3:0:0:0:
256,192,134335,1,0,1:0:0:0:
256,192,134839,1,8,3:0:0:0:
256,192,135343,1,0,1:0:0:0:
256,192,135848,1,8,3:0:0:0:
256,192,136351,1,0,1:0:0:0:
256,192,136855,1,8,3:0:0:0:
256,192,137361,1,2,1:0:0:0:
256,192,137864,1,8,3:0:0:0:
256,192,138368,1,0,1:0:0:0:
92,270,138747,1,0,3:0:0:0:
256,192,138873,1,10,3:0:0:0:
182,288,139125,1,4,3:0:0:0:
256,192,139376,1,0,1:0:0:0:
256,192,139882,1,8,3:0:0:0:
256,192,140385,1,0,1:0:0:0:
256,192,140764,1,4,3:0:0:0:
224,192,140890,1,8,3:0:0:0:
224,192,141016,1,4,3:0:0:0:
256,192,141394,1,0,1:0:0:0:
256,192,141898,1,8,3:0:0:0:
256,192,142402,1,0,1:0:0:0:
256,192,142781,1,4,3:0:0:0:
224,192,142907,1,8,3:0:0:0:
224,192,143033,1,4,3:0:0:0:
256,192,143410,1,0,1:0:0:0:
256,192,143915,1,8,3:0:0:0:
256,192,144418,1,0,1:0:0:0:
256,192,144798,1,4,3:0:0:0:
224,192,144924,1,8,3:0:0:0:
224,192,145050,1,4,3:0:0:0:
256,192,145427,1,0,1:0:0:0:
256,192,145931,1,8,3:0:0:0:
256,192,146435,1,0,1:0:0:0:
256,192,146815,1,4,3:0:0:0:
224,192,146941,1,8,3:0:0:0:
224,192,147067,1,4,3:0:0:0:
256,192,147443,1,0,1:0:0:0:
256,192,147949,1,8,3:0:0:0:
256,192,148452,1,0,1:0:0:0:
256,192,148831,1,4,3:0:0:0:
224,192,148957,1,8,3:0:0:0:
224,192,149083,1,4,3:0:0:0:
256,192,149461,1,0,1:0:0:0:
256,192,149965,1,8,3:0:0:0:
256,192,150469,1,0,1:0:0:0:
256,192,150848,1,4,3:0:0:0:
224,192,150974,1,8,3:0:0:0:
224,192,151100,1,4,3:0:0:0:
256,192,151477,1,0,1:0:0:0:
256,192,151983,1,8,3:0:0:0:
256,192,152486,1,0,1:0:0:0:
256,192,152865,1,4,3:0:0:0:
224,192,152991,1,8,3:0:0:0:
224,192,153117,1,4,3:0:0:0:
256,192,153495,1,0,1:0:0:0:
256,192,153999,1,8,3:0:0:0:
256,192,154503,1,0,1:0:0:0:
256,192,154882,1,4,3:0:0:0:
224,192,155008,1,8,3:0:0:0:
224,192,155134,1,4,3:0:0:0:
256,192,155511,1,0,1:0:0:0:
