osu file format v14

[General]
AudioFilename: sidetrackedaudio.mp3
AudioLeadIn: 0
PreviewTime: 43107
Countdown: 0
SampleSet: Soft
StackLeniency: 0.2
Mode: 0
LetterboxInBreaks: 0
EpilepsyWarning: 1
WidescreenStoryboard: 1

[Editor]
Bookmarks: 40832,43066,45938,66364,86789,107215
DistanceSpacing: 0.1
BeatDivisor: 4
GridSize: 8
TimelineZoom: 1

[Metadata]
Title:fast compilaton
TitleUnicode:fast compilaton
Artist:various artists
ArtistUnicode:various artists
Creator:Dogerinoo
Version:Sidetracked Day (Short Ver.)
Source:
Tags:
BeatmapID:1973379
BeatmapSetID:944975

[Difficulty]
HPDrainRate:5.5
CircleSize:3.8
OverallDifficulty:8.5
ApproachRate:9.3
SliderMultiplier:1.7
SliderTickRate:1

[Events]
//Background and Video events
0,0,"BGSotarks.jpg",0,0
//Break Periods
//Storyboard Layer 0 (Background)
//Storyboard Layer 1 (Fail)
//Storyboard Layer 2 (Pass)
//Storyboard Layer 3 (Foreground)
//Storyboard Sound Samples

[TimingPoints]
19182,300,4,2,22,52,1,0
19182,-133.333,4,2,22,52,0,0
38382,-133.333,4,2,22,42,0,0
42881,-125,4,2,22,52,0,0
43181,-100,4,2,22,52,0,0
52781,-133.333,4,2,22,42,0,0
62382,-100,4,2,22,62,0,0
71381,-100,4,2,22,42,0,0
71982,-133.333,4,2,22,52,0,0
81581,-90.9091,4,2,22,62,0,0
86382,-100,4,2,22,62,0,0
91181,-90.9091,4,2,22,62,0,0
95982,-83.3333,4,2,22,62,0,0
98382,-80,4,2,22,62,0,0
99581,-76.9231,4,2,22,62,0,0
100182,-71.4286,4,2,22,62,0,0
100782,-76.9231,4,2,22,72,0,1
105581,-83.3333,4,2,22,62,0,0
109181,-80,4,2,22,62,0,0
109781,-76.9231,4,2,22,62,0,0
110382,-76.9231,4,2,22,72,0,1
115106,-76.9231,4,2,22,62,0,1
115181,-76.9231,4,2,22,72,0,1
117581,-100,4,2,22,62,0,0
118782,-66.6667,4,2,22,72,0,0
119381,-50,4,2,22,72,0,0
119982,-192.308,4,2,22,52,0,0
121181,-192.308,4,2,22,5,0,0

[Colours]
Combo1 : 164,100,240
Combo2 : 141,123,196
Combo3 : 240,150,255
Combo4 : 100,200,200
Combo5 : 150,150,255

[HitObjects]
152,42,19182,6,0,B|232:22|232:22|272:42,1,127.5,4|0,1:0|0:0,0:0:0:0:
348,84,19631,1,0,0:0:0:0:
230,178,19782,2,0,L|223:114,1,63.75,8|0,0:1|0:0,0:0:0:0:
306,219,20082,2,0,P|258:261|196:258,1,127.5,0|0,0:0|0:0,0:0:0:0:
87,339,20532,5,0,3:0:0:0:
87,339,20606,1,0,3:0:0:0:
87,339,20681,2,0,L|151:332,1,63.75,0|0,1:0|0:0,0:0:0:0:
133,200,20981,2,0,L|69:207,1,63.75,8|0,0:1|0:0,0:0:0:0:
197,258,21282,2,0,L|261:251,1,63.75,0|0,0:0|0:0,0:0:0:0:
356,111,21582,38,0,P|418:109|464:150,1,127.5,0|0,1:0|0:0,0:0:0:0:
389,191,22031,1,0,0:0:0:0:
295,49,22182,2,0,L|231:56,1,63.75,8|0,0:1|0:0,0:0:0:0:
101,74,22481,2,0,B|120:113|120:113|101:194,1,127.5,0|0,0:0|0:0,0:0:0:0:
72,277,22932,5,0,0:0:0:0:
221,267,23081,2,0,L|157:260,1,63.75,0|0,1:0|0:0,0:0:0:0:
272,337,23382,2,0,L|336:330,1,63.75,8|0,0:1|0:0,0:0:0:0:
325,183,23682,2,0,L|261:190,1,63.75,0|0,3:3|3:3,0:0:0:0:
378,252,23982,38,0,P|410:198|400:138,1,127.5,0|0,1:0|0:0,0:0:0:0:
337,78,24432,1,0,0:0:0:0:
261,190,24581,2,0,L|325:183,1,63.75,8|0,0:1|0:0,0:0:0:0:
207,122,24881,2,0,B|167:102|167:102|86:122,1,127.5,0|0,0:0|0:0,0:0:0:0:
150,258,25332,5,0,3:0:0:0:
150,258,25407,1,0,3:0:0:0:
150,258,25482,2,0,L|157:194,1,63.75,0|0,1:0|0:0,0:0:0:0:
275,175,25782,2,0,L|268:239,1,63.75,8|0,0:1|0:0,0:0:0:0:
386,219,26082,2,0,L|393:155,1,63.75,0|0,0:0|0:0,0:0:0:0:
455,271,26382,38,0,P|402:304|340:293,1,127.5,0|0,1:0|0:0,0:0:0:0:
290,223,26832,1,0,0:0:0:0:
252,360,26981,2,0,L|188:353,1,63.75,8|0,0:1|0:0,0:0:0:0:
340,293,27282,2,0,L|404:286,1,63.75,0|0,0:0|0:0,0:0:0:0:
320,141,27582,5,2,0:0:0:0:
290,223,27731,1,0,0:0:0:0:
234,156,27882,1,0,1:0:0:0:
204,238,28031,1,0,0:0:0:0:
320,141,28182,2,0,L|384:148,1,63.75,8|0,0:1|0:0,0:0:0:0:
204,238,28482,2,0,L|140:245,1,63.75,0|8,1:0|0:1,0:0:0:0:
269,340,28781,38,0,P|321:307|383:318,1,127.5,0|0,1:0|0:0,0:0:0:0:
447,378,29232,1,0,0:0:0:0:
501,231,29382,2,0,P|502:197|490:166,1,63.75,8|0,0:1|0:0,0:0:0:0:
405,88,29682,2,0,B|324:107|324:107|284:88,1,127.5,0|0,0:0|0:0,0:0:0:0:
180,166,30131,5,0,3:0:0:0:
180,166,30206,1,0,3:0:0:0:
180,166,30282,2,0,L|244:173,1,63.75,0|0,1:0|0:0,0:0:0:0:
331,250,30581,2,0,L|267:257,1,63.75,8|0,0:1|0:0,0:0:0:0:
176,332,30881,2,0,L|240:339,1,63.75,0|0,0:0|0:0,0:0:0:0:
131,245,31181,38,0,P|69:233|16:266,1,127.5,0|0,1:0|0:0,0:0:0:0:
86,319,31631,1,0,0:0:0:0:
135,152,31782,2,0,L|128:88,1,63.75,8|0,0:1|0:0,0:0:0:0:
255,13,32082,2,0,B|275:53|275:53|255:134,1,127.5,0|0,0:0|0:0,0:0:0:0:
290,214,32532,5,0,0:0:0:0:
348,149,32681,2,0,L|412:156,1,63.75,0|0,1:0|0:0,0:0:0:0:
290,214,32981,2,0,L|226:221,1,63.75,8|0,0:1|0:0,0:0:0:0:
348,279,33282,2,0,L|412:286,1,63.75,0|0,3:0|0:0,0:0:0:0:
290,344,33582,38,0,L|162:357,1,127.5,0|0,1:0|0:0,0:0:0:0:
111,288,34031,1,0,0:0:0:0:
23,381,34182,2,0,L|30:317,1,63.75,8|0,0:1|0:0,0:0:0:0:
185,243,34482,2,0,P|196:305|163:358,1,127.5,0|0,0:0|0:0,0:0:0:0:
111,200,34932,5,0,3:0:0:0:
111,200,35007,1,0,3:0:0:0:
111,200,35081,2,0,L|118:136,1,63.75,0|0,1:0|0:0,0:0:0:0:
244,174,35382,2,0,L|237:110,1,63.75,8|0,0:1|0:0,0:0:0:0:
363,148,35682,2,0,L|370:84,1,63.75,0|0,0:0|0:0,0:0:0:0:
452,219,35982,38,0,B|472:259|472:259|452:340,1,127.5,0|0,1:0|0:0,0:0:0:0:
372,304,36432,1,0,0:0:0:0:
263,384,36581,2,0,L|199:377,1,63.75,8|0,0:1|0:0,0:0:0:0:
266,221,36881,2,0,L|330:228,1,63.75,0|0,0:0|0:0,0:0:0:0:
211,288,37181,5,2,0:0:0:0:
181,206,37331,1,0,0:0:0:0:
125,273,37481,1,2,0:0:0:0:
95,191,37631,1,0,0:0:0:0:
211,288,37781,2,0,L|275:281,1,63.75,2|0,0:0|0:0,0:0:0:0:
95,191,38081,2,0,L|31:184,1,63.75,2|0,0:0|0:0,0:0:0:0:
144,60,38382,38,0,L|151:124,2,63.75,2|2|2,1:2|0:2|0:2,0:0:0:0:
239,63,38832,2,0,L|246:127,2,63.75,2|2|2,0:2|0:2|0:2,0:0:0:0:
334,66,39281,2,0,L|341:130,2,63.75,2|2|2,0:2|0:2|0:2,0:0:0:0:
429,69,39731,2,0,L|436:133,2,63.75,2|2|2,0:2|0:2|0:2,0:0:0:0:
340,129,40182,6,0,L|347:193,1,63.75,2|2,0:2|0:2,0:0:0:0:
429,220,40482,2,0,L|436:284,1,63.75,2|2,0:2|0:2,0:0:0:0:
358,321,40781,38,0,L|365:385,2,63.75,2|2|2,0:2|0:2|0:2,0:0:0:0:
263,318,41232,2,0,L|270:382,2,63.75,2|2|2,0:2|0:2|0:2,0:0:0:0:
168,315,41682,2,0,L|175:379,2,63.75,2|2|2,0:2|0:2|0:2,0:0:0:0:
73,312,42131,2,0,L|80:376,2,63.75,2|2|2,0:2|0:2|0:2,0:0:0:0:
123,240,42582,6,0,L|119:208,1,31.875,0|0,3:0|3:0,0:0:0:0:
116,181,42732,1,0,1:0:0:0:
168,315,42881,1,8,0:1:0:0:
210,238,43032,1,0,0:0:0:0:
36,233,43181,37,2,0:1:0:0:
73,312,43332,1,0,0:0:0:0:
116,181,43482,1,8,0:1:0:0:
168,315,43631,1,2,0:3:0:0:
198,325,43706,1,2,0:3:0:0:
229,323,43781,1,2,0:3:0:0:
258,311,43856,1,2,0:3:0:0:
281,289,43931,1,2,0:1:0:0:
219,153,44082,2,0,L|210:238,1,85,8|0,0:1|0:0,0:0:0:0:
365,264,44382,5,2,0:1:0:0:
301,204,44532,1,0,0:0:0:0:
345,349,44681,1,8,0:1:0:0:
384,179,44832,1,2,0:3:0:0:
380,147,44906,1,2,0:3:0:0:
377,115,44981,1,2,0:3:0:0:
373,83,45057,1,2,0:3:0:0:
370,52,45132,1,2,0:1:0:0:
210,69,45281,2,0,L|219:153,1,85,8|0,0:1|0:0,0:0:0:0:
365,264,45582,37,2,0:1:0:0:
299,321,45731,1,0,0:0:0:0:
384,179,45882,1,8,0:1:0:0:
414,335,46031,1,2,0:3:0:0:
385,348,46107,1,0,0:0:0:0:
353,350,46182,1,0,0:0:0:0:
323,340,46257,1,0,0:0:0:0:
299,321,46331,1,2,0:1:0:0:
219,154,46482,2,0,L|210:238,1,85,8|0,0:1|0:0,0:0:0:0:
384,179,46781,6,0,L|379:137,1,42.5,2|0,0:1|0:0,0:0:0:0:
369,50,46932,1,0,0:0:0:0:
219,154,47081,2,0,L|214:112,1,42.5,8|0,0:1|0:0,0:0:0:0:
204,25,47232,1,2,0:3:0:0:
302,167,47382,38,0,L|297:125,1,42.5,2|2,0:3|0:3,0:0:0:0:
287,38,47532,1,2,0:1:0:0:
137,142,47682,2,0,L|132:100,1,42.5,8|0,0:1|0:0,0:0:0:0:
122,13,47832,1,0,0:0:0:0:
219,154,47982,5,2,0:1:0:0:
167,224,48131,1,0,0:0:0:0:
302,167,48282,1,8,0:1:0:0:
137,142,48432,1,2,0:3:0:0:
109,158,48506,1,2,0:3:0:0:
90,183,48582,1,2,0:3:0:0:
81,213,48657,1,2,0:3:0:0:
83,245,48732,1,2,0:1:0:0:
262,319,48881,2,0,L|253:235,1,85,8|0,0:1|0:0,0:0:0:0:
272,85,49181,37,2,0:1:0:0:
219,154,49332,1,0,0:0:0:0:
358,100,49482,1,8,0:1:0:0:
186,73,49632,1,2,0:3:0:0:
154,76,49707,1,0,0:0:0:0:
122,79,49782,1,0,0:0:0:0:
90,83,49857,1,0,0:0:0:0:
59,86,49931,1,2,0:1:0:0:
168,243,50082,2,0,L|252:234,1,85,8|0,0:1|0:0,0:0:0:0:
394,293,50382,5,2,0:1:0:0:
339,225,50532,1,0,0:0:0:0:
370,377,50681,1,8,0:1:0:0:
425,211,50832,1,2,0:3:0:0:
422,179,50907,1,2,0:3:0:0:
419,147,50982,1,2,0:3:0:0:
415,115,51057,1,2,0:3:0:0:
412,84,51132,1,2,0:1:0:0:
243,149,51281,2,0,L|252:233,1,85,8|0,0:1|0:0,0:0:0:0:
326,160,51582,38,0,L|321:118,1,42.5,2|0,0:1|0:0,0:0:0:0:
311,31,51732,1,0,0:0:0:0:
161,135,51882,2,0,L|156:93,1,42.5,8|0,0:1|0:0,0:0:0:0:
146,6,52032,1,2,0:0:0:0:
243,149,52182,5,2,0:0:0:0:
252,233,52331,1,2,0:0:0:0:
178,278,52482,1,2,0:0:0:0:
169,362,52631,1,2,0:0:0:0:
252,233,52781,38,0,L|315:239,3,63.75,0|0|0|0,1:0|0:0|0:0|0:0,0:0:0:0:
176,191,53381,2,0,L|112:197,3,63.75,8|0|0|0,0:1|0:0|3:0|0:0,0:0:0:0:
250,146,53982,2,0,L|313:152,3,63.75,0|0|0|0,0:0|3:0|1:0|0:0,0:0:0:0:
174,104,54582,2,0,L|110:110,3,63.75,8|0|0|0,0:1|0:0|0:0|0:0,0:0:0:0:
169,254,55181,6,0,L|176:191,3,63.75,0|0|0|0,1:0|0:0|0:0|0:0,0:0:0:0:
92,294,55782,2,0,L|98:357,3,63.75,8|0|0|0,0:1|0:0|0:0|0:0,0:0:0:0:
255,269,56382,37,0,3:0:0:0:
225,187,56531,1,0,0:0:0:0:
169,254,56682,1,0,1:0:0:0:
139,172,56831,1,0,0:0:0:0:
255,269,56981,2,0,L|286:265,2,31.875,0|0|0,3:0|3:0|1:0,0:0:0:0:
139,172,57281,2,0,L|75:165,1,63.75,8|0,0:1|0:0,0:0:0:0:
218,123,57582,6,0,L|225:187,3,63.75,0|0|0|0,1:0|0:0|0:0|0:0,0:0:0:0:
148,72,58182,2,0,L|154:8,3,63.75,8|0|0|0,0:1|0:0|3:0|0:0,0:0:0:0:
77,123,58781,2,0,L|83:186,3,63.75,0|0|0|0,0:0|3:0|1:0|0:0,0:0:0:0:
6,71,59381,2,0,L|12:7,3,63.75,8|0|0|0,0:1|0:0|0:0|0:0,0:0:0:0:
148,72,59982,38,0,L|211:65,1,63.75,0|0,1:0|0:0,0:0:0:0:
83,186,60282,2,0,L|19:192,1,63.75,0|0,0:0|0:0,0:0:0:0:
150,276,60582,2,0,L|155:234,1,31.875,0|0,3:0|3:0,0:0:0:0:
166,158,60732,1,0,1:0:0:0:
64,276,60881,1,8,0:1:0:0:
24,107,61032,1,0,0:0:0:0:
153,244,61181,6,0,L|216:237,1,63.75,0|0,1:0|0:0,0:0:0:0:
87,100,61482,2,0,L|23:106,1,63.75,8|0,0:1|3:0,0:0:0:0:
166,158,61782,2,0,L|171:116,1,31.875,0|0,3:0|0:0,0:0:0:0:
182,40,61932,1,0,1:0:0:0:
84,187,62082,1,8,0:1:0:0:
28,19,62231,1,0,0:0:0:0:
169,126,62382,37,2,0:1:0:0:
87,100,62532,1,0,0:0:0:0:
167,214,62682,1,8,0:1:0:0:
243,80,62832,1,2,0:3:0:0:
274,74,62907,1,2,0:3:0:0:
305,80,62982,1,2,0:3:0:0:
332,96,63058,1,2,0:3:0:0:
351,122,63132,1,2,0:1:0:0:
283,246,63281,2,0,L|274:162,1,85,8|0,0:1|0:0,0:0:0:0:
430,86,63582,6,0,L|434:128,1,42.5,2|0,0:1|0:0,0:0:0:0:
443,215,63732,1,0,0:0:0:0:
351,122,63882,1,8,0:1:0:0:
283,246,64031,2,0,L|287:288,1,42.5,2|2,0:3|0:3,0:0:0:0:
296,375,64181,1,2,0:3:0:0:
360,208,64331,1,2,0:1:0:0:
202,277,64482,2,0,L|118:268,1,85,8|0,0:1|0:0,0:0:0:0:
208,135,64781,37,2,0:1:0:0:
255,208,64932,1,0,0:0:0:0:
121,140,65081,1,8,0:1:0:0:
295,130,65232,1,2,0:3:0:0:
326,133,65306,1,2,0:3:0:0:
358,137,65381,1,2,0:3:0:0:
390,140,65456,1,2,0:3:0:0:
422,143,65532,1,2,0:3:0:0:
349,306,65682,2,0,L|340:222,1,85,8|0,0:1|0:0,0:0:0:0:
310,1,65982,6,0,L|305:43,1,42.5,2|0,0:1|0:0,0:0:0:0:
295,130,66132,1,0,0:0:0:0:
145,26,66282,2,0,L|140:68,1,42.5,8|0,0:1|0:0,0:0:0:0:
130,155,66432,1,2,0:3:0:0:
228,13,66583,38,0,L|223:55,1,42.5,2|2,0:3|0:3,0:0:0:0:
213,142,66733,1,0,0:0:0:0:
63,38,66882,2,0,L|58:80,1,42.5,8|0,0:1|0:0,0:0:0:0:
48,167,67033,1,0,0:0:0:0:
213,142,67181,5,2,0:1:0:0:
144,90,67332,1,0,0:0:0:0:
183,225,67481,1,8,0:1:0:0:
268,75,67632,1,2,0:3:0:0:
299,63,67706,1,2,0:3:0:0:
330,64,67781,1,2,0:3:0:0:
360,75,67856,1,2,0:3:0:0:
382,97,67931,1,2,0:1:0:0:
421,255,68082,2,0,L|505:246,1,85,8|0,0:1|0:0,0:0:0:0:
347,177,68382,38,0,L|342:219,1,42.5,2|0,0:1|0:0,0:0:0:0:
332,306,68532,1,0,0:0:0:0:
433,168,68682,1,8,0:1:0:0:
263,143,68832,2,0,L|258:185,1,42.5,2|2,0:3|0:3,0:0:0:0:
248,272,68982,1,2,0:3:0:0:
347,177,69132,1,2,0:1:0:0:
179,220,69281,2,0,P|161:264|166:300,1,85,8|0,0:1|0:0,0:0:0:0:
263,143,69582,5,2,0:1:0:0:
177,133,69732,1,0,0:0:0:0:
265,231,69882,1,8,0:1:0:0:
229,63,70031,1,2,0:3:0:0:
200,48,70106,1,2,0:3:0:0:
169,45,70181,1,2,0:3:0:0:
138,54,70256,1,2,0:3:0:0:
113,73,70331,1,2,0:1:0:0:
263,143,70482,2,0,L|347:134,1,85,8|0,0:1|0:0,0:0:0:0:
471,247,70782,38,0,L|476:205,1,42.5,2|0,0:1|0:0,0:0:0:0:
486,118,70932,1,0,0:0:0:0:
363,263,71081,2,0,L|358:221,1,42.5,8|0,0:1|0:0,0:0:0:0:
348,134,71232,1,2,0:0:0:0:
265,231,71381,5,2,0:0:0:0:
181,240,71531,1,2,0:0:0:0:
136,166,71681,1,2,0:0:0:0:
52,157,71831,1,2,0:0:0:0:
181,240,71982,38,0,L|172:324,3,63.75,0|0|0|0,1:0|0:0|0:0|0:0,0:0:0:0:
222,155,72582,2,0,L|215:91,3,63.75,8|0|0|0,0:1|0:0|3:0|0:0,0:0:0:0:
265,231,73181,2,0,L|328:237,1,63.75,0|0,0:0|3:0,0:0:0:0:
414,251,73481,1,0,1:0:0:0:
364,111,73632,2,0,L|300:104,1,63.75,0|8,0:0|0:1,0:0:0:0:
215,91,73931,1,0,0:0:0:0:
240,236,74082,2,0,L|247:173,1,63.75,0|0,0:0|0:0,0:0:0:0:
172,290,74382,6,0,L|178:353,3,63.75,0|0|0|0,1:0|0:0|0:0|0:0,0:0:0:0:
111,228,74981,2,0,L|117:164,3,63.75,8|0|0|0,0:1|0:0|0:0|0:0,0:0:0:0:
289,196,75582,37,0,3:0:0:0:
259,114,75732,1,0,0:0:0:0:
203,181,75882,1,0,1:0:0:0:
173,99,76031,1,0,0:0:0:0:
289,196,76182,2,0,L|320:192,2,31.875,0|0|0,3:0|3:0|1:0,0:0:0:0:
173,99,76482,2,0,L|109:92,1,63.75,8|0,0:1|0:0,0:0:0:0:
252,50,76782,6,0,L|259:114,3,63.75,0|0|0|0,1:0|0:0|0:0|0:0,0:0:0:0:
109,92,77381,2,0,L|102:156,3,63.75,8|0|0|0,0:1|0:0|3:0|0:0,0:0:0:0:
259,113,77982,2,0,L|323:120,1,63.75,0|0,0:0|3:0,0:0:0:0:
408,135,78282,1,0,1:0:0:0:
283,243,78431,2,0,L|219:236,1,63.75,0|8,0:0|0:1,0:0:0:0:
134,221,78731,1,0,0:0:0:0:
183,90,78881,2,0,L|190:154,1,63.75,0|0,0:0|0:0,0:0:0:0:
318,273,79181,38,0,L|381:280,1,63.75,0|0,1:0|0:0,0:0:0:0:
253,159,79481,2,0,L|189:153,1,63.75,0|0,0:0|0:0,0:0:0:0:
320,69,79781,2,0,L|325:111,1,31.875,0|0,3:0|3:0,0:0:0:0:
336,187,79931,1,0,1:0:0:0:
234,69,80081,1,8,0:1:0:0:
190,239,80231,1,0,0:0:0:0:
323,101,80381,6,0,L|386:108,1,63.75,0|0,1:0|0:0,0:0:0:0:
253,246,80682,2,0,L|189:240,1,63.75,8|0,0:1|3:0,0:0:0:0:
336,187,80981,2,0,L|341:229,1,31.875,0|0,3:0|0:0,0:0:0:0:
352,305,81132,1,0,1:0:0:0:
254,158,81281,1,8,0:1:0:0:
198,326,81431,1,0,0:0:0:0:
336,187,81581,37,2,0:1:0:0:
340,152,81656,1,0,0:0:0:0:
331,118,81731,1,0,0:0:0:0:
310,91,81806,1,0,0:0:0:0:
280,75,81882,2,0,L|233:70,3,46.75,8|0|2|2,0:1|0:0|0:3|0:3,0:0:0:0:
226,196,82182,2,0,L|253:157,3,46.75,2|2|2|0,0:3|0:3|0:1|0:0,0:0:0:0:
148,88,82482,2,0,L|167:130,3,46.75,8|0|0|0,0:1|0:0|0:0|0:0,0:0:0:0:
253,157,82782,5,2,0:1:0:0:
287,161,82856,1,0,0:0:0:0:
320,151,82931,1,0,0:0:0:0:
347,129,83006,1,0,0:0:0:0:
363,98,83081,2,0,L|367:51,3,46.75,8|0|2|2,0:1|0:0|0:3|0:3,0:0:0:0:
283,31,83381,2,0,L|278:77,3,46.75,2|2|2|0,0:3|0:3|0:1|0:0,0:0:0:0:
253,157,83682,37,8,0:1:0:0:
211,177,83757,1,0,0:0:0:0:
165,175,83832,1,0,0:0:0:0:
127,148,83908,1,0,0:0:0:0:
108,106,83982,5,2,0:1:0:0:
104,140,84056,1,0,0:0:0:0:
101,175,84131,1,0,0:0:0:0:
98,210,84207,1,0,0:0:0:0:
94,245,84282,2,0,L|89:291,3,46.75,8|0|2|2,0:1|0:0|0:3|0:3,0:0:0:0:
218,264,84582,2,0,L|181:237,3,46.75,2|2|2|0,0:3|0:3|0:1|0:0,0:0:0:0:
139,362,84882,2,0,L|181:343,3,46.75,8|0|0|0,0:1|0:0|0:0|0:0,0:0:0:0:
218,264,85181,37,2,0:1:0:0:
252,260,85256,1,0,0:0:0:0:
285,270,85331,1,0,0:0:0:0:
312,292,85406,1,0,0:0:0:0:
328,323,85481,2,0,L|333:369,3,46.75,8|0|0|2,0:1|0:0|0:0|0:3,0:0:0:0:
419,358,85782,2,0,L|414:312,3,46.75,2|2|2|0,0:3|0:3|0:1|0:0,0:0:0:0:
376,233,86082,5,8,0:1:0:0:
381,186,86156,1,0,0:0:0:0:
386,140,86231,1,0,0:0:0:0:
391,93,86307,1,0,0:0:0:0:
396,47,86382,38,0,L|391:5,3,42.5,2|0|0|0,0:1|0:0|0:0|0:0,0:0:0:0:
310,56,86682,2,0,L|305:14,3,42.5,8|0|2|2,0:1|0:0|0:3|0:3,0:0:0:0:
224,65,86981,2,0,L|219:23,3,42.5,2|2|2|0,0:3|0:3|0:1|0:0,0:0:0:0:
138,74,87281,2,0,L|133:32,3,42.5,8|0|0|0,0:1|0:0|0:0|0:0,0:0:0:0:
185,187,87581,6,0,L|189:145,3,42.5,2|0|0|0,0:1|0:0|0:0|0:0,0:0:0:0:
271,196,87881,2,0,L|275:154,3,42.5,8|0|2|2,0:1|0:0|0:3|0:3,0:0:0:0:
357,205,88181,2,0,L|361:163,3,42.5,2|2|2|0,0:3|0:3|0:1|0:0,0:0:0:0:
443,214,88481,2,0,L|447:172,3,42.5,8|0|0|0,0:1|0:0|0:0|0:0,0:0:0:0:
397,327,88782,38,0,L|392:285,3,42.5,2|0|0|0,0:1|0:0|0:0|0:0,0:0:0:0:
311,336,89081,2,0,L|306:294,3,42.5,8|0|2|2,0:1|0:0|0:3|0:3,0:0:0:0:
225,345,89381,2,0,L|220:303,3,42.5,2|2|2|0,0:3|0:3|0:1|0:0,0:0:0:0:
139,354,89681,2,0,L|134:312,3,42.5,8|0|0|0,0:1|0:0|0:0|0:0,0:0:0:0:
72,251,89982,5,2,0:1:0:0:
64,220,90056,1,0,0:0:0:0:
68,188,90131,1,0,0:0:0:0:
83,160,90207,1,0,0:0:0:0:
106,139,90282,2,0,L|147:134,3,42.5,8|0|0|2,0:1|0:0|0:0|0:3,0:0:0:0:
223,179,90582,1,2,0:3:0:0:
254,187,90656,1,2,0:3:0:0:
286,183,90731,1,2,0:1:0:0:
314,168,90806,1,0,0:0:0:0:
335,145,90882,2,0,L|339:103,3,42.5,8|0|0|0,0:1|0:0|0:0|0:0,0:0:0:0:
426,106,91181,37,2,0:1:0:0:
422,140,91256,1,0,0:0:0:0:
419,175,91331,1,0,0:0:0:0:
416,210,91406,1,0,0:0:0:0:
412,245,91481,2,0,L|407:291,3,46.75,8|0|2|2,0:1|0:0|0:3|0:3,0:0:0:0:
286,236,91782,2,0,L|329:217,3,46.75,2|2|2|0,0:3|0:3|0:1|0:0,0:0:0:0:
343,349,92082,2,0,L|305:322,3,46.75,8|0|0|0,0:1|0:0|0:0|0:0,0:0:0:0:
223,296,92382,5,2,0:1:0:0:
188,297,92456,1,0,0:0:0:0:
153,299,92531,1,0,0:0:0:0:
118,302,92606,1,0,0:0:0:0:
83,303,92682,2,0,L|36:305,3,46.75,8|0|2|2,0:1|0:0|0:3|0:3,0:0:0:0:
44,218,92981,2,0,L|90:215,3,46.75,2|2|2|0,0:3|0:3|0:1|0:0,0:0:0:0:
149,150,93281,37,8,0:1:0:0:
191,130,93357,1,0,0:0:0:0:
237,132,93432,1,0,0:0:0:0:
275,159,93507,1,0,0:0:0:0:
294,201,93582,5,2,0:1:0:0:
320,223,93656,1,0,0:0:0:0:
354,232,93732,1,0,0:0:0:0:
388,228,93807,1,0,0:0:0:0:
418,210,93882,2,0,L|422:163,3,46.75,8|0|0|0,0:1|0:0|0:0|0:0,0:0:0:0:
448,292,94182,2,0,L|485:318,3,46.75,2|2|2|0,0:3|0:3|0:1|0:0,0:0:0:0:
361,276,94482,2,0,L|318:295,3,46.75,8|0|0|0,0:1|0:0|0:0|0:0,0:0:0:0:
263,362,94782,37,2,0:1:0:0:
231,376,94857,1,0,0:0:0:0:
197,377,94932,1,0,0:0:0:0:
164,364,95007,1,0,0:0:0:0:
140,340,95081,2,0,L|135:293,3,46.75,8|0|0|2,0:1|0:0|0:0|0:3,0:0:0:0:
52,272,95381,2,0,L|47:225,3,46.75,2|2|2|0,0:3|0:3|0:1|0:0,0:0:0:0:
96,154,95681,5,8,0:1:0:0:
138,134,95756,1,0,0:0:0:0:
184,136,95832,1,0,0:0:0:0:
222,163,95907,1,0,0:0:0:0:
241,205,95982,37,2,0:1:0:0:
244,166,96056,1,0,0:0:0:0:
248,128,96131,1,0,0:0:0:0:
251,90,96207,1,0,0:0:0:0:
255,52,96282,2,0,L|259:1,3,51,8|0|0|2,0:1|0:0|0:0|0:3,0:0:0:0:
344,35,96582,2,0,L|348:85,3,51,2|2|2|0,0:3|0:3|0:1|0:0,0:0:0:0:
437,69,96882,2,0,L|432:119,3,51,8|0|0|0,0:1|0:0|0:0|0:0,0:0:0:0:
363,172,97181,5,2,0:1:0:0:
346,206,97257,1,0,0:0:0:0:
346,244,97332,1,0,0:0:0:0:
362,278,97407,1,0,0:0:0:0:
391,302,97481,2,0,L|441:306,3,51,8|0|2|2,0:1|0:0|0:3|0:3,0:0:0:0:
480,219,97782,2,0,L|430:224,3,51,2|2|2|0,0:3|0:3|0:1|0:0,0:0:0:0:
452,136,98082,2,0,L|502:140,3,51,8|0|0|0,0:1|0:0|0:0|0:0,0:0:0:0:
402,65,98382,37,2,0:1:0:0:
366,47,98456,1,0,0:0:0:0:
326,48,98531,1,0,0:0:0:0:
291,66,98606,1,0,0:0:0:0:
268,98,98682,1,8,0:1:0:0:
245,130,98757,1,0,0:0:0:0:
210,148,98832,1,2,0:3:0:0:
170,149,98907,1,2,0:3:0:0:
134,131,98982,2,0,L|129:75,3,53.125,2|2|2|0,0:3|0:3|0:1|0:0,0:0:0:0:
73,193,99281,2,0,L|77:245,3,53.125,8|0|0|0,0:1|0:0|0:0|0:0,0:0:0:0:
135,312,99582,5,2,0:1:0:0:
171,331,99656,1,0,0:0:0:0:
212,331,99732,1,0,0:0:0:0:
248,312,99807,1,0,0:0:0:0:
272,279,99882,2,0,L|276:223,3,55.25,8|0|0|0,0:1|0:0|0:0|0:0,0:0:0:0:
324,151,100182,1,2,0:3:0:0:
363,130,100256,1,2,0:3:0:0:
407,132,100331,1,2,0:1:0:0:
444,156,100407,1,0,0:0:0:0:
465,195,100482,2,0,L|469:253,3,59.5,8|0|0|0,0:1|0:0|0:0|0:0,0:0:0:0:
427,331,100782,5,2,0:1:0:0:
391,350,100856,1,0,0:0:0:0:
350,350,100931,1,0,0:0:0:0:
314,331,101006,1,0,0:0:0:0:
290,298,101081,1,8,0:1:0:0:
266,265,101157,1,0,0:0:0:0:
230,246,101232,1,0,0:0:0:0:
189,246,101307,1,2,0:3:0:0:
153,265,101381,5,2,0:3:0:0:
155,223,101457,1,2,0:3:0:0:
158,182,101532,1,2,0:1:0:0:
161,140,101607,1,0,0:0:0:0:
164,99,101681,2,0,L|168:43,3,55.25,8|0|0|0,0:1|0:0|0:0|0:0,0:0:0:0:
253,69,101982,37,2,0:1:0:0:
289,88,102056,1,0,0:0:0:0:
330,88,102131,1,0,0:0:0:0:
366,69,102207,1,0,0:0:0:0:
390,36,102282,1,8,0:1:0:0:
357,60,102357,1,0,0:0:0:0:
338,96,102432,1,2,0:3:0:0:
338,137,102507,1,2,0:3:0:0:
357,173,102582,5,2,0:3:0:0:
376,209,102657,1,2,0:3:0:0:
376,250,102732,1,2,0:1:0:0:
357,286,102807,1,0,0:0:0:0:
324,310,102883,37,8,0:1:0:0:
268,306,102957,1,0,0:0:0:0:
213,302,103032,1,0,0:0:0:0:
158,298,103107,1,0,0:0:0:0:
108,320,103181,5,2,0:1:0:0:
86,285,103256,1,0,0:0:0:0:
83,244,103331,1,0,0:0:0:0:
100,207,103406,1,0,0:0:0:0:
131,181,103481,1,8,0:1:0:0:
162,154,103557,1,0,0:0:0:0:
179,117,103633,1,2,0:3:0:0:
176,76,103708,1,0,0:0:0:0:
154,42,103782,37,2,0:3:0:0:
196,44,103856,1,2,0:3:0:0:
237,47,103932,1,2,0:1:0:0:
279,50,104007,1,0,0:0:0:0:
320,53,104082,2,0,L|376:57,3,55.25,8|0|0|0,0:1|0:0|0:0|0:0,0:0:0:0:
443,110,104382,5,2,0:1:0:0:
465,145,104456,1,0,0:0:0:0:
468,186,104531,1,0,0:0:0:0:
451,223,104606,1,0,0:0:0:0:
420,249,104682,1,8,0:1:0:0:
379,246,104757,1,0,0:0:0:0:
337,243,104832,1,2,0:3:0:0:
296,240,104907,1,2,0:3:0:0:
254,238,104982,37,2,0:3:0:0:
232,273,105057,1,2,0:3:0:0:
229,314,105132,1,2,0:1:0:0:
246,351,105207,1,0,0:0:0:0:
277,377,105282,5,8,0:1:0:0:
280,321,105357,1,0,0:0:0:0:
284,266,105432,1,0,0:0:0:0:
288,211,105507,1,0,0:0:0:0:
292,156,105581,6,0,L|295:105,3,51,2|0|0|0,0:1|0:0|0:0|0:0,0:0:0:0:
206,125,105882,2,0,L|209:74,3,51,8|0|2|2,0:1|0:0|0:3|0:3,0:0:0:0:
121,95,106182,1,2,0:3:0:0:
90,121,106257,1,2,0:3:0:0:
73,158,106332,1,2,0:1:0:0:
76,199,106408,1,0,0:0:0:0:
98,234,106482,1,8,0:1:0:0:
120,269,106556,1,0,0:0:0:0:
123,310,106631,1,0,0:0:0:0:
106,347,106706,1,0,0:0:0:0:
75,373,106782,6,0,L|24:369,3,51,2|0|0|0,0:1|0:0|0:0|0:0,0:0:0:0:
123,310,107081,2,0,L|173:313,3,51,8|0|0|2,0:1|0:0|0:0|0:3,0:0:0:0:
233,378,107381,1,2,0:3:0:0:
271,375,107457,1,2,0:3:0:0:
309,373,107532,1,2,0:1:0:0:
347,371,107607,1,0,0:0:0:0:
385,369,107681,1,8,0:1:0:0:
407,334,107756,1,0,0:0:0:0:
410,293,107832,1,0,0:0:0:0:
393,256,107907,1,0,0:0:0:0:
362,230,107982,38,0,L|312:227,3,51,2|0|0|0,0:1|0:0|0:0|0:0,0:0:0:0:
431,177,108282,2,0,L|481:174,3,51,8|0|0|2,0:1|0:0|0:0|0:3,0:0:0:0:
406,94,108582,1,2,0:3:0:0:
368,75,108657,1,2,0:3:0:0:
328,74,108732,1,2,0:1:0:0:
292,94,108807,1,0,0:0:0:0:
268,129,108882,1,8,0:1:0:0:
244,164,108957,1,0,0:0:0:0:
208,184,109032,1,0,0:0:0:0:
168,183,109107,1,0,0:0:0:0:
130,164,109181,5,2,0:1:0:0:
127,203,109256,1,0,0:0:0:0:
125,243,109331,1,0,0:0:0:0:
122,283,109406,1,0,0:0:0:0:
120,323,109481,2,0,L|116:375,3,53.125,8|0|0|2,0:1|0:0|0:0|0:3,0:0:0:0:
207,271,109781,1,2,0:3:0:0:
243,252,109855,1,2,0:3:0:0:
284,252,109931,1,2,0:1:0:0:
320,271,110006,1,0,0:0:0:0:
344,304,110081,2,0,L|348:360,3,55.25,8|0|0|0,0:1|0:0|0:0|0:0,0:0:0:0:
400,237,110382,5,2,0:1:0:0:
403,196,110457,1,0,0:0:0:0:
406,154,110532,1,0,0:0:0:0:
409,113,110607,1,0,0:0:0:0:
411,71,110683,1,8,0:1:0:0:
387,38,110757,1,0,0:0:0:0:
351,19,110832,1,0,0:0:0:0:
310,19,110907,1,2,0:3:0:0:
274,38,110982,5,2,0:3:0:0:
238,57,111057,1,2,0:3:0:0:
197,57,111132,1,2,0:1:0:0:
161,38,111207,1,0,0:0:0:0:
137,5,111281,2,0,L|82:9,3,55.25,8|0|0|0,0:1|0:0|0:0|0:0,0:0:0:0:
21,71,111581,37,2,0:1:0:0:
2,107,111656,1,0,0:0:0:0:
2,148,111731,1,0,0:0:0:0:
21,184,111806,1,0,0:0:0:0:
54,208,111882,1,8,0:1:0:0:
87,232,111956,1,0,0:0:0:0:
106,268,112032,1,2,0:3:0:0:
106,309,112107,1,2,0:3:0:0:
87,345,112182,5,2,0:3:0:0:
54,321,112257,1,2,0:3:0:0:
35,285,112332,1,2,0:1:0:0:
35,244,112408,1,0,0:0:0:0:
54,208,112483,37,8,0:1:0:0:
108,217,112558,1,0,0:0:0:0:
162,227,112631,1,0,0:0:0:0:
217,237,112706,1,0,0:0:0:0:
246,285,112782,5,2,0:1:0:0:
288,283,112857,1,0,0:0:0:0:
329,280,112932,1,0,0:0:0:0:
371,277,113007,1,0,0:0:0:0:
412,274,113082,1,8,0:1:0:0:
429,244,113157,1,0,0:0:0:0:
429,203,113232,1,0,0:0:0:0:
410,167,113307,1,2,0:3:0:0:
377,143,113381,37,2,0:3:0:0:
344,119,113457,1,2,0:3:0:0:
325,83,113532,1,2,0:1:0:0:
325,42,113607,1,0,0:0:0:0:
342,12,113681,2,0,L|396:7,3,55.25,8|0|0|0,0:1|0:0|0:0|0:0,0:0:0:0:
241,62,113982,5,2,0:1:0:0:
199,60,114057,1,0,0:0:0:0:
158,57,114132,1,0,0:0:0:0:
116,54,114208,1,0,0:0:0:0:
75,51,114283,1,8,0:1:0:0:
42,75,114357,1,0,0:0:0:0:
23,111,114432,1,2,0:3:0:0:
23,152,114507,1,2,0:3:0:0:
42,188,114582,37,2,0:3:0:0:
59,218,114657,1,2,0:3:0:0:
59,259,114732,1,2,0:1:0:0:
40,295,114807,1,0,0:0:0:0:
7,319,114882,5,8,0:1:0:0:
25,267,114957,1,0,0:0:0:0:
69,235,115032,1,0,0:0:0:0:
124,235,115107,1,0,0:0:0:0:
169,265,115181,38,0,L|223:269,1,55.25,2|0,0:1|0:0,0:0:0:0:
267,185,115332,2,0,L|321:180,1,55.25,2|0,0:0|0:0,0:0:0:0:
203,117,115481,2,0,L|148:121,1,55.25,10|0,0:0|0:0,0:0:0:0:
105,37,115632,2,0,L|50:32,1,55.25,2|0,0:0|0:0,0:0:0:0:
255,38,115781,6,0,L|309:33,1,55.25,2|0,0:0|0:0,0:0:0:0:
147,121,115932,2,0,L|92:116,1,55.25,2|0,0:1|0:0,0:0:0:0:
267,185,116082,2,0,L|321:180,1,55.25,10|0,0:0|0:0,0:0:0:0:
159,268,116232,2,0,L|104:263,1,55.25,2|0,0:0|0:0,0:0:0:0:
257,333,116382,38,0,L|253:279,1,55.25,2|0,0:1|0:0,0:0:0:0:
411,209,116531,2,0,L|406:263,1,55.25,2|0,0:0|0:0,0:0:0:0:
267,185,116682,2,0,L|262:130,1,55.25,10|0,0:0|0:0,0:0:0:0:
420,60,116831,2,0,L|416:115,1,55.25,2|0,0:0|0:0,0:0:0:0:
220,45,116982,6,0,L|165:49,1,55.25,2|0,0:0|0:0,0:0:0:0:
124,135,117132,2,0,L|69:130,1,55.25,2|0,0:1|0:0,0:0:0:0:
164,221,117281,2,0,L|218:216,1,55.25,10|0,0:0|0:0,0:0:0:0:
260,302,117432,2,0,L|314:306,1,55.25,2|0,0:0|0:0,0:0:0:0:
407,166,117581,6,0,L|411:220,1,42.5,2|0,0:1|0:0,0:0:0:0:
323,124,117732,2,0,L|319:166,1,42.5,2|0,0:0|0:0,0:0:0:0:
483,78,117882,2,0,L|487:121,1,42.5,10|0,0:0|0:0,0:0:0:0:
400,36,118032,2,0,L|397:79,1,42.5,2|0,0:0|0:0,0:0:0:0:
319,166,118182,6,0,L|276:162,1,42.5,2|0,0:0|0:0,0:0:0:0:
185,238,118331,2,0,L|228:235,1,42.5,2|0,0:1|0:0,0:0:0:0:
193,151,118482,2,0,L|150:147,1,42.5,10|0,0:0|0:0,0:0:0:0:
59,223,118631,2,0,L|101:219,1,42.5,2|0,0:0|0:0,0:0:0:0:
180,65,118782,6,0,L|177:33,6,31.875,2|0|2|0|2|0|2,0:1|0:0|0:0|0:0|0:0|0:0|0:0,0:0:0:0:
276,162,119082,2,0,L|273:193,6,31.875,10|0|2|0|2|0|2,0:0|0:0|0:0|0:0|0:0|0:0|0:0,0:0:0:0:
367,41,119381,6,0,L|371:84,1,42.5,2|0,0:0|0:0,0:0:0:0:
370,83,119457,2,0,L|374:126,1,42.5,2|0,0:0|0:0,0:0:0:0:
373,125,119532,2,0,L|377:168,1,42.5,2|0,0:1|0:0,0:0:0:0:
376,167,119607,2,0,L|380:210,1,42.5,2|0,0:0|0:0,0:0:0:0:
379,209,119681,2,0,L|383:252,1,42.5,10|0,0:0|0:0,0:0:0:0:
382,251,119756,2,0,L|386:294,1,42.5,2|0,0:0|0:0,0:0:0:0:
385,293,119832,2,0,L|389:336,1,42.5,2|0,0:0|0:0,0:0:0:0:
388,335,119907,2,0,L|392:378,1,42.5,2|0,0:0|0:0,0:0:0:0:
391,377,119982,6,0,P|356:350|310:335,1,88.4,2|0,0:0|0:0,0:0:0:0:
182,311,120431,2,0,P|217:284|259:270,1,88.4,2|0,0:0|0:0,0:0:0:0:
391,245,120882,1,2,0:0:0:0:
