osu file format v14

[General]
AudioFilename: hitorigotoringtone.mp3
AudioLeadIn: 0
PreviewTime: 50
Countdown: 0
SampleSet: None
StackLeniency: 0.7
Mode: 0
LetterboxInBreaks: 0
WidescreenStoryboard: 1

[Editor]
DistanceSpacing: 1.2
BeatDivisor: 4
GridSize: 8
TimelineZoom: 2.1

[Metadata]
Title:fast compilation
TitleUnicode:fast compilation
Artist:various artists
ArtistUnicode:various artists
Creator:Dogerinoo
Version:Hitorigoto -Instrumental-
Source:
Tags:
BeatmapID:1973381
BeatmapSetID:944975

[Difficulty]
HPDrainRate:6.2
CircleSize:4.2
OverallDifficulty:9
ApproachRate:9.5
SliderMultiplier:1.9
SliderTickRate:1

[Events]
//Background and Video events
0,0,"thumb-1920-828363.png",0,0
//Break Periods
//Storyboard Layer 0 (Background)
//Storyboard Layer 1 (Fail)
//Storyboard Layer 2 (Pass)
//Storyboard Layer 3 (Foreground)
//Storyboard Sound Samples

[TimingPoints]
200,300,4,2,1,60,1,0
26600,-111.111,4,2,0,60,0,0
29000,-111.111,4,2,1,5,0,0

[Colours]
Combo1 : 99,173,67
Combo2 : 114,61,180
Combo3 : 43,92,210
Combo4 : 128,128,192

[HitObjects]
225,42,200,6,0,P|206:85|210:134,1,95,8|2,0:2|0:2,0:0:0:0:
353,299,499,2,0,P|355:251|337:208,1,95,8|2,0:2|0:2,0:0:0:0:
215,272,800,1,8,0:2:0:0:
458,237,950,1,2,0:2:0:0:
209,132,1099,1,8,0:2:0:0:
407,150,1249,1,2,0:2:0:0:
135,340,1400,6,0,P|115:293|125:227,1,95,12|2,0:1|0:2,0:0:0:0:
136,70,1700,1,8,0:2:0:0:
215,272,1850,1,2,0:0:0:0:
293,35,1999,2,0,L|301:141,1,95,12|2,0:1|0:2,0:0:0:0:
307,337,2300,1,8,0:2:0:0:
126,155,2450,1,2,0:0:0:0:
467,92,2600,6,0,P|421:77|357:87,1,95,12|2,0:2|0:2,0:0:0:0:
215,272,2899,2,0,P|262:275|306:260,1,95,8|2,0:2|0:2,0:0:0:0:
271,27,3200,1,8,0:2:0:0:
253,186,3350,1,2,0:2:0:0:
428,21,3500,1,8,0:2:0:0:
450,234,3649,1,2,0:0:0:0:
196,121,3799,6,0,P|239:103|309:120,1,95,12|2,0:1|0:2,0:0:0:0:
349,336,4100,1,8,0:2:0:0:
253,186,4250,1,2,0:0:0:0:
455,139,4399,2,0,L|447:271,1,95,12|2,0:1|0:2,0:0:0:0:
152,210,4700,1,8,0:2:0:0:
354,162,4850,1,2,0:0:0:0:
134,27,5000,6,0,L|143:121,1,95,12|2,0:2|0:2,0:0:0:0:
36,349,5299,2,0,L|26:254,1,95,8|2,0:2|0:2,0:0:0:0:
53,87,5600,1,8,0:2:0:0:
197,284,5750,1,2,0:2:0:0:
134,27,5900,1,8,0:2:0:0:
111,272,6049,1,2,0:2:0:0:
330,69,6199,6,0,P|283:55|203:81,1,95,12|2,0:2|0:2,0:0:0:0:
286,298,6500,2,0,P|332:303|377:290,1,95,8|2,0:2|0:0,0:0:0:0:
444,95,6800,1,8,0:2:0:0:
479,270,6949,1,2,0:2:0:0:
477,0,7099,1,8,0:2:0:0:
411,192,7250,1,2,0:0:0:0:
202,14,7400,6,0,P|189:58|200:119,1,95,12|2,0:1|0:0,0:0:0:0:
378,289,7699,2,0,P|346:255|288:234,1,95,12|2,0:1|0:0,0:0:0:0:
209,25,8000,2,0,P|197:65|207:121,1,95,12|2,0:1|0:0,0:0:0:0:
379,276,8300,2,0,P|350:245|296:226,1,95,12|2,0:1|0:0,0:0:0:0:
101,275,8599,5,8,0:2:0:0:
293,326,8749,1,2,0:2:0:0:
142,129,8900,5,8,0:2:0:0:
196,303,9050,1,2,0:0:0:0:
338,48,9200,5,8,0:2:0:0:
169,216,9349,1,2,0:2:0:0:
484,197,9499,5,8,0:2:0:0:
254,134,9650,1,2,0:0:0:0:
418,0,9800,6,0,P|428:54|400:124,1,95,12|2,0:2|0:2,0:0:0:0:
307,336,10100,2,0,P|298:289|308:243,1,95,8|2,0:2|0:0,0:0:0:0:
470,282,10399,1,8,0:2:0:0:
217,268,10550,1,2,0:2:0:0:
434,157,10700,1,8,0:2:0:0:
401,346,10850,1,2,0:0:0:0:
350,101,10999,6,0,P|303:93|257:104,1,95,12|2,0:1|0:2,0:0:0:0:
123,162,11300,1,8,0:2:0:0:
376,193,11450,1,2,0:0:0:0:
117,67,11600,2,0,L|125:201,1,95,12|2,0:1|0:0,0:0:0:0:
138,362,11899,1,8,0:0:0:0:
250,179,12049,1,2,0:0:0:0:
434,294,12200,6,0,P|389:306|324:288,1,95,12|2,0:2|0:2,0:0:0:0:
233,88,12500,2,0,P|252:135|242:200,1,95,8|2,0:2|0:0,0:0:0:0:
138,362,12799,1,8,0:2:0:0:
48,124,12950,1,2,0:2:0:0:
269,318,13100,1,8,0:2:0:0:
17,276,13250,1,2,0:0:0:0:
142,119,13400,6,0,L|47:124,1,95,12|2,0:1|0:0,0:0:0:0:
138,362,13699,1,8,0:2:0:0:
252,208,13850,1,2,0:0:0:0:
78,37,14000,2,0,P|50:83|59:160,1,95,12|2,0:1|0:0,0:0:0:0:
197,289,14299,1,8,0:2:0:0:
233,88,14449,1,2,0:0:0:0:
433,244,14600,6,0,P|389:259|327:247,1,95,12|2,0:2|0:2,0:0:0:0:
283,0,14900,2,0,P|317:30|338:90,1,95,8|2,0:2|0:0,0:0:0:0:
269,318,15199,1,8,0:2:0:0:
180,151,15349,1,2,0:2:0:0:
123,294,15500,1,8,0:2:0:0:
257,105,15650,1,2,0:0:0:0:
37,122,15800,6,0,L|53:238,1,95,12|2,0:2|0:0,0:0:0:0:
187,358,16099,1,8,0:2:0:0:
257,105,16250,1,2,0:0:0:0:
123,294,16400,1,8,0:2:0:0:
342,158,16550,1,2,0:0:0:0:
174,44,16700,2,0,P|156:90|175:173,1,95,8|2,0:0|0:0,0:0:0:0:
432,373,16999,6,0,L|447:243,1,95,12|2,0:1|0:0,0:0:0:0:
336,80,17300,1,8,0:2:0:0:
355,314,17450,1,2,0:0:0:0:
159,140,17599,2,0,P|208:119|274:137,1,95,12|2,0:1|0:0,0:0:0:0:
139,276,17900,1,8,0:2:0:0:
168,17,18050,1,2,0:0:0:0:
316,224,18200,6,0,L|204:212,1,95,8|2,0:2|0:2,0:0:0:0:
0,81,18499,2,0,L|112:69,1,95,8|2,0:2|0:2,0:0:0:0:
58,315,18800,1,2,0:2:0:0:
53,271,18875,1,2,0:2:0:0:
48,229,18950,1,2,0:2:0:0:
258,37,19100,1,2,0:2:0:0:
253,81,19175,1,2,0:2:0:0:
248,123,19249,1,2,0:2:0:0:
163,316,19399,6,0,P|205:293|252:291,1,95,12|0,0:2|0:0,0:0:0:0:
456,366,19700,2,0,L|465:271,1,95,8|2,0:2|0:0,0:0:0:0:
322,152,20000,1,8,0:2:0:0:
467,378,20149,2,0,L|476:283,1,95,8|2,0:2|0:0,0:0:0:0:
251,290,20450,1,2,0:0:0:0:
388,97,20600,6,0,P|401:142|399:189,1,95,8|2,0:2|0:2,0:0:0:0:
204,97,20899,2,0,P|201:49|215:4,1,95,8|2,0:2|0:2,0:0:0:0:
473,137,21200,1,8,0:2:0:0:
204,97,21350,1,2,0:2:0:0:
464,47,21500,1,8,0:2:0:0:
294,58,21650,1,2,0:0:0:0:
347,295,21799,6,0,P|377:207|341:121,1,190,12|8,0:2|0:2,0:0:0:0:
247,254,22250,1,2,0:0:0:0:
423,210,22400,1,8,0:2:0:0:
252,136,22549,2,0,P|203:133|144:179,1,95,2|8,0:2|0:2,0:0:0:0:
423,210,22850,6,0,P|469:215|512:195,1,95,2|8,0:0|0:0,0:0:0:0:
341,67,23150,1,2,0:2:0:0:
255,275,23300,2,0,L|262:396,1,95,8|2,0:2|0:0,0:0:0:0:
347,162,23599,2,0,L|341:67,1,95,8|2,0:2|0:0,0:0:0:0:
123,100,23900,1,8,0:2:0:0:
240,120,24050,1,2,0:0:0:0:
15,148,24199,6,0,P|3:101|21:36,1,95,12|2,0:2|0:2,0:0:0:0:
175,323,24500,2,0,L|52:319,1,95,8|2,0:2|0:0,0:0:0:0:
123,100,24800,1,8,0:2:0:0:
169,311,24950,2,0,L|46:307,1,95,8|2,0:2|0:0,0:0:0:0:
15,148,25249,1,2,0:0:0:0:
193,40,25400,6,0,P|238:31|306:62,1,95,8|2,0:2|0:2,0:0:0:0:
380,199,25700,2,0,P|334:212|288:203,1,95,8|2,0:2|0:2,0:0:0:0:
455,177,25999,1,2,0:2:0:0:
452,222,26074,1,2,0:2:0:0:
448,267,26150,2,0,L|441:347,1,47.5,10|2,0:2|0:2,0:0:0:0:
288,203,26300,1,2,0:2:0:0:
285,158,26375,1,2,0:2:0:0:
281,113,26450,2,0,L|274:33,1,47.5,10|2,0:2|0:2,0:0:0:0:
127,333,26600,6,0,B|191:327|191:327|225:345|225:345|292:339,1,171,4|0,0:0|0:0,0:0:0:0:
360,260,27050,1,2,0:2:0:0:
289,186,27200,2,0,P|258:266|302:346,1,171,2|0,0:0|0:0,0:0:0:0:
330,71,27724,5,4,0:0:0:0:
256,192,27800,12,0,29000,0:0:0:0:
