osu file format v14

[General]
AudioFilename: team.mp3
AudioLeadIn: 0
PreviewTime: 85509
Countdown: 0
SampleSet: Normal
StackLeniency: 0.7
Mode: 3
LetterboxInBreaks: 0
SpecialStyle: 0
WidescreenStoryboard: 0

[Editor]
DistanceSpacing: 0.8
BeatDivisor: 4
GridSize: 16
TimelineZoom: 1.7

[Metadata]
Title:Mania Beatmap Pack
TitleUnicode:Mania Beatmap Pack
Artist:various artists
ArtistUnicode:various artists
Creator:GlassyKiller
Version:Team&DJ Grimoire - Akzeriyyuth
Source:SDVX II GRAVITY WARS
Tags:
BeatmapID:1785544
BeatmapSetID:840856

[Difficulty]
HPDrainRate:9
CircleSize:4
OverallDifficulty:8
ApproachRate:5
SliderMultiplier:1.4
SliderTickRate:1

[Events]
//Background and Video events
0,0,"m.jpg",0,0
//Break Periods
//Storyboard Layer 0 (Background)
//Storyboard Layer 1 (Fail)
//Storyboard Layer 2 (Pass)
//Storyboard Layer 3 (Foreground)
//Storyboard Sound Samples

[TimingPoints]
586,307.692307692308,4,1,3,26,1,0

[HitObjects]
64,192,586,128,0,7970:0:0:0:0:
192,192,586,128,0,739:0:0:0:0:
448,192,739,1,0,0:0:0:0:
320,192,893,1,0,0:0:0:0:
192,192,1047,1,0,0:0:0:0:
448,192,1201,1,0,0:0:0:0:
320,192,1509,1,0,0:0:0:0:
192,192,1816,1,0,0:0:0:0:
448,192,1970,1,0,0:0:0:0:
320,192,2124,1,0,0:0:0:0:
192,192,2432,1,0,0:0:0:0:
448,192,2739,1,0,0:0:0:0:
320,192,3047,1,0,0:0:0:0:
192,192,3355,1,0,0:0:0:0:
448,192,3662,1,0,0:0:0:0:
192,192,3970,1,0,0:0:0:0:
320,192,4278,1,0,0:0:0:0:
192,192,4586,1,0,0:0:0:0:
320,192,4739,1,0,0:0:0:0:
448,192,4893,1,0,0:0:0:0:
320,192,5201,1,0,0:0:0:0:
448,192,5509,1,0,0:0:0:0:
320,192,5662,1,0,0:0:0:0:
192,192,5816,1,0,0:0:0:0:
320,192,6124,1,0,0:0:0:0:
448,192,6432,1,0,0:0:0:0:
192,192,6739,1,0,0:0:0:0:
448,192,7047,1,0,0:0:0:0:
320,192,7355,1,0,0:0:0:0:
192,192,7662,1,0,0:0:0:0:
320,192,7970,128,0,15355:0:0:0:0:
448,192,7970,128,0,8124:0:0:0:0:
64,192,8278,1,0,0:0:0:0:
192,192,8432,1,0,0:0:0:0:
448,192,8586,1,0,0:0:0:0:
64,192,8893,1,0,0:0:0:0:
448,192,9201,1,0,0:0:0:0:
192,192,9355,1,0,0:0:0:0:
64,192,9509,1,0,0:0:0:0:
192,192,9816,1,0,0:0:0:0:
64,192,10124,1,0,0:0:0:0:
448,192,10432,1,0,0:0:0:0:
192,192,10739,1,0,0:0:0:0:
448,192,11047,1,0,0:0:0:0:
192,192,11355,1,0,0:0:0:0:
64,192,11662,1,0,0:0:0:0:
448,192,11970,1,0,0:0:0:0:
192,192,12124,1,0,0:0:0:0:
64,192,12278,1,0,0:0:0:0:
448,192,12586,1,0,0:0:0:0:
192,192,12893,1,0,0:0:0:0:
64,192,13047,1,0,0:0:0:0:
448,192,13201,1,0,0:0:0:0:
64,192,13509,1,0,0:0:0:0:
192,192,13662,1,0,0:0:0:0:
448,192,13816,1,0,0:0:0:0:
64,192,13970,1,0,0:0:0:0:
448,192,14124,1,0,0:0:0:0:
64,192,14432,1,0,0:0:0:0:
192,192,14586,1,0,0:0:0:0:
448,192,14739,1,0,0:0:0:0:
192,192,14893,1,0,0:0:0:0:
64,192,14971,128,0,15355:0:0:0:0:
192,192,15355,1,0,0:0:0:0:
448,192,15355,1,0,0:0:0:0:
192,192,15509,1,0,0:0:0:0:
64,192,15509,1,0,0:0:0:0:
64,192,15663,1,0,0:0:0:0:
448,192,15663,1,0,0:0:0:0:
320,192,15817,1,0,0:0:0:0:
448,192,15817,1,0,0:0:0:0:
192,192,15971,1,0,0:0:0:0:
64,192,15971,1,0,0:0:0:0:
192,192,16125,1,0,0:0:0:0:
320,192,16125,1,0,0:0:0:0:
448,192,16279,1,0,0:0:0:0:
64,192,16279,1,0,0:0:0:0:
64,192,16432,1,0,0:0:0:0:
320,192,16432,1,0,0:0:0:0:
192,192,16586,1,0,0:0:0:0:
448,192,16586,1,0,0:0:0:0:
320,192,16740,1,0,0:0:0:0:
192,192,16740,1,0,0:0:0:0:
64,192,16894,1,0,0:0:0:0:
192,192,16894,1,0,0:0:0:0:
320,192,16971,1,0,0:0:0:0:
448,192,16971,1,0,0:0:0:0:
192,192,17048,1,0,0:0:0:0:
64,192,17048,1,0,0:0:0:0:
320,192,17125,1,0,0:0:0:0:
448,192,17125,1,0,0:0:0:0:
64,192,17202,1,0,0:0:0:0:
448,192,17202,1,0,0:0:0:0:
192,192,17202,1,0,0:0:0:0:
320,192,17509,1,0,0:0:0:0:
448,192,17509,1,0,0:0:0:0:
64,192,17509,1,0,0:0:0:0:
64,192,17817,1,0,0:0:0:0:
192,192,17817,1,0,0:0:0:0:
320,192,17817,1,0,0:0:0:0:
192,192,18125,1,0,0:0:0:0:
320,192,18125,1,0,0:0:0:0:
448,192,18125,1,0,0:0:0:0:
64,192,18432,1,0,0:0:0:0:
192,192,18432,1,0,0:0:0:0:
320,192,18432,1,0,0:0:0:0:
448,192,18740,1,0,0:0:0:0:
320,192,18740,1,0,0:0:0:0:
64,192,18740,1,0,0:0:0:0:
64,192,19048,1,0,0:0:0:0:
192,192,19048,1,0,0:0:0:0:
320,192,19048,1,0,0:0:0:0:
448,192,19048,1,0,0:0:0:0:
192,192,19202,1,0,0:0:0:0:
320,192,19355,1,0,0:0:0:0:
448,192,19355,1,0,0:0:0:0:
64,192,19355,1,0,0:0:0:0:
320,192,19509,1,0,0:0:0:0:
64,192,19663,1,0,0:0:0:0:
192,192,19663,1,0,0:0:0:0:
320,192,19663,1,0,0:0:0:0:
192,192,19817,1,0,0:0:0:0:
192,192,19971,1,0,0:0:0:0:
320,192,19971,1,0,0:0:0:0:
448,192,19971,1,0,0:0:0:0:
448,192,20125,1,0,0:0:0:0:
192,192,20279,1,0,0:0:0:0:
320,192,20279,1,0,0:0:0:0:
64,192,20279,1,0,0:0:0:0:
64,192,20432,1,0,0:0:0:0:
192,192,20586,1,0,0:0:0:0:
320,192,20586,1,0,0:0:0:0:
448,192,20586,1,0,0:0:0:0:
320,192,20740,1,0,0:0:0:0:
192,192,20894,1,0,0:0:0:0:
64,192,20894,1,0,0:0:0:0:
448,192,20894,1,0,0:0:0:0:
192,192,21048,1,0,0:0:0:0:
320,192,21202,1,0,0:0:0:0:
448,192,21202,1,0,0:0:0:0:
192,192,21202,1,0,0:0:0:0:
64,192,21356,1,0,0:0:0:0:
192,192,21509,1,0,0:0:0:0:
320,192,21509,1,0,0:0:0:0:
448,192,21509,1,0,0:0:0:0:
448,192,21663,1,0,0:0:0:0:
192,192,21817,1,0,0:0:0:0:
448,192,21817,1,0,0:0:0:0:
64,192,21817,1,0,0:0:0:0:
320,192,21971,1,0,0:0:0:0:
320,192,22125,1,0,0:0:0:0:
448,192,22125,1,0,0:0:0:0:
64,192,22125,1,0,0:0:0:0:
192,192,22279,1,0,0:0:0:0:
320,192,22432,1,0,0:0:0:0:
448,192,22432,1,0,0:0:0:0:
64,192,22432,1,0,0:0:0:0:
320,192,22586,1,0,0:0:0:0:
448,192,22586,1,0,0:0:0:0:
192,192,22586,1,0,0:0:0:0:
448,192,22740,1,0,0:0:0:0:
192,192,22740,1,0,0:0:0:0:
64,192,22740,1,0,0:0:0:0:
192,192,22894,1,0,0:0:0:0:
448,192,23048,1,0,0:0:0:0:
320,192,23048,1,0,0:0:0:0:
192,192,23048,1,0,0:0:0:0:
448,192,23202,1,0,0:0:0:0:
320,192,23356,1,0,0:0:0:0:
192,192,23356,1,0,0:0:0:0:
64,192,23356,1,0,0:0:0:0:
192,192,23509,1,0,0:0:0:0:
64,192,23663,1,0,0:0:0:0:
320,192,23663,1,0,0:0:0:0:
448,192,23663,1,0,0:0:0:0:
320,192,23817,1,0,0:0:0:0:
448,192,23971,1,0,0:0:0:0:
320,192,23971,1,0,0:0:0:0:
192,192,23971,1,0,0:0:0:0:
192,192,24125,1,0,0:0:0:0:
64,192,24279,1,0,0:0:0:0:
448,192,24279,1,0,0:0:0:0:
320,192,24279,1,0,0:0:0:0:
320,192,24432,1,0,0:0:0:0:
448,192,24586,1,0,0:0:0:0:
320,192,24586,1,0,0:0:0:0:
192,192,24586,1,0,0:0:0:0:
64,192,24740,1,0,0:0:0:0:
192,192,24740,1,0,0:0:0:0:
320,192,24740,1,0,0:0:0:0:
320,192,24894,1,0,0:0:0:0:
448,192,24894,1,0,0:0:0:0:
64,192,24894,1,0,0:0:0:0:
320,192,25048,1,0,0:0:0:0:
448,192,25202,1,0,0:0:0:0:
192,192,25202,1,0,0:0:0:0:
64,192,25202,1,0,0:0:0:0:
192,192,25356,1,0,0:0:0:0:
320,192,25509,1,0,0:0:0:0:
448,192,25509,1,0,0:0:0:0:
64,192,25509,1,0,0:0:0:0:
448,192,25663,1,0,0:0:0:0:
320,192,25817,1,0,0:0:0:0:
192,192,25817,1,0,0:0:0:0:
64,192,25817,1,0,0:0:0:0:
64,192,25971,1,0,0:0:0:0:
192,192,26125,1,0,0:0:0:0:
64,192,26125,1,0,0:0:0:0:
320,192,26125,1,0,0:0:0:0:
192,192,26279,1,0,0:0:0:0:
64,192,26432,1,0,0:0:0:0:
192,192,26432,1,0,0:0:0:0:
320,192,26432,1,0,0:0:0:0:
448,192,26432,1,0,0:0:0:0:
448,192,26586,1,0,0:0:0:0:
320,192,26740,1,0,0:0:0:0:
192,192,26740,1,0,0:0:0:0:
64,192,26740,1,0,0:0:0:0:
64,192,26894,1,0,0:0:0:0:
320,192,27048,1,0,0:0:0:0:
192,192,27048,1,0,0:0:0:0:
64,192,27048,1,0,0:0:0:0:
320,192,27202,1,0,0:0:0:0:
448,192,27356,1,0,0:0:0:0:
192,192,27356,1,0,0:0:0:0:
64,192,27356,1,0,0:0:0:0:
192,192,27509,1,0,0:0:0:0:
64,192,27663,1,0,0:0:0:0:
448,192,27663,1,0,0:0:0:0:
320,192,27663,1,0,0:0:0:0:
320,192,27817,1,0,0:0:0:0:
192,192,27971,1,0,0:0:0:0:
64,192,27971,1,0,0:0:0:0:
448,192,27971,1,0,0:0:0:0:
320,192,28125,1,0,0:0:0:0:
320,192,28279,1,0,0:0:0:0:
448,192,28279,1,0,0:0:0:0:
192,192,28279,1,0,0:0:0:0:
64,192,28432,1,0,0:0:0:0:
192,192,28586,1,0,0:0:0:0:
448,192,28586,1,0,0:0:0:0:
64,192,28586,1,0,0:0:0:0:
320,192,28740,1,0,0:0:0:0:
192,192,28894,1,0,0:0:0:0:
320,192,28894,1,0,0:0:0:0:
448,192,28894,1,0,0:0:0:0:
192,192,29048,1,0,0:0:0:0:
64,192,29202,1,0,0:0:0:0:
320,192,29202,1,0,0:0:0:0:
448,192,29202,1,0,0:0:0:0:
320,192,29356,1,0,0:0:0:0:
448,192,29509,1,0,0:0:0:0:
320,192,29509,1,0,0:0:0:0:
192,192,29509,1,0,0:0:0:0:
192,192,29663,1,0,0:0:0:0:
64,192,29817,128,0,30125:0:0:0:0:
192,192,30125,1,0,0:0:0:0:
320,192,30125,1,0,0:0:0:0:
448,192,30125,1,0,0:0:0:0:
64,192,30279,1,0,0:0:0:0:
192,192,30279,1,0,0:0:0:0:
320,192,30279,1,0,0:0:0:0:
320,192,30432,1,0,0:0:0:0:
448,192,30432,1,0,0:0:0:0:
64,192,30432,1,0,0:0:0:0:
192,192,30586,1,0,0:0:0:0:
320,192,30740,1,0,0:0:0:0:
448,192,30740,1,0,0:0:0:0:
192,192,30740,1,0,0:0:0:0:
320,192,30894,1,0,0:0:0:0:
192,192,31048,1,0,0:0:0:0:
64,192,31048,1,0,0:0:0:0:
448,192,31048,1,0,0:0:0:0:
192,192,31202,1,0,0:0:0:0:
320,192,31356,1,0,0:0:0:0:
448,192,31356,1,0,0:0:0:0:
192,192,31356,1,0,0:0:0:0:
192,192,31509,1,0,0:0:0:0:
320,192,31663,1,0,0:0:0:0:
448,192,31663,1,0,0:0:0:0:
64,192,31663,1,0,0:0:0:0:
192,192,31817,1,0,0:0:0:0:
320,192,31817,1,0,0:0:0:0:
448,192,31817,1,0,0:0:0:0:
64,192,31971,1,0,0:0:0:0:
192,192,31971,1,0,0:0:0:0:
320,192,31971,1,0,0:0:0:0:
64,192,32125,1,0,0:0:0:0:
192,192,32125,1,0,0:0:0:0:
448,192,32125,1,0,0:0:0:0:
320,192,32279,1,0,0:0:0:0:
448,192,32279,1,0,0:0:0:0:
192,192,32279,1,0,0:0:0:0:
192,192,32432,1,0,0:0:0:0:
320,192,32586,1,0,0:0:0:0:
448,192,32586,1,0,0:0:0:0:
64,192,32586,1,0,0:0:0:0:
320,192,32740,1,0,0:0:0:0:
448,192,32740,1,0,0:0:0:0:
192,192,32740,1,0,0:0:0:0:
64,192,32894,1,0,0:0:0:0:
192,192,32894,1,0,0:0:0:0:
320,192,32894,1,0,0:0:0:0:
320,192,33048,1,0,0:0:0:0:
448,192,33048,1,0,0:0:0:0:
64,192,33048,1,0,0:0:0:0:
192,192,33202,1,0,0:0:0:0:
320,192,33202,1,0,0:0:0:0:
448,192,33202,1,0,0:0:0:0:
64,192,33356,1,0,0:0:0:0:
192,192,33356,1,0,0:0:0:0:
448,192,33356,1,0,0:0:0:0:
320,192,33509,1,0,0:0:0:0:
64,192,33586,128,0,33817:0:0:0:0:
192,192,33817,1,0,0:0:0:0:
320,192,33817,1,0,0:0:0:0:
448,192,33817,128,0,41202:0:0:0:0:
64,192,41202,128,0,48586:0:0:0:0:
192,192,41202,1,0,0:0:0:0:
192,192,48586,1,0,0:0:0:0:
448,192,48586,1,0,0:0:0:0:
320,192,48586,128,0,55971:0:0:0:0:
192,192,55971,1,0,0:0:0:0:
448,192,55971,1,0,0:0:0:0:
64,192,55971,128,0,57817:0:0:0:0:
320,192,57817,1,0,0:0:0:0:
448,192,57817,1,0,0:0:0:0:
192,192,57817,128,0,59663:0:0:0:0:
64,192,59356,1,0,0:0:0:0:
320,192,59356,1,0,0:0:0:0:
448,192,59663,1,0,0:0:0:0:
320,192,59663,1,0,0:0:0:0:
64,192,59663,128,0,61509:0:0:0:0:
192,192,61509,1,0,0:0:0:0:
320,192,61509,1,0,0:0:0:0:
448,192,61509,1,0,0:0:0:0:
64,192,61663,1,0,0:0:0:0:
192,192,61663,1,0,0:0:0:0:
448,192,61817,1,0,0:0:0:0:
192,192,61817,1,0,0:0:0:0:
320,192,61971,1,0,0:0:0:0:
448,192,61971,1,0,0:0:0:0:
64,192,62125,1,0,0:0:0:0:
192,192,62125,1,0,0:0:0:0:
64,192,62279,1,0,0:0:0:0:
320,192,62279,1,0,0:0:0:0:
192,192,62432,1,0,0:0:0:0:
64,192,62432,1,0,0:0:0:0:
448,192,62432,1,0,0:0:0:0:
320,192,62586,1,0,0:0:0:0:
192,192,62586,1,0,0:0:0:0:
192,192,62740,1,0,0:0:0:0:
64,192,62740,1,0,0:0:0:0:
320,192,62740,1,0,0:0:0:0:
320,192,62894,1,0,0:0:0:0:
448,192,62894,1,0,0:0:0:0:
192,192,63048,1,0,0:0:0:0:
64,192,63048,1,0,0:0:0:0:
320,192,63125,1,0,0:0:0:0:
448,192,63125,1,0,0:0:0:0:
192,192,63202,1,0,0:0:0:0:
64,192,63202,1,0,0:0:0:0:
320,192,63279,1,0,0:0:0:0:
448,192,63279,1,0,0:0:0:0:
192,192,63356,1,0,0:0:0:0:
448,192,63356,1,0,0:0:0:0:
64,192,63356,1,0,0:0:0:0:
320,192,63509,1,0,0:0:0:0:
320,192,63663,1,0,0:0:0:0:
448,192,63663,1,0,0:0:0:0:
64,192,63663,1,0,0:0:0:0:
192,192,63817,1,0,0:0:0:0:
192,192,63971,1,0,0:0:0:0:
64,192,63971,1,0,0:0:0:0:
448,192,63971,1,0,0:0:0:0:
448,192,64125,1,0,0:0:0:0:
448,192,64279,1,0,0:0:0:0:
320,192,64279,1,0,0:0:0:0:
192,192,64279,1,0,0:0:0:0:
192,192,64432,1,0,0:0:0:0:
320,192,64586,1,0,0:0:0:0:
448,192,64586,1,0,0:0:0:0:
64,192,64586,1,0,0:0:0:0:
320,192,64740,1,0,0:0:0:0:
64,192,64894,1,0,0:0:0:0:
192,192,64894,1,0,0:0:0:0:
320,192,64894,1,0,0:0:0:0:
192,192,65048,1,0,0:0:0:0:
448,192,65202,1,0,0:0:0:0:
320,192,65202,1,0,0:0:0:0:
64,192,65202,1,0,0:0:0:0:
448,192,65356,1,0,0:0:0:0:
320,192,65509,1,0,0:0:0:0:
64,192,65509,1,0,0:0:0:0:
192,192,65509,1,0,0:0:0:0:
192,192,65663,1,0,0:0:0:0:
320,192,65817,1,0,0:0:0:0:
448,192,65817,1,0,0:0:0:0:
64,192,65817,1,0,0:0:0:0:
448,192,65971,1,0,0:0:0:0:
320,192,66125,1,0,0:0:0:0:
192,192,66125,1,0,0:0:0:0:
64,192,66125,1,0,0:0:0:0:
64,192,66279,1,0,0:0:0:0:
192,192,66432,1,0,0:0:0:0:
320,192,66432,1,0,0:0:0:0:
448,192,66432,1,0,0:0:0:0:
320,192,66586,1,0,0:0:0:0:
192,192,66740,1,0,0:0:0:0:
64,192,66740,1,0,0:0:0:0:
448,192,66740,1,0,0:0:0:0:
192,192,66894,1,0,0:0:0:0:
320,192,66894,1,0,0:0:0:0:
448,192,66894,1,0,0:0:0:0:
320,192,67048,1,0,0:0:0:0:
448,192,67048,1,0,0:0:0:0:
64,192,67048,1,0,0:0:0:0:
320,192,67202,1,0,0:0:0:0:
320,192,67356,1,0,0:0:0:0:
192,192,67356,1,0,0:0:0:0:
64,192,67356,1,0,0:0:0:0:
448,192,67509,1,0,0:0:0:0:
448,192,67663,1,0,0:0:0:0:
320,192,67663,1,0,0:0:0:0:
192,192,67663,1,0,0:0:0:0:
192,192,67817,1,0,0:0:0:0:
320,192,67971,1,0,0:0:0:0:
448,192,67971,1,0,0:0:0:0:
64,192,67971,1,0,0:0:0:0:
320,192,68125,1,0,0:0:0:0:
192,192,68279,1,0,0:0:0:0:
64,192,68279,1,0,0:0:0:0:
320,192,68279,1,0,0:0:0:0:
448,192,68432,1,0,0:0:0:0:
448,192,68586,1,0,0:0:0:0:
320,192,68586,1,0,0:0:0:0:
192,192,68586,1,0,0:0:0:0:
192,192,68740,1,0,0:0:0:0:
192,192,68894,1,0,0:0:0:0:
64,192,68894,1,0,0:0:0:0:
320,192,68894,1,0,0:0:0:0:
192,192,69048,1,0,0:0:0:0:
320,192,69048,1,0,0:0:0:0:
448,192,69048,1,0,0:0:0:0:
320,192,69202,1,0,0:0:0:0:
448,192,69202,1,0,0:0:0:0:
64,192,69202,1,0,0:0:0:0:
64,192,69356,1,0,0:0:0:0:
192,192,69356,1,0,0:0:0:0:
448,192,69356,1,0,0:0:0:0:
64,192,69509,1,0,0:0:0:0:
192,192,69509,1,0,0:0:0:0:
320,192,69509,1,0,0:0:0:0:
320,192,69817,1,0,0:0:0:0:
448,192,69817,1,0,0:0:0:0:
192,192,69894,1,0,0:0:0:0:
64,192,69894,1,0,0:0:0:0:
320,192,69971,1,0,0:0:0:0:
448,192,69971,1,0,0:0:0:0:
64,192,70048,1,0,0:0:0:0:
192,192,70048,1,0,0:0:0:0:
320,192,70125,1,0,0:0:0:0:
448,192,70125,1,0,0:0:0:0:
192,192,70202,1,0,0:0:0:0:
64,192,70202,1,0,0:0:0:0:
320,192,70279,1,0,0:0:0:0:
448,192,70279,1,0,0:0:0:0:
192,192,70356,1,0,0:0:0:0:
64,192,70356,1,0,0:0:0:0:
448,192,70432,128,0,70740:0:0:0:0:
64,192,70740,1,0,0:0:0:0:
192,192,70740,1,0,0:0:0:0:
320,192,70740,1,0,0:0:0:0:
192,192,70894,1,0,0:0:0:0:
320,192,71048,1,0,0:0:0:0:
448,192,71048,1,0,0:0:0:0:
64,192,71048,1,0,0:0:0:0:
64,192,71202,1,0,0:0:0:0:
192,192,71356,1,0,0:0:0:0:
320,192,71356,1,0,0:0:0:0:
448,192,71356,1,0,0:0:0:0:
448,192,71509,1,0,0:0:0:0:
320,192,71663,1,0,0:0:0:0:
192,192,71663,1,0,0:0:0:0:
64,192,71663,1,0,0:0:0:0:
192,192,71817,1,0,0:0:0:0:
320,192,71971,1,0,0:0:0:0:
448,192,71971,1,0,0:0:0:0:
64,192,71971,1,0,0:0:0:0:
448,192,72125,1,0,0:0:0:0:
320,192,72279,1,0,0:0:0:0:
192,192,72279,1,0,0:0:0:0:
64,192,72279,1,0,0:0:0:0:
192,192,72432,1,0,0:0:0:0:
448,192,72586,1,0,0:0:0:0:
320,192,72586,1,0,0:0:0:0:
192,192,72586,1,0,0:0:0:0:
320,192,72740,1,0,0:0:0:0:
192,192,72894,1,0,0:0:0:0:
64,192,72894,1,0,0:0:0:0:
448,192,72894,1,0,0:0:0:0:
64,192,73048,1,0,0:0:0:0:
192,192,73202,1,0,0:0:0:0:
320,192,73202,1,0,0:0:0:0:
448,192,73202,1,0,0:0:0:0:
192,192,73356,1,0,0:0:0:0:
64,192,73509,1,0,0:0:0:0:
320,192,73509,1,0,0:0:0:0:
448,192,73509,1,0,0:0:0:0:
448,192,73663,1,0,0:0:0:0:
320,192,73817,1,0,0:0:0:0:
192,192,73817,1,0,0:0:0:0:
64,192,73817,1,0,0:0:0:0:
64,192,73971,1,0,0:0:0:0:
192,192,74125,128,0,74432:0:0:0:0:
320,192,74432,1,0,0:0:0:0:
448,192,74432,1,0,0:0:0:0:
64,192,74432,1,0,0:0:0:0:
192,192,74586,1,0,0:0:0:0:
320,192,74740,1,0,0:0:0:0:
448,192,74740,1,0,0:0:0:0:
64,192,74740,1,0,0:0:0:0:
64,192,74894,1,0,0:0:0:0:
192,192,75048,1,0,0:0:0:0:
320,192,75048,1,0,0:0:0:0:
448,192,75048,1,0,0:0:0:0:
320,192,75202,1,0,0:0:0:0:
448,192,75356,1,0,0:0:0:0:
192,192,75356,1,0,0:0:0:0:
64,192,75356,1,0,0:0:0:0:
192,192,75509,1,0,0:0:0:0:
64,192,75663,1,0,0:0:0:0:
320,192,75663,1,0,0:0:0:0:
448,192,75663,1,0,0:0:0:0:
448,192,75817,1,0,0:0:0:0:
64,192,75971,128,0,76279:0:0:0:0:
192,192,76279,1,0,0:0:0:0:
320,192,76279,1,0,0:0:0:0:
448,192,76279,1,0,0:0:0:0:
64,192,76355,1,0,0:0:0:0:
320,192,76432,1,0,0:0:0:0:
448,192,76509,1,0,0:0:0:0:
320,192,76586,1,0,0:0:0:0:
192,192,76586,1,0,0:0:0:0:
64,192,76586,1,0,0:0:0:0:
448,192,76663,1,0,0:0:0:0:
64,192,76740,1,0,0:0:0:0:
320,192,76817,1,0,0:0:0:0:
192,192,76894,1,0,0:0:0:0:
448,192,76971,1,0,0:0:0:0:
64,192,77048,1,0,0:0:0:0:
192,192,77125,1,0,0:0:0:0:
64,192,77202,1,0,0:0:0:0:
320,192,77202,1,0,0:0:0:0:
448,192,77202,1,0,0:0:0:0:
192,192,77279,1,0,0:0:0:0:
448,192,77356,1,0,0:0:0:0:
320,192,77432,1,0,0:0:0:0:
448,192,77509,1,0,0:0:0:0:
192,192,77509,1,0,0:0:0:0:
64,192,77509,1,0,0:0:0:0:
320,192,77586,1,0,0:0:0:0:
448,192,77663,1,0,0:0:0:0:
64,192,77740,1,0,0:0:0:0:
320,192,77817,1,0,0:0:0:0:
192,192,77894,1,0,0:0:0:0:
448,192,77971,1,0,0:0:0:0:
320,192,78048,1,0,0:0:0:0:
448,192,78125,1,0,0:0:0:0:
192,192,78125,1,0,0:0:0:0:
64,192,78125,1,0,0:0:0:0:
192,192,78279,1,0,0:0:0:0:
320,192,78432,1,0,0:0:0:0:
448,192,78432,1,0,0:0:0:0:
64,192,78432,1,0,0:0:0:0:
320,192,78586,1,0,0:0:0:0:
448,192,78740,1,0,0:0:0:0:
192,192,78740,1,0,0:0:0:0:
64,192,78740,1,0,0:0:0:0:
192,192,78894,1,0,0:0:0:0:
448,192,79048,1,0,0:0:0:0:
320,192,79048,1,0,0:0:0:0:
64,192,79048,1,0,0:0:0:0:
320,192,79202,1,0,0:0:0:0:
448,192,79356,1,0,0:0:0:0:
192,192,79356,1,0,0:0:0:0:
64,192,79356,1,0,0:0:0:0:
64,192,79509,1,0,0:0:0:0:
192,192,79663,1,0,0:0:0:0:
320,192,79663,1,0,0:0:0:0:
448,192,79663,1,0,0:0:0:0:
320,192,79817,1,0,0:0:0:0:
448,192,79971,1,0,0:0:0:0:
192,192,79971,1,0,0:0:0:0:
64,192,79971,1,0,0:0:0:0:
320,192,79971,1,0,0:0:0:0:
192,192,80125,1,0,0:0:0:0:
320,192,80279,1,0,0:0:0:0:
448,192,80279,1,0,0:0:0:0:
64,192,80279,1,0,0:0:0:0:
320,192,80432,1,0,0:0:0:0:
448,192,80586,1,0,0:0:0:0:
64,192,80586,1,0,0:0:0:0:
192,192,80586,1,0,0:0:0:0:
192,192,80740,1,0,0:0:0:0:
320,192,80894,1,0,0:0:0:0:
448,192,80894,1,0,0:0:0:0:
192,192,80894,1,0,0:0:0:0:
320,192,81048,1,0,0:0:0:0:
320,192,81202,1,0,0:0:0:0:
192,192,81202,1,0,0:0:0:0:
64,192,81202,1,0,0:0:0:0:
448,192,81356,1,0,0:0:0:0:
448,192,81509,1,0,0:0:0:0:
192,192,81509,1,0,0:0:0:0:
64,192,81509,1,0,0:0:0:0:
192,192,81663,1,0,0:0:0:0:
320,192,81663,1,0,0:0:0:0:
448,192,81663,1,0,0:0:0:0:
64,192,81817,1,0,0:0:0:0:
192,192,81817,1,0,0:0:0:0:
320,192,81817,1,0,0:0:0:0:
192,192,81971,1,0,0:0:0:0:
320,192,81971,1,0,0:0:0:0:
448,192,81971,1,0,0:0:0:0:
192,192,82125,1,0,0:0:0:0:
320,192,82125,1,0,0:0:0:0:
448,192,82125,1,0,0:0:0:0:
320,192,82279,1,0,0:0:0:0:
192,192,82279,1,0,0:0:0:0:
64,192,82279,1,0,0:0:0:0:
64,192,82432,1,0,0:0:0:0:
192,192,82432,1,0,0:0:0:0:
320,192,82432,1,0,0:0:0:0:
192,192,82586,1,0,0:0:0:0:
320,192,82586,1,0,0:0:0:0:
448,192,82586,1,0,0:0:0:0:
64,192,82740,1,0,0:0:0:0:
192,192,82740,1,0,0:0:0:0:
192,192,82894,1,0,0:0:0:0:
320,192,82894,1,0,0:0:0:0:
448,192,83048,1,0,0:0:0:0:
64,192,83048,1,0,0:0:0:0:
64,192,83202,1,0,0:0:0:0:
192,192,83202,1,0,0:0:0:0:
320,192,83356,1,0,0:0:0:0:
192,192,83356,1,0,0:0:0:0:
64,192,83509,1,0,0:0:0:0:
448,192,83509,1,0,0:0:0:0:
192,192,83663,1,0,0:0:0:0:
448,192,83740,1,0,0:0:0:0:
320,192,83817,1,0,0:0:0:0:
448,192,83894,1,0,0:0:0:0:
64,192,83971,1,0,0:0:0:0:
192,192,84048,1,0,0:0:0:0:
320,192,84125,1,0,0:0:0:0:
448,192,84202,1,0,0:0:0:0:
192,192,84279,1,0,0:0:0:0:
320,192,84356,1,0,0:0:0:0:
192,192,84432,1,0,0:0:0:0:
320,192,84509,1,0,0:0:0:0:
192,192,84586,1,0,0:0:0:0:
320,192,84663,1,0,0:0:0:0:
192,192,84740,1,0,0:0:0:0:
320,192,84817,1,0,0:0:0:0:
192,192,84894,1,0,0:0:0:0:
64,192,84971,1,0,0:0:0:0:
192,192,85048,1,0,0:0:0:0:
320,192,85125,1,0,0:0:0:0:
448,192,85202,1,0,0:0:0:0:
320,192,85279,1,0,0:0:0:0:
192,192,85356,1,0,0:0:0:0:
64,192,85432,1,0,0:0:0:0:
192,192,85509,1,0,0:0:0:0:
320,192,85509,1,0,0:0:0:0:
448,192,85509,1,0,0:0:0:0:
64,192,85586,1,0,0:0:0:0:
192,192,85663,1,0,0:0:0:0:
448,192,85663,1,0,0:0:0:0:
320,192,85740,1,0,0:0:0:0:
448,192,85817,1,0,0:0:0:0:
320,192,85893,1,0,0:0:0:0:
192,192,85970,1,0,0:0:0:0:
64,192,85971,1,0,0:0:0:0:
448,192,86047,1,0,0:0:0:0:
320,192,86048,1,0,0:0:0:0:
192,192,86124,1,0,0:0:0:0:
448,192,86125,1,0,0:0:0:0:
64,192,86125,1,0,0:0:0:0:
320,192,86201,1,0,0:0:0:0:
448,192,86279,1,0,0:0:0:0:
64,192,86279,1,0,0:0:0:0:
192,192,86356,1,0,0:0:0:0:
320,192,86432,1,0,0:0:0:0:
448,192,86432,1,0,0:0:0:0:
64,192,86432,1,0,0:0:0:0:
192,192,86509,1,0,0:0:0:0:
448,192,86586,1,0,0:0:0:0:
64,192,86586,1,0,0:0:0:0:
192,192,86662,1,0,0:0:0:0:
320,192,86739,1,0,0:0:0:0:
448,192,86740,1,0,0:0:0:0:
64,192,86740,1,0,0:0:0:0:
192,192,86816,1,0,0:0:0:0:
448,192,86893,1,0,0:0:0:0:
320,192,86893,1,0,0:0:0:0:
64,192,86970,1,0,0:0:0:0:
192,192,86970,1,0,0:0:0:0:
64,192,87048,1,0,0:0:0:0:
320,192,87048,1,0,0:0:0:0:
448,192,87048,1,0,0:0:0:0:
192,192,87125,1,0,0:0:0:0:
448,192,87202,1,0,0:0:0:0:
64,192,87202,1,0,0:0:0:0:
320,192,87279,1,0,0:0:0:0:
448,192,87356,1,0,0:0:0:0:
192,192,87356,1,0,0:0:0:0:
64,192,87356,1,0,0:0:0:0:
320,192,87432,1,0,0:0:0:0:
448,192,87509,1,0,0:0:0:0:
192,192,87509,1,0,0:0:0:0:
64,192,87586,1,0,0:0:0:0:
192,192,87663,1,0,0:0:0:0:
320,192,87663,1,0,0:0:0:0:
448,192,87663,1,0,0:0:0:0:
64,192,87740,1,0,0:0:0:0:
448,192,87817,1,0,0:0:0:0:
320,192,87817,1,0,0:0:0:0:
192,192,87894,1,0,0:0:0:0:
64,192,87894,1,0,0:0:0:0:
320,192,87971,1,0,0:0:0:0:
448,192,87971,1,0,0:0:0:0:
64,192,87971,1,0,0:0:0:0:
192,192,88047,1,0,0:0:0:0:
448,192,88124,1,0,0:0:0:0:
64,192,88125,1,0,0:0:0:0:
320,192,88202,1,0,0:0:0:0:
448,192,88279,1,0,0:0:0:0:
64,192,88279,1,0,0:0:0:0:
192,192,88279,1,0,0:0:0:0:
320,192,88356,1,0,0:0:0:0:
64,192,88432,1,0,0:0:0:0:
448,192,88432,1,0,0:0:0:0:
192,192,88509,1,0,0:0:0:0:
320,192,88586,1,0,0:0:0:0:
448,192,88586,1,0,0:0:0:0:
192,192,88663,1,0,0:0:0:0:
320,192,88740,1,0,0:0:0:0:
448,192,88740,1,0,0:0:0:0:
192,192,88817,1,0,0:0:0:0:
64,192,88817,1,0,0:0:0:0:
64,192,88894,1,0,0:0:0:0:
320,192,88894,1,0,0:0:0:0:
448,192,88894,1,0,0:0:0:0:
192,192,88971,1,0,0:0:0:0:
320,192,89048,1,0,0:0:0:0:
448,192,89048,1,0,0:0:0:0:
192,192,89125,1,0,0:0:0:0:
64,192,89125,1,0,0:0:0:0:
64,192,89202,1,0,0:0:0:0:
320,192,89202,1,0,0:0:0:0:
448,192,89202,1,0,0:0:0:0:
192,192,89279,1,0,0:0:0:0:
320,192,89356,1,0,0:0:0:0:
448,192,89356,1,0,0:0:0:0:
192,192,89432,1,0,0:0:0:0:
64,192,89432,1,0,0:0:0:0:
64,192,89509,1,0,0:0:0:0:
320,192,89509,1,0,0:0:0:0:
448,192,89509,1,0,0:0:0:0:
192,192,89586,1,0,0:0:0:0:
320,192,89663,1,0,0:0:0:0:
448,192,89663,1,0,0:0:0:0:
64,192,89739,1,0,0:0:0:0:
192,192,89740,1,0,0:0:0:0:
64,192,89817,1,0,0:0:0:0:
320,192,89817,1,0,0:0:0:0:
448,192,89817,1,0,0:0:0:0:
192,192,89894,1,0,0:0:0:0:
320,192,89971,1,0,0:0:0:0:
448,192,89971,1,0,0:0:0:0:
192,192,90048,1,0,0:0:0:0:
64,192,90048,1,0,0:0:0:0:
320,192,90125,1,0,0:0:0:0:
448,192,90125,1,0,0:0:0:0:
192,192,90202,1,0,0:0:0:0:
64,192,90279,1,0,0:0:0:0:
448,192,90279,1,0,0:0:0:0:
320,192,90356,1,0,0:0:0:0:
192,192,90432,1,0,0:0:0:0:
64,192,90432,1,0,0:0:0:0:
448,192,90432,1,0,0:0:0:0:
320,192,90509,1,0,0:0:0:0:
192,192,90586,1,0,0:0:0:0:
64,192,90586,1,0,0:0:0:0:
320,192,90663,1,0,0:0:0:0:
448,192,90663,1,0,0:0:0:0:
448,192,90740,1,0,0:0:0:0:
64,192,90740,1,0,0:0:0:0:
192,192,90740,1,0,0:0:0:0:
192,192,90817,1,0,0:0:0:0:
320,192,90894,128,0,90971:0:0:0:0:
448,192,90894,128,0,90971:0:0:0:0:
64,192,91048,1,0,0:0:0:0:
192,192,91048,1,0,0:0:0:0:
448,192,91048,1,0,0:0:0:0:
320,192,91048,1,0,0:0:0:0:
320,192,91202,1,0,0:0:0:0:
448,192,91202,1,0,0:0:0:0:
192,192,91356,1,0,0:0:0:0:
64,192,91356,1,0,0:0:0:0:
64,192,91509,1,0,0:0:0:0:
192,192,91509,1,0,0:0:0:0:
320,192,91586,1,0,0:0:0:0:
448,192,91586,1,0,0:0:0:0:
192,192,91662,1,0,0:0:0:0:
64,192,91663,1,0,0:0:0:0:
448,192,91663,1,0,0:0:0:0:
64,192,91817,1,0,0:0:0:0:
192,192,91817,1,0,0:0:0:0:
320,192,91971,1,0,0:0:0:0:
448,192,91971,1,0,0:0:0:0:
64,192,91971,1,0,0:0:0:0:
192,192,92048,1,0,0:0:0:0:
320,192,92125,1,0,0:0:0:0:
448,192,92125,1,0,0:0:0:0:
64,192,92202,1,0,0:0:0:0:
192,192,92279,1,0,0:0:0:0:
448,192,92279,1,0,0:0:0:0:
320,192,92356,1,0,0:0:0:0:
192,192,92432,1,0,0:0:0:0:
64,192,92432,1,0,0:0:0:0:
320,192,92509,1,0,0:0:0:0:
448,192,92509,1,0,0:0:0:0:
64,192,92586,1,0,0:0:0:0:
192,192,92586,1,0,0:0:0:0:
320,192,92663,1,0,0:0:0:0:
448,192,92663,1,0,0:0:0:0:
64,192,92740,1,0,0:0:0:0:
192,192,92740,1,0,0:0:0:0:
320,192,92817,1,0,0:0:0:0:
448,192,92817,1,0,0:0:0:0:
64,192,92894,1,0,0:0:0:0:
448,192,92894,1,0,0:0:0:0:
192,192,92894,1,0,0:0:0:0:
320,192,93048,1,0,0:0:0:0:
448,192,93048,1,0,0:0:0:0:
192,192,93048,1,0,0:0:0:0:
64,192,93202,1,0,0:0:0:0:
192,192,93202,1,0,0:0:0:0:
320,192,93202,1,0,0:0:0:0:
64,192,93356,1,0,0:0:0:0:
320,192,93356,1,0,0:0:0:0:
448,192,93356,1,0,0:0:0:0:
192,192,93509,1,0,0:0:0:0:
320,192,93509,1,0,0:0:0:0:
64,192,93509,1,0,0:0:0:0:
320,192,93663,1,0,0:0:0:0:
448,192,93663,1,0,0:0:0:0:
64,192,93663,1,0,0:0:0:0:
64,192,93817,1,0,0:0:0:0:
192,192,93817,1,0,0:0:0:0:
320,192,93817,1,0,0:0:0:0:
448,192,93971,1,0,0:0:0:0:
192,192,93971,1,0,0:0:0:0:
64,192,93971,1,0,0:0:0:0:
192,192,94125,1,0,0:0:0:0:
320,192,94125,1,0,0:0:0:0:
448,192,94125,1,0,0:0:0:0:
320,192,94279,1,0,0:0:0:0:
448,192,94279,1,0,0:0:0:0:
64,192,94279,1,0,0:0:0:0:
320,192,94432,1,0,0:0:0:0:
64,192,94432,1,0,0:0:0:0:
192,192,94432,1,0,0:0:0:0:
320,192,94586,1,0,0:0:0:0:
448,192,94586,1,0,0:0:0:0:
192,192,94586,1,0,0:0:0:0:
192,192,94740,1,0,0:0:0:0:
320,192,94740,1,0,0:0:0:0:
64,192,94740,1,0,0:0:0:0:
192,192,94894,1,0,0:0:0:0:
448,192,94894,1,0,0:0:0:0:
64,192,94894,1,0,0:0:0:0:
320,192,95048,1,0,0:0:0:0:
448,192,95048,1,0,0:0:0:0:
64,192,95048,1,0,0:0:0:0:
64,192,95202,1,0,0:0:0:0:
192,192,95202,1,0,0:0:0:0:
320,192,95202,1,0,0:0:0:0:
320,192,95356,1,0,0:0:0:0:
448,192,95356,1,0,0:0:0:0:
192,192,95356,1,0,0:0:0:0:
192,192,95509,1,0,0:0:0:0:
320,192,95509,1,0,0:0:0:0:
448,192,95509,1,0,0:0:0:0:
320,192,95663,1,0,0:0:0:0:
192,192,95663,1,0,0:0:0:0:
64,192,95663,1,0,0:0:0:0:
64,192,95817,1,0,0:0:0:0:
192,192,95817,1,0,0:0:0:0:
320,192,95817,1,0,0:0:0:0:
192,192,95971,1,0,0:0:0:0:
64,192,95971,1,0,0:0:0:0:
448,192,95971,1,0,0:0:0:0:
448,192,96125,1,0,0:0:0:0:
192,192,96125,1,0,0:0:0:0:
64,192,96125,1,0,0:0:0:0:
320,192,96279,1,0,0:0:0:0:
448,192,96279,1,0,0:0:0:0:
192,192,96279,1,0,0:0:0:0:
64,192,96432,1,0,0:0:0:0:
448,192,96432,1,0,0:0:0:0:
320,192,96509,1,0,0:0:0:0:
192,192,96509,1,0,0:0:0:0:
192,192,96586,1,0,0:0:0:0:
64,192,96586,1,0,0:0:0:0:
448,192,96586,1,0,0:0:0:0:
320,192,96663,1,0,0:0:0:0:
448,192,96740,1,0,0:0:0:0:
64,192,96740,1,0,0:0:0:0:
192,192,96817,1,0,0:0:0:0:
320,192,96817,1,0,0:0:0:0:
448,192,96894,1,0,0:0:0:0:
64,192,96894,1,0,0:0:0:0:
320,192,96971,1,0,0:0:0:0:
64,192,97048,1,0,0:0:0:0:
192,192,97048,1,0,0:0:0:0:
320,192,97125,1,0,0:0:0:0:
448,192,97202,1,0,0:0:0:0:
64,192,97202,1,0,0:0:0:0:
192,192,97279,1,0,0:0:0:0:
64,192,97356,1,0,0:0:0:0:
448,192,97356,1,0,0:0:0:0:
320,192,97432,1,0,0:0:0:0:
192,192,97432,1,0,0:0:0:0:
448,192,97509,1,0,0:0:0:0:
64,192,97509,1,0,0:0:0:0:
320,192,97586,1,0,0:0:0:0:
192,192,97663,1,0,0:0:0:0:
64,192,97663,1,0,0:0:0:0:
320,192,97740,1,0,0:0:0:0:
448,192,97817,1,0,0:0:0:0:
64,192,97817,1,0,0:0:0:0:
192,192,97894,1,0,0:0:0:0:
320,192,97971,1,0,0:0:0:0:
448,192,97971,1,0,0:0:0:0:
192,192,98048,1,0,0:0:0:0:
64,192,98125,1,0,0:0:0:0:
448,192,98125,1,0,0:0:0:0:
192,192,98202,1,0,0:0:0:0:
320,192,98279,1,0,0:0:0:0:
448,192,98279,1,0,0:0:0:0:
192,192,98356,1,0,0:0:0:0:
64,192,98356,1,0,0:0:0:0:
320,192,98432,1,0,0:0:0:0:
448,192,98432,1,0,0:0:0:0:
192,192,98509,1,0,0:0:0:0:
64,192,98586,1,0,0:0:0:0:
448,192,98586,1,0,0:0:0:0:
192,192,98663,1,0,0:0:0:0:
320,192,98740,1,0,0:0:0:0:
448,192,98740,1,0,0:0:0:0:
192,192,98817,1,0,0:0:0:0:
64,192,98894,1,0,0:0:0:0:
448,192,98894,1,0,0:0:0:0:
320,192,98971,1,0,0:0:0:0:
192,192,99048,1,0,0:0:0:0:
64,192,99048,1,0,0:0:0:0:
320,192,99125,1,0,0:0:0:0:
192,192,99202,1,0,0:0:0:0:
64,192,99202,1,0,0:0:0:0:
320,192,99279,1,0,0:0:0:0:
448,192,99279,1,0,0:0:0:0:
64,192,99586,128,0,100279:0:0:0:0:
192,192,99663,128,0,100279:0:0:0:0:
320,192,100279,1,0,0:0:0:0:
448,192,100279,1,0,0:0:0:0:
320,192,100432,1,0,0:0:0:0:
192,192,100586,1,0,0:0:0:0:
64,192,100586,1,0,0:0:0:0:
448,192,100586,1,0,0:0:0:0:
64,192,100739,1,0,0:0:0:0:
192,192,100893,1,0,0:0:0:0:
320,192,100893,1,0,0:0:0:0:
448,192,100893,1,0,0:0:0:0:
320,192,101047,1,0,0:0:0:0:
448,192,101201,1,0,0:0:0:0:
192,192,101201,1,0,0:0:0:0:
64,192,101201,1,0,0:0:0:0:
192,192,101355,1,0,0:0:0:0:
320,192,101509,1,0,0:0:0:0:
448,192,101509,1,0,0:0:0:0:
64,192,101509,1,0,0:0:0:0:
64,192,101662,1,0,0:0:0:0:
192,192,101816,1,0,0:0:0:0:
320,192,101816,1,0,0:0:0:0:
448,192,101816,1,0,0:0:0:0:
192,192,101970,1,0,0:0:0:0:
320,192,102124,1,0,0:0:0:0:
448,192,102124,1,0,0:0:0:0:
64,192,102124,1,0,0:0:0:0:
64,192,102278,1,0,0:0:0:0:
64,192,102432,1,0,0:0:0:0:
192,192,102432,1,0,0:0:0:0:
320,192,102432,1,0,0:0:0:0:
320,192,102586,1,0,0:0:0:0:
320,192,102739,1,0,0:0:0:0:
448,192,102739,1,0,0:0:0:0:
192,192,102739,1,0,0:0:0:0:
192,192,102893,1,0,0:0:0:0:
192,192,103047,1,0,0:0:0:0:
448,192,103047,1,0,0:0:0:0:
64,192,103047,1,0,0:0:0:0:
448,192,103201,1,0,0:0:0:0:
448,192,103355,1,0,0:0:0:0:
320,192,103355,1,0,0:0:0:0:
192,192,103355,1,0,0:0:0:0:
320,192,103509,1,0,0:0:0:0:
64,192,103662,128,0,103970:0:0:0:0:
192,192,103970,1,0,0:0:0:0:
320,192,103970,1,0,0:0:0:0:
448,192,103970,1,0,0:0:0:0:
320,192,104124,1,0,0:0:0:0:
320,192,104278,1,0,0:0:0:0:
448,192,104278,1,0,0:0:0:0:
192,192,104278,1,0,0:0:0:0:
448,192,104432,1,0,0:0:0:0:
320,192,104586,1,0,0:0:0:0:
64,192,104586,1,0,0:0:0:0:
448,192,104586,1,0,0:0:0:0:
64,192,104739,1,0,0:0:0:0:
64,192,104893,1,0,0:0:0:0:
320,192,104893,1,0,0:0:0:0:
448,192,104893,1,0,0:0:0:0:
320,192,105047,1,0,0:0:0:0:
448,192,105201,1,0,0:0:0:0:
320,192,105201,1,0,0:0:0:0:
192,192,105201,1,0,0:0:0:0:
192,192,105355,1,0,0:0:0:0:
320,192,105509,1,0,0:0:0:0:
448,192,105509,1,0,0:0:0:0:
64,192,105509,1,0,0:0:0:0:
320,192,105662,1,0,0:0:0:0:
448,192,105816,1,0,0:0:0:0:
192,192,105816,1,0,0:0:0:0:
64,192,105816,1,0,0:0:0:0:
320,192,105970,1,0,0:0:0:0:
448,192,105970,1,0,0:0:0:0:
192,192,105970,1,0,0:0:0:0:
320,192,106124,1,0,0:0:0:0:
448,192,106124,1,0,0:0:0:0:
64,192,106124,1,0,0:0:0:0:
320,192,106278,1,0,0:0:0:0:
192,192,106432,1,0,0:0:0:0:
64,192,106432,1,0,0:0:0:0:
448,192,106432,1,0,0:0:0:0:
320,192,106586,1,0,0:0:0:0:
448,192,106586,1,0,0:0:0:0:
64,192,106586,1,0,0:0:0:0:
192,192,106739,1,0,0:0:0:0:
320,192,106739,1,0,0:0:0:0:
448,192,106739,1,0,0:0:0:0:
192,192,106893,1,0,0:0:0:0:
320,192,107047,1,0,0:0:0:0:
448,192,107047,1,0,0:0:0:0:
64,192,107047,1,0,0:0:0:0:
192,192,107355,128,0,107662:0:0:0:0:
320,192,107662,1,0,0:0:0:0:
448,192,107662,1,0,0:0:0:0:
64,192,107662,1,0,0:0:0:0:
448,192,107816,1,0,0:0:0:0:
448,192,107970,1,0,0:0:0:0:
320,192,107970,1,0,0:0:0:0:
192,192,107970,1,0,0:0:0:0:
192,192,108124,1,0,0:0:0:0:
320,192,108278,1,0,0:0:0:0:
448,192,108278,1,0,0:0:0:0:
64,192,108278,1,0,0:0:0:0:
64,192,108432,1,0,0:0:0:0:
192,192,108586,1,0,0:0:0:0:
64,192,108586,1,0,0:0:0:0:
448,192,108586,1,0,0:0:0:0:
320,192,108739,1,0,0:0:0:0:
448,192,108893,1,0,0:0:0:0:
320,192,108893,1,0,0:0:0:0:
192,192,108893,1,0,0:0:0:0:
64,192,109047,1,0,0:0:0:0:
320,192,109201,1,0,0:0:0:0:
448,192,109201,1,0,0:0:0:0:
64,192,109201,1,0,0:0:0:0:
64,192,109355,1,0,0:0:0:0:
192,192,109355,1,0,0:0:0:0:
320,192,109355,1,0,0:0:0:0:
320,192,109509,1,0,0:0:0:0:
448,192,109509,1,0,0:0:0:0:
192,192,109509,1,0,0:0:0:0:
64,192,109662,1,0,0:0:0:0:
192,192,109662,1,0,0:0:0:0:
448,192,109662,1,0,0:0:0:0:
320,192,109816,1,0,0:0:0:0:
448,192,109816,1,0,0:0:0:0:
64,192,109816,1,0,0:0:0:0:
64,192,110124,1,0,0:0:0:0:
192,192,110124,1,0,0:0:0:0:
448,192,110124,1,0,0:0:0:0:
448,192,110278,1,0,0:0:0:0:
448,192,110432,1,0,0:0:0:0:
320,192,110432,1,0,0:0:0:0:
192,192,110432,1,0,0:0:0:0:
192,192,110586,1,0,0:0:0:0:
320,192,110739,1,0,0:0:0:0:
448,192,110739,1,0,0:0:0:0:
64,192,110739,1,0,0:0:0:0:
320,192,110893,1,0,0:0:0:0:
192,192,111047,1,0,0:0:0:0:
320,192,111047,1,0,0:0:0:0:
448,192,111047,1,0,0:0:0:0:
192,192,111201,1,0,0:0:0:0:
320,192,111355,1,0,0:0:0:0:
448,192,111355,1,0,0:0:0:0:
64,192,111355,1,0,0:0:0:0:
192,192,111355,1,0,0:0:0:0:
320,192,111509,1,0,0:0:0:0:
448,192,111662,1,0,0:0:0:0:
320,192,111662,1,0,0:0:0:0:
192,192,111662,1,0,0:0:0:0:
448,192,111816,1,0,0:0:0:0:
320,192,111970,1,0,0:0:0:0:
192,192,111970,1,0,0:0:0:0:
64,192,111970,1,0,0:0:0:0:
64,192,112124,1,0,0:0:0:0:
192,192,112278,1,0,0:0:0:0:
320,192,112278,1,0,0:0:0:0:
448,192,112278,1,0,0:0:0:0:
192,192,112432,1,0,0:0:0:0:
320,192,112586,1,0,0:0:0:0:
448,192,112586,1,0,0:0:0:0:
64,192,112586,1,0,0:0:0:0:
192,192,112893,1,0,0:0:0:0:
64,192,113201,1,0,0:0:0:0:
192,192,113201,1,0,0:0:0:0:
320,192,113201,1,0,0:0:0:0:
448,192,113278,1,0,0:0:0:0:
192,192,113355,1,0,0:0:0:0:
320,192,113432,1,0,0:0:0:0:
192,192,113509,1,0,0:0:0:0:
64,192,113509,1,0,0:0:0:0:
448,192,113509,1,0,0:0:0:0:
320,192,113586,1,0,0:0:0:0:
192,192,113662,1,0,0:0:0:0:
448,192,113739,1,0,0:0:0:0:
320,192,113816,1,0,0:0:0:0:
192,192,113816,1,0,0:0:0:0:
64,192,113816,1,0,0:0:0:0:
448,192,113893,1,0,0:0:0:0:
192,192,113970,1,0,0:0:0:0:
320,192,114047,1,0,0:0:0:0:
448,192,114124,1,0,0:0:0:0:
192,192,114124,1,0,0:0:0:0:
64,192,114124,1,0,0:0:0:0:
320,192,114201,1,0,0:0:0:0:
64,192,114278,1,0,0:0:0:0:
192,192,114355,1,0,0:0:0:0:
64,192,114432,1,0,0:0:0:0:
320,192,114432,1,0,0:0:0:0:
448,192,114432,1,0,0:0:0:0:
192,192,114509,1,0,0:0:0:0:
320,192,114586,1,0,0:0:0:0:
64,192,114662,1,0,0:0:0:0:
192,192,114739,1,0,0:0:0:0:
448,192,114739,1,0,0:0:0:0:
320,192,114739,1,0,0:0:0:0:
64,192,115047,128,0,119201:0:0:0:0:
192,192,115047,128,0,115124:0:0:0:0:
448,192,115201,128,0,115278:0:0:0:0:
320,192,115355,128,0,115432:0:0:0:0:
448,192,115662,128,0,115739:0:0:0:0:
192,192,115970,128,0,116047:0:0:0:0:
448,192,116278,128,0,116355:0:0:0:0:
192,192,116432,128,0,116509:0:0:0:0:
320,192,116586,128,0,116662:0:0:0:0:
448,192,116739,128,0,116816:0:0:0:0:
192,192,116893,128,0,116970:0:0:0:0:
320,192,117201,128,0,117278:0:0:0:0:
192,192,117509,128,0,117586:0:0:0:0:
448,192,117816,128,0,119201:0:0:0:0:
