osu file format v14

[General]
AudioFilename: Fuuji.mp3
AudioLeadIn: 0
PreviewTime: 57027
Countdown: 0
SampleSet: Normal
StackLeniency: 0.7
Mode: 3
LetterboxInBreaks: 0
SpecialStyle: 0
WidescreenStoryboard: 1

[Editor]
DistanceSpacing: 0.8
BeatDivisor: 8
GridSize: 16
TimelineZoom: 2.2

[Metadata]
Title:Mania Beatmap Pack
TitleUnicode:Mania Beatmap Pack
Artist:various artists
ArtistUnicode:various artists
Creator:GlassyKiller
Version:Colorful Sounds Port - Fuujin Raijin
Source:SDVX II GRAVITY WARS
Tags:
BeatmapID:1816790
BeatmapSetID:840856

[Difficulty]
HPDrainRate:9
CircleSize:4
OverallDifficulty:8
ApproachRate:5
SliderMultiplier:1.4
SliderTickRate:1

[Events]
//Background and Video events
0,0,"menu-background.jpg",0,0
//Break Periods
//Storyboard Layer 0 (Background)
//Storyboard Layer 1 (Fail)
//Storyboard Layer 2 (Pass)
//Storyboard Layer 3 (Foreground)
//Storyboard Sound Samples

[TimingPoints]
1675,422.535211267606,4,2,3,100,1,0
1675,-100,4,1,3,100,0,0
57449,-100,4,1,3,100,0,1
71815,-200,4,1,3,100,0,1
72660,-125,4,1,3,100,0,0
74351,-100,4,1,3,100,0,0
87872,452.830188679245,4,1,3,100,1,0
87872,-93.4579439252336,4,1,3,100,0,0
88324,-98.0392156862745,4,1,3,100,0,0
88777,-104.166666666667,4,1,3,100,0,0
89230,459.770114942529,4,1,3,100,1,0
89230,-108.695652173913,4,1,3,100,0,0
89677,512.820512820513,4,1,3,100,1,0
89677,-103.092783505155,4,1,3,100,0,0
90201,476.190476190476,4,1,3,100,1,0
90201,-119.047619047619,4,1,3,100,0,0
90677,521.739130434783,4,1,3,100,1,0
90677,-116.279069767442,4,1,3,100,0,0
91198,-125,4,1,3,100,0,0
91720,662.983425414365,4,1,3,100,1,0
91720,-106.382978723404,4,1,3,100,0,0

[HitObjects]
320,192,2942,5,0,0:0:0:0:
192,192,3153,1,0,0:0:0:0:
64,192,3365,1,0,0:0:0:0:
448,192,3365,1,0,0:0:0:0:
192,192,3576,1,0,0:0:0:0:
448,192,3787,1,0,0:0:0:0:
320,192,3998,1,0,0:0:0:0:
64,192,4210,1,0,0:0:0:0:
192,192,4632,1,0,0:0:0:0:
448,192,4844,1,0,0:0:0:0:
320,192,5055,1,0,0:0:0:0:
64,192,5266,1,0,0:0:0:0:
192,192,5477,1,0,0:0:0:0:
64,192,5689,1,0,0:0:0:0:
320,192,5900,1,0,0:0:0:0:
192,192,6322,1,0,0:0:0:0:
320,192,6534,1,0,0:0:0:0:
448,192,6745,1,0,0:0:0:0:
192,192,7167,1,0,0:0:0:0:
64,192,7590,1,0,0:0:0:0:
320,192,8013,1,0,0:0:0:0:
448,192,8435,1,0,0:0:0:0:
192,192,8858,1,0,0:0:0:0:
320,192,9280,1,0,0:0:0:0:
192,192,9703,1,0,0:0:0:0:
320,192,9914,1,0,0:0:0:0:
448,192,10125,1,0,0:0:0:0:
64,192,10125,1,0,0:0:0:0:
320,192,10336,1,0,0:0:0:0:
192,192,10548,1,0,0:0:0:0:
320,192,10759,1,0,0:0:0:0:
448,192,10759,1,0,0:0:0:0:
192,192,10970,1,0,0:0:0:0:
64,192,10970,1,0,0:0:0:0:
448,192,10970,1,0,0:0:0:0:
448,192,11393,1,0,0:0:0:0:
64,192,11393,1,0,0:0:0:0:
192,192,11604,1,0,0:0:0:0:
320,192,11604,1,0,0:0:0:0:
448,192,11815,1,0,0:0:0:0:
320,192,12027,1,0,0:0:0:0:
64,192,12027,1,0,0:0:0:0:
192,192,12238,1,0,0:0:0:0:
320,192,12449,1,0,0:0:0:0:
448,192,12660,1,0,0:0:0:0:
192,192,12660,1,0,0:0:0:0:
64,192,12660,1,0,0:0:0:0:
320,192,13083,1,0,0:0:0:0:
192,192,13294,1,0,0:0:0:0:
64,192,13294,1,0,0:0:0:0:
448,192,13505,1,0,0:0:0:0:
320,192,13505,1,0,0:0:0:0:
64,192,13928,1,0,0:0:0:0:
320,192,14139,1,0,0:0:0:0:
192,192,14139,1,0,0:0:0:0:
192,192,14351,1,0,0:0:0:0:
64,192,14351,1,0,0:0:0:0:
448,192,14351,1,0,0:0:0:0:
320,192,14773,1,0,0:0:0:0:
448,192,14773,1,0,0:0:0:0:
64,192,15196,1,0,0:0:0:0:
448,192,15196,1,0,0:0:0:0:
320,192,15196,1,0,0:0:0:0:
192,192,15407,1,0,0:0:0:0:
320,192,15618,1,0,0:0:0:0:
448,192,15618,1,0,0:0:0:0:
192,192,15829,1,0,0:0:0:0:
64,192,16041,1,0,0:0:0:0:
320,192,16041,1,0,0:0:0:0:
448,192,16252,1,0,0:0:0:0:
320,192,16463,1,0,0:0:0:0:
192,192,16463,1,0,0:0:0:0:
64,192,16675,1,0,0:0:0:0:
320,192,16886,1,0,0:0:0:0:
448,192,16886,1,0,0:0:0:0:
192,192,17097,1,0,0:0:0:0:
64,192,17308,1,0,0:0:0:0:
448,192,17308,1,0,0:0:0:0:
320,192,17520,1,0,0:0:0:0:
448,192,17731,1,0,0:0:0:0:
192,192,17731,1,0,0:0:0:0:
320,192,17942,1,0,0:0:0:0:
64,192,18153,128,0,18365:0:0:0:0:
192,192,18153,1,0,0:0:0:0:
320,192,18365,128,0,18576:0:0:0:0:
448,192,18365,1,0,0:0:0:0:
192,192,18576,1,0,0:0:0:0:
64,192,18576,1,0,0:0:0:0:
320,192,18787,1,0,0:0:0:0:
448,192,18998,1,0,0:0:0:0:
64,192,18998,1,0,0:0:0:0:
320,192,19210,1,0,0:0:0:0:
192,192,19421,1,0,0:0:0:0:
64,192,19421,1,0,0:0:0:0:
320,192,19632,1,0,0:0:0:0:
448,192,19844,1,0,0:0:0:0:
64,192,19844,1,0,0:0:0:0:
192,192,20055,1,0,0:0:0:0:
320,192,20266,1,0,0:0:0:0:
64,192,20266,1,0,0:0:0:0:
448,192,20477,1,0,0:0:0:0:
320,192,20689,1,0,0:0:0:0:
192,192,20689,1,0,0:0:0:0:
64,192,20900,1,0,0:0:0:0:
320,192,21111,1,0,0:0:0:0:
448,192,21111,1,0,0:0:0:0:
64,192,21322,1,0,0:0:0:0:
448,192,21322,1,0,0:0:0:0:
192,192,21393,1,0,0:0:0:0:
320,192,21393,1,0,0:0:0:0:
64,192,21463,1,0,0:0:0:0:
448,192,21463,1,0,0:0:0:0:
320,192,21534,1,0,0:0:0:0:
192,192,21534,1,0,0:0:0:0:
64,192,21745,1,0,0:0:0:0:
192,192,21745,1,0,0:0:0:0:
448,192,21815,1,0,0:0:0:0:
320,192,21815,1,0,0:0:0:0:
64,192,21886,1,0,0:0:0:0:
192,192,21886,1,0,0:0:0:0:
320,192,21956,1,0,0:0:0:0:
448,192,21956,1,0,0:0:0:0:
64,192,21956,1,0,0:0:0:0:
448,192,22167,1,0,0:0:0:0:
64,192,22379,1,0,0:0:0:0:
320,192,22379,1,0,0:0:0:0:
192,192,22590,1,0,0:0:0:0:
64,192,22801,1,0,0:0:0:0:
448,192,22801,1,0,0:0:0:0:
192,192,23013,1,0,0:0:0:0:
320,192,23224,1,0,0:0:0:0:
448,192,23224,1,0,0:0:0:0:
192,192,23435,1,0,0:0:0:0:
64,192,23646,1,0,0:0:0:0:
448,192,23646,1,0,0:0:0:0:
320,192,23858,1,0,0:0:0:0:
448,192,24069,1,0,0:0:0:0:
64,192,24069,1,0,0:0:0:0:
192,192,24280,1,0,0:0:0:0:
320,192,24491,1,0,0:0:0:0:
448,192,24491,1,0,0:0:0:0:
192,192,24703,1,0,0:0:0:0:
448,192,24914,1,0,0:0:0:0:
64,192,24914,1,0,0:0:0:0:
320,192,25020,1,0,0:0:0:0:
192,192,25125,1,0,0:0:0:0:
448,192,25125,1,0,0:0:0:0:
320,192,25231,1,0,0:0:0:0:
192,192,25336,1,0,0:0:0:0:
64,192,25336,1,0,0:0:0:0:
320,192,25548,1,0,0:0:0:0:
448,192,25759,1,0,0:0:0:0:
64,192,25759,1,0,0:0:0:0:
64,192,25970,1,0,0:0:0:0:
448,192,25970,1,0,0:0:0:0:
192,192,26041,1,0,0:0:0:0:
320,192,26041,1,0,0:0:0:0:
448,192,26111,1,0,0:0:0:0:
64,192,26111,1,0,0:0:0:0:
192,192,26182,1,0,0:0:0:0:
320,192,26182,1,0,0:0:0:0:
448,192,26393,1,0,0:0:0:0:
320,192,26393,1,0,0:0:0:0:
64,192,26463,1,0,0:0:0:0:
192,192,26463,1,0,0:0:0:0:
320,192,26534,1,0,0:0:0:0:
448,192,26534,1,0,0:0:0:0:
64,192,26604,1,0,0:0:0:0:
192,192,26604,1,0,0:0:0:0:
448,192,26815,1,0,0:0:0:0:
320,192,26868,1,0,0:0:0:0:
64,192,26921,1,0,0:0:0:0:
192,192,26974,1,0,0:0:0:0:
448,192,27027,1,0,0:0:0:0:
64,192,27027,1,0,0:0:0:0:
320,192,27097,1,0,0:0:0:0:
192,192,27167,1,0,0:0:0:0:
64,192,27238,1,0,0:0:0:0:
320,192,27449,1,0,0:0:0:0:
448,192,27449,1,0,0:0:0:0:
192,192,27660,1,0,0:0:0:0:
64,192,27766,1,0,0:0:0:0:
192,192,27766,1,0,0:0:0:0:
320,192,27977,1,0,0:0:0:0:
320,192,28083,1,0,0:0:0:0:
448,192,28083,1,0,0:0:0:0:
192,192,28294,1,0,0:0:0:0:
64,192,28400,1,0,0:0:0:0:
192,192,28453,1,0,0:0:0:0:
320,192,28505,1,0,0:0:0:0:
448,192,28558,1,0,0:0:0:0:
64,192,28611,1,0,0:0:0:0:
192,192,28664,1,0,0:0:0:0:
320,192,28717,1,0,0:0:0:0:
448,192,28717,1,0,0:0:0:0:
64,192,28717,1,0,0:0:0:0:
192,192,28928,1,0,0:0:0:0:
320,192,29139,1,0,0:0:0:0:
448,192,29139,1,0,0:0:0:0:
64,192,29351,1,0,0:0:0:0:
192,192,29562,1,0,0:0:0:0:
448,192,29562,1,0,0:0:0:0:
320,192,29773,1,0,0:0:0:0:
448,192,29984,1,0,0:0:0:0:
64,192,29984,1,0,0:0:0:0:
192,192,30196,1,0,0:0:0:0:
320,192,30407,1,0,0:0:0:0:
192,192,30618,1,0,0:0:0:0:
64,192,30829,1,0,0:0:0:0:
320,192,31041,1,0,0:0:0:0:
448,192,31252,1,0,0:0:0:0:
192,192,31463,1,0,0:0:0:0:
320,192,31675,1,0,0:0:0:0:
64,192,31675,1,0,0:0:0:0:
192,192,31886,1,0,0:0:0:0:
448,192,32097,1,0,0:0:0:0:
320,192,32308,1,0,0:0:0:0:
64,192,32520,1,0,0:0:0:0:
192,192,32520,1,0,0:0:0:0:
448,192,32731,1,0,0:0:0:0:
320,192,32731,1,0,0:0:0:0:
192,192,32942,1,0,0:0:0:0:
64,192,32942,1,0,0:0:0:0:
448,192,32942,1,0,0:0:0:0:
320,192,33153,1,0,0:0:0:0:
448,192,33365,1,0,0:0:0:0:
64,192,33365,1,0,0:0:0:0:
192,192,33576,1,0,0:0:0:0:
320,192,33787,1,0,0:0:0:0:
192,192,33998,1,0,0:0:0:0:
64,192,34210,1,0,0:0:0:0:
320,192,34210,1,0,0:0:0:0:
192,192,34421,1,0,0:0:0:0:
320,192,34632,1,0,0:0:0:0:
448,192,34632,1,0,0:0:0:0:
192,192,34844,1,0,0:0:0:0:
320,192,35055,1,0,0:0:0:0:
64,192,35266,1,0,0:0:0:0:
448,192,35266,1,0,0:0:0:0:
192,192,35319,1,0,0:0:0:0:
320,192,35372,1,0,0:0:0:0:
448,192,35407,1,0,0:0:0:0:
64,192,35477,1,0,0:0:0:0:
192,192,35477,1,0,0:0:0:0:
320,192,35689,1,0,0:0:0:0:
448,192,35900,1,0,0:0:0:0:
64,192,35900,1,0,0:0:0:0:
192,192,36111,1,0,0:0:0:0:
320,192,36111,1,0,0:0:0:0:
448,192,36322,1,0,0:0:0:0:
192,192,36534,1,0,0:0:0:0:
64,192,36745,1,0,0:0:0:0:
320,192,36956,1,0,0:0:0:0:
448,192,37167,128,0,37590:0:0:0:0:
192,192,37379,1,0,0:0:0:0:
64,192,37590,1,0,0:0:0:0:
320,192,37590,1,0,0:0:0:0:
192,192,37801,1,0,0:0:0:0:
320,192,38013,1,0,0:0:0:0:
448,192,38013,1,0,0:0:0:0:
192,192,38224,1,0,0:0:0:0:
64,192,38435,1,0,0:0:0:0:
448,192,38435,1,0,0:0:0:0:
320,192,38646,1,0,0:0:0:0:
448,192,38858,1,0,0:0:0:0:
192,192,38858,1,0,0:0:0:0:
320,192,39069,1,0,0:0:0:0:
64,192,39280,1,0,0:0:0:0:
448,192,39280,1,0,0:0:0:0:
192,192,39491,1,0,0:0:0:0:
320,192,39703,1,0,0:0:0:0:
192,192,39914,1,0,0:0:0:0:
64,192,39914,1,0,0:0:0:0:
320,192,40125,1,0,0:0:0:0:
448,192,40336,1,0,0:0:0:0:
64,192,40548,1,0,0:0:0:0:
64,192,40689,1,0,0:0:0:0:
64,192,40865,1,0,0:0:0:0:
64,192,40970,1,0,0:0:0:0:
192,192,41182,1,0,0:0:0:0:
320,192,41393,1,0,0:0:0:0:
64,192,41815,1,0,0:0:0:0:
320,192,42027,1,0,0:0:0:0:
448,192,42079,1,0,0:0:0:0:
64,192,42132,1,0,0:0:0:0:
192,192,42185,1,0,0:0:0:0:
320,192,42238,1,0,0:0:0:0:
448,192,42238,1,0,0:0:0:0:
64,192,42238,1,0,0:0:0:0:
192,192,42449,1,0,0:0:0:0:
320,192,42449,1,0,0:0:0:0:
448,192,42660,1,0,0:0:0:0:
64,192,42660,1,0,0:0:0:0:
192,192,42872,1,0,0:0:0:0:
64,192,42872,1,0,0:0:0:0:
320,192,42977,1,0,0:0:0:0:
448,192,43083,1,0,0:0:0:0:
64,192,43083,1,0,0:0:0:0:
320,192,43294,1,0,0:0:0:0:
192,192,43294,1,0,0:0:0:0:
448,192,43505,1,0,0:0:0:0:
64,192,43505,1,0,0:0:0:0:
192,192,43717,1,0,0:0:0:0:
448,192,43928,1,0,0:0:0:0:
320,192,43928,1,0,0:0:0:0:
192,192,44139,1,0,0:0:0:0:
64,192,44351,1,0,0:0:0:0:
320,192,44351,1,0,0:0:0:0:
448,192,44562,1,0,0:0:0:0:
192,192,44562,1,0,0:0:0:0:
320,192,44667,1,0,0:0:0:0:
192,192,44773,1,0,0:0:0:0:
64,192,44773,1,0,0:0:0:0:
320,192,44984,1,0,0:0:0:0:
448,192,45196,1,0,0:0:0:0:
64,192,45196,1,0,0:0:0:0:
192,192,45301,1,0,0:0:0:0:
320,192,45407,1,0,0:0:0:0:
448,192,45407,1,0,0:0:0:0:
192,192,45513,1,0,0:0:0:0:
64,192,45618,1,0,0:0:0:0:
448,192,45618,1,0,0:0:0:0:
320,192,45829,1,0,0:0:0:0:
192,192,46041,1,0,0:0:0:0:
64,192,46041,1,0,0:0:0:0:
320,192,46252,1,0,0:0:0:0:
448,192,46463,1,0,0:0:0:0:
192,192,46463,1,0,0:0:0:0:
320,192,46675,1,0,0:0:0:0:
64,192,46886,1,0,0:0:0:0:
448,192,46886,1,0,0:0:0:0:
192,192,47097,1,0,0:0:0:0:
320,192,47308,1,0,0:0:0:0:
448,192,47308,1,0,0:0:0:0:
64,192,47520,1,0,0:0:0:0:
192,192,47520,1,0,0:0:0:0:
192,192,47625,1,0,0:0:0:0:
320,192,47625,1,0,0:0:0:0:
448,192,47731,1,0,0:0:0:0:
64,192,47731,1,0,0:0:0:0:
192,192,47836,1,0,0:0:0:0:
64,192,47836,1,0,0:0:0:0:
448,192,47942,1,0,0:0:0:0:
192,192,47942,1,0,0:0:0:0:
320,192,48048,1,0,0:0:0:0:
64,192,48048,1,0,0:0:0:0:
192,192,48153,1,0,0:0:0:0:
448,192,48153,1,0,0:0:0:0:
320,192,48259,1,0,0:0:0:0:
64,192,48259,1,0,0:0:0:0:
192,192,48365,1,0,0:0:0:0:
320,192,48365,1,0,0:0:0:0:
448,192,48470,1,0,0:0:0:0:
64,192,48470,1,0,0:0:0:0:
192,192,48576,1,0,0:0:0:0:
64,192,48576,1,0,0:0:0:0:
320,192,48576,1,0,0:0:0:0:
320,192,48787,1,0,0:0:0:0:
192,192,48787,1,0,0:0:0:0:
64,192,48787,1,0,0:0:0:0:
64,192,48998,1,0,0:0:0:0:
192,192,48998,1,0,0:0:0:0:
320,192,48998,1,0,0:0:0:0:
448,192,48998,1,0,0:0:0:0:
192,192,49210,1,0,0:0:0:0:
320,192,49421,1,0,0:0:0:0:
448,192,49421,1,0,0:0:0:0:
192,192,49632,1,0,0:0:0:0:
320,192,49738,1,0,0:0:0:0:
64,192,49844,1,0,0:0:0:0:
448,192,49844,1,0,0:0:0:0:
320,192,50055,1,0,0:0:0:0:
448,192,50266,1,0,0:0:0:0:
192,192,50266,1,0,0:0:0:0:
320,192,50477,1,0,0:0:0:0:
64,192,50689,1,0,0:0:0:0:
448,192,50689,1,0,0:0:0:0:
192,192,50900,1,0,0:0:0:0:
448,192,51111,1,0,0:0:0:0:
320,192,51111,1,0,0:0:0:0:
192,192,51322,1,0,0:0:0:0:
320,192,51428,1,0,0:0:0:0:
64,192,51534,1,0,0:0:0:0:
448,192,51534,1,0,0:0:0:0:
192,192,51745,1,0,0:0:0:0:
320,192,51956,1,0,0:0:0:0:
448,192,51956,1,0,0:0:0:0:
192,192,52167,1,0,0:0:0:0:
64,192,52167,1,0,0:0:0:0:
448,192,52379,1,0,0:0:0:0:
320,192,52379,1,0,0:0:0:0:
192,192,52590,1,0,0:0:0:0:
64,192,52801,1,0,0:0:0:0:
448,192,52801,1,0,0:0:0:0:
320,192,53013,1,0,0:0:0:0:
64,192,53224,1,0,0:0:0:0:
192,192,53224,1,0,0:0:0:0:
320,192,53435,1,0,0:0:0:0:
448,192,53646,1,0,0:0:0:0:
64,192,53646,1,0,0:0:0:0:
320,192,53858,1,0,0:0:0:0:
192,192,54069,1,0,0:0:0:0:
64,192,54069,1,0,0:0:0:0:
320,192,54280,1,0,0:0:0:0:
448,192,54280,1,0,0:0:0:0:
192,192,54386,1,0,0:0:0:0:
64,192,54386,1,0,0:0:0:0:
448,192,54491,1,0,0:0:0:0:
192,192,54491,1,0,0:0:0:0:
320,192,54597,1,0,0:0:0:0:
64,192,54597,1,0,0:0:0:0:
192,192,54703,1,0,0:0:0:0:
448,192,54703,1,0,0:0:0:0:
320,192,54808,1,0,0:0:0:0:
192,192,54914,1,0,0:0:0:0:
64,192,54914,1,0,0:0:0:0:
320,192,55125,1,0,0:0:0:0:
448,192,55125,1,0,0:0:0:0:
192,192,55336,1,0,0:0:0:0:
64,192,55336,1,0,0:0:0:0:
320,192,55548,1,0,0:0:0:0:
448,192,55548,1,0,0:0:0:0:
192,192,55759,1,0,0:0:0:0:
64,192,55759,1,0,0:0:0:0:
320,192,55865,1,0,0:0:0:0:
448,192,55917,1,0,0:0:0:0:
192,192,55970,1,0,0:0:0:0:
320,192,56023,1,0,0:0:0:0:
64,192,56076,1,0,0:0:0:0:
192,192,56129,1,0,0:0:0:0:
320,192,56182,1,0,0:0:0:0:
448,192,56182,1,0,0:0:0:0:
192,192,56604,1,0,0:0:0:0:
64,192,56604,1,0,0:0:0:0:
448,192,57027,1,0,0:0:0:0:
192,192,57027,1,0,0:0:0:0:
320,192,57238,1,0,0:0:0:0:
192,192,57449,1,0,0:0:0:0:
64,192,57449,1,0,0:0:0:0:
448,192,57449,1,0,0:0:0:0:
320,192,57449,1,0,0:0:0:0:
320,192,57660,1,0,0:0:0:0:
448,192,57660,1,0,0:0:0:0:
448,192,57872,1,0,0:0:0:0:
192,192,57872,1,0,0:0:0:0:
64,192,57872,1,0,0:0:0:0:
192,192,58083,1,0,0:0:0:0:
320,192,58083,1,0,0:0:0:0:
192,192,58294,1,0,0:0:0:0:
64,192,58294,1,0,0:0:0:0:
320,192,58294,1,0,0:0:0:0:
448,192,58505,1,0,0:0:0:0:
64,192,58505,1,0,0:0:0:0:
192,192,58717,1,0,0:0:0:0:
320,192,58717,1,0,0:0:0:0:
448,192,58717,1,0,0:0:0:0:
64,192,58928,1,0,0:0:0:0:
320,192,58928,1,0,0:0:0:0:
192,192,59139,1,0,0:0:0:0:
320,192,59139,1,0,0:0:0:0:
448,192,59139,1,0,0:0:0:0:
64,192,59351,1,0,0:0:0:0:
192,192,59351,1,0,0:0:0:0:
192,192,59562,1,0,0:0:0:0:
320,192,59562,1,0,0:0:0:0:
448,192,59562,1,0,0:0:0:0:
448,192,59773,1,0,0:0:0:0:
192,192,59773,1,0,0:0:0:0:
320,192,59984,1,0,0:0:0:0:
448,192,59984,1,0,0:0:0:0:
64,192,59984,1,0,0:0:0:0:
192,192,60196,1,0,0:0:0:0:
64,192,60196,1,0,0:0:0:0:
192,192,60407,1,0,0:0:0:0:
320,192,60407,1,0,0:0:0:0:
448,192,60407,1,0,0:0:0:0:
448,192,60618,1,0,0:0:0:0:
320,192,60618,1,0,0:0:0:0:
192,192,60618,1,0,0:0:0:0:
64,192,60829,1,0,0:0:0:0:
192,192,60829,1,0,0:0:0:0:
320,192,60829,1,0,0:0:0:0:
448,192,61041,1,0,0:0:0:0:
320,192,61041,1,0,0:0:0:0:
320,192,61252,1,0,0:0:0:0:
192,192,61252,1,0,0:0:0:0:
64,192,61252,1,0,0:0:0:0:
192,192,61463,1,0,0:0:0:0:
448,192,61463,1,0,0:0:0:0:
320,192,61675,1,0,0:0:0:0:
192,192,61675,1,0,0:0:0:0:
64,192,61675,1,0,0:0:0:0:
64,192,61886,1,0,0:0:0:0:
320,192,61886,1,0,0:0:0:0:
192,192,62097,1,0,0:0:0:0:
320,192,62097,1,0,0:0:0:0:
64,192,62097,1,0,0:0:0:0:
448,192,62203,1,0,0:0:0:0:
320,192,62308,1,0,0:0:0:0:
192,192,62308,1,0,0:0:0:0:
64,192,62414,1,0,0:0:0:0:
192,192,62520,1,0,0:0:0:0:
320,192,62520,1,0,0:0:0:0:
448,192,62520,1,0,0:0:0:0:
192,192,62731,1,0,0:0:0:0:
64,192,62731,1,0,0:0:0:0:
320,192,62836,1,0,0:0:0:0:
448,192,62942,1,0,0:0:0:0:
64,192,62942,1,0,0:0:0:0:
192,192,62942,1,0,0:0:0:0:
320,192,63048,1,0,0:0:0:0:
192,192,63153,1,0,0:0:0:0:
64,192,63153,1,0,0:0:0:0:
320,192,63259,1,0,0:0:0:0:
192,192,63365,1,0,0:0:0:0:
64,192,63365,1,0,0:0:0:0:
448,192,63365,1,0,0:0:0:0:
448,192,63576,1,0,0:0:0:0:
64,192,63576,1,0,0:0:0:0:
192,192,63646,1,0,0:0:0:0:
320,192,63646,1,0,0:0:0:0:
64,192,63717,1,0,0:0:0:0:
448,192,63717,1,0,0:0:0:0:
320,192,63787,1,0,0:0:0:0:
192,192,63787,1,0,0:0:0:0:
320,192,63998,1,0,0:0:0:0:
448,192,63998,1,0,0:0:0:0:
192,192,64069,1,0,0:0:0:0:
64,192,64069,1,0,0:0:0:0:
320,192,64139,1,0,0:0:0:0:
448,192,64139,1,0,0:0:0:0:
192,192,64210,1,0,0:0:0:0:
64,192,64210,1,0,0:0:0:0:
448,192,64210,1,0,0:0:0:0:
320,192,64421,1,0,0:0:0:0:
448,192,64421,1,0,0:0:0:0:
320,192,64632,1,0,0:0:0:0:
192,192,64632,1,0,0:0:0:0:
64,192,64632,1,0,0:0:0:0:
64,192,64844,1,0,0:0:0:0:
192,192,64844,1,0,0:0:0:0:
192,192,65055,1,0,0:0:0:0:
320,192,65055,1,0,0:0:0:0:
448,192,65055,1,0,0:0:0:0:
320,192,65266,1,0,0:0:0:0:
64,192,65266,1,0,0:0:0:0:
64,192,65477,1,0,0:0:0:0:
192,192,65477,1,0,0:0:0:0:
448,192,65477,1,0,0:0:0:0:
320,192,65689,1,0,0:0:0:0:
192,192,65689,1,0,0:0:0:0:
448,192,65900,1,0,0:0:0:0:
320,192,65900,1,0,0:0:0:0:
64,192,65900,1,0,0:0:0:0:
448,192,66111,1,0,0:0:0:0:
64,192,66111,1,0,0:0:0:0:
192,192,66322,1,0,0:0:0:0:
320,192,66322,1,0,0:0:0:0:
448,192,66322,1,0,0:0:0:0:
192,192,66534,1,0,0:0:0:0:
64,192,66534,1,0,0:0:0:0:
192,192,66745,1,0,0:0:0:0:
448,192,66745,1,0,0:0:0:0:
64,192,66745,1,0,0:0:0:0:
320,192,66956,1,0,0:0:0:0:
192,192,66956,1,0,0:0:0:0:
64,192,67167,1,0,0:0:0:0:
192,192,67167,1,0,0:0:0:0:
448,192,67167,1,0,0:0:0:0:
448,192,67379,1,0,0:0:0:0:
192,192,67379,1,0,0:0:0:0:
64,192,67379,1,0,0:0:0:0:
320,192,67590,1,0,0:0:0:0:
448,192,67590,1,0,0:0:0:0:
192,192,67590,1,0,0:0:0:0:
64,192,67590,128,0,68224:0:0:0:0:
320,192,67801,1,0,0:0:0:0:
448,192,67801,1,0,0:0:0:0:
448,192,68013,1,0,0:0:0:0:
320,192,68013,1,0,0:0:0:0:
192,192,68013,1,0,0:0:0:0:
192,192,68224,1,0,0:0:0:0:
320,192,68224,1,0,0:0:0:0:
448,192,68435,1,0,0:0:0:0:
64,192,68435,1,0,0:0:0:0:
320,192,68435,1,0,0:0:0:0:
192,192,68646,1,0,0:0:0:0:
64,192,68646,1,0,0:0:0:0:
320,192,68858,1,0,0:0:0:0:
192,192,68858,1,0,0:0:0:0:
448,192,68858,1,0,0:0:0:0:
448,192,69069,1,0,0:0:0:0:
64,192,69069,1,0,0:0:0:0:
320,192,69280,1,0,0:0:0:0:
192,192,69280,1,0,0:0:0:0:
64,192,69280,1,0,0:0:0:0:
448,192,69491,1,0,0:0:0:0:
320,192,69491,1,0,0:0:0:0:
192,192,69703,1,0,0:0:0:0:
320,192,69703,1,0,0:0:0:0:
64,192,69703,1,0,0:0:0:0:
64,192,69914,1,0,0:0:0:0:
320,192,69914,1,0,0:0:0:0:
192,192,70125,1,0,0:0:0:0:
320,192,70125,1,0,0:0:0:0:
448,192,70125,1,0,0:0:0:0:
192,192,70336,1,0,0:0:0:0:
320,192,70336,1,0,0:0:0:0:
64,192,70336,1,0,0:0:0:0:
192,192,70548,1,0,0:0:0:0:
320,192,70548,1,0,0:0:0:0:
448,192,70548,1,0,0:0:0:0:
320,192,70759,1,0,0:0:0:0:
192,192,70759,1,0,0:0:0:0:
64,192,70759,1,0,0:0:0:0:
192,192,70970,1,0,0:0:0:0:
320,192,70970,1,0,0:0:0:0:
448,192,70970,1,0,0:0:0:0:
192,192,71182,1,0,0:0:0:0:
64,192,71182,1,0,0:0:0:0:
320,192,71287,1,0,0:0:0:0:
448,192,71393,1,0,0:0:0:0:
192,192,71393,1,0,0:0:0:0:
64,192,71393,1,0,0:0:0:0:
320,192,71498,1,0,0:0:0:0:
448,192,71604,1,0,0:0:0:0:
64,192,71604,1,0,0:0:0:0:
192,192,71710,1,0,0:0:0:0:
320,192,71815,1,0,0:0:0:0:
448,192,71815,1,0,0:0:0:0:
64,192,71815,1,0,0:0:0:0:
64,192,72660,128,0,74245:0:0:0:0:
448,192,73083,1,0,0:0:0:0:
320,192,73189,1,0,0:0:0:0:
448,192,73294,1,0,0:0:0:0:
192,192,73400,1,0,0:0:0:0:
320,192,73505,1,0,0:0:0:0:
448,192,73611,1,0,0:0:0:0:
192,192,73717,1,0,0:0:0:0:
448,192,73822,1,0,0:0:0:0:
320,192,73928,1,0,0:0:0:0:
192,192,73928,1,0,0:0:0:0:
448,192,74034,1,0,0:0:0:0:
192,192,74139,1,0,0:0:0:0:
320,192,74245,1,0,0:0:0:0:
192,192,74351,1,0,0:0:0:0:
64,192,74351,1,0,0:0:0:0:
448,192,74351,1,0,0:0:0:0:
320,192,74562,1,0,0:0:0:0:
448,192,74773,1,0,0:0:0:0:
64,192,74773,1,0,0:0:0:0:
192,192,74984,1,0,0:0:0:0:
448,192,75196,1,0,0:0:0:0:
64,192,75196,1,0,0:0:0:0:
320,192,75407,1,0,0:0:0:0:
192,192,75618,1,0,0:0:0:0:
64,192,75618,1,0,0:0:0:0:
320,192,75829,1,0,0:0:0:0:
448,192,76041,1,0,0:0:0:0:
192,192,76041,1,0,0:0:0:0:
320,192,76252,1,0,0:0:0:0:
448,192,76463,1,0,0:0:0:0:
64,192,76463,1,0,0:0:0:0:
192,192,76675,1,0,0:0:0:0:
64,192,76886,1,0,0:0:0:0:
320,192,76886,1,0,0:0:0:0:
192,192,77097,1,0,0:0:0:0:
320,192,77308,1,0,0:0:0:0:
448,192,77308,1,0,0:0:0:0:
192,192,77520,1,0,0:0:0:0:
64,192,77520,1,0,0:0:0:0:
320,192,77731,1,0,0:0:0:0:
448,192,77731,1,0,0:0:0:0:
192,192,77942,1,0,0:0:0:0:
64,192,78153,1,0,0:0:0:0:
448,192,78153,1,0,0:0:0:0:
192,192,78365,1,0,0:0:0:0:
320,192,78576,1,0,0:0:0:0:
448,192,78576,1,0,0:0:0:0:
192,192,78787,1,0,0:0:0:0:
64,192,78998,1,0,0:0:0:0:
320,192,78998,1,0,0:0:0:0:
192,192,79210,1,0,0:0:0:0:
448,192,79421,1,0,0:0:0:0:
64,192,79421,1,0,0:0:0:0:
320,192,79632,1,0,0:0:0:0:
448,192,79844,1,0,0:0:0:0:
64,192,79844,1,0,0:0:0:0:
192,192,80055,1,0,0:0:0:0:
320,192,80266,1,0,0:0:0:0:
448,192,80266,1,0,0:0:0:0:
64,192,80477,1,0,0:0:0:0:
448,192,80477,1,0,0:0:0:0:
320,192,80548,1,0,0:0:0:0:
192,192,80548,1,0,0:0:0:0:
64,192,80618,1,0,0:0:0:0:
448,192,80618,1,0,0:0:0:0:
320,192,80689,1,0,0:0:0:0:
192,192,80689,1,0,0:0:0:0:
64,192,80900,1,0,0:0:0:0:
192,192,80900,1,0,0:0:0:0:
320,192,80970,1,0,0:0:0:0:
448,192,80970,1,0,0:0:0:0:
192,192,81041,1,0,0:0:0:0:
64,192,81041,1,0,0:0:0:0:
320,192,81111,1,0,0:0:0:0:
448,192,81111,1,0,0:0:0:0:
64,192,81111,1,0,0:0:0:0:
192,192,81322,1,0,0:0:0:0:
320,192,81534,1,0,0:0:0:0:
448,192,81534,1,0,0:0:0:0:
192,192,81745,1,0,0:0:0:0:
64,192,81956,1,0,0:0:0:0:
320,192,81956,1,0,0:0:0:0:
192,192,82167,1,0,0:0:0:0:
448,192,82379,1,0,0:0:0:0:
64,192,82379,1,0,0:0:0:0:
320,192,82590,1,0,0:0:0:0:
192,192,82801,1,0,0:0:0:0:
64,192,82801,1,0,0:0:0:0:
320,192,83013,1,0,0:0:0:0:
64,192,83224,1,0,0:0:0:0:
448,192,83224,1,0,0:0:0:0:
320,192,83435,1,0,0:0:0:0:
192,192,83646,1,0,0:0:0:0:
64,192,83646,1,0,0:0:0:0:
320,192,83858,1,0,0:0:0:0:
448,192,84069,1,0,0:0:0:0:
64,192,84069,1,0,0:0:0:0:
320,192,84175,1,0,0:0:0:0:
192,192,84280,1,0,0:0:0:0:
64,192,84280,1,0,0:0:0:0:
320,192,84386,1,0,0:0:0:0:
448,192,84491,1,0,0:0:0:0:
64,192,84491,1,0,0:0:0:0:
192,192,84703,1,0,0:0:0:0:
320,192,84703,1,0,0:0:0:0:
448,192,84914,1,0,0:0:0:0:
320,192,84914,1,0,0:0:0:0:
64,192,84914,1,0,0:0:0:0:
64,192,85125,1,0,0:0:0:0:
192,192,85125,1,0,0:0:0:0:
64,192,85336,1,0,0:0:0:0:
320,192,85336,1,0,0:0:0:0:
448,192,85336,1,0,0:0:0:0:
192,192,85548,1,0,0:0:0:0:
320,192,85759,1,0,0:0:0:0:
448,192,85759,1,0,0:0:0:0:
192,192,85970,1,0,0:0:0:0:
320,192,86182,1,0,0:0:0:0:
448,192,86182,1,0,0:0:0:0:
64,192,86182,128,0,87027:0:0:0:0:
320,192,87027,128,0,87872:0:0:0:0:
64,192,87238,1,0,0:0:0:0:
192,192,87238,1,0,0:0:0:0:
448,192,87308,1,0,0:0:0:0:
192,192,87379,1,0,0:0:0:0:
64,192,87379,1,0,0:0:0:0:
448,192,87449,1,0,0:0:0:0:
192,192,87660,1,0,0:0:0:0:
64,192,87660,1,0,0:0:0:0:
448,192,87731,1,0,0:0:0:0:
192,192,87801,1,0,0:0:0:0:
64,192,87801,1,0,0:0:0:0:
448,192,87872,128,0,88324:0:0:0:0:
192,192,88324,128,0,88777:0:0:0:0:
64,192,88777,128,0,89230:0:0:0:0:
320,192,89230,128,0,89677:0:0:0:0:
448,192,89677,128,0,90189:0:0:0:0:
192,192,90189,128,0,90677:0:0:0:0:
64,192,90677,128,0,91198:0:0:0:0:
320,192,91198,128,0,91720:0:0:0:0:
192,192,91720,128,0,94371:0:0:0:0:
448,192,94371,128,0,97023:0:0:0:0:
