osu file format v14

[General]
AudioFilename: audio4.mp3
AudioLeadIn: 0
PreviewTime: 50540
Countdown: 0
SampleSet: None
StackLeniency: 0.7
Mode: 1
LetterboxInBreaks: 0
WidescreenStoryboard: 0

[Editor]
DistanceSpacing: 0.3
BeatDivisor: 4
GridSize: 32
TimelineZoom: 1

[Metadata]
Title:MMFF semi finals - unsubmitted maps
TitleUnicode:MMFF semi finals - unsubmitted maps
Artist:various artists
ArtistUnicode:various artists
Creator:Nofool
Version:Hatsune Miku - Secret Police [S.W.A.T.210BPM (MMFF edit)]
Source:
Tags:yassu- Devli Grimbow Fantazy
BeatmapID:1909386
BeatmapSetID:914149

[Difficulty]
HPDrainRate:5
CircleSize:6
OverallDifficulty:5
ApproachRate:8
SliderMultiplier:1.4
SliderTickRate:1

[Events]
//Background and Video events
0,0,"BG4.jpg",0,0
//Break Periods
//Storyboard Layer 0 (Background)
//Storyboard Layer 1 (Fail)
//Storyboard Layer 2 (Pass)
//Storyboard Layer 3 (Foreground)
//Storyboard Sound Samples

[TimingPoints]
4826,285.7143,4,1,0,80,1,0
50540,-100,4,1,0,80,0,1
68826,-100,4,1,0,80,0,0
96255,-100,4,1,0,80,0,1
114540,-100,4,1,0,80,0,0
148826,-100,4,1,0,80,0,1
162540,-100,4,1,0,80,0,0
171683,-100,4,1,0,80,0,1
179683,-100,4,1,0,80,0,0

[HitObjects]
256,192,4826,5,0,0:0:0:0:
256,192,4969,1,8,0:0:0:0:
256,192,5112,1,0,0:0:0:0:
256,192,5255,1,0,0:0:0:0:
256,192,5398,1,8,0:0:0:0:
256,192,5540,1,0,0:0:0:0:
256,192,5683,1,8,0:0:0:0:
256,192,5826,1,8,0:0:0:0:
256,192,5969,1,0,0:0:0:0:
256,192,6112,1,8,0:0:0:0:
256,192,6255,1,0,0:0:0:0:
256,192,6398,1,0,0:0:0:0:
256,192,6540,1,8,0:0:0:0:
256,192,6683,1,8,0:0:0:0:
256,192,6826,1,0,0:0:0:0:
256,192,6969,1,8,0:0:0:0:
256,192,7040,1,8,0:0:0:0:
256,192,7112,1,0,0:0:0:0:
256,192,7255,1,8,0:0:0:0:
256,192,7398,1,8,0:0:0:0:
256,192,7540,1,0,0:0:0:0:
256,192,7683,1,8,0:0:0:0:
256,192,7826,1,0,0:0:0:0:
256,192,7969,1,8,0:0:0:0:
256,192,8112,1,8,0:0:0:0:
256,192,8255,1,0,0:0:0:0:
256,192,8398,1,8,0:0:0:0:
256,192,8540,1,0,0:0:0:0:
256,192,8683,1,0,0:0:0:0:
256,192,8826,1,8,0:0:0:0:
256,192,8969,1,8,0:0:0:0:
256,192,9112,1,0,0:0:0:0:
256,192,9255,1,8,0:0:0:0:
256,192,9398,1,8,0:0:0:0:
256,192,9469,1,8,0:0:0:0:
256,192,9540,1,8,0:0:0:0:
256,192,9612,1,8,0:0:0:0:
256,192,9683,1,0,0:0:0:0:
256,192,9826,1,8,0:0:0:0:
256,192,9898,1,8,0:0:0:0:
256,192,9969,1,0,0:0:0:0:
256,192,10112,1,0,0:0:0:0:
256,192,10255,1,8,0:0:0:0:
256,192,10398,1,8,0:0:0:0:
256,192,10540,1,8,0:0:0:0:
256,192,10683,1,8,0:0:0:0:
256,192,10826,1,0,0:0:0:0:
256,192,10898,1,0,0:0:0:0:
256,192,10969,1,8,0:0:0:0:
256,192,11112,1,8,0:0:0:0:
256,192,11255,1,8,0:0:0:0:
256,192,11326,1,8,0:0:0:0:
256,192,11398,1,8,0:0:0:0:
256,192,11469,1,8,0:0:0:0:
256,192,11540,1,0,0:0:0:0:
256,192,11612,1,0,0:0:0:0:
256,192,11683,1,8,0:0:0:0:
256,192,11826,1,8,0:0:0:0:
256,192,11969,1,8,0:0:0:0:
256,192,12040,1,8,0:0:0:0:
256,192,12112,1,0,0:0:0:0:
256,192,12183,1,0,0:0:0:0:
256,192,12255,1,8,0:0:0:0:
256,192,12326,1,8,0:0:0:0:
256,192,12398,1,8,0:0:0:0:
256,192,12540,1,8,0:0:0:0:
256,192,12612,1,8,0:0:0:0:
256,192,12683,1,8,0:0:0:0:
256,192,12755,1,8,0:0:0:0:
256,192,12826,1,8,0:0:0:0:
256,192,12969,1,8,0:0:0:0:
256,192,13112,1,8,0:0:0:0:
256,192,13255,1,8,0:0:0:0:
256,192,13398,1,8,0:0:0:0:
256,192,13540,1,8,0:0:0:0:
256,192,13683,1,4,0:0:0:0:
256,192,13969,1,12,0:0:0:0:
256,192,14255,1,0,0:0:0:0:
256,192,14398,1,8,0:0:0:0:
256,192,14683,1,8,0:0:0:0:
256,192,14969,1,8,0:0:0:0:
256,192,15112,1,8,0:0:0:0:
256,192,15255,1,0,0:0:0:0:
256,192,15398,1,8,0:0:0:0:
256,192,15540,1,0,0:0:0:0:
256,192,15683,1,8,0:0:0:0:
256,192,15826,1,8,0:0:0:0:
256,192,16255,1,8,0:0:0:0:
256,192,16540,1,0,0:0:0:0:
256,192,16683,1,8,0:0:0:0:
256,192,16969,1,8,0:0:0:0:
256,192,17255,1,0,0:0:0:0:
256,192,17398,1,8,0:0:0:0:
256,192,17540,1,0,0:0:0:0:
256,192,17683,1,8,0:0:0:0:
256,192,17826,1,8,0:0:0:0:
256,192,18112,1,8,0:0:0:0:
256,192,18255,1,8,0:0:0:0:
256,192,18326,1,8,0:0:0:0:
256,192,18398,1,8,0:0:0:0:
256,192,18469,1,8,0:0:0:0:
256,192,18540,1,0,0:0:0:0:
256,192,18826,1,0,0:0:0:0:
256,192,18969,1,8,0:0:0:0:
256,192,19255,1,8,0:0:0:0:
256,192,19540,1,8,0:0:0:0:
256,192,19683,1,8,0:0:0:0:
256,192,19755,1,0,0:0:0:0:
256,192,19826,1,0,0:0:0:0:
256,192,19898,1,0,0:0:0:0:
256,192,19969,1,8,0:0:0:0:
256,192,20040,1,0,0:0:0:0:
256,192,20112,1,0,0:0:0:0:
256,192,20183,1,0,0:0:0:0:
256,192,20255,1,8,0:0:0:0:
256,192,20398,1,8,0:0:0:0:
256,192,20826,1,8,0:0:0:0:
256,192,21112,1,0,0:0:0:0:
256,192,21255,1,8,0:0:0:0:
256,192,21540,1,8,0:0:0:0:
256,192,21826,1,8,0:0:0:0:
256,192,21969,1,0,0:0:0:0:
256,192,22112,1,8,0:0:0:0:
256,192,22255,1,8,0:0:0:0:
256,192,22398,1,0,0:0:0:0:
256,192,22540,1,8,0:0:0:0:
256,192,22683,1,0,0:0:0:0:
256,192,22826,1,8,0:0:0:0:
256,192,22898,1,8,0:0:0:0:
256,192,22969,1,8,0:0:0:0:
256,192,23040,1,8,0:0:0:0:
256,192,23112,1,0,0:0:0:0:
256,192,23540,1,0,0:0:0:0:
256,192,23826,1,0,0:0:0:0:
256,192,23969,1,8,0:0:0:0:
256,192,24112,1,0,0:0:0:0:
256,192,24255,1,8,0:0:0:0:
256,192,24398,1,8,0:0:0:0:
256,192,24540,1,8,0:0:0:0:
256,192,24683,1,0,0:0:0:0:
256,192,24826,1,8,0:0:0:0:
256,192,24969,1,0,0:0:0:0:
256,192,25398,1,0,0:0:0:0:
256,192,25826,1,8,0:0:0:0:
256,192,26112,1,0,0:0:0:0:
256,192,26255,1,8,0:0:0:0:
256,192,26398,1,8,0:0:0:0:
256,192,26540,1,8,0:0:0:0:
256,192,26683,1,0,0:0:0:0:
256,192,26826,1,8,0:0:0:0:
256,192,26969,1,8,0:0:0:0:
256,192,27112,1,0,0:0:0:0:
256,192,27255,1,0,0:0:0:0:
256,192,27398,1,8,0:0:0:0:
256,192,27540,1,8,0:0:0:0:
256,192,27826,1,0,0:0:0:0:
256,192,27898,1,0,0:0:0:0:
256,192,27969,1,8,0:0:0:0:
256,192,28040,1,0,0:0:0:0:
256,192,28112,1,8,0:0:0:0:
256,192,28183,1,8,0:0:0:0:
256,192,28255,1,8,0:0:0:0:
256,192,28326,1,0,0:0:0:0:
256,192,28398,1,8,0:0:0:0:
256,192,28469,1,0,0:0:0:0:
256,192,28540,1,8,0:0:0:0:
256,192,28612,1,8,0:0:0:0:
256,192,28683,1,0,0:0:0:0:
256,192,28826,1,8,0:0:0:0:
256,192,28969,1,0,0:0:0:0:
256,192,29040,1,8,0:0:0:0:
256,192,29112,1,8,0:0:0:0:
256,192,29183,1,8,0:0:0:0:
256,192,29255,1,0,0:0:0:0:
256,192,29326,1,0,0:0:0:0:
256,192,29398,1,8,0:0:0:0:
256,192,29469,1,8,0:0:0:0:
256,192,29540,1,0,0:0:0:0:
256,192,29612,1,8,0:0:0:0:
256,192,29683,1,8,0:0:0:0:
256,192,29755,1,0,0:0:0:0:
256,192,29826,1,8,0:0:0:0:
256,192,29969,1,0,0:0:0:0:
256,192,30040,1,8,0:0:0:0:
256,192,30112,1,8,0:0:0:0:
256,192,30183,1,0,0:0:0:0:
256,192,30255,1,8,0:0:0:0:
256,192,30326,1,0,0:0:0:0:
256,192,30398,1,0,0:0:0:0:
256,192,30469,1,0,0:0:0:0:
256,192,30540,1,8,0:0:0:0:
256,192,30683,1,0,0:0:0:0:
256,192,30826,1,8,0:0:0:0:
256,192,30898,1,8,0:0:0:0:
256,192,30969,1,8,0:0:0:0:
256,192,31112,1,8,0:0:0:0:
256,192,31255,1,0,0:0:0:0:
256,192,31398,1,8,0:0:0:0:
256,192,31469,1,0,0:0:0:0:
256,192,31540,1,8,0:0:0:0:
256,192,31683,1,0,0:0:0:0:
256,192,31755,1,8,0:0:0:0:
256,192,31826,1,0,0:0:0:0:
256,192,31898,1,0,0:0:0:0:
256,192,31969,1,8,0:0:0:0:
256,192,32040,1,8,0:0:0:0:
256,192,32112,1,0,0:0:0:0:
256,192,32255,1,12,0:0:0:0:
256,192,32540,1,0,0:0:0:0:
256,192,32683,1,8,0:0:0:0:
256,192,32969,1,8,0:0:0:0:
256,192,33255,1,8,0:0:0:0:
256,192,33398,1,8,0:0:0:0:
256,192,33540,1,0,0:0:0:0:
256,192,33683,1,8,0:0:0:0:
256,192,33826,1,0,0:0:0:0:
256,192,33969,1,8,0:0:0:0:
256,192,34112,1,8,0:0:0:0:
256,192,34540,1,8,0:0:0:0:
256,192,34826,1,0,0:0:0:0:
256,192,34969,1,8,0:0:0:0:
256,192,35255,1,8,0:0:0:0:
256,192,35540,1,8,0:0:0:0:
256,192,35683,1,8,0:0:0:0:
256,192,35826,1,0,0:0:0:0:
256,192,35969,1,8,0:0:0:0:
256,192,36112,1,8,0:0:0:0:
256,192,36398,1,8,0:0:0:0:
256,192,36540,1,8,0:0:0:0:
256,192,36612,1,8,0:0:0:0:
256,192,36683,1,8,0:0:0:0:
256,192,36755,1,8,0:0:0:0:
256,192,36826,1,0,0:0:0:0:
256,192,37112,1,8,0:0:0:0:
256,192,37255,1,0,0:0:0:0:
256,192,37540,1,0,0:0:0:0:
256,192,37826,1,0,0:0:0:0:
256,192,37969,1,8,0:0:0:0:
256,192,38112,1,0,0:0:0:0:
256,192,38255,1,8,0:0:0:0:
256,192,38398,1,0,0:0:0:0:
256,192,38540,1,8,0:0:0:0:
256,192,38683,1,8,0:0:0:0:
256,192,39112,1,0,0:0:0:0:
256,192,39398,1,8,0:0:0:0:
256,192,39540,1,0,0:0:0:0:
256,192,39826,1,0,0:0:0:0:
256,192,40112,1,0,0:0:0:0:
256,192,40255,1,0,0:0:0:0:
256,192,40398,1,8,0:0:0:0:
256,192,40540,1,8,0:0:0:0:
256,192,40683,1,0,0:0:0:0:
256,192,40826,1,8,0:0:0:0:
256,192,40969,1,0,0:0:0:0:
256,192,41112,1,8,0:0:0:0:
256,192,41183,1,8,0:0:0:0:
256,192,41255,1,8,0:0:0:0:
256,192,41326,1,8,0:0:0:0:
256,192,41398,1,0,0:0:0:0:
256,192,41826,1,8,0:0:0:0:
256,192,42112,1,0,0:0:0:0:
256,192,42255,1,8,0:0:0:0:
256,192,42398,1,0,0:0:0:0:
256,192,42469,1,0,0:0:0:0:
256,192,42540,1,8,0:0:0:0:
256,192,42612,1,8,0:0:0:0:
256,192,42683,1,0,0:0:0:0:
256,192,42826,1,8,0:0:0:0:
256,192,42969,1,0,0:0:0:0:
256,192,43112,1,8,0:0:0:0:
256,192,43255,1,8,0:0:0:0:
256,192,43683,1,0,0:0:0:0:
256,192,44112,1,8,0:0:0:0:
256,192,44540,1,8,0:0:0:0:
256,192,44683,1,0,0:0:0:0:
256,192,44826,1,8,0:0:0:0:
256,192,44969,1,8,0:0:0:0:
256,192,45112,1,8,0:0:0:0:
256,192,45255,1,0,0:0:0:0:
256,192,45398,1,8,0:0:0:0:
256,192,45540,1,8,0:0:0:0:
256,192,45826,1,0,0:0:0:0:
256,192,46040,1,0,0:0:0:0:
256,192,46112,1,8,0:0:0:0:
256,192,46183,1,0,0:0:0:0:
256,192,46255,1,8,0:0:0:0:
256,192,46326,1,8,0:0:0:0:
256,192,46398,1,0,0:0:0:0:
256,192,46469,1,0,0:0:0:0:
256,192,46540,1,8,0:0:0:0:
256,192,46612,1,8,0:0:0:0:
256,192,46683,1,0,0:0:0:0:
256,192,46755,1,8,0:0:0:0:
256,192,46826,1,8,0:0:0:0:
256,192,46898,1,8,0:0:0:0:
256,192,47040,1,8,0:0:0:0:
256,192,47112,1,0,0:0:0:0:
256,192,47183,1,8,0:0:0:0:
256,192,47255,1,8,0:0:0:0:
256,192,47326,1,0,0:0:0:0:
256,192,47398,1,8,0:0:0:0:
256,192,47469,1,0,0:0:0:0:
256,192,47540,1,8,0:0:0:0:
256,192,47683,1,0,0:0:0:0:
256,192,47826,1,0,0:0:0:0:
256,192,47969,1,8,0:0:0:0:
256,192,48040,1,8,0:0:0:0:
256,192,48112,1,0,0:0:0:0:
256,192,48183,1,0,0:0:0:0:
256,192,48255,1,8,0:0:0:0:
256,192,48398,1,8,0:0:0:0:
256,192,48469,1,0,0:0:0:0:
256,192,48540,1,8,0:0:0:0:
256,192,48612,1,8,0:0:0:0:
256,192,48683,1,0,0:0:0:0:
256,192,48755,1,0,0:0:0:0:
256,192,48826,1,8,0:0:0:0:
256,192,48898,1,0,0:0:0:0:
256,192,48969,1,8,0:0:0:0:
256,192,49040,1,8,0:0:0:0:
256,192,49112,1,0,0:0:0:0:
256,192,49183,1,8,0:0:0:0:
256,192,49255,1,0,0:0:0:0:
256,192,49326,1,0,0:0:0:0:
256,192,49398,1,8,0:0:0:0:
256,192,49540,1,8,0:0:0:0:
256,192,49612,1,8,0:0:0:0:
256,192,49683,1,8,0:0:0:0:
256,192,49755,1,0,0:0:0:0:
256,192,49826,1,0,0:0:0:0:
256,192,49969,1,8,0:0:0:0:
256,192,50112,1,12,0:0:0:0:
256,192,50255,1,8,0:0:0:0:
256,192,50398,1,8,0:0:0:0:
256,192,50540,1,4,0:0:0:0:
256,192,50826,1,8,0:0:0:0:
256,192,51112,1,0,0:0:0:0:
256,192,51255,1,0,0:0:0:0:
256,192,51398,1,8,0:0:0:0:
256,192,51683,1,0,0:0:0:0:
256,192,51969,1,8,0:0:0:0:
256,192,52112,1,0,0:0:0:0:
256,192,52255,1,0,0:0:0:0:
256,192,52398,1,0,0:0:0:0:
256,192,52540,1,8,0:0:0:0:
256,192,52826,1,0,0:0:0:0:
256,192,53112,1,8,0:0:0:0:
256,192,53398,1,0,0:0:0:0:
256,192,53540,1,0,0:0:0:0:
256,192,53683,1,8,0:0:0:0:
256,192,53969,1,8,0:0:0:0:
256,192,54255,1,8,0:0:0:0:
256,192,54398,1,0,0:0:0:0:
256,192,54540,1,0,0:0:0:0:
256,192,54683,1,0,0:0:0:0:
256,192,54826,1,8,0:0:0:0:
256,192,55112,1,0,0:0:0:0:
256,192,55398,1,8,0:0:0:0:
256,192,55683,1,0,0:0:0:0:
256,192,55826,1,0,0:0:0:0:
256,192,55969,1,8,0:0:0:0:
256,192,56255,1,0,0:0:0:0:
256,192,56540,1,8,0:0:0:0:
256,192,56683,1,0,0:0:0:0:
256,192,56826,1,0,0:0:0:0:
256,192,56969,1,0,0:0:0:0:
256,192,57112,1,8,0:0:0:0:
256,192,57398,1,0,0:0:0:0:
256,192,57540,1,0,0:0:0:0:
256,192,57683,1,8,0:0:0:0:
256,192,57826,1,0,0:0:0:0:
256,192,57969,1,0,0:0:0:0:
256,192,58112,1,0,0:0:0:0:
256,192,58255,1,8,0:0:0:0:
256,192,58540,1,0,0:0:0:0:
256,192,58826,1,8,0:0:0:0:
256,192,59112,1,0,0:0:0:0:
256,192,59255,1,8,0:0:0:0:
256,192,59398,1,8,0:0:0:0:
256,192,59469,1,8,0:0:0:0:
256,192,59540,1,8,0:0:0:0:
256,192,59612,1,8,0:0:0:0:
256,192,59683,1,4,0:0:0:0:
256,192,59969,1,8,0:0:0:0:
256,192,60255,1,0,0:0:0:0:
256,192,60398,1,0,0:0:0:0:
256,192,60540,1,8,0:0:0:0:
256,192,60826,1,0,0:0:0:0:
256,192,61112,1,8,0:0:0:0:
256,192,61255,1,0,0:0:0:0:
256,192,61398,1,0,0:0:0:0:
256,192,61540,1,0,0:0:0:0:
256,192,61683,1,8,0:0:0:0:
256,192,61969,1,0,0:0:0:0:
256,192,62255,1,8,0:0:0:0:
256,192,62540,1,0,0:0:0:0:
256,192,62683,1,0,0:0:0:0:
256,192,62826,1,8,0:0:0:0:
256,192,63112,1,8,0:0:0:0:
256,192,63398,1,8,0:0:0:0:
256,192,63540,1,0,0:0:0:0:
256,192,63683,1,0,0:0:0:0:
256,192,63826,1,0,0:0:0:0:
256,192,63969,1,8,0:0:0:0:
256,192,64255,1,0,0:0:0:0:
256,192,64540,1,8,0:0:0:0:
256,192,64826,1,0,0:0:0:0:
256,192,64969,1,0,0:0:0:0:
256,192,65112,1,8,0:0:0:0:
256,192,65398,1,0,0:0:0:0:
256,192,65683,1,8,0:0:0:0:
256,192,65826,1,0,0:0:0:0:
256,192,65969,1,0,0:0:0:0:
256,192,66112,1,0,0:0:0:0:
256,192,66255,1,8,0:0:0:0:
256,192,66398,1,8,0:0:0:0:
256,192,66540,1,0,0:0:0:0:
256,192,66683,1,0,0:0:0:0:
256,192,66826,1,8,0:0:0:0:
256,192,66969,1,0,0:0:0:0:
256,192,67112,1,0,0:0:0:0:
256,192,67255,1,0,0:0:0:0:
256,192,67398,1,8,0:0:0:0:
256,192,67683,1,8,0:0:0:0:
256,192,67755,1,8,0:0:0:0:
256,192,67826,1,0,0:0:0:0:
256,192,67898,1,0,0:0:0:0:
256,192,67969,1,8,0:0:0:0:
256,192,68040,1,0,0:0:0:0:
256,192,68112,1,0,0:0:0:0:
256,192,68183,1,0,0:0:0:0:
256,192,68255,1,8,0:0:0:0:
256,192,68326,1,8,0:0:0:0:
256,192,68398,1,0,0:0:0:0:
256,192,68469,1,0,0:0:0:0:
256,192,68540,1,8,0:0:0:0:
256,192,68612,1,8,0:0:0:0:
256,192,68683,1,8,0:0:0:0:
256,192,68755,1,8,0:0:0:0:
256,192,68826,1,4,0:0:0:0:
256,192,69398,1,12,0:0:0:0:
256,192,69969,1,4,0:0:0:0:
256,192,70398,1,0,0:0:0:0:
256,192,70540,1,12,0:0:0:0:
256,192,70683,1,0,0:0:0:0:
256,192,71112,1,4,0:0:0:0:
256,192,71683,1,12,0:0:0:0:
256,192,72255,1,4,0:0:0:0:
256,192,72683,1,0,0:0:0:0:
256,192,72826,1,12,0:0:0:0:
256,192,72969,1,0,0:0:0:0:
256,192,73398,1,4,0:0:0:0:
256,192,73969,1,12,0:0:0:0:
256,192,74540,1,4,0:0:0:0:
256,192,74969,1,0,0:0:0:0:
256,192,75112,1,12,0:0:0:0:
256,192,75255,1,0,0:0:0:0:
256,192,75683,1,4,0:0:0:0:
256,192,75826,1,8,0:0:0:0:
256,192,75969,1,0,0:0:0:0:
256,192,76112,1,8,0:0:0:0:
256,192,76255,1,4,0:0:0:0:
256,192,76398,1,8,0:0:0:0:
256,192,76469,1,8,0:0:0:0:
256,192,76540,1,0,0:0:0:0:
256,192,76683,1,8,0:0:0:0:
256,192,76826,1,8,0:0:0:0:
256,192,76898,1,8,0:0:0:0:
256,192,76969,1,8,0:0:0:0:
256,192,77040,1,8,0:0:0:0:
256,192,77112,1,8,0:0:0:0:
256,192,77183,1,8,0:0:0:0:
256,192,77255,1,0,0:0:0:0:
256,192,77398,1,8,0:0:0:0:
256,192,77469,1,8,0:0:0:0:
256,192,77540,1,8,0:0:0:0:
256,192,77612,1,8,0:0:0:0:
256,192,77683,1,8,0:0:0:0:
256,192,77826,1,8,0:0:0:0:
256,192,77969,1,12,0:0:0:0:
256,192,78255,1,0,0:0:0:0:
256,192,78398,1,8,0:0:0:0:
256,192,78683,1,8,0:0:0:0:
256,192,78969,1,8,0:0:0:0:
256,192,79112,1,8,0:0:0:0:
256,192,79255,1,0,0:0:0:0:
256,192,79398,1,8,0:0:0:0:
256,192,79540,1,0,0:0:0:0:
256,192,79683,1,8,0:0:0:0:
256,192,79826,1,8,0:0:0:0:
256,192,80255,1,8,0:0:0:0:
256,192,80540,1,0,0:0:0:0:
256,192,80683,1,8,0:0:0:0:
256,192,80969,1,8,0:0:0:0:
256,192,81255,1,0,0:0:0:0:
256,192,81398,1,8,0:0:0:0:
256,192,81540,1,0,0:0:0:0:
256,192,81683,1,8,0:0:0:0:
256,192,81826,1,8,0:0:0:0:
256,192,82112,1,8,0:0:0:0:
256,192,82255,1,8,0:0:0:0:
256,192,82326,1,8,0:0:0:0:
256,192,82398,1,8,0:0:0:0:
256,192,82469,1,8,0:0:0:0:
256,192,82540,1,0,0:0:0:0:
256,192,82826,1,0,0:0:0:0:
256,192,82969,1,8,0:0:0:0:
256,192,83255,1,8,0:0:0:0:
256,192,83540,1,8,0:0:0:0:
256,192,83683,1,8,0:0:0:0:
256,192,83755,1,0,0:0:0:0:
256,192,83826,1,0,0:0:0:0:
256,192,83898,1,0,0:0:0:0:
256,192,83969,1,8,0:0:0:0:
256,192,84040,1,0,0:0:0:0:
256,192,84112,1,0,0:0:0:0:
256,192,84183,1,0,0:0:0:0:
256,192,84255,1,8,0:0:0:0:
256,192,84398,1,8,0:0:0:0:
256,192,84826,1,8,0:0:0:0:
256,192,85112,1,0,0:0:0:0:
256,192,85255,1,8,0:0:0:0:
256,192,85540,1,8,0:0:0:0:
256,192,85826,1,8,0:0:0:0:
256,192,85969,1,0,0:0:0:0:
256,192,86112,1,8,0:0:0:0:
256,192,86255,1,8,0:0:0:0:
256,192,86398,1,0,0:0:0:0:
256,192,86540,1,8,0:0:0:0:
256,192,86683,1,0,0:0:0:0:
256,192,86826,1,8,0:0:0:0:
256,192,86898,1,8,0:0:0:0:
256,192,86969,1,8,0:0:0:0:
256,192,87040,1,8,0:0:0:0:
256,192,87112,1,0,0:0:0:0:
256,192,87540,1,0,0:0:0:0:
256,192,87826,1,0,0:0:0:0:
256,192,87969,1,8,0:0:0:0:
256,192,88112,1,0,0:0:0:0:
256,192,88255,1,8,0:0:0:0:
256,192,88398,1,8,0:0:0:0:
256,192,88540,1,8,0:0:0:0:
256,192,88683,1,0,0:0:0:0:
256,192,88826,1,8,0:0:0:0:
256,192,88969,1,0,0:0:0:0:
256,192,89398,1,0,0:0:0:0:
256,192,89826,1,8,0:0:0:0:
256,192,90112,1,0,0:0:0:0:
256,192,90183,1,0,0:0:0:0:
256,192,90255,1,8,0:0:0:0:
256,192,90398,1,8,0:0:0:0:
256,192,90540,1,8,0:0:0:0:
256,192,90683,1,0,0:0:0:0:
256,192,90826,1,8,0:0:0:0:
256,192,90969,1,8,0:0:0:0:
256,192,91112,1,0,0:0:0:0:
256,192,91255,1,0,0:0:0:0:
256,192,91398,1,8,0:0:0:0:
256,192,91540,1,8,0:0:0:0:
256,192,91755,1,8,0:0:0:0:
256,192,91826,1,0,0:0:0:0:
256,192,91898,1,8,0:0:0:0:
256,192,91969,1,8,0:0:0:0:
256,192,92040,1,8,0:0:0:0:
256,192,92112,1,0,0:0:0:0:
256,192,92183,1,8,0:0:0:0:
256,192,92255,1,0,0:0:0:0:
256,192,92326,1,0,0:0:0:0:
256,192,92398,1,8,0:0:0:0:
256,192,92469,1,0,0:0:0:0:
256,192,92540,1,8,0:0:0:0:
256,192,92612,1,8,0:0:0:0:
256,192,92683,1,8,0:0:0:0:
256,192,92755,1,0,0:0:0:0:
256,192,92826,1,8,0:0:0:0:
256,192,92969,1,0,0:0:0:0:
256,192,93040,1,8,0:0:0:0:
256,192,93112,1,8,0:0:0:0:
256,192,93183,1,0,0:0:0:0:
256,192,93255,1,8,0:0:0:0:
256,192,93326,1,8,0:0:0:0:
256,192,93398,1,0,0:0:0:0:
256,192,93469,1,8,0:0:0:0:
256,192,93540,1,0,0:0:0:0:
256,192,93612,1,8,0:0:0:0:
256,192,93683,1,8,0:0:0:0:
256,192,93755,1,0,0:0:0:0:
256,192,93826,1,8,0:0:0:0:
256,192,93898,1,0,0:0:0:0:
256,192,93969,1,0,0:0:0:0:
256,192,94040,1,8,0:0:0:0:
256,192,94112,1,0,0:0:0:0:
256,192,94183,1,0,0:0:0:0:
256,192,94255,1,8,0:0:0:0:
256,192,94326,1,8,0:0:0:0:
256,192,94398,1,0,0:0:0:0:
256,192,94469,1,0,0:0:0:0:
256,192,94540,1,8,0:0:0:0:
256,192,94612,1,0,0:0:0:0:
256,192,94683,1,8,0:0:0:0:
256,192,94826,1,8,0:0:0:0:
256,192,94898,1,0,0:0:0:0:
256,192,94969,1,8,0:0:0:0:
256,192,95040,1,8,0:0:0:0:
256,192,95112,1,8,0:0:0:0:
256,192,95255,1,0,0:0:0:0:
256,192,95398,1,8,0:0:0:0:
256,192,95469,1,0,0:0:0:0:
256,192,95540,1,8,0:0:0:0:
256,192,95683,1,0,0:0:0:0:
256,192,95826,1,8,0:0:0:0:
256,192,95969,1,8,0:0:0:0:
256,192,96040,1,8,0:0:0:0:
256,192,96112,1,8,0:0:0:0:
256,192,96183,1,8,0:0:0:0:
256,192,96255,1,4,0:0:0:0:
256,192,96540,1,8,0:0:0:0:
256,192,96826,1,0,0:0:0:0:
256,192,96969,1,0,0:0:0:0:
256,192,97112,1,8,0:0:0:0:
256,192,97255,1,0,0:0:0:0:
256,192,97398,1,0,0:0:0:0:
256,192,97683,1,8,0:0:0:0:
256,192,97826,1,0,0:0:0:0:
256,192,97969,1,0,0:0:0:0:
256,192,98112,1,0,0:0:0:0:
256,192,98255,1,8,0:0:0:0:
256,192,98398,1,8,0:0:0:0:
256,192,98540,1,0,0:0:0:0:
256,192,98826,1,8,0:0:0:0:
256,192,99112,1,0,0:0:0:0:
256,192,99255,1,0,0:0:0:0:
256,192,99398,1,8,0:0:0:0:
256,192,99540,1,8,0:0:0:0:
256,192,99683,1,0,0:0:0:0:
256,192,99969,1,8,0:0:0:0:
256,192,100112,1,0,0:0:0:0:
256,192,100255,1,0,0:0:0:0:
256,192,100398,1,0,0:0:0:0:
256,192,100540,1,8,0:0:0:0:
256,192,100683,1,8,0:0:0:0:
256,192,100826,1,0,0:0:0:0:
256,192,101112,1,8,0:0:0:0:
256,192,101398,1,0,0:0:0:0:
256,192,101540,1,0,0:0:0:0:
256,192,101683,1,8,0:0:0:0:
256,192,101826,1,0,0:0:0:0:
256,192,101969,1,0,0:0:0:0:
256,192,102255,1,8,0:0:0:0:
256,192,102398,1,0,0:0:0:0:
256,192,102540,1,0,0:0:0:0:
256,192,102683,1,0,0:0:0:0:
256,192,102826,1,8,0:0:0:0:
256,192,102969,1,8,0:0:0:0:
256,192,103112,1,0,0:0:0:0:
256,192,103255,1,0,0:0:0:0:
256,192,103398,1,8,0:0:0:0:
256,192,103540,1,0,0:0:0:0:
256,192,103683,1,0,0:0:0:0:
256,192,103826,1,0,0:0:0:0:
256,192,103969,1,8,0:0:0:0:
256,192,104255,1,0,0:0:0:0:
256,192,104540,1,8,0:0:0:0:
256,192,104826,1,0,0:0:0:0:
256,192,104969,1,8,0:0:0:0:
256,192,105112,1,8,0:0:0:0:
256,192,105183,1,8,0:0:0:0:
256,192,105255,1,8,0:0:0:0:
256,192,105326,1,8,0:0:0:0:
256,192,105398,1,4,0:0:0:0:
256,192,105683,1,8,0:0:0:0:
256,192,105969,1,0,0:0:0:0:
256,192,106112,1,0,0:0:0:0:
256,192,106255,1,8,0:0:0:0:
256,192,106398,1,8,0:0:0:0:
256,192,106540,1,0,0:0:0:0:
256,192,106683,1,0,0:0:0:0:
256,192,106826,1,8,0:0:0:0:
256,192,106969,1,0,0:0:0:0:
256,192,107112,1,0,0:0:0:0:
256,192,107255,1,0,0:0:0:0:
256,192,107398,1,8,0:0:0:0:
256,192,107683,1,0,0:0:0:0:
256,192,107969,1,8,0:0:0:0:
256,192,108112,1,8,0:0:0:0:
256,192,108255,1,0,0:0:0:0:
256,192,108398,1,0,0:0:0:0:
256,192,108540,1,8,0:0:0:0:
256,192,108683,1,0,0:0:0:0:
256,192,108826,1,8,0:0:0:0:
256,192,108969,1,8,0:0:0:0:
256,192,109112,1,8,0:0:0:0:
256,192,109255,1,0,0:0:0:0:
256,192,109398,1,0,0:0:0:0:
256,192,109540,1,0,0:0:0:0:
256,192,109683,1,8,0:0:0:0:
256,192,109969,1,0,0:0:0:0:
256,192,110255,1,8,0:0:0:0:
256,192,110398,1,0,0:0:0:0:
256,192,110540,1,0,0:0:0:0:
256,192,110683,1,0,0:0:0:0:
256,192,110826,1,8,0:0:0:0:
256,192,110969,1,8,0:0:0:0:
256,192,111112,1,0,0:0:0:0:
256,192,111255,1,8,0:0:0:0:
256,192,111398,1,8,0:0:0:0:
256,192,111540,1,0,0:0:0:0:
256,192,111683,1,0,0:0:0:0:
256,192,111826,1,8,0:0:0:0:
256,192,111969,1,8,0:0:0:0:
256,192,112112,1,8,0:0:0:0:
256,192,112255,1,0,0:0:0:0:
256,192,112398,1,0,0:0:0:0:
256,192,112540,1,8,0:0:0:0:
256,192,112683,1,0,0:0:0:0:
256,192,112826,1,0,0:0:0:0:
256,192,112969,1,0,0:0:0:0:
256,192,113112,1,8,0:0:0:0:
256,192,113398,1,8,0:0:0:0:
256,192,113469,1,8,0:0:0:0:
256,192,113540,1,0,0:0:0:0:
256,192,113612,1,0,0:0:0:0:
256,192,113683,1,8,0:0:0:0:
256,192,113755,1,0,0:0:0:0:
256,192,113826,1,0,0:0:0:0:
256,192,113898,1,0,0:0:0:0:
256,192,113969,1,8,0:0:0:0:
256,192,114040,1,8,0:0:0:0:
256,192,114112,1,0,0:0:0:0:
256,192,114183,1,0,0:0:0:0:
256,192,114255,1,8,0:0:0:0:
256,192,114326,1,8,0:0:0:0:
256,192,114398,1,8,0:0:0:0:
256,192,114469,1,8,0:0:0:0:
256,192,114540,1,4,0:0:0:0:
256,192,114683,1,8,0:0:0:0:
256,192,114826,1,0,0:0:0:0:
256,192,114969,1,0,0:0:0:0:
256,192,115112,1,12,0:0:0:0:
256,192,115255,1,8,0:0:0:0:
256,192,115398,1,8,0:0:0:0:
256,192,115540,1,0,0:0:0:0:
256,192,115683,1,12,0:0:0:0:
256,192,115826,1,8,0:0:0:0:
256,192,115969,1,0,0:0:0:0:
256,192,116112,1,0,0:0:0:0:
256,192,116255,1,12,0:0:0:0:
256,192,116398,1,0,0:0:0:0:
256,192,116826,1,4,0:0:0:0:
256,192,116969,1,8,0:0:0:0:
256,192,117112,1,0,0:0:0:0:
256,192,117255,1,0,0:0:0:0:
256,192,117398,1,12,0:0:0:0:
256,192,117540,1,8,0:0:0:0:
256,192,117683,1,8,0:0:0:0:
256,192,117826,1,0,0:0:0:0:
256,192,117969,1,4,0:0:0:0:
256,192,118112,1,8,0:0:0:0:
256,192,118255,1,0,0:0:0:0:
256,192,118398,1,0,0:0:0:0:
256,192,118540,1,12,0:0:0:0:
256,192,118683,1,0,0:0:0:0:
256,192,119112,1,4,0:0:0:0:
256,192,119255,1,8,0:0:0:0:
256,192,119398,1,0,0:0:0:0:
256,192,119540,1,0,0:0:0:0:
256,192,119683,1,12,0:0:0:0:
256,192,119826,1,8,0:0:0:0:
256,192,119969,1,8,0:0:0:0:
256,192,120112,1,0,0:0:0:0:
256,192,120255,1,12,0:0:0:0:
256,192,120398,1,0,0:0:0:0:
256,192,120540,1,0,0:0:0:0:
256,192,120683,1,0,0:0:0:0:
256,192,120826,1,12,0:0:0:0:
256,192,120969,1,0,0:0:0:0:
256,192,121398,1,4,0:0:0:0:
256,192,121540,1,8,0:0:0:0:
256,192,121683,1,0,0:0:0:0:
256,192,121826,1,8,0:0:0:0:
256,192,121969,1,4,0:0:0:0:
256,192,122112,1,8,0:0:0:0:
256,192,122183,1,8,0:0:0:0:
256,192,122255,1,0,0:0:0:0:
256,192,122398,1,8,0:0:0:0:
256,192,122540,1,8,0:0:0:0:
256,192,122612,1,8,0:0:0:0:
256,192,122683,1,8,0:0:0:0:
256,192,122755,1,8,0:0:0:0:
256,192,122826,1,8,0:0:0:0:
256,192,122898,1,8,0:0:0:0:
256,192,122969,1,0,0:0:0:0:
256,192,123112,1,8,0:0:0:0:
256,192,123183,1,8,0:0:0:0:
256,192,123255,1,8,0:0:0:0:
256,192,123326,1,8,0:0:0:0:
256,192,123398,1,8,0:0:0:0:
256,192,123540,1,8,0:0:0:0:
256,192,123683,1,4,0:0:0:0:
256,192,123969,1,8,0:0:0:0:
256,192,124255,1,0,0:0:0:0:
256,192,124398,1,0,0:0:0:0:
256,192,124540,1,8,0:0:0:0:
256,192,124683,1,8,0:0:0:0:
256,192,124826,1,0,0:0:0:0:
256,192,124969,1,0,0:0:0:0:
256,192,125112,1,8,0:0:0:0:
256,192,125255,1,0,0:0:0:0:
256,192,125326,1,0,0:0:0:0:
256,192,125398,1,0,0:0:0:0:
256,192,125540,1,0,0:0:0:0:
256,192,125683,1,8,0:0:0:0:
256,192,125826,1,8,0:0:0:0:
256,192,125898,1,0,0:0:0:0:
256,192,125969,1,0,0:0:0:0:
256,192,126255,1,8,0:0:0:0:
256,192,126540,1,0,0:0:0:0:
256,192,126683,1,0,0:0:0:0:
256,192,126826,1,8,0:0:0:0:
256,192,126969,1,0,0:0:0:0:
256,192,127112,1,8,0:0:0:0:
256,192,127183,1,8,0:0:0:0:
256,192,127255,1,8,0:0:0:0:
256,192,127326,1,0,0:0:0:0:
256,192,127398,1,8,0:0:0:0:
256,192,127469,1,8,0:0:0:0:
256,192,127540,1,0,0:0:0:0:
256,192,127612,1,0,0:0:0:0:
256,192,127683,1,8,0:0:0:0:
256,192,127826,1,0,0:0:0:0:
256,192,127898,1,0,0:0:0:0:
256,192,127969,1,8,0:0:0:0:
256,192,128040,1,0,0:0:0:0:
256,192,128112,1,8,0:0:0:0:
256,192,128255,1,0,0:0:0:0:
256,192,128540,1,8,0:0:0:0:
256,192,128683,1,0,0:0:0:0:
256,192,128826,1,8,0:0:0:0:
256,192,128969,1,0,0:0:0:0:
256,192,129040,1,0,0:0:0:0:
256,192,129112,1,8,0:0:0:0:
256,192,129183,1,0,0:0:0:0:
256,192,129255,1,0,0:0:0:0:
256,192,129326,1,8,0:0:0:0:
256,192,129398,1,8,0:0:0:0:
256,192,129683,1,8,0:0:0:0:
256,192,129826,1,8,0:0:0:0:
256,192,129969,1,0,0:0:0:0:
256,192,130112,1,0,0:0:0:0:
256,192,130255,1,8,0:0:0:0:
256,192,130445,1,8,0:0:0:0:
256,192,130540,1,0,0:0:0:0:
256,192,130635,1,0,0:0:0:0:
256,192,130730,1,8,0:0:0:0:
256,192,130826,1,8,0:0:0:0:
256,192,130921,1,0,0:0:0:0:
256,192,131016,1,8,0:0:0:0:
256,192,131112,1,8,0:0:0:0:
256,192,131183,1,8,0:0:0:0:
256,192,131255,1,0,0:0:0:0:
256,192,131326,1,0,0:0:0:0:
256,192,131398,1,8,0:0:0:0:
256,192,131469,1,0,0:0:0:0:
256,192,131540,1,8,0:0:0:0:
256,192,131612,1,8,0:0:0:0:
256,192,131683,1,0,0:0:0:0:
256,192,131755,1,0,0:0:0:0:
256,192,131826,1,8,0:0:0:0:
256,192,131969,1,8,0:0:0:0:
256,192,132040,1,8,0:0:0:0:
256,192,132112,1,0,0:0:0:0:
256,192,132255,1,0,0:0:0:0:
256,192,132398,1,12,0:0:0:0:
256,192,132826,1,8,0:0:0:0:
256,192,132921,1,0,0:0:0:0:
256,192,133016,1,0,0:0:0:0:
256,192,133112,1,8,0:0:0:0:
256,192,133206,1,8,0:0:0:0:
256,192,133302,1,0,0:0:0:0:
256,192,133398,1,8,0:0:0:0:
256,192,133469,1,8,0:0:0:0:
256,192,133540,1,0,0:0:0:0:
256,192,133612,1,0,0:0:0:0:
256,192,133683,1,8,0:0:0:0:
256,192,133826,1,0,0:0:0:0:
256,192,133897,1,0,0:0:0:0:
256,192,133969,1,0,0:0:0:0:
256,192,134112,1,8,0:0:0:0:
256,192,134183,1,8,0:0:0:0:
256,192,134254,1,0,0:0:0:0:
256,192,134398,1,0,0:0:0:0:
256,192,134469,1,0,0:0:0:0:
256,192,134540,1,8,0:0:0:0:
256,192,134612,1,0,0:0:0:0:
256,192,134683,1,8,0:0:0:0:
256,192,134826,1,8,0:0:0:0:
256,192,134969,1,8,0:0:0:0:
256,192,135040,1,8,0:0:0:0:
256,192,135112,1,0,0:0:0:0:
256,192,135206,1,0,0:0:0:0:
256,192,135302,1,8,0:0:0:0:
256,192,135398,1,0,0:0:0:0:
256,192,135469,1,0,0:0:0:0:
256,192,135540,1,8,0:0:0:0:
256,192,135611,1,8,0:0:0:0:
256,192,135683,1,0,0:0:0:0:
256,192,135778,1,0,0:0:0:0:
256,192,135873,1,8,0:0:0:0:
256,192,135969,1,0,0:0:0:0:
256,192,136040,1,0,0:0:0:0:
256,192,136112,1,8,0:0:0:0:
256,192,136183,1,8,0:0:0:0:
256,192,136255,1,0,0:0:0:0:
256,192,136350,1,0,0:0:0:0:
256,192,136445,1,8,0:0:0:0:
256,192,136540,1,8,0:0:0:0:
256,192,136636,1,0,0:0:0:0:
256,192,136731,1,8,0:0:0:0:
256,192,136826,1,0,0:0:0:0:
256,192,136969,1,0,0:0:0:0:
256,192,137112,1,8,0:0:0:0:
256,192,137398,1,4,0:0:0:0:
256,192,137683,1,8,0:0:0:0:
256,192,137898,1,0,0:0:0:0:
256,192,137933,1,8,0:0:0:0:
256,192,138112,1,0,0:0:0:0:
256,192,138147,1,8,0:0:0:0:
256,192,138290,1,0,0:0:0:0:
256,192,138326,1,8,0:0:0:0:
256,192,138504,1,0,0:0:0:0:
256,192,138540,1,8,0:0:0:0:
256,192,138826,1,8,0:0:0:0:
256,192,138969,1,8,0:0:0:0:
256,192,139040,1,8,0:0:0:0:
256,192,139112,1,0,0:0:0:0:
256,192,139255,1,0,0:0:0:0:
256,192,139398,1,8,0:0:0:0:
256,192,139540,1,0,0:0:0:0:
256,192,139683,1,8,0:0:0:0:
256,192,139826,1,8,0:0:0:0:
256,192,139898,1,8,0:0:0:0:
256,192,139969,1,8,0:0:0:0:
256,192,140112,1,8,0:0:0:0:
256,192,140255,1,8,0:0:0:0:
256,192,140326,1,8,0:0:0:0:
256,192,140398,1,8,0:0:0:0:
256,192,140469,1,8,0:0:0:0:
256,192,140540,1,8,0:0:0:0:
256,192,140683,1,8,0:0:0:0:
256,192,140826,1,8,0:0:0:0:
256,192,140969,1,8,0:0:0:0:
256,192,141112,1,8,0:0:0:0:
256,192,141255,1,8,0:0:0:0:
256,192,141398,1,8,0:0:0:0:
256,192,141540,1,12,0:0:0:0:
256,192,141683,1,8,0:0:0:0:
256,192,141826,1,8,0:0:0:0:
256,192,141969,1,12,0:0:0:0:
256,192,142112,1,0,0:0:0:0:
256,192,142255,1,0,0:0:0:0:
256,192,142398,1,12,0:0:0:0:
256,192,142540,1,0,0:0:0:0:
256,192,142683,1,0,0:0:0:0:
256,192,142826,1,12,0:0:0:0:
256,192,142969,1,0,0:0:0:0:
256,192,143112,1,0,0:0:0:0:
256,192,143255,1,12,0:0:0:0:
256,192,143398,1,12,0:0:0:0:
256,192,143540,1,0,0:0:0:0:
256,192,143683,1,0,0:0:0:0:
256,192,143826,1,12,0:0:0:0:
256,192,143969,1,8,0:0:0:0:
256,192,144040,1,8,0:0:0:0:
256,192,144112,1,8,0:0:0:0:
256,192,144183,1,8,0:0:0:0:
256,192,144255,1,4,0:0:0:0:
256,192,145398,1,4,0:0:0:0:
256,192,145826,1,4,0:0:0:0:
256,192,146112,1,4,0:0:0:0:
256,192,146540,1,12,0:0:0:0:
256,192,147683,1,0,0:0:0:0:
256,192,147826,1,8,0:0:0:0:
256,192,147969,1,8,0:0:0:0:
256,192,148112,1,0,0:0:0:0:
256,192,148255,1,8,0:0:0:0:
256,192,148326,1,8,0:0:0:0:
256,192,148398,1,8,0:0:0:0:
256,192,148469,1,8,0:0:0:0:
256,192,148540,1,0,0:0:0:0:
256,192,148612,1,8,0:0:0:0:
256,192,148683,1,8,0:0:0:0:
256,192,148755,1,8,0:0:0:0:
256,192,148826,1,4,0:0:0:0:
256,192,149112,1,8,0:0:0:0:
256,192,149398,1,0,0:0:0:0:
256,192,149540,1,0,0:0:0:0:
256,192,149683,1,8,0:0:0:0:
256,192,149826,1,0,0:0:0:0:
256,192,149969,1,8,0:0:0:0:
256,192,150112,1,8,0:0:0:0:
256,192,150255,1,0,0:0:0:0:
256,192,150398,1,8,0:0:0:0:
256,192,150540,1,0,0:0:0:0:
256,192,150683,1,0,0:0:0:0:
256,192,150826,1,8,0:0:0:0:
256,192,150969,1,8,0:0:0:0:
256,192,151112,1,0,0:0:0:0:
256,192,151255,1,0,0:0:0:0:
256,192,151398,1,8,0:0:0:0:
256,192,151540,1,8,0:0:0:0:
256,192,151683,1,0,0:0:0:0:
256,192,151826,1,0,0:0:0:0:
256,192,151969,1,8,0:0:0:0:
256,192,152112,1,0,0:0:0:0:
256,192,152255,1,0,0:0:0:0:
256,192,152540,1,8,0:0:0:0:
256,192,152683,1,0,0:0:0:0:
256,192,152826,1,0,0:0:0:0:
256,192,152969,1,8,0:0:0:0:
256,192,153112,1,8,0:0:0:0:
256,192,153183,1,8,0:0:0:0:
256,192,153255,1,8,0:0:0:0:
256,192,153326,1,8,0:0:0:0:
256,192,153398,1,0,0:0:0:0:
256,192,153683,1,8,0:0:0:0:
256,192,153969,1,0,0:0:0:0:
256,192,154112,1,0,0:0:0:0:
256,192,154255,1,8,0:0:0:0:
256,192,154398,1,0,0:0:0:0:
256,192,154540,1,8,0:0:0:0:
256,192,154683,1,8,0:0:0:0:
256,192,154826,1,8,0:0:0:0:
256,192,154969,1,0,0:0:0:0:
256,192,155112,1,0,0:0:0:0:
256,192,155255,1,0,0:0:0:0:
256,192,155398,1,8,0:0:0:0:
256,192,155540,1,8,0:0:0:0:
256,192,155683,1,0,0:0:0:0:
256,192,155826,1,0,0:0:0:0:
256,192,155969,1,8,0:0:0:0:
256,192,156112,1,0,0:0:0:0:
256,192,156255,1,0,0:0:0:0:
256,192,156398,1,0,0:0:0:0:
256,192,156540,1,8,0:0:0:0:
256,192,156683,1,8,0:0:0:0:
256,192,156826,1,0,0:0:0:0:
256,192,156969,1,8,0:0:0:0:
256,192,157112,1,8,0:0:0:0:
256,192,157255,1,8,0:0:0:0:
256,192,157398,1,0,0:0:0:0:
256,192,157540,1,0,0:0:0:0:
256,192,157683,1,8,0:0:0:0:
256,192,157826,1,0,0:0:0:0:
256,192,157969,1,8,0:0:0:0:
256,192,158255,1,8,0:0:0:0:
256,192,158540,1,0,0:0:0:0:
256,192,158683,1,0,0:0:0:0:
256,192,158826,1,8,0:0:0:0:
256,192,158969,1,8,0:0:0:0:
256,192,159112,1,0,0:0:0:0:
256,192,159255,1,0,0:0:0:0:
256,192,159398,1,8,0:0:0:0:
256,192,159540,1,0,0:0:0:0:
256,192,159683,1,0,0:0:0:0:
256,192,159826,1,0,0:0:0:0:
256,192,159969,1,8,0:0:0:0:
256,192,160112,1,8,0:0:0:0:
256,192,160255,1,0,0:0:0:0:
256,192,160398,1,8,0:0:0:0:
256,192,160540,1,8,0:0:0:0:
256,192,160683,1,8,0:0:0:0:
256,192,160826,1,0,0:0:0:0:
256,192,160969,1,0,0:0:0:0:
256,192,161112,1,8,0:0:0:0:
256,192,161255,1,0,0:0:0:0:
256,192,161398,1,8,0:0:0:0:
256,192,161540,1,8,0:0:0:0:
256,192,161683,1,8,0:0:0:0:
256,192,161755,1,8,0:0:0:0:
256,192,161826,1,8,0:0:0:0:
256,192,161898,1,8,0:0:0:0:
256,192,161969,1,8,0:0:0:0:
256,192,162112,1,8,0:0:0:0:
256,192,162255,1,8,0:0:0:0:
256,192,162398,1,8,0:0:0:0:
256,192,162540,1,4,0:0:0:0:
256,192,162683,1,8,0:0:0:0:
256,192,162826,1,0,0:0:0:0:
256,192,162969,1,0,0:0:0:0:
256,192,163112,1,12,0:0:0:0:
256,192,163398,1,8,0:0:0:0:
256,192,163540,1,8,0:0:0:0:
256,192,163683,1,4,0:0:0:0:
256,192,163826,1,8,0:0:0:0:
256,192,163969,1,0,0:0:0:0:
256,192,164112,1,0,0:0:0:0:
256,192,164255,1,12,0:0:0:0:
256,192,164398,1,0,0:0:0:0:
256,192,164826,1,4,0:0:0:0:
256,192,164969,1,8,0:0:0:0:
256,192,165112,1,8,0:0:0:0:
256,192,165255,1,0,0:0:0:0:
256,192,165398,1,12,0:0:0:0:
256,192,165540,1,0,0:0:0:0:
256,192,165683,1,8,0:0:0:0:
256,192,165826,1,8,0:0:0:0:
256,192,165969,1,4,0:0:0:0:
256,192,166112,1,8,0:0:0:0:
256,192,166255,1,8,0:0:0:0:
256,192,166398,1,0,0:0:0:0:
256,192,166540,1,12,0:0:0:0:
256,192,166683,1,0,0:0:0:0:
256,192,167112,1,4,0:0:0:0:
256,192,167255,1,8,0:0:0:0:
256,192,167398,1,8,0:0:0:0:
256,192,167540,1,0,0:0:0:0:
256,192,167683,1,12,0:0:0:0:
256,192,167826,1,0,0:0:0:0:
256,192,167969,1,8,0:0:0:0:
256,192,168112,1,0,0:0:0:0:
256,192,168255,1,12,0:0:0:0:
256,192,168398,1,8,0:0:0:0:
256,192,168540,1,0,0:0:0:0:
256,192,168683,1,0,0:0:0:0:
256,192,168826,1,12,0:0:0:0:
256,192,168969,1,0,0:0:0:0:
256,192,169398,1,4,0:0:0:0:
256,192,169540,1,8,0:0:0:0:
256,192,169683,1,0,0:0:0:0:
256,192,169826,1,8,0:0:0:0:
256,192,169969,1,4,0:0:0:0:
256,192,170112,1,8,0:0:0:0:
256,192,170183,1,8,0:0:0:0:
256,192,170255,1,0,0:0:0:0:
256,192,170398,1,8,0:0:0:0:
256,192,170540,1,8,0:0:0:0:
256,192,170612,1,8,0:0:0:0:
256,192,170683,1,8,0:0:0:0:
256,192,170755,1,8,0:0:0:0:
256,192,170826,1,0,0:0:0:0:
256,192,170969,1,8,0:0:0:0:
256,192,171112,1,8,0:0:0:0:
256,192,171183,1,8,0:0:0:0:
256,192,171255,1,8,0:0:0:0:
256,192,171326,1,8,0:0:0:0:
256,192,171398,1,8,0:0:0:0:
256,192,171540,1,8,0:0:0:0:
256,192,171683,1,4,0:0:0:0:
256,192,171826,1,8,0:0:0:0:
256,192,171969,1,0,0:0:0:0:
256,192,172112,1,8,0:0:0:0:
256,192,172255,1,4,0:0:0:0:
256,192,172398,1,8,0:0:0:0:
256,192,172469,1,0,0:0:0:0:
256,192,172540,1,0,0:0:0:0:
256,192,172683,1,8,0:0:0:0:
256,192,172826,1,4,0:0:0:0:
256,192,172969,1,0,0:0:0:0:
256,192,173040,1,8,0:0:0:0:
256,192,173112,1,8,0:0:0:0:
256,192,173183,1,8,0:0:0:0:
256,192,173255,1,0,0:0:0:0:
256,192,173398,1,12,0:0:0:0:
256,192,173540,1,8,0:0:0:0:
256,192,173683,1,0,0:0:0:0:
256,192,173826,1,8,0:0:0:0:
256,192,173969,1,4,0:0:0:0:
256,192,174112,1,8,0:0:0:0:
256,192,174255,1,0,0:0:0:0:
256,192,174398,1,8,0:0:0:0:
256,192,174540,1,4,0:0:0:0:
256,192,174683,1,8,0:0:0:0:
256,192,174755,1,8,0:0:0:0:
256,192,174826,1,0,0:0:0:0:
256,192,174969,1,8,0:0:0:0:
256,192,175112,1,4,0:0:0:0:
256,192,175255,1,8,0:0:0:0:
256,192,175326,1,0,0:0:0:0:
256,192,175398,1,0,0:0:0:0:
256,192,175469,1,8,0:0:0:0:
256,192,175540,1,0,0:0:0:0:
256,192,175683,1,12,0:0:0:0:
256,192,175826,1,8,0:0:0:0:
256,192,175969,1,0,0:0:0:0:
256,192,176112,1,8,0:0:0:0:
256,192,176255,1,12,0:0:0:0:
256,192,176398,1,8,0:0:0:0:
256,192,176469,1,8,0:0:0:0:
256,192,176540,1,0,0:0:0:0:
256,192,176612,1,0,0:0:0:0:
256,192,176683,1,8,0:0:0:0:
256,192,176826,1,8,0:0:0:0:
256,192,176898,1,8,0:0:0:0:
256,192,176969,1,8,0:0:0:0:
256,192,177112,1,8,0:0:0:0:
256,192,177254,1,0,0:0:0:0:
256,192,177398,1,8,0:0:0:0:
256,192,177469,1,8,0:0:0:0:
256,192,177540,1,8,0:0:0:0:
256,192,177612,1,8,0:0:0:0:
256,192,177683,1,0,0:0:0:0:
256,192,177755,1,8,0:0:0:0:
256,192,177826,1,0,0:0:0:0:
256,192,177898,1,0,0:0:0:0:
256,192,177969,1,8,0:0:0:0:
256,192,178112,1,8,0:0:0:0:
256,192,178183,1,8,0:0:0:0:
256,192,178255,1,0,0:0:0:0:
256,192,178398,1,8,0:0:0:0:
256,192,178469,1,8,0:0:0:0:
256,192,178540,1,8,0:0:0:0:
256,192,178683,1,8,0:0:0:0:
256,192,178755,1,8,0:0:0:0:
256,192,178826,1,0,0:0:0:0:
256,192,178898,1,0,0:0:0:0:
256,192,178969,1,8,0:0:0:0:
256,192,179040,1,8,0:0:0:0:
256,192,179112,1,8,0:0:0:0:
256,192,179255,1,8,0:0:0:0:
256,192,179398,1,8,0:0:0:0:
256,192,179540,1,8,0:0:0:0:
256,192,179683,1,4,0:0:0:0:
256,192,180826,1,4,0:0:0:0:
256,192,181112,1,8,0:0:0:0:
256,192,181255,1,8,0:0:0:0:
256,192,181398,1,0,0:0:0:0:
256,192,181540,1,8,0:0:0:0:
256,192,181683,1,0,0:0:0:0:
256,192,181826,1,8,0:0:0:0:
256,192,181969,1,8,0:0:0:0:
256,192,182112,1,0,0:0:0:0:
256,192,182255,1,8,0:0:0:0:
256,192,182398,1,0,0:0:0:0:
256,192,182540,1,8,0:0:0:0:
256,192,182683,1,8,0:0:0:0:
256,192,182826,1,8,0:0:0:0:
256,192,183112,1,4,0:0:0:0:
256,192,183398,1,8,0:0:0:0:
256,192,183540,1,8,0:0:0:0:
256,192,183683,1,0,0:0:0:0:
256,192,183826,1,8,0:0:0:0:
256,192,183969,1,0,0:0:0:0:
256,192,184112,1,8,0:0:0:0:
256,192,184255,1,8,0:0:0:0:
256,192,184398,1,0,0:0:0:0:
256,192,184540,1,8,0:0:0:0:
256,192,184683,1,8,0:0:0:0:
256,192,184969,1,0,0:0:0:0:
256,192,185112,1,8,0:0:0:0:
256,192,185183,1,8,0:0:0:0:
256,192,185255,1,8,0:0:0:0:
256,192,185326,1,8,0:0:0:0:
256,192,185398,1,4,0:0:0:0:
256,192,185683,1,8,0:0:0:0:
256,192,185826,1,8,0:0:0:0:
256,192,185969,1,0,0:0:0:0:
256,192,186112,1,8,0:0:0:0:
256,192,186255,1,8,0:0:0:0:
256,192,186398,1,0,0:0:0:0:
256,192,186540,1,8,0:0:0:0:
256,192,186683,1,8,0:0:0:0:
256,192,186826,1,8,0:0:0:0:
256,192,186969,1,0,0:0:0:0:
256,192,187112,1,8,0:0:0:0:
256,192,187255,1,8,0:0:0:0:
256,192,187683,1,4,0:0:0:0:
256,192,187969,1,8,0:0:0:0:
256,192,188112,1,8,0:0:0:0:
256,192,188255,1,0,0:0:0:0:
256,192,188398,1,8,0:0:0:0:
256,192,188540,1,0,0:0:0:0:
256,192,188683,1,8,0:0:0:0:
256,192,188826,1,8,0:0:0:0:
256,192,188969,1,4,0:0:0:0:
256,192,189398,1,0,0:0:0:0:
256,192,189647,1,8,0:0:0:0:
256,192,189861,1,4,0:0:0:0:
256,192,190361,1,0,0:0:0:0:
256,192,190647,1,8,0:0:0:0:
256,192,190933,1,4,0:0:0:0:
256,192,191504,1,0,0:0:0:0:
256,192,191790,1,0,0:0:0:0:
256,192,192112,1,0,0:0:0:0:
256,192,192433,1,0,0:0:0:0:
256,192,192755,1,12,0:0:0:0:
