osu file format v14

[General]
AudioFilename: audio1.mp3
AudioLeadIn: 0
PreviewTime: 44287
Countdown: 0
SampleSet: Normal
StackLeniency: 0.7
Mode: 1
LetterboxInBreaks: 0
WidescreenStoryboard: 0

[Editor]
DistanceSpacing: 0.1
BeatDivisor: 4
GridSize: 8
TimelineZoom: 1

[Metadata]
Title:MMFF round of 32 - unsubmitted maps
TitleUnicode:MMFF round of 32 - unsubmitted maps
Artist:various artists
ArtistUnicode:various artists
Creator:Nofool
Version:Cyte - Upside Done [Muzukashii (MMFF edit)]
Source:
Tags:7_7 salchow Osamix
BeatmapID:1891208
BeatmapSetID:906232

[Difficulty]
HPDrainRate:5
CircleSize:6
OverallDifficulty:5
ApproachRate:8
SliderMultiplier:1.4
SliderTickRate:1

[Events]
//Background and Video events
0,0,"BGupside.png",0,0
//Break Periods
//Storyboard Layer 0 (Background)
//Storyboard Layer 1 (Fail)
//Storyboard Layer 2 (Pass)
//Storyboard Layer 3 (Foreground)
//Storyboard Sound Samples

[TimingPoints]
402,342.857142857143,4,1,0,80,1,0
44287,-90.9090909090909,4,1,0,80,0,1
66230,-100,4,1,0,80,0,0

[HitObjects]
240,192,402,5,0,0:0:0:0:
224,144,916,1,8,0:0:0:0:
360,192,1173,1,8,0:0:0:0:
352,192,1430,1,8,0:0:0:0:
328,192,1773,1,8,0:0:0:0:
312,192,2287,1,8,0:0:0:0:
304,192,2544,1,8,0:0:0:0:
296,192,2802,1,8,0:0:0:0:
240,192,3144,1,0,0:0:0:0:
224,144,3658,1,8,0:0:0:0:
360,192,3916,1,8,0:0:0:0:
352,192,4173,1,8,0:0:0:0:
336,192,4516,1,8,0:0:0:0:
320,192,5029,1,8,0:0:0:0:
328,192,5287,1,8,0:0:0:0:
192,168,5544,1,8,0:0:0:0:
240,192,5887,1,0,0:0:0:0:
224,144,6402,1,8,0:0:0:0:
360,192,6659,1,8,0:0:0:0:
352,192,6916,1,8,0:0:0:0:
336,192,7259,1,8,0:0:0:0:
320,192,7772,1,8,0:0:0:0:
312,192,8030,1,8,0:0:0:0:
304,192,8287,1,8,0:0:0:0:
304,192,8459,1,8,0:0:0:0:
240,192,8630,1,0,0:0:0:0:
360,192,9144,1,8,0:0:0:0:
352,192,9402,1,8,0:0:0:0:
352,192,9659,1,8,0:0:0:0:
328,192,10002,1,8,0:0:0:0:
312,192,10516,1,8,0:0:0:0:
304,192,10773,1,8,0:0:0:0:
304,192,11030,1,8,0:0:0:0:
232,184,11373,1,4,0:0:0:0:
384,240,11716,1,8,0:0:0:0:
248,184,11887,1,8,0:0:0:0:
384,240,12059,1,0,0:0:0:0:
384,240,12230,1,0,0:0:0:0:
266,203,12573,1,8,0:0:0:0:
280,168,12916,1,0,0:0:0:0:
280,168,13087,1,8,0:0:0:0:
240,192,13259,1,0,0:0:0:0:
232,184,14116,1,0,0:0:0:0:
384,240,14459,1,8,0:0:0:0:
248,184,14630,1,8,0:0:0:0:
384,240,14802,1,0,0:0:0:0:
384,240,14973,1,0,0:0:0:0:
280,168,15144,1,0,0:0:0:0:
266,203,15316,1,8,0:0:0:0:
280,168,15659,1,0,0:0:0:0:
280,168,15830,1,0,0:0:0:0:
280,168,16002,1,8,0:0:0:0:
280,168,16344,1,8,0:0:0:0:
280,168,16687,1,8,0:0:0:0:
280,168,16773,1,8,0:0:0:0:
232,184,16859,1,0,0:0:0:0:
384,240,17202,1,0,0:0:0:0:
248,184,17373,1,8,0:0:0:0:
384,240,17545,1,0,0:0:0:0:
384,240,17888,1,8,0:0:0:0:
265,208,18059,1,8,0:0:0:0:
280,168,18402,1,0,0:0:0:0:
280,168,18573,1,0,0:0:0:0:
232,160,18744,1,8,0:0:0:0:
280,168,19087,1,0,0:0:0:0:
248,176,19259,1,8,0:0:0:0:
280,168,19430,1,8,0:0:0:0:
232,184,19602,1,0,0:0:0:0:
384,240,19945,1,0,0:0:0:0:
248,184,20116,1,8,0:0:0:0:
384,240,20459,1,8,0:0:0:0:
384,240,20630,1,8,0:0:0:0:
280,168,20973,1,8,0:0:0:0:
280,168,21144,1,0,0:0:0:0:
272,168,21316,1,0,0:0:0:0:
273,164,21487,1,8,0:0:0:0:
272,184,21659,1,0,0:0:0:0:
168,104,21744,1,0,0:0:0:0:
168,104,21916,1,0,0:0:0:0:
168,104,22002,1,0,0:0:0:0:
145,185,22173,1,8,0:0:0:0:
143,191,22344,1,0,0:0:0:0:
145,185,22687,1,8,0:0:0:0:
152,186,22859,1,0,0:0:0:0:
135,235,23030,1,8,0:0:0:0:
137,232,23116,1,0,0:0:0:0:
128,231,23373,1,8,0:0:0:0:
135,235,23716,1,0,0:0:0:0:
126,232,23973,1,0,0:0:0:0:
184,221,24230,1,8,0:0:0:0:
127,231,24573,1,8,0:0:0:0:
135,235,24744,1,8,0:0:0:0:
143,191,24830,1,8,0:0:0:0:
126,232,24916,1,8,0:0:0:0:
143,191,25087,1,0,0:0:0:0:
143,191,25430,1,8,0:0:0:0:
143,191,25602,1,0,0:0:0:0:
135,235,25773,1,8,0:0:0:0:
143,191,25859,1,8,0:0:0:0:
128,231,26116,1,0,0:0:0:0:
135,235,26459,1,8,0:0:0:0:
126,232,26716,1,8,0:0:0:0:
128,231,26973,1,0,0:0:0:0:
167,163,27316,1,0,0:0:0:0:
130,232,27487,1,8,0:0:0:0:
126,232,27659,1,0,0:0:0:0:
143,191,27744,1,0,0:0:0:0:
143,191,27830,1,0,0:0:0:0:
167,163,28173,1,8,0:0:0:0:
143,191,28344,1,0,0:0:0:0:
135,235,28516,1,8,0:0:0:0:
143,191,28602,1,0,0:0:0:0:
135,235,28859,1,8,0:0:0:0:
135,235,29202,1,0,0:0:0:0:
126,232,29459,1,0,0:0:0:0:
126,232,29545,1,8,0:0:0:0:
184,221,29716,1,0,0:0:0:0:
128,232,30059,1,0,0:0:0:0:
135,235,30230,1,0,0:0:0:0:
143,191,30316,1,0,0:0:0:0:
126,232,30402,1,0,0:0:0:0:
143,191,30487,1,0,0:0:0:0:
143,191,30573,1,8,0:0:0:0:
143,191,30916,1,8,0:0:0:0:
143,191,31087,1,0,0:0:0:0:
135,235,31259,1,8,0:0:0:0:
143,191,31344,1,8,0:0:0:0:
128,231,31602,1,0,0:0:0:0:
135,235,31945,1,8,0:0:0:0:
126,232,32202,1,8,0:0:0:0:
126,232,32288,1,0,0:0:0:0:
184,221,32459,1,8,0:0:0:0:
127,231,32802,1,0,0:0:0:0:
130,232,32973,1,8,0:0:0:0:
126,232,33145,1,8,0:0:0:0:
128,232,33316,1,0,0:0:0:0:
128,184,33659,1,0,0:0:0:0:
128,184,33830,1,8,0:0:0:0:
128,184,34173,1,0,0:0:0:0:
128,184,34344,1,0,0:0:0:0:
128,184,34516,1,8,0:0:0:0:
128,184,34687,1,0,0:0:0:0:
128,184,35030,1,0,0:0:0:0:
128,184,35202,1,8,0:0:0:0:
96,136,35544,1,8,0:0:0:0:
96,136,35887,1,8,0:0:0:0:
128,184,35973,1,8,0:0:0:0:
96,136,36059,1,0,0:0:0:0:
96,136,36402,1,8,0:0:0:0:
96,136,36744,1,0,0:0:0:0:
96,136,37087,1,8,0:0:0:0:
96,136,37259,1,8,0:0:0:0:
96,136,37430,1,0,0:0:0:0:
80,128,37773,1,0,0:0:0:0:
88,136,37944,1,8,0:0:0:0:
88,136,38287,1,8,0:0:0:0:
72,128,38630,1,0,0:0:0:0:
80,128,38716,1,0,0:0:0:0:
128,232,38802,1,8,0:0:0:0:
128,184,39144,1,0,0:0:0:0:
128,184,39316,1,0,0:0:0:0:
128,184,39487,1,8,0:0:0:0:
128,184,39659,1,0,0:0:0:0:
128,184,40002,1,8,0:0:0:0:
128,184,40344,1,8,0:0:0:0:
128,184,40516,1,0,0:0:0:0:
128,184,40687,1,8,0:0:0:0:
96,136,40859,1,0,0:0:0:0:
128,184,40944,1,0,0:0:0:0:
96,136,41116,1,8,0:0:0:0:
96,136,41202,1,10,0:0:0:0:
96,128,41373,1,0,0:0:0:0:
96,136,41544,1,8,0:0:0:0:
96,136,41887,1,0,0:0:0:0:
96,136,42059,1,0,0:0:0:0:
96,136,42230,1,8,0:0:0:0:
304,200,42573,1,0,0:0:0:0:
96,136,42744,1,8,0:0:0:0:
288,184,43087,1,8,0:0:0:0:
304,200,43259,1,8,0:0:0:0:
296,184,43430,1,8,0:0:0:0:
296,192,43602,1,0,0:0:0:0:
248,168,43687,1,0,0:0:0:0:
248,168,43859,1,0,0:0:0:0:
248,168,43944,1,0,0:0:0:0:
288,184,44116,1,8,0:0:0:0:
280,184,44287,1,4,0:0:0:0:
160,136,44630,1,4,0:0:0:0:
168,144,44973,1,8,0:0:0:0:
176,152,45230,1,8,0:0:0:0:
216,208,45487,1,8,0:0:0:0:
216,208,45659,1,0,0:0:0:0:
216,208,45830,1,8,0:0:0:0:
216,208,45916,1,8,0:0:0:0:
216,200,46002,1,0,0:0:0:0:
216,208,46173,1,8,0:0:0:0:
216,200,46516,1,8,0:0:0:0:
216,208,46687,1,8,0:0:0:0:
219,207,46773,1,8,0:0:0:0:
216,208,46859,1,8,0:0:0:0:
216,208,46944,1,8,0:0:0:0:
216,208,47030,1,0,0:0:0:0:
208,192,47373,1,8,0:0:0:0:
208,200,47716,1,0,0:0:0:0:
208,192,47887,1,0,0:0:0:0:
216,200,48059,1,8,0:0:0:0:
208,192,48402,1,8,0:0:0:0:
208,200,48573,1,0,0:0:0:0:
208,192,48744,1,8,0:0:0:0:
208,192,48916,1,8,0:0:0:0:
216,200,49087,1,0,0:0:0:0:
216,192,49259,1,0,0:0:0:0:
208,192,49430,1,8,0:0:0:0:
232,144,49602,1,8,0:0:0:0:
352,104,49773,1,0,0:0:0:0:
248,160,50116,1,0,0:0:0:0:
240,160,50459,1,8,0:0:0:0:
240,160,50630,1,8,0:0:0:0:
304,96,50802,1,8,0:0:0:0:
320,232,50887,1,8,0:0:0:0:
304,96,50973,1,8,0:0:0:0:
256,120,51144,1,0,0:0:0:0:
240,160,51316,1,8,0:0:0:0:
256,136,51487,1,0,0:0:0:0:
256,136,51659,1,8,0:0:0:0:
256,136,52002,1,8,0:0:0:0:
256,136,52344,1,8,0:0:0:0:
252,136,52430,1,8,0:0:0:0:
256,136,52516,1,0,0:0:0:0:
166,153,52687,1,8,0:0:0:0:
208,176,52859,1,0,0:0:0:0:
208,176,53030,1,0,0:0:0:0:
208,176,53202,1,8,0:0:0:0:
208,176,53459,1,8,0:0:0:0:
184,56,53716,1,8,0:0:0:0:
264,168,53887,1,0,0:0:0:0:
216,168,54230,1,8,0:0:0:0:
128,176,54402,1,0,0:0:0:0:
264,168,54573,1,8,0:0:0:0:
264,168,54744,1,8,0:0:0:0:
336,184,54916,1,0,0:0:0:0:
264,168,55087,1,8,0:0:0:0:
264,168,55259,1,0,0:0:0:0:
248,168,55602,1,0,0:0:0:0:
80,208,55944,1,8,0:0:0:0:
192,200,56202,1,8,0:0:0:0:
200,200,56459,1,8,0:0:0:0:
208,168,56630,1,0,0:0:0:0:
208,168,56802,1,8,0:0:0:0:
208,168,56887,1,8,0:0:0:0:
208,168,56973,1,0,0:0:0:0:
216,168,57144,1,8,0:0:0:0:
336,64,57316,1,0,0:0:0:0:
208,168,57487,1,8,0:0:0:0:
208,168,57573,1,8,0:0:0:0:
232,176,57659,1,0,0:0:0:0:
239,174,57830,1,8,0:0:0:0:
214,169,58173,1,0,0:0:0:0:
295,190,58344,1,8,0:0:0:0:
295,190,58516,1,0,0:0:0:0:
368,96,58859,1,0,0:0:0:0:
295,190,59030,1,8,0:0:0:0:
214,108,59202,1,0,0:0:0:0:
192,128,59544,1,0,0:0:0:0:
286,193,59716,1,8,0:0:0:0:
214,108,59887,1,8,0:0:0:0:
192,128,60059,1,0,0:0:0:0:
160,192,60230,1,0,0:0:0:0:
160,192,60402,1,8,0:0:0:0:
280,174,60573,1,8,0:0:0:0:
210,107,60744,1,4,0:0:0:0:
121,99,61087,1,8,0:0:0:0:
116,89,61259,1,4,0:0:0:0:
121,99,61602,1,8,0:0:0:0:
121,99,61773,1,8,0:0:0:0:
232,184,61859,1,8,0:0:0:0:
121,99,61944,1,8,0:0:0:0:
232,184,62030,1,8,0:0:0:0:
232,184,62116,1,0,0:0:0:0:
123,119,62459,1,0,0:0:0:0:
216,183,62802,1,8,0:0:0:0:
216,183,62973,1,8,0:0:0:0:
212,170,63144,1,8,0:0:0:0:
208,168,63316,1,0,0:0:0:0:
216,183,63402,1,8,0:0:0:0:
216,183,63573,1,8,0:0:0:0:
211,170,63659,1,0,0:0:0:0:
131,214,63830,1,8,0:0:0:0:
131,214,64002,1,0,0:0:0:0:
131,214,64344,1,0,0:0:0:0:
136,208,64516,1,8,0:0:0:0:
124,206,64687,1,0,0:0:0:0:
126,208,65030,1,0,0:0:0:0:
128,209,65202,1,8,0:0:0:0:
240,176,65373,1,0,0:0:0:0:
123,205,65544,1,8,0:0:0:0:
167,145,65716,1,8,0:0:0:0:
167,145,65887,1,8,0:0:0:0:
240,176,65973,1,8,0:0:0:0:
167,145,66059,1,8,0:0:0:0:
240,184,66230,1,0,0:0:0:0:
240,176,66487,1,0,0:0:0:0:
242,186,66744,1,0,0:0:0:0:
186,193,67002,1,8,0:0:0:0:
180,190,67259,1,8,0:0:0:0:
186,193,67516,1,8,0:0:0:0:
186,193,67773,1,0,0:0:0:0:
186,193,68030,1,0,0:0:0:0:
186,193,68287,1,0,0:0:0:0:
171,144,68630,1,0,0:0:0:0:
171,144,68802,1,0,0:0:0:0:
286,164,68973,1,8,0:0:0:0:
194,159,69230,1,8,0:0:0:0:
194,159,69487,1,8,0:0:0:0:
197,156,69744,1,0,0:0:0:0:
293,165,70002,1,0,0:0:0:0:
293,165,70259,1,0,0:0:0:0:
197,156,70516,1,8,0:0:0:0:
197,156,70773,1,8,0:0:0:0:
289,170,71030,1,8,0:0:0:0:
197,156,71373,1,0,0:0:0:0:
291,170,71544,1,8,0:0:0:0:
293,165,71716,1,0,0:0:0:0:
289,170,71973,1,0,0:0:0:0:
293,165,72230,1,0,0:0:0:0:
288,176,72487,1,8,0:0:0:0:
288,176,72744,1,8,0:0:0:0:
293,165,73002,1,8,0:0:0:0:
293,165,73259,1,0,0:0:0:0:
280,160,73516,1,0,0:0:0:0:
280,160,73773,1,0,0:0:0:0:
272,160,74116,1,8,0:0:0:0:
264,152,74287,1,8,0:0:0:0:
256,144,74459,1,0,0:0:0:0:
264,152,74802,1,8,0:0:0:0:
264,152,75144,1,0,0:0:0:0:
256,144,75487,1,8,0:0:0:0:
264,152,75659,1,0,0:0:0:0:
264,152,75830,1,0,0:0:0:0:
272,144,76173,1,8,0:0:0:0:
264,136,76344,1,0,0:0:0:0:
264,128,76516,1,8,0:0:0:0:
328,120,76602,1,8,0:0:0:0:
272,128,76687,1,8,0:0:0:0:
328,120,76859,1,8,0:0:0:0:
264,128,76944,1,8,0:0:0:0:
296,128,77030,1,8,0:0:0:0:
320,120,77202,1,0,0:0:0:0:
200,176,77544,1,0,0:0:0:0:
200,176,77887,1,8,0:0:0:0:
200,176,78059,1,0,0:0:0:0:
192,160,78402,1,0,0:0:0:0:
184,160,78573,1,8,0:0:0:0:
184,160,78744,1,0,0:0:0:0:
192,160,79087,1,8,0:0:0:0:
176,152,79602,1,8,0:0:0:0:
256,184,79773,1,8,0:0:0:0:
256,184,79944,1,0,0:0:0:0:
152,176,80287,1,0,0:0:0:0:
160,168,80630,1,8,0:0:0:0:
160,168,80802,1,0,0:0:0:0:
160,168,81144,1,8,0:0:0:0:
152,176,81316,1,0,0:0:0:0:
152,176,81402,1,0,0:0:0:0:
152,176,81487,1,0,0:0:0:0:
152,176,81659,1,8,0:0:0:0:
152,176,81830,1,8,0:0:0:0:
152,176,82002,1,0,0:0:0:0:
152,176,82344,1,8,0:0:0:0:
152,176,82516,1,0,0:0:0:0:
152,176,82687,1,0,0:0:0:0:
152,176,83030,1,0,0:0:0:0:
104,168,83373,1,8,0:0:0:0:
96,184,83544,1,0,0:0:0:0:
104,168,83887,1,0,0:0:0:0:
112,160,84059,1,8,0:0:0:0:
112,160,84230,1,0,0:0:0:0:
120,152,84573,1,8,0:0:0:0:
160,88,85087,1,8,0:0:0:0:
152,88,85259,1,8,0:0:0:0:
160,88,85430,1,0,0:0:0:0:
152,88,85773,1,0,0:0:0:0:
152,88,86116,1,8,0:0:0:0:
152,88,86287,1,0,0:0:0:0:
208,120,86630,1,8,0:0:0:0:
152,88,86802,1,0,0:0:0:0:
208,120,87059,1,0,0:0:0:0:
208,120,87144,1,0,0:0:0:0:
208,120,87316,1,8,0:0:0:0:
205,122,87573,1,0,0:0:0:0:
205,122,87659,1,0,0:0:0:0:
208,120,87744,1,0,0:0:0:0:
208,120,87830,1,8,0:0:0:0:
