osu file format v14

[General]
AudioFilename: the heart carol.mp3
AudioLeadIn: 0
PreviewTime: -1
Countdown: 1
SampleSet: Normal
StackLeniency: 0.7
Mode: 0
LetterboxInBreaks: 0
WidescreenStoryboard: 0

[Editor]
Bookmarks: 96373
DistanceSpacing: 0.8
BeatDivisor: 4
GridSize: 4
TimelineZoom: 1

[Metadata]
Title:Pony Jump Training Compillation
TitleUnicode:Pony Jump Training Compillation
Artist:various artist
ArtistUnicode:various artist
Creator:Elirac
Version:The Heart Carol (174UDSI Remix)
Source:
Tags:mlp
BeatmapID:1831125
BeatmapSetID:876135

[Difficulty]
HPDrainRate:4
CircleSize:4
OverallDifficulty:7
ApproachRate:8
SliderMultiplier:1.5
SliderTickRate:1

[Events]
//Background and Video events
0,0,"bg.jpg",0,0
//Break Periods
//Storyboard Layer 0 (Background)
//Storyboard Layer 1 (Fail)
//Storyboard Layer 2 (Pass)
//Storyboard Layer 3 (Foreground)
//Storyboard Layer 4 (Overlay)
//Storyboard Sound Samples

[TimingPoints]
10,454.545454545455,4,1,0,50,1,0
10,-90.9090909090909,4,1,0,50,0,0
30919,-58.8235294117647,4,1,0,50,0,1
58191,-58.8235294117647,4,1,0,50,0,0
100010,-58.8235294117647,4,1,0,50,0,1
129100,-64.5161290322581,4,1,0,50,0,0

[Colours]
Combo1 : 182,207,5
Combo2 : 21,87,51
Combo3 : 236,104,17
Combo4 : 176,11,23

[HitObjects]
148,120,10,5,0,0:0:0:0:
189,292,464,1,0,0:0:0:0:
56,194,919,1,0,0:0:0:0:
228,153,1373,1,0,0:0:0:0:
405,329,1828,5,0,0:0:0:0:
408,186,2055,1,0,0:0:0:0:
299,257,2282,1,0,0:0:0:0:
300,121,2510,1,0,0:0:0:0:
162,65,2737,2,0,P|142:128|163:227,1,165.000005035401
217,342,3419,5,0,0:0:0:0:
328,334,3646,1,0,0:0:0:0:
421,262,3873,1,0,0:0:0:0:
269,284,4100,1,0,0:0:0:0:
303,63,4555,1,0,0:0:0:0:
70,58,5010,5,0,0:0:0:0:
83,192,5237,1,0,0:0:0:0:
192,113,5464,1,0,0:0:0:0:
24,130,5691,1,0,0:0:0:0:
79,244,5919,1,0,0:0:0:0:
194,188,6146,1,0,0:0:0:0:
138,73,6373,2,0,P|186:28|290:32,1,165.000005035401
355,319,7282,5,0,0:0:0:0:
408,97,7737,1,0,0:0:0:0:
397,343,8191,1,0,0:0:0:0:
373,68,8646,1,0,0:0:0:0:
155,194,9100,5,0,0:0:0:0:
251,284,9328,1,0,0:0:0:0:
260,145,9555,1,0,0:0:0:0:
177,266,9782,1,0,0:0:0:0:
295,216,10010,2,0,P|335:172|336:127,1,82.5000025177003
314,57,10464,5,0,0:0:0:0:
234,20,10691,1,0,0:0:0:0:
144,22,10919,1,0,0:0:0:0:
72,85,11146,1,0,0:0:0:0:
144,22,11373,1,0,0:0:0:0:
72,85,11600,1,0,0:0:0:0:
76,178,11828,2,0,P|107:207|231:196,1,165.000005035401
268,78,12510,5,0,0:0:0:0:
307,199,12737,1,0,0:0:0:0:
355,55,12964,1,0,0:0:0:0:
394,176,13191,1,0,0:0:0:0:
243,319,13646,2,0,P|302:336|400:299,1,165.000005035401
268,78,14555,5,0,0:0:0:0:
123,36,14782,1,0,0:0:0:0:
165,117,15010,1,0,0:0:0:0:
44,203,15237,1,0,0:0:0:0:
138,211,15464,1,0,0:0:0:0:
79,359,15691,1,0,0:0:0:0:
170,328,15919,1,0,0:0:0:0:
325,368,16146,1,0,0:0:0:0:
381,244,16373,5,0,0:0:0:0:
381,97,16600,1,0,0:0:0:0:
294,215,16828,1,0,0:0:0:0:
434,170,17055,1,0,0:0:0:0:
294,125,17282,2,0,P|223:114|125:164,1,165.000005035401
155,285,17964,5,0,0:0:0:0:
287,309,18191,1,0,0:0:0:0:
225,204,18419,1,0,0:0:0:0:
210,351,18646,1,0,0:0:0:0:
233,22,19100,1,0,0:0:0:0:
476,169,19555,5,0,0:0:0:0:
398,264,19782,1,0,0:0:0:0:
268,245,20010,1,0,0:0:0:0:
398,264,20237,1,0,0:0:0:0:
320,359,20464,1,0,0:0:0:0:
190,340,20691,1,0,0:0:0:0:
155,216,20919,2,0,P|160:154|189:129,1,82.5000025177003
279,20,21373,2,0,P|288:69|271:123,1,82.5000025177003
159,51,21828,5,0,0:0:0:0:
259,321,22282,1,0,0:0:0:0:
124,81,22737,1,0,0:0:0:0:
307,314,23191,1,0,0:0:0:0:
363,44,23646,5,0,0:0:0:0:
395,139,23873,1,0,0:0:0:0:
382,246,24100,1,0,0:0:0:0:
307,314,24328,1,0,0:0:0:0:
208,323,24555,1,0,0:0:0:0:
32,141,25010,5,0,0:0:0:0:
70,256,25237,1,0,0:0:0:0:
129,142,25464,1,0,0:0:0:0:
248,194,25691,1,0,0:0:0:0:
205,69,25919,1,0,0:0:0:0:
327,123,26146,1,0,0:0:0:0:
441,63,26373,2,0,P|461:161|446:255,1,165.000005035401
360,320,27055,5,0,0:0:0:0:
342,197,27282,1,0,0:0:0:0:
265,295,27510,1,0,0:0:0:0:
247,172,27737,2,0,L|238:82,1,82.5000025177003
152,180,28191,2,0,P|123:133|80:204,1,165.000005035401
256,192,29100,12,0,30464,0:0:0:0:
256,192,30919,5,0,0:0:0:0:
350,269,31146,1,0,0:0:0:0:
428,118,31373,1,0,0:0:0:0:
334,195,31600,1,0,0:0:0:0:
211,278,31828,1,0,0:0:0:0:
117,355,32055,1,0,0:0:0:0:
39,204,32282,1,0,0:0:0:0:
133,281,32510,1,0,0:0:0:0:
302,312,32737,6,0,P|331:266|328:178,1,127.50000243187
237,58,33191,1,0,0:0:0:0:
150,192,33419,1,0,0:0:0:0:
324,108,33646,2,0,P|404:113|446:78,1,127.50000243187
330,247,34100,6,0,P|383:215|445:225,1,127.50000243187
350,347,34555,1,0,0:0:0:0:
246,280,34782,1,0,0:0:0:0:
330,143,35010,1,0,0:0:0:0:
205,158,35237,1,0,0:0:0:0:
311,38,35464,1,0,0:0:0:0:
185,33,35691,1,0,0:0:0:0:
45,126,35919,6,0,P|37:195|55:252,1,127.50000243187
221,295,36373,1,0,0:0:0:0:
54,290,36600,1,0,0:0:0:0:
214,249,36828,2,0,P|222:171|199:111,1,127.50000243187
46,18,37282,1,0,0:0:0:0:
124,147,37510,1,0,0:0:0:0:
270,60,37737,2,0,P|322:100|346:39,1,127.50000243187
403,212,38191,5,0,0:0:0:0:
290,268,38419,1,0,0:0:0:0:
434,337,38646,1,0,0:0:0:0:
311,350,38873,1,0,0:0:0:0:
268,191,39100,2,0,P|188:178|156:123,1,127.50000243187
270,60,39555,2,0,P|350:73|382:128,1,127.50000243187
362,260,40010,5,0,0:0:0:0:
251,317,40237,1,0,0:0:0:0:
95,285,40464,1,0,0:0:0:0:
214,242,40691,1,0,0:0:0:0:
77,157,40919,2,0,P|99:83|67:22,1,127.50000243187
239,30,41373,1,0,0:0:0:0:
173,135,41600,1,0,0:0:0:0:
328,111,41828,6,0,P|333:177|296:241,1,127.50000243187
155,302,42282,1,0,0:0:0:0:
210,197,42510,1,0,0:0:0:0:
268,345,42737,1,0,0:0:0:0:
386,320,42964,1,0,0:0:0:0:
231,276,43191,2,0,P|302:240|306:175,1,127.50000243187
237,46,43646,6,0,P|179:68|159:126,1,127.50000243187
323,149,44100,1,0,0:0:0:0:
168,173,44328,1,0,0:0:0:0:
318,98,44555,2,0,P|370:63|297:42,1,127.50000243187
247,150,45010,5,0,0:0:0:0:
319,248,45237,1,0,0:0:0:0:
436,193,45464,2,0,P|365:165|302:188,1,127.50000243187
178,307,45919,2,0,P|249:335|312:312,1,127.50000243187
247,150,46373,2,0,P|176:122|113:145,1,127.50000243187
122,319,46828,6,0,L|188:188,1,127.50000243187
320,56,47282,2,0,P|334:135|300:198,1,127.50000243187
176,326,47737,2,0,P|162:247|196:184,1,127.50000243187
339,209,48191,1,0,0:0:0:0:
160,169,48419,1,0,0:0:0:0:
350,250,48646,2,0,P|324:312|252:320,1,127.50000243187
186,141,49100,6,0,P|221:89|246:148,1,127.50000243187
189,323,49555,2,0,P|154:375|129:316,1,127.50000243187
81,200,50010,2,0,P|102:263|154:249,1,127.50000243187
313,291,50464,6,0,L|352:159,1,127.50000243187
176,39,50919,1,0,0:0:0:0:
151,254,51146,1,0,0:0:0:0:
350,169,51373,1,0,0:0:0:0:
226,154,51600,1,0,0:0:0:0:
303,334,51828,2,0,P|376:343|435:316,1,127.50000243187
471,158,52282,6,0,P|398:149|339:176,1,127.50000243187
303,334,52737,2,0,P|376:343|435:316,1,127.50000243187
255,230,53191,1,0,0:0:0:0:
445,244,53419,1,0,0:0:0:0:
278,131,53646,2,0,P|296:68|249:6,1,127.50000243187
125,143,54100,2,0,P|107:206|154:268,1,127.50000243187
256,192,54555,12,0,57737,0:0:0:0:
256,192,58191,6,0,P|185:195|139:166,1,116.250000886917
283,63,58646,2,0,P|286:134|257:180,1,116.250000886917
154,36,59100,2,0,P|225:33|271:62,1,116.250000886917
127,165,59555,2,0,P|124:94|153:48,1,116.250000886917
264,171,60010,5,0,0:0:0:0:
175,269,60237,1,0,0:0:0:0:
86,367,60464,1,0,0:0:0:0:
195,292,60691,1,0,0:0:0:0:
304,217,60919,2,0,P|357:241|376:294,1,116.250000886917
215,315,61373,1,0,0:0:0:0:
201,177,61600,5,0,0:0:0:0:
324,133,61828,1,0,0:0:0:0:
201,177,62055,1,0,0:0:0:0:
78,133,62282,2,0,P|74:72|110:13,1,116.250000886917
260,0,62737,2,0,P|264:61|228:120,1,116.250000886917
116,199,63191,5,0,0:0:0:0:
188,335,63419,1,0,0:0:0:0:
276,180,63646,1,0,0:0:0:0:
326,354,63873,1,0,0:0:0:0:
391,199,64100,1,0,0:0:0:0:
445,355,64328,1,0,0:0:0:0:
498,184,64555,2,0,P|499:81|398:8,1,232.500001773834
397,127,65237,1,0,0:0:0:0:
257,220,65464,6,0,P|221:165|247:96,1,116.250000886917
397,127,65919,2,0,P|433:182|407:251,1,116.250000886917
303,338,66373,2,0,P|218:321|202:286,1,116.250000886917
332,178,66828,2,0,P|316:246|265:266,1,116.250000886917
115,131,67282,5,0,0:0:0:0:
244,22,67510,1,0,0:0:0:0:
204,187,67737,1,0,0:0:0:0:
140,30,67964,1,0,0:0:0:0:
284,119,68191,2,0,P|351:121|392:87,1,116.250000886917
244,22,68646,5,0,0:0:0:0:
204,187,68873,1,0,0:0:0:0:
164,352,69100,1,0,0:0:0:0:
327,305,69328,1,0,0:0:0:0:
204,187,69555,1,0,0:0:0:0:
81,69,69782,1,0,0:0:0:0:
244,22,70010,2,0,P|242:74|309:124,1,116.250000886917
434,84,70464,1,0,0:0:0:0:
362,224,70691,5,0,0:0:0:0:
351,48,70919,1,0,0:0:0:0:
364,235,71146,1,0,0:0:0:0:
350,37,71373,1,0,0:0:0:0:
357,136,71600,1,0,0:0:0:0:
202,84,71828,2,0,P|180:146|202:203,1,116.250000886917
288,321,72282,6,0,L|149:305,1,116.250000886917
78,178,72737,2,0,L|193:191,1,116.250000886917
317,97,73191,2,0,L|178:81,1,116.250000886917
315,208,73646,2,0,L|430:221,1,116.250000886917
288,321,74100,2,0,L|149:305,1,116.250000886917
39,223,74555,6,0,P|29:146|67:80,1,116.250000886917
175,36,75010,1,0,0:0:0:0:
150,175,75237,1,0,0:0:0:0:
84,28,75464,1,0,0:0:0:0:
366,31,75919,6,0,P|376:106|354:157,1,116.250000886917
259,258,76373,2,0,P|266:322|307:359,1,116.250000886917
403,330,76828,1,0,0:0:0:0:
423,227,77055,1,0,0:0:0:0:
362,142,77282,2,0,P|302:117|233:130,1,116.250000886917
259,258,77737,5,0,0:0:0:0:
204,126,77964,1,0,0:0:0:0:
365,40,78191,1,0,0:0:0:0:
358,222,78419,1,0,0:0:0:0:
204,126,78646,2,0,P|128:111|77:137,1,116.250000886917
147,310,79100,2,0,P|185:237|168:186,1,116.250000886917
30,269,79555,1,0,0:0:0:0:
147,310,79782,5,0,0:0:0:0:
278,271,80010,2,0,L|305:134,1,116.250000886917
402,265,80464,2,0,L|429:128,1,116.250000886917
277,141,80919,2,0,L|304:4,1,116.250000886917
138,87,81373,6,0,P|194:114|252:105,1,116.250000886917
177,231,81828,2,0,P|203:283|188:344,1,116.250000886917
82,325,82282,1,0,0:0:0:0:
27,229,82510,1,0,0:0:0:0:
34,119,82737,2,0,P|86:108|150:141,1,116.250000886917
177,231,83191,1,0,0:0:0:0:
412,351,83646,6,0,P|435:291|417:228,1,116.250000886917
291,155,84100,1,0,0:0:0:0:
313,269,84328,1,0,0:0:0:0:
400,136,84555,1,0,0:0:0:0:
282,64,84782,1,0,0:0:0:0:
214,230,85010,2,0,P|287:226|315:187,1,116.250000886917
189,50,85464,6,0,P|185:124|220:160,1,116.250000886917
390,84,85919,2,0,P|332:58|259:75,1,116.250000886917
313,242,86373,2,0,P|357:193|349:140,1,116.250000886917
209,153,86828,6,0,L|203:273,1,116.250000886917
70,194,87282,2,0,L|64:314,1,116.250000886917
129,384,87737,2,0,L|134:267,1,116.250000886917
52,183,88191,2,0,L|46:303,1,116.250000886917
208,348,88646,6,0,P|276:344|312:303,1,116.250000886917
249,161,89100,2,0,P|278:94|333:72,1,116.250000886917
370,226,89555,2,0,P|311:241|236:221,1,116.250000886917
142,126,90010,5,0,0:0:0:0:
235,0,90237,1,0,0:0:0:0:
249,161,90464,2,0,L|117:209,1,116.250000886917
238,334,90919,6,0,P|268:256|255:229,1,116.250000886917
358,106,91373,2,0,P|346:170|386:222,1,116.250000886917
229,131,91828,2,0,P|237:74|204:22,1,116.250000886917
61,104,92282,6,0,L|84:229,1,116.250000886917
229,334,92737,1,0,0:0:0:0:
255,148,92964,1,0,0:0:0:0:
82,218,93191,2,0,L|205:274,1,116.250000886917
360,196,93646,2,0,L|254:147,1,116.250000886917
351,302,94100,6,0,P|375:241|351:186,1,116.250000886917
171,92,94555,2,0,P|156:160|176:212,1,116.250000886917
351,302,95010,1,0,0:0:0:0:
461,232,95237,1,0,0:0:0:0:
481,103,95464,6,0,P|420:78|361:94,1,116.250000886917
263,191,95919,2,0,P|324:216|383:200,1,116.250000886917
256,192,96373,12,0,99555,0:0:0:0:
349,321,100010,6,0,L|372:186,1,127.50000243187
266,48,100464,2,0,L|244:173,1,127.50000243187
97,278,100919,2,0,L|232:301,1,127.50000243187
370,195,101373,2,0,L|244:173,1,127.50000243187
97,278,101828,5,0,0:0:0:0:
23,167,102055,1,0,0:0:0:0:
192,121,102282,1,0,0:0:0:0:
72,67,102510,1,0,0:0:0:0:
167,229,102737,2,0,P|221:264|298:255,1,116.250000886917
355,212,103191,1,0,0:0:0:0:
281,82,103419,1,0,0:0:0:0:
463,69,103646,5,0,0:0:0:0:
355,212,103873,1,0,0:0:0:0:
422,355,104100,2,0,P|456:307|451:216,1,127.50000243187
311,321,104555,2,0,P|277:273|282:182,1,127.50000243187
379,59,105010,1,0,0:0:0:0:
201,50,105237,1,0,0:0:0:0:
274,207,105464,5,0,0:0:0:0:
96,198,105691,1,0,0:0:0:0:
207,337,105919,1,0,0:0:0:0:
216,159,106146,1,0,0:0:0:0:
374,130,106373,2,0,P|411:226|334:370,1,255.000004863739
286,297,107055,1,0,0:0:0:0:
207,337,107282,6,0,L|74:295,1,127.50000243187
94,120,107737,2,0,L|215:158,1,127.50000243187
44,269,108191,2,0,P|34:194|63:140,1,127.50000243187
259,187,108646,2,0,P|269:262|240:316,1,127.50000243187
156,140,109100,5,0,0:0:0:0:
225,56,109328,1,0,0:0:0:0:
332,41,109555,1,0,0:0:0:0:
437,68,109782,1,0,0:0:0:0:
512,146,110010,2,0,P|470:188|386:188,1,127.50000243187
239,138,110464,1,0,0:0:0:0:
171,290,110691,1,0,0:0:0:0:
319,364,110919,5,0,0:0:0:0:
387,212,111146,1,0,0:0:0:0:
355,84,111373,1,0,0:0:0:0:
287,236,111600,1,0,0:0:0:0:
280,66,111828,2,0,P|207:37|53:121,1,255.000004863739
71,258,112510,1,0,0:0:0:0:
139,148,112737,5,0,0:0:0:0:
88,269,112964,1,0,0:0:0:0:
211,238,113191,2,0,P|376:269|429:369,1,255.000004863739
343,41,114100,1,0,0:0:0:0:
87,231,114555,6,0,P|165:247|221:233,1,127.50000243187
307,338,115010,2,0,P|354:274|365:217,1,127.50000243187
304,116,115464,2,0,P|226:100|170:114,1,127.50000243187
84,9,115919,2,0,P|36:72|25:129,1,127.50000243187
60,285,116373,5,0,0:0:0:0:
148,154,116600,1,0,0:0:0:0:
178,336,116828,1,0,0:0:0:0:
234,209,117055,1,0,0:0:0:0:
341,329,117282,2,0,P|404:328|469:268,1,127.50000243187
446,189,117737,1,0,0:0:0:0:
322,52,117964,1,0,0:0:0:0:
334,212,118191,5,0,0:0:0:0:
453,97,118419,1,0,0:0:0:0:
285,137,118646,2,0,P|224:140|157:116,1,127.50000243187
50,244,119100,2,0,P|121:232|182:264,1,127.50000243187
303,338,119555,1,0,0:0:0:0:
457,331,119782,1,0,0:0:0:0:
303,338,120010,5,0,0:0:0:0:
425,227,120237,1,0,0:0:0:0:
303,338,120464,1,0,0:0:0:0:
330,172,120691,1,0,0:0:0:0:
303,338,120919,2,0,P|238:348|183:322,1,127.50000243187
173,174,121373,1,0,0:0:0:0:
466,53,121828,6,0,P|491:128|459:186,1,127.50000243187
311,219,122282,2,0,P|287:274|313:351,1,127.50000243187
385,157,122737,2,0,P|315:125|252:147,1,127.50000243187
167,267,123191,2,0,P|79:278|36:240,1,127.50000243187
46,96,123646,5,0,0:0:0:0:
164,39,123873,1,0,0:0:0:0:
129,171,124100,1,0,0:0:0:0:
268,136,124328,1,0,0:0:0:0:
401,210,124555,2,0,P|477:202|516:157,1,127.50000243187
357,138,125010,1,0,0:0:0:0:
372,293,125237,1,0,0:0:0:0:
226,217,125464,5,0,0:0:0:0:
401,210,125691,1,0,0:0:0:0:
402,55,125919,1,0,0:0:0:0:
317,181,126146,1,0,0:0:0:0:
231,51,126373,2,0,P|160:41|86:192,1,255.000004863739
208,281,127055,1,0,0:0:0:0:
205,117,127282,5,0,0:0:0:0:
115,257,127510,1,0,0:0:0:0:
317,181,127737,1,0,0:0:0:0:
453,337,128191,2,0,P|371:340|448:252,1,255.000004863739
345,42,129100,5,0,0:0:0:0:
305,334,129555,1,0,0:0:0:0:
211,77,130010,1,0,0:0:0:0:
148,266,130464,1,0,0:0:0:0:
86,129,130919,5,0,0:0:0:0:
129,167,131146,1,0,0:0:0:0:
186,170,131373,1,0,0:0:0:0:
242,158,131600,1,0,0:0:0:0:
297,172,131828,1,0,0:0:0:0:
425,311,132510,5,0,0:0:0:0:
370,330,132737,1,0,0:0:0:0:
320,301,132964,1,0,0:0:0:0:
312,244,133191,1,0,0:0:0:0:
474,43,133646,1,0,0:0:0:0:
248,44,134100,5,0,0:0:0:0:
259,101,134328,1,0,0:0:0:0:
246,156,134555,1,0,0:0:0:0:
206,199,134782,1,0,0:0:0:0:
151,218,135010,1,0,0:0:0:0:
92,209,135237,1,0,0:0:0:0:
47,171,135464,1,0,0:0:0:0:
319,38,136373,5,0,0:0:0:0:
288,356,136828,1,0,0:0:0:0:
259,115,137282,1,0,0:0:0:0:
336,255,137737,1,0,0:0:0:0:
142,309,138191,5,0,0:0:0:0:
178,261,138419,1,0,0:0:0:0:
190,202,138646,1,0,0:0:0:0:
179,144,138873,1,0,0:0:0:0:
145,97,139100,1,0,0:0:0:0:
369,33,139555,5,0,0:0:0:0:
334,79,139782,1,0,0:0:0:0:
318,135,140009,1,0,0:0:0:0:
323,192,140236,1,0,0:0:0:0:
347,244,140464,1,0,0:0:0:0:
389,285,140691,1,0,0:0:0:0:
442,308,140918,1,0,0:0:0:0:
191,296,141600,5,0,0:0:0:0:
155,220,141828,1,0,0:0:0:0:
162,135,142055,1,0,0:0:0:0:
208,65,142282,1,0,0:0:0:0:
469,186,142737,1,0,0:0:0:0:
256,192,143419,12,0,145464,0:0:0:0:
