osu file format v14

[General]
AudioFilename: For The New Lunar Republic.mp3
AudioLeadIn: 0
PreviewTime: 44618
Countdown: 1
SampleSet: Normal
StackLeniency: 0.7
Mode: 0
LetterboxInBreaks: 0
WidescreenStoryboard: 1

[Editor]
DistanceSpacing: 0.8
BeatDivisor: 4
GridSize: 4
TimelineZoom: 1

[Metadata]
Title:Pony Jump Training Compillation
TitleUnicode:Pony Jump Training Compillation
Artist:various artist
ArtistUnicode:various artist
Creator:Elirac
Version:For The New Lunar Republic (Not A Clever Pony)
Source:
Tags:mlp
BeatmapID:3028478
BeatmapSetID:876135

[Difficulty]
HPDrainRate:5
CircleSize:4.3
OverallDifficulty:7.2
ApproachRate:8
SliderMultiplier:1.4
SliderTickRate:1

[Events]
//Background and Video events
0,0,"bg luna.jpg",0,0
//Break Periods
//Storyboard Layer 0 (Background)
//Storyboard Layer 1 (Fail)
//Storyboard Layer 2 (Pass)
//Storyboard Layer 3 (Foreground)
//Storyboard Layer 4 (Overlay)
//Storyboard Sound Samples

[TimingPoints]
0,508.474576271186,4,1,0,40,1,0
81355,-151.515151515152,4,1,0,40,0,0

[HitObjects]
140,274,16271,5,0,0:0:0:0:
362,320,16779,1,0,0:0:0:0:
408,98,17288,1,0,0:0:0:0:
186,52,17796,1,0,0:0:0:0:
209,332,18305,5,0,0:0:0:0:
420,250,18813,1,0,0:0:0:0:
338,39,19322,1,0,0:0:0:0:
127,121,19830,1,0,0:0:0:0:
299,344,20338,5,0,0:0:0:0:
432,160,20846,1,0,0:0:0:0:
248,27,21355,1,0,0:0:0:0:
115,211,21863,1,0,0:0:0:0:
381,304,22372,5,0,0:0:0:0:
392,78,22880,1,0,0:0:0:0:
166,67,23389,1,0,0:0:0:0:
155,293,23897,1,0,0:0:0:0:
326,244,24406,5,0,0:0:0:0:
212,238,24915,1,0,0:0:0:0:
218,125,25423,1,0,0:0:0:0:
331,130,25932,1,0,0:0:0:0:
212,238,26440,5,0,0:0:0:0:
99,233,26949,1,0,0:0:0:0:
93,346,27457,1,0,0:0:0:0:
207,352,27966,1,0,0:0:0:0:
218,125,28474,5,0,0:0:0:0:
104,119,28983,1,0,0:0:0:0:
110,6,29491,1,0,0:0:0:0:
223,11,30000,1,0,0:0:0:0:
356,301,32542,5,0,0:0:0:0:
398,201,32796,1,0,0:0:0:0:
298,159,33050,1,0,0:0:0:0:
256,259,33305,1,0,0:0:0:0:
156,301,33559,1,0,0:0:0:0:
114,201,33813,1,0,0:0:0:0:
214,159,34067,1,0,0:0:0:0:
256,259,34322,1,0,0:0:0:0:
377,281,34576,5,0,0:0:0:0:
424,91,34830,1,0,0:0:0:0:
234,43,35084,1,0,0:0:0:0:
194,241,35338,1,0,0:0:0:0:
194,241,35465,1,0,0:0:0:0:
194,241,35592,1,0,0:0:0:0:
234,43,35847,1,0,0:0:0:0:
424,91,36101,1,0,0:0:0:0:
384,288,36355,1,0,0:0:0:0:
384,288,36483,1,0,0:0:0:0:
384,288,36610,5,0,0:0:0:0:
426,188,36864,1,0,0:0:0:0:
326,146,37118,1,0,0:0:0:0:
284,246,37373,1,0,0:0:0:0:
142,304,37627,1,0,0:0:0:0:
242,346,37881,1,0,0:0:0:0:
284,246,38135,1,0,0:0:0:0:
184,204,38389,1,0,0:0:0:0:
142,304,38644,5,0,0:0:0:0:
177,104,38898,1,0,0:0:0:0:
377,139,39152,1,0,0:0:0:0:
348,346,39406,1,0,0:0:0:0:
348,346,39533,1,0,0:0:0:0:
348,346,39660,1,0,0:0:0:0:
377,139,39915,1,0,0:0:0:0:
177,104,40169,1,0,0:0:0:0:
149,311,40423,1,0,0:0:0:0:
149,311,40550,1,0,0:0:0:0:
149,311,40677,5,0,0:0:0:0:
216,199,40932,1,0,0:0:0:0:
106,130,41186,1,0,0:0:0:0:
37,241,41441,1,0,0:0:0:0:
283,311,41694,1,0,0:0:0:0:
216,199,41949,1,0,0:0:0:0:
326,130,42203,1,0,0:0:0:0:
395,241,42457,1,0,0:0:0:0:
283,311,42711,5,0,0:0:0:0:
484,289,42966,1,0,0:0:0:0:
463,87,43220,1,0,0:0:0:0:
268,116,43474,1,0,0:0:0:0:
268,116,43601,1,0,0:0:0:0:
268,116,43728,1,0,0:0:0:0:
463,87,43983,1,0,0:0:0:0:
484,289,44237,1,0,0:0:0:0:
290,318,44491,1,0,0:0:0:0:
290,318,44618,1,0,0:0:0:0:
290,318,44745,5,0,0:0:0:0:
323,191,45000,1,0,0:0:0:0:
198,155,45254,1,0,0:0:0:0:
163,281,45509,1,0,0:0:0:0:
323,191,45762,1,0,0:0:0:0:
356,64,46017,1,0,0:0:0:0:
231,28,46271,1,0,0:0:0:0:
196,154,46526,1,0,0:0:0:0:
333,265,46779,5,0,0:0:0:0:
356,64,47034,1,0,0:0:0:0:
155,39,47288,1,0,0:0:0:0:
139,235,47542,1,0,0:0:0:0:
139,235,47669,1,0,0:0:0:0:
139,235,47796,1,0,0:0:0:0:
155,39,48050,1,0,0:0:0:0:
356,64,48305,1,0,0:0:0:0:
340,272,48559,1,0,0:0:0:0:
340,272,48686,1,0,0:0:0:0:
339,271,48813,5,0,0:0:0:0:
339,164,49067,1,0,0:0:0:0:
232,164,49322,1,0,0:0:0:0:
232,271,49576,1,0,0:0:0:0:
365,297,49829,5,0,0:0:0:0:
365,137,50083,1,0,0:0:0:0:
205,137,50338,1,0,0:0:0:0:
205,297,50592,1,0,0:0:0:0:
401,331,50847,5,0,0:0:0:0:
401,118,51101,1,0,0:0:0:0:
188,118,51356,1,0,0:0:0:0:
188,331,51610,1,0,0:0:0:0:
449,378,51864,5,0,0:0:0:0:
449,94,52118,1,0,0:0:0:0:
165,94,52373,1,0,0:0:0:0:
165,378,52627,1,0,0:0:0:0:
314,322,52881,5,0,0:0:0:0:
314,38,53135,1,0,0:0:0:0:
30,38,53390,1,0,0:0:0:0:
30,322,53644,1,0,0:0:0:0:
198,322,53898,5,0,0:0:0:0:
198,38,54152,1,0,0:0:0:0:
482,38,54407,1,0,0:0:0:0:
482,322,54661,1,0,0:0:0:0:
314,322,54915,5,0,0:0:0:0:
314,38,55169,1,0,0:0:0:0:
30,38,55424,1,0,0:0:0:0:
30,322,55678,1,0,0:0:0:0:
198,322,55932,5,0,0:0:0:0:
198,38,56186,1,0,0:0:0:0:
482,38,56441,1,0,0:0:0:0:
482,322,56695,1,0,0:0:0:0:
107,52,56949,5,0,0:0:0:0:
107,151,57203,1,0,0:0:0:0:
206,151,57458,1,0,0:0:0:0:
206,52,57712,1,0,0:0:0:0:
490,336,57966,5,0,0:0:0:0:
490,237,58220,1,0,0:0:0:0:
391,237,58475,1,0,0:0:0:0:
391,336,58729,1,0,0:0:0:0:
34,345,58983,5,0,0:0:0:0:
34,246,59237,1,0,0:0:0:0:
133,246,59492,1,0,0:0:0:0:
133,345,59746,1,0,0:0:0:0:
479,24,60000,5,0,0:0:0:0:
479,123,60254,1,0,0:0:0:0:
380,123,60509,1,0,0:0:0:0:
380,24,60763,1,0,0:0:0:0:
34,246,61016,5,0,0:0:0:0:
34,108,61270,1,0,0:0:0:0:
173,108,61525,1,0,0:0:0:0:
173,246,61779,1,0,0:0:0:0:
476,355,62033,5,0,0:0:0:0:
476,217,62287,1,0,0:0:0:0:
337,217,62542,1,0,0:0:0:0:
337,355,62796,1,0,0:0:0:0:
249,30,63050,5,0,0:0:0:0:
111,30,63304,1,0,0:0:0:0:
111,169,63559,1,0,0:0:0:0:
249,169,63813,1,0,0:0:0:0:
476,284,64067,5,0,0:0:0:0:
338,284,64321,1,0,0:0:0:0:
338,145,64576,1,0,0:0:0:0:
476,145,64830,1,0,0:0:0:0:
55,116,65084,5,0,0:0:0:0:
235,116,65338,1,0,0:0:0:0:
235,297,65593,1,0,0:0:0:0:
55,297,65847,1,0,0:0:0:0:
415,116,66101,5,0,0:0:0:0:
235,116,66355,1,0,0:0:0:0:
235,297,66610,1,0,0:0:0:0:
415,297,66864,1,0,0:0:0:0:
0,95,67118,5,0,0:0:0:0:
229,95,67372,1,0,0:0:0:0:
229,325,67627,1,0,0:0:0:0:
0,325,67881,1,0,0:0:0:0:
458,95,68135,5,0,0:0:0:0:
229,95,68389,1,0,0:0:0:0:
229,325,68644,1,0,0:0:0:0:
458,325,68898,1,0,0:0:0:0:
107,336,69152,5,0,0:0:0:0:
107,52,69406,1,0,0:0:0:0:
391,52,69661,1,0,0:0:0:0:
391,336,69915,1,0,0:0:0:0:
48,188,70169,5,0,0:0:0:0:
249,0,70423,1,0,0:0:0:0:
450,188,70678,1,0,0:0:0:0:
249,389,70932,1,0,0:0:0:0:
107,336,71186,5,0,0:0:0:0:
107,52,71440,1,0,0:0:0:0:
391,52,71695,1,0,0:0:0:0:
391,336,71949,1,0,0:0:0:0:
48,188,72203,5,0,0:0:0:0:
249,0,72457,1,0,0:0:0:0:
450,188,72712,1,0,0:0:0:0:
249,389,72966,1,0,0:0:0:0:
450,188,73220,5,0,0:0:0:0:
249,0,73474,1,0,0:0:0:0:
48,188,73729,1,0,0:0:0:0:
249,389,73983,1,0,0:0:0:0:
391,52,74237,5,0,0:0:0:0:
107,52,74491,1,0,0:0:0:0:
107,336,74746,1,0,0:0:0:0:
391,336,75000,1,0,0:0:0:0:
450,188,75254,5,0,0:0:0:0:
249,0,75508,1,0,0:0:0:0:
48,188,75763,1,0,0:0:0:0:
249,389,76017,1,0,0:0:0:0:
391,52,76271,5,0,0:0:0:0:
107,52,76525,1,0,0:0:0:0:
107,336,76780,1,0,0:0:0:0:
391,336,77034,1,0,0:0:0:0:
339,284,77288,5,0,0:0:0:0:
158,284,77542,1,0,0:0:0:0:
158,103,77797,1,0,0:0:0:0:
339,103,78051,1,0,0:0:0:0:
289,153,78305,5,0,0:0:0:0:
208,153,78559,1,0,0:0:0:0:
208,234,78814,1,0,0:0:0:0:
289,234,79068,1,0,0:0:0:0:
339,284,79322,5,0,0:0:0:0:
158,284,79576,1,0,0:0:0:0:
158,103,79831,1,0,0:0:0:0:
339,103,80085,1,0,0:0:0:0:
289,153,80338,5,0,0:0:0:0:
208,153,80592,1,0,0:0:0:0:
208,234,80847,1,0,0:0:0:0:
289,234,81101,1,0,0:0:0:0:
77,40,81355,6,0,L|77:326,1,277.199999154053
